osu file format v14

[General]
AudioFilename: Amber Wishes by ice.mp3
AudioLeadIn: 0
PreviewTime: 29820
Countdown: 0
SampleSet: Soft
StackLeniency: 0.7
Mode: 0
LetterboxInBreaks: 0
WidescreenStoryboard: 0

[Editor]
DistanceSpacing: 1.2
BeatDivisor: 2
GridSize: 4
TimelineZoom: 1.5

[Metadata]
Title:Amber Wishes
TitleUnicode:Amber Wishes
Artist:Ice
ArtistUnicode:Ice
Creator:JBHyperion
Version:Normal
Source:
Tags:iceloki hard renaissance hardcore piano happy birthday to you celebration DavidEd Nekomata toybot Sc4v4ng3r Nwolf Ntiger Nardoxyribonucleic ZiRoX Withered Lotus Magic Bomb MBomb
BeatmapID:895502
BeatmapSetID:412859

[Difficulty]
HPDrainRate:4
CircleSize:3
OverallDifficulty:4
ApproachRate:5.5
SliderMultiplier:0.8
SliderTickRate:2

[Events]
//Background and Video events
0,0,"amber wishes.jpg",0,0
//Break Periods
//Storyboard Layer 0 (Background)
//Storyboard Layer 1 (Fail)
//Storyboard Layer 2 (Pass)
//Storyboard Layer 3 (Foreground)
//Storyboard Sound Samples

[TimingPoints]
282,307.692307692308,4,2,1,20,1,0
2743,-100,4,2,1,30,0,0
3358,-100,4,2,1,40,0,0
3974,-100,4,2,1,50,0,0
5205,-100,4,2,1,70,0,1
12589,-100,4,2,1,75,0,1
15051,-100,4,2,1,65,0,1
17512,-100,4,2,1,80,0,1
19358,-100,4,2,1,65,0,1
21205,-100,4,2,1,70,0,1
22435,-100,4,2,1,75,0,1
23666,-100,4,2,1,80,0,1
24897,-100,4,2,1,90,0,1
29820,-100,4,2,1,60,0,0
66743,-100,4,2,1,65,0,0
67974,-100,4,2,1,75,0,0
69205,-100,4,2,1,40,0,0
70128,-100,4,2,2,75,0,0
70435,-100,4,2,1,70,0,1
77820,-100,4,2,1,75,0,1
80282,-100,4,2,1,65,0,1
82743,-100,4,2,1,80,0,1
84589,-100,4,2,1,65,0,1
86435,-100,4,2,1,70,0,1
87666,-100,4,2,1,75,0,1
88897,-100,4,2,1,80,0,1
90128,-100,4,2,1,85,0,1
91358,-100,4,2,1,90,0,1
92282,-100,4,2,2,70,0,0
92589,-100,4,2,1,80,0,1
99974,-100,4,2,1,85,0,1
102435,-100,4,2,1,80,0,1
104897,-100,4,2,1,85,0,1
107358,-100,4,2,1,80,0,1
108589,-100,4,2,1,85,0,1
109820,-100,4,2,1,90,0,1
111051,-100,4,2,1,95,0,1
112282,-100,4,2,1,100,0,1
122128,-100,4,2,1,30,0,0
122743,-100,4,2,1,26,0,0
123358,-100,4,2,1,22,0,0
123974,-100,4,2,1,18,0,0
124589,-100,4,2,1,14,0,0
125205,-100,4,2,1,10,0,0
125820,-100,4,2,1,5,0,0

[Colours]
Combo1 : 255,130,0
Combo2 : 128,64,64
Combo3 : 255,100,25
Combo4 : 125,60,0

[HitObjects]
256,192,282,12,0,2128,0:0:0:0:
208,224,2743,6,0,P|255:137|302:224,1,240
256,297,3974,6,0,P|219:311|178:306,1,80,2|0,0:0|0:0,0:0:0:0:
121,240,4589,2,0,P|112:202|117:161,1,80,2|0,0:0|0:0,0:0:0:0:
161,85,5205,6,0,B|228:41|228:41|276:41,1,120,6|2,0:0|0:0,0:0:0:0:
345,85,5974,1,2,0:0:0:0:
269,129,6282,2,0,B|225:196|225:196|225:244,1,120,2|8,0:0|0:0,0:0:0:0:
277,309,7051,2,0,P|316:315|357:309,1,80,2|8,0:0|0:0,0:0:0:0:
432,266,7666,6,0,B|491:231|491:166|491:166|447:169|416:134,1,200,2|2,0:0|0:0,0:0:0:0:
485,78,8743,1,2,0:0:0:0:
401,51,9051,2,0,L|360:39,1,40,2|8,0:0|0:0,0:0:0:0:
284,81,9512,2,0,P|244:90|207:81,1,80,2|8,0:0|0:0,0:0:0:0:
128,39,10128,6,0,B|95:103|140:192|272:176,1,240,2|0,0:0|0:0,0:0:0:0:
344,144,11358,2,0,B|364:216|328:280|256:272|176:260,1,240,2|0,0:0|0:0,0:0:0:0:
108,244,12589,5,6,0:0:0:0:
12,152,13051,2,0,P|9:108|21:69,1,80,2|2,0:0|0:0,0:0:0:0:
77,8,13666,1,2,0:0:0:0:
140,124,14128,1,8,0:0:0:0:
208,180,14435,2,0,P|246:189|291:179,1,80,2|8,0:0|0:0,0:0:0:0:
248,100,15051,6,0,B|255:27|323:12,1,120,6|2,0:0|0:0,0:0:0:0:
398,50,15820,1,2,0:0:0:0:
444,124,16128,2,0,P|467:184|450:245,1,120,2|8,0:0|0:0,0:0:0:0:
376,188,16897,2,0,P|336:188|292:208,1,80,2|8,0:0|0:0,0:0:0:0:
220,244,17512,5,2,0:0:0:0:
285,358,17974,1,2,0:0:0:0:
373,358,18282,1,2,0:0:0:0:
452,320,18589,2,0,P|478:266|465:208,1,120,6|8,0:0|0:0,0:0:0:0:
439,125,19358,2,0,L|451:65,2,40,2|2|8,0:0|0:0|0:0,0:0:0:0:
376,187,19974,6,0,L|289:187,1,80,10|2,0:0|0:0,0:0:0:0:
220,144,20589,2,0,P|247:114|284:103,1,80,2|2,0:0|0:0,0:0:0:0:
367,73,21205,1,10,0:0:0:0:
356,160,21512,2,0,L|342:260,2,80,2|2|2,0:0|0:0|0:0,0:0:0:0:
439,125,22435,6,0,P|474:141|496:174,1,80,6|2,0:0|0:0,0:0:0:0:
484,260,23051,2,0,L|472:339,1,80,2|2,0:0|0:0,0:0:0:0:
392,308,23666,1,8,0:0:0:0:
308,340,23974,2,0,P|267:349|228:340,2,80,2|2|2,0:0|0:0|0:0,0:0:0:0:
268,260,24897,6,0,B|288:184|288:184|264:144,1,120,6|2,0:0|0:0,0:0:0:0:
196,100,25666,1,2,0:0:0:0:
276,60,25974,2,2,B|317:59|317:59|364:132,1,120,2|10,0:0|0:0,0:0:0:0:
428,180,26743,2,0,L|488:188,2,40,2|2|8,0:0|0:0|0:0,0:0:0:0:
348,216,27358,5,6,0:0:0:0:
220,184,27820,2,0,P|180:172|144:184,2,80,2|2|2,0:0|0:0|0:0,0:0:0:0:
247,214,28589,6,0,P|252:301|124:328,1,240,8|8,0:0|0:0,0:0:0:0:
61,284,29820,6,0,B|29:252|29:252|29:176,1,120,6|2,0:0|0:0,0:0:0:0:
90,126,30589,2,0,P|120:98|139:63,1,80,2|2,0:0|0:0,0:0:0:0:
26,24,31358,1,8,0:0:0:0:
1,100,31666,2,0,P|0:142|14:181,1,80,2|8,0:0|0:0,0:0:0:0:
60,244,32282,6,0,B|92:269|92:269|172:269,1,120,2|2,0:0|0:0,0:0:0:0:
252,269,33051,1,2,0:0:0:0:
344,192,33512,2,0,P|358:155|353:114,1,80,2|8,0:0|0:0,0:0:0:0:
287,70,34128,2,0,P|273:107|278:148,1,80,2|8,0:0|0:0,0:0:0:0:
344,192,34743,6,0,B|408:243|408:243|408:291,1,120,6|2,0:0|0:0,0:0:0:0:
356,344,35512,2,0,P|318:353|273:343,1,80,2|0,0:0|0:0,0:0:0:0:
220,288,36128,2,0,L|168:288,1,40,2|8,0:0|0:0,0:0:0:0:
108,324,36589,1,2,0:0:0:0:
16,192,37205,6,0,L|80:136,1,80,6|2,0:0|0:0,0:0:0:0:
136,88,37820,2,0,P|192:72|256:88,1,120,2|0,0:0|0:0,0:0:0:0:
196,192,38743,2,0,P|183:229|196:267,2,80,8|2|8,0:0|0:0|0:0,0:0:0:0:
244,128,39666,6,0,B|268:103|268:103|356:104,1,120,6|2,0:0|0:0,0:0:0:0:
431,123,40435,2,0,P|411:160|373:181,1,80,2|2,0:0|0:0,0:0:0:0:
272,232,41205,1,8,0:0:0:0:
200,196,41512,2,0,P|161:185|120:196,1,80,2|8,0:0|0:0,0:0:0:0:
161,265,42128,6,0,P|177:321|144:372,2,120,2|2|8,0:0|0:0|0:0,0:0:0:0:
123,194,43358,1,2,0:0:0:0:
161,123,43666,1,8,0:0:0:0:
228,166,43974,1,2,0:0:0:0:
266,95,44282,1,8,0:0:0:0:
332,140,44589,6,0,B|364:164|364:164|364:244,1,120,6|2,0:0|0:0,0:0:0:0:
344,320,45358,1,2,0:0:0:0:
272,352,45666,1,8,0:0:0:0:
192,356,45974,2,0,L|148:356,1,40,2|8,0:0|0:0,0:0:0:0:
48,232,46743,5,2,0:0:0:0:
84,160,47051,2,0,P|118:119|187:113,1,120,6|2,0:0|0:0,0:0:0:0:
160,188,47820,1,2,0:0:0:0:
216,244,48128,1,8,0:0:0:0:
292,220,48435,2,0,L|336:220,1,40,2|8,0:0|0:0,0:0:0:0:
408,240,48897,2,0,P|388:277|350:296,1,80,2|8,0:0|0:0,0:0:0:0:
284,328,49512,6,0,B|248:344|248:344|200:344,1,80,10|2,0:0|0:0,0:0:0:0:
144,296,50128,2,0,L|100:296,2,40,2|0|0,0:0|0:0|0:0,0:0:0:0:
204,240,50743,2,0,P|215:200|208:160,1,80,10|2,0:0|0:0,0:0:0:0:
142,118,51358,2,0,P|131:158|138:198,1,80,2|2,0:0|0:0,0:0:0:0:
204,240,51974,6,0,L|269:240,2,53.3333333333333,10|0|2,0:0|0:0|0:0,0:0:0:0:
230,181,52589,2,2,L|295:181,2,53.3333333333333,2|0|0,0:0|0:0|0:0,0:0:0:0:
258,123,53205,1,2,0:0:0:0:
396,44,53820,6,0,L|452:16,2,60,6|6|2,0:0|0:0|0:0,0:0:0:0:
420,84,54435,6,0,P|432:123|420:159,1,80,10|2,0:0|0:0,0:0:0:0:
352,200,55051,2,0,L|310:200,2,40,2|0|2,0:0|0:0|0:0,0:0:0:0:
420,240,55666,2,0,P|432:279|420:315,1,80,10|2,0:0|0:0,0:0:0:0:
348,352,56282,1,0,0:0:0:0:
276,316,56589,1,2,0:0:0:0:
204,352,56897,6,0,L|148:380,2,60,10|0|2,0:0|0:0|0:0,0:0:0:0:
180,312,57512,2,0,P|168:273|180:237,1,80,2|2,0:0|0:0,0:0:0:0:
216,164,58128,6,0,L|244:108,2,60,8|0|2,0:0|0:0|0:0,0:0:0:0:
176,140,58743,2,0,P|137:128|101:140,1,80,2|2,0:0|0:0,0:0:0:0:
56,208,59358,6,0,L|32:292,1,80,10|2,0:0|0:0,0:0:0:0:
96,336,59974,2,0,L|96:380,2,40,2|0|2,0:0|0:0|0:0,0:0:0:0:
156,284,60589,1,10,0:0:0:0:
216,336,60897,2,0,P|254:345|299:335,2,80,2|2|2,0:0|0:0|0:0,0:0:0:0:
256,264,61820,5,10,0:0:0:0:
320,216,62128,2,0,P|358:209|400:216,1,80,2|2,0:0|0:0,0:0:0:0:
440,284,62743,1,2,0:0:0:0:
480,216,63051,2,0,P|486:177|480:136,1,80,10|2,0:0|0:0,0:0:0:0:
440,68,63666,2,0,L|480:16,2,60,6|6|2,0:0|0:0|0:0,0:0:0:0:
412,96,64282,6,0,P|374:105|329:95,1,80,10|2,0:0|0:0,0:0:0:0:
264,60,64897,2,0,L|220:60,2,40,2|0|2,0:0|0:0|0:0,0:0:0:0:
335,97,65512,2,0,P|344:135|334:180,1,80,10|2,0:0|0:0,0:0:0:0:
292,240,66128,2,0,L|292:284,2,40,2|0|2,0:0|0:0|0:0,0:0:0:0:
254,168,66743,6,0,P|224:142|178:133,1,80,6|2,0:0|0:0,0:0:0:0:
187,213,67358,2,0,P|177:251|152:282,1,80,2|2,0:0|0:0,0:0:0:0:
81,318,67974,1,8,0:0:0:0:
16,172,68589,5,8,0:0:0:0:
56,103,68897,1,0,0:0:0:0:
136,104,69205,6,0,B|180:104|208:76|208:76|244:96|244:96|299:55|362:96,1,240,0|4,0:0|0:0,0:0:0:0:
301,161,70435,6,0,B|301:241|301:241|275:281,1,120,6|2,0:0|0:0,0:0:0:0:
197,309,71204,1,2,0:0:0:0:
269,361,71512,2,0,B|347:376|347:376|392:358,1,120,2|8,0:0|0:0,0:0:0:0:
429,285,72281,2,0,P|421:245|399:210,1,80,2|8,0:0|0:0,0:0:0:0:
315,186,72897,6,0,B|246:161|245:96|245:96|201:117|154:84,1,200,2|2,0:0|0:0,0:0:0:0:
211,17,73974,1,2,0:0:0:0:
125,22,74282,2,0,L|68:20,1,40,2|8,0:0|0:0,0:0:0:0:
18,76,74743,2,0,P|2:113|4:151,1,80,2|8,0:0|0:0,0:0:0:0:
32,236,75358,6,0,L|80:300,1,80,6|0,0:0|0:0,0:0:0:0:
164,272,75974,2,0,L|212:336,1,80,2|2,0:0|0:0,0:0:0:0:
256,336,76435,1,2,0:0:0:0:
300,336,76589,6,0,L|348:272,1,80,6|0,0:0|0:0,0:0:0:0:
432,300,77205,2,0,L|480:236,1,80,2|0,0:0|0:0,0:0:0:0:
444,156,77820,5,6,0:0:0:0:
356,56,78282,2,0,P|311:50|269:59,2,80,2|2|2,0:0|0:0|0:0,0:0:0:0:
317,182,79358,2,0,P|322:220|308:264,1,80,8|2,0:0|0:0,0:0:0:0:
228,288,79974,1,8,0:0:0:0:
144,264,80282,6,0,B|80:236|72:168,1,120,6|2,0:0|0:0,0:0:0:0:
108,92,81051,1,2,0:0:0:0:
168,160,81359,2,0,P|215:199|283:196,1,120,2|8,0:0|0:0,0:0:0:0:
245,115,82128,2,0,P|255:76|286:39,1,80,2|8,0:0|0:0,0:0:0:0:
363,19,82743,5,2,0:0:0:0:
479,83,83205,1,2,0:0:0:0:
461,169,83513,1,2,0:0:0:0:
378,199,83820,2,0,P|351:253|365:311,1,120,2|8,0:0|0:0,0:0:0:0:
439,263,84589,2,0,L|499:275,2,40,2|2|8,0:0|0:0|0:0,0:0:0:0:
364,309,85205,6,0,L|297:354,1,80,10|2,0:0|0:0,0:0:0:0:
211,362,85820,2,0,P|218:319|239:290,1,80,2|2,0:0|0:0,0:0:0:0:
272,256,86282,1,2,0:0:0:0:
272,208,86436,5,10,0:0:0:0:
284,120,86743,2,0,L|363:57,2,80,2|2|2,0:0|0:0|0:0,0:0:0:0:
202,153,87666,6,0,P|161:149|119:125,1,80,2|8,0:0|0:0,0:0:0:0:
128,44,88282,2,0,P|162:24|202:22,1,80,2|8,0:0|0:0,0:0:0:0:
264,88,88897,5,2,0:0:0:0:
286,173,89205,2,0,P|268:210|231:234,1,80,8|2,0:0|0:0,0:0:0:0:
148,224,89820,1,8,0:0:0:0:
75,275,90128,6,0,B|120:329|183:306|183:306|208:337|208:337|242:318|292:340,1,240,2|2,0:0|0:0,0:0:0:0:
368,308,91358,6,0,L|417:290,1,40,2|0,0:0|0:0,0:0:0:0:
396,248,91666,2,0,L|445:230,1,40,2|0,0:0|0:0,0:0:0:0:
424,188,91974,2,0,L|473:170,1,40,2|0,0:0|0:0,0:0:0:0:
448,128,92282,5,4,0:0:0:0:
372,68,92589,6,0,P|316:56|256:68,1,120,6|2,0:0|0:0,0:0:0:0:
196,144,93358,1,2,0:0:0:0:
108,108,93666,1,2,0:0:0:0:
48,184,93974,2,0,L|4:184,2,40,2|8|2,0:0|0:0|0:0,0:0:0:0:
94,197,94435,2,0,P|123:228|130:267,1,80,2|8,0:0|0:0,0:0:0:0:
173,349,95051,6,0,P|229:369|285:349,1,120,2|2,0:0|0:0,0:0:0:0:
361,293,95820,1,2,0:0:0:0:
273,253,96128,1,8,0:0:0:0:
351,197,96435,2,0,P|364:156|354:117,1,80,2|2,0:0|0:0,0:0:0:0:
333,77,96897,2,0,P|303:50|264:41,1,80,2|8,0:0|0:0,0:0:0:0:
169,43,97512,6,0,P|130:53|98:77,1,80,6|8,0:0|0:0,0:0:0:0:
38,152,98128,1,2,0:0:0:0:
132,168,98435,2,0,L|180:196,1,40,8|2,0:0|0:0,0:0:0:0:
208,216,98743,6,0,P|236:245|253:290,1,80,6|8,0:0|0:0,0:0:0:0:
234,374,99359,1,0,0:0:0:0:
161,312,99666,2,0,L|106:302,1,40,8|2,0:0|0:0,0:0:0:0:
92,268,99974,6,0,B|54:255|54:255|40:172,1,120,6|2,0:0|0:0,0:0:0:0:
88,92,100743,2,0,L|80:40,2,40,0|2|2,0:0|0:0|0:0,0:0:0:0:
168,148,101358,6,0,L|176:200,2,40,2|8|2,0:0|0:0|0:0,0:0:0:0:
172,100,101820,1,2,0:0:0:0:
236,28,102128,1,8,0:0:0:0:
332,28,102435,6,0,P|386:45|432:85,1,120,6|2,0:0|0:0,0:0:0:0:
400,176,103204,1,2,0:0:0:0:
472,240,103512,1,2,0:0:0:0:
440,332,103820,2,0,L|452:372,2,40,2|8|2,0:0|0:0|0:0,0:0:0:0:
400,304,104281,2,0,P|362:292|323:301,1,80,2|8,0:0|0:0,0:0:0:0:
244,356,104897,5,2,0:0:0:0:
117,287,105358,2,0,P|86:253|77:204,1,80,2|2,0:0|0:0,0:0:0:0:
172,208,105974,2,0,P|213:164|217:104,1,120,2|8,0:0|0:0,0:0:0:0:
132,128,106743,2,0,L|78:98,2,40,2|2|8,0:0|0:0|0:0,0:0:0:0:
172,208,107358,6,0,P|200:236|212:276,1,80,6|2,0:0|0:0,0:0:0:0:
188,368,107974,1,2,0:0:0:0:
100,332,108282,2,0,L|56:312,1,40,8|2,0:0|0:0,0:0:0:0:
32,280,108589,6,0,P|15:244|17:202,1,80,6|2,0:0|0:0,0:0:0:0:
56,116,109205,1,2,0:0:0:0:
152,96,109513,2,0,L|196:88,1,40,8|2,0:0|0:0,0:0:0:0:
232,112,109820,6,0,P|271:129|313:127,2,80,2|8|2,0:0|0:0|0:0,0:0:0:0:
288,34,110743,2,0,L|328:26,1,40,8|2,0:0|0:0,0:0:0:0:
376,24,111051,6,0,P|413:37|441:65,1,80,2|8,0:0|0:0,0:0:0:0:
454,113,111512,1,0,0:0:0:0:
441,160,111666,2,0,P|413:188|375:201,1,80,2|8,0:0|0:0,0:0:0:0:
308,271,112282,6,0,B|279:300|279:300|197:295,1,120,6|0,0:0|0:0,0:0:0:0:
118,244,113051,1,2,0:0:0:0:
206,202,113359,2,2,B|246:203|246:203|295:132,1,120,2|10,0:0|0:0,0:0:0:0:
383,113,114128,2,0,L|436:140,2,40,2|2|8,0:0|0:0|0:0,0:0:0:0:
314,45,114743,6,0,P|250:51|205:94,1,120,4|2,0:0|0:0,0:0:0:0:
214,183,115512,2,0,P|200:221|174:252,1,80,2|8,0:0|0:0,0:0:0:0:
174,298,115974,6,0,P|204:324|243:338,1,80,2|8,0:0|0:0,0:0:0:0:
336,352,116589,1,2,0:0:0:0:
416,296,116897,1,8,0:0:0:0:
408,200,117205,6,0,B|401:158|401:158|331:115,1,120,6|2,0:0|0:0,0:0:0:0:
239,109,117974,1,2,0:0:0:0:
280,197,118282,2,2,B|253:226|253:226|166:211,1,120,2|10,0:0|0:0,0:0:0:0:
128,129,119051,2,0,L|134:79,2,40,2|2|8,0:0|0:0|0:0,0:0:0:0:
74,209,119666,6,0,P|85:264|130:304,1,120,4|2,0:0|0:0,0:0:0:0:
228,314,120435,2,0,P|263:298|290:265,1,80
304,220,120897,6,0,P|256:133|205:219,1,240,2|2,0:0|0:0,0:0:0:0:
256,300,122128,1,4,0:0:0:0:
256,192,122282,12,0,125820,0:0:0:0:
