osu file format v14

[General]
AudioFilename: Amber Wishes by ice.mp3
AudioLeadIn: 0
PreviewTime: 29820
Countdown: 0
SampleSet: Soft
StackLeniency: 0.7
Mode: 0
LetterboxInBreaks: 0
WidescreenStoryboard: 0

[Editor]
Bookmarks: 125820
DistanceSpacing: 1.3
BeatDivisor: 4
GridSize: 4
TimelineZoom: 2

[Metadata]
Title:Amber Wishes
TitleUnicode:Amber Wishes
Artist:Ice
ArtistUnicode:Ice
Creator:JBHyperion
Version:Hard
Source:
Tags:iceloki hard renaissance hardcore piano happy birthday to you celebration DavidEd Nekomata toybot Sc4v4ng3r Nwolf Ntiger Nardoxyribonucleic ZiRoX Withered Lotus Magic Bomb MBomb
BeatmapID:895500
BeatmapSetID:412859

[Difficulty]
HPDrainRate:5
CircleSize:3.5
OverallDifficulty:5
ApproachRate:7.5
SliderMultiplier:1.2
SliderTickRate:2

[Events]
//Background and Video events
0,0,"amber wishes.jpg",0,0
//Break Periods
//Storyboard Layer 0 (Background)
//Storyboard Layer 1 (Fail)
//Storyboard Layer 2 (Pass)
//Storyboard Layer 3 (Foreground)
//Storyboard Sound Samples

[TimingPoints]
282,307.692307692308,4,2,1,40,1,0
2743,-100,4,2,1,40,0,0
3358,-100,4,2,1,50,0,0
3974,-100,4,2,1,60,0,0
5205,-100,4,2,1,70,0,1
12589,-100,4,2,1,75,0,1
15051,-100,4,2,1,65,0,1
17512,-100,4,2,1,80,0,1
19358,-100,4,2,1,65,0,1
21205,-100,4,2,1,70,0,1
22435,-100,4,2,1,75,0,1
23666,-100,4,2,1,80,0,1
24897,-100,4,2,1,90,0,1
29820,-100,4,2,1,60,0,0
66743,-100,4,2,1,65,0,0
67974,-100,4,2,1,75,0,0
69205,-100,4,2,1,40,0,0
70128,-100,4,2,2,75,0,0
70435,-100,4,2,1,70,0,1
77820,-100,4,2,1,75,0,1
80282,-100,4,2,1,65,0,1
82743,-100,4,2,1,80,0,1
84589,-100,4,2,1,65,0,1
86435,-100,4,2,1,70,0,1
87666,-100,4,2,1,75,0,1
88897,-100,4,2,1,80,0,1
90128,-100,4,2,1,85,0,1
91358,-100,4,2,1,90,0,1
92282,-100,4,2,2,70,0,0
92589,-100,4,2,1,80,0,1
99974,-100,4,2,1,85,0,1
102435,-100,4,2,1,80,0,1
104897,-100,4,2,1,85,0,1
107358,-100,4,2,1,80,0,1
108589,-100,4,2,1,85,0,1
109820,-100,4,2,1,90,0,1
111051,-100,4,2,1,95,0,1
112282,-100,4,2,1,100,0,1
122128,-100,4,2,1,60,0,0
122205,-100,4,2,1,30,0,0
122743,-100,4,2,1,26,0,0
123358,-100,4,2,1,22,0,0
123974,-100,4,2,1,18,0,0
124589,-100,4,2,1,14,0,0
125205,-100,4,2,1,10,0,0
125820,-100,4,2,1,5,0,0

[Colours]
Combo1 : 255,130,0
Combo2 : 128,64,64
Combo3 : 255,100,25
Combo4 : 125,60,0

[HitObjects]
256,192,282,12,0,2435,0:0:0:0:
246,79,2743,6,0,P|367:185|257:303,1,360,2|0,0:0|0:0,0:0:0:0:
100,304,3974,6,0,L|48:304,3,30,2|0|0|0,0:0|0:0|0:0|0:0,0:0:0:0:
80,256,4282,2,0,L|32:228,3,30,2|0|0|0,0:0|0:0|0:0|0:0,0:0:0:0:
84,204,4589,2,0,L|56:156,3,30,2|0|0|0,0:0|0:0|0:0|0:0,0:0:0:0:
115,162,4897,2,0,L|116:104,3,30
116,92,5205,6,0,P|148:44|212:32,1,120,6|0,0:0|0:0,0:0:0:0:
192,108,5666,1,2,0:0:0:0:
256,252,5974,1,2,0:0:0:0:
320,108,6282,6,0,P|368:138|399:194,1,120,2|2,0:0|0:0,0:0:0:0:
400,272,6743,2,0,P|396:304|360:344,1,60,8|0,0:0|0:0,0:0:0:0:
324,276,7051,1,2,0:0:0:0:
324,276,7205,1,2,0:0:0:0:
324,276,7358,2,0,P|328:244|364:204,1,60,8|0,0:0|0:0,0:0:0:0:
365,144,7666,6,0,P|333:96|269:84,1,120,2|0,0:0|0:0,0:0:0:0:
289,160,8127,1,2,0:0:0:0:
184,276,8435,2,0,P|155:291|102:284,1,60,2|0,0:0|0:0,0:0:0:0:
80,232,8743,2,0,P|108:216|161:223,1,60,2|0,0:0|0:0,0:0:0:0:
212,200,9051,6,0,L|244:144,2,60,2|8|2,0:0|0:0|0:0,0:0:0:0:
184,276,9512,2,0,P|188:308|224:348,1,60,2|0,0:0|0:0,0:0:0:0:
280,332,9820,2,0,P|294:306|298:276,1,60,8|0,0:0|0:0,0:0:0:0:
296,196,10128,6,0,P|307:126|364:99,1,120,2|0,0:0|0:0,0:0:0:0:
372,177,10589,1,2,0:0:0:0:
372,177,10743,2,0,P|397:161|416:137,1,60,2|0,0:0|0:0,0:0:0:0:
413,60,11051,1,2,0:0:0:0:
413,60,11205,1,2,0:0:0:0:
339,24,11358,6,0,P|281:12|223:34,1,120,2|0,0:0|0:0,0:0:0:0:
156,68,11819,1,2,0:0:0:0:
156,68,11974,2,0,P|130:82|99:86,1,60,2|0,0:0|0:0,0:0:0:0:
52,24,12282,2,0,P|33:47|25:76,1,60,2|0,0:0|0:0,0:0:0:0:
24,152,12589,6,0,P|37:208|100:240,1,120,6|0,0:0|0:0,0:0:0:0:
100,162,13051,1,2,0:0:0:0:
248,116,13358,2,0,L|290:68,2,60,0|8|2,0:0|0:0|0:0,0:0:0:0:
216,268,13974,5,2,0:0:0:0:
216,268,14128,2,0,P|206:298|164:331,1,60,8|0,0:0|0:0,0:0:0:0:
112,312,14436,1,2,0:0:0:0:
112,312,14590,1,2,0:0:0:0:
112,312,14743,2,0,P|121:281|163:248,1,60,8|0,0:0|0:0,0:0:0:0:
184,196,15051,6,0,P|184:136|160:80,1,120,2|0,0:0|0:0,0:0:0:0:
104,28,15512,1,2,0:0:0:0:
32,168,15820,1,2,0:0:0:0:
184,196,16128,6,0,P|240:194|295:161,1,120,2|0,0:0|0:0,0:0:0:0:
336,96,16589,2,0,P|342:63|322:14,1,60,8|0,0:0|0:0,0:0:0:0:
248,40,16897,1,2,0:0:0:0:
248,40,17051,1,2,0:0:0:0:
248,40,17204,2,0,P|240:71|260:120,1,60,8|0,0:0|0:0,0:0:0:0:
294,162,17512,6,0,P|294:222|270:278,1,120,6|0,0:0|0:0,0:0:0:0:
212,328,17974,1,0,0:0:0:0:
140,188,18282,1,0,0:0:0:0:
276,39,18589,6,0,P|335:43|383:78,1,120,6|0,0:0|0:0,0:0:0:0:
390,158,19051,2,0,P|361:156|335:142,1,60,8|0,0:0|0:0,0:0:0:0:
462,121,19358,1,2,0:0:0:0:
462,121,19512,1,2,0:0:0:0:
462,121,19666,2,0,P|472:148|471:178,1,60,8|0,0:0|0:0,0:0:0:0:
453,255,19974,6,0,P|412:298|354:307,1,120,2|0,0:0|0:0,0:0:0:0:
348,232,20435,1,2,0:0:0:0:
348,232,20589,2,0,P|316:240|296:259,1,60,2|0,0:0|0:0,0:0:0:0:
283,336,20897,1,2,0:0:0:0:
283,336,21051,1,2,0:0:0:0:
212,372,21205,6,0,P|153:372|99:341,1,120,2|0,0:0|0:0,0:0:0:0:
28,376,21666,1,2,0:0:0:0:
28,376,21820,2,0,P|21:347|25:316,1,60,2|0,0:0|0:0,0:0:0:0:
84,264,22129,2,0,P|113:262|141:272,1,60,2|0,0:0|0:0,0:0:0:0:
216,292,22435,6,0,P|204:228|148:196,1,120,2|0,0:0|0:0,0:0:0:0:
92,161,22896,1,2,0:0:0:0:
92,161,23051,2,0,P|68:137|60:111,1,60,2|0,0:0|0:0,0:0:0:0:
95,42,23358,1,2,0:0:0:0:
172,32,23512,6,0,P|208:32|240:48,1,60,2|0,0:0|0:0,0:0:0:0:
190,109,23820,1,0,0:0:0:0:
190,109,23974,2,0,P|218:119|247:117,1,60,2|0,0:0|0:0,0:0:0:0:
304,64,24282,2,0,L|342:42,3,30,2|0|0|0,0:0|0:0|0:0|0:0,0:0:0:0:
340,92,24589,2,0,L|384:92,3,30,2|0|0|0,0:0|0:0|0:0|0:0,0:0:0:0:
408,92,24897,6,0,P|456:124|468:188,1,120,6|0,0:0|0:0,0:0:0:0:
392,168,25358,1,2,0:0:0:0:
248,232,25666,1,2,0:0:0:0:
108,160,25974,6,0,P|127:110|194:76,1,120,2|0,0:0|0:0,0:0:0:0:
261,70,26435,2,0,P|293:74|333:110,1,60,8|0,0:0|0:0,0:0:0:0:
275,156,26743,1,2,0:0:0:0:
275,156,26897,1,2,0:0:0:0:
275,156,27051,2,0,P|300:170|330:174,1,60,8|0,0:0|0:0,0:0:0:0:
408,172,27358,6,0,P|462:190|490:249,1,120,2|0,0:0|0:0,0:0:0:0:
412,249,27819,1,2,0:0:0:0:
273,320,28127,1,2,0:0:0:0:
134,248,28435,1,8,0:0:0:0:
61,219,28589,6,0,L|23:205,3,30,2|0|0|0,0:0|0:0|0:0|0:0,0:0:0:0:
60,171,28897,2,0,L|34:140,3,30,2|0|0|0,0:0|0:0|0:0|0:0,0:0:0:0:
82,130,29205,2,0,L|74:90,3,30,2|0|0|0,0:0|0:0|0:0|0:0,0:0:0:0:
123,105,29513,2,0,L|132:75,3,30,2|0|0|0,0:0|0:0|0:0|0:0,0:0:0:0:
166,105,29820,6,0,P|210:145|278:137,1,120,6|0,0:0|0:0,0:0:0:0:
236,70,30282,1,2,0:0:0:0:
381,15,30589,1,2,0:0:0:0:
484,131,30897,6,0,P|501:186|466:247,1,120,2|0,0:0|0:0,0:0:0:0:
423,181,31358,2,0,P|400:209|399:244,1,60,8|0,0:0|0:0,0:0:0:0:
437,315,31666,1,2,0:0:0:0:
437,315,31820,1,2,0:0:0:0:
437,315,31974,2,0,P|403:323|371:315,1,60,8|0,0:0|0:0,0:0:0:0:
308,285,32282,6,0,P|261:246|250:185,1,120,2|0,0:0|0:0,0:0:0:0:
263,113,32743,2,0,L|243:45,2,60,2|0|2,0:0|0:0|0:0,0:0:0:0:
320,162,33205,2,0,P|336:186|343:215,1,60,8|0,0:0|0:0,0:0:0:0:
308,285,33512,6,0,P|280:296|250:295,1,60,2|0,0:0|0:0,0:0:0:0:
209,225,33820,2,0,P|236:212|265:215,1,60,8|0,0:0|0:0,0:0:0:0:
343,215,34128,1,2,0:0:0:0:
416,187,34282,1,2,0:0:0:0:
490,207,34435,2,0,L|528:246,2,30,8|0|0,2:0|2:0|2:0,2:0:0:0:
473,131,34743,6,0,P|464:71|407:34,1,120,6|0,0:0|0:0,0:0:0:0:
344,13,35205,1,2,0:0:0:0:
241,131,35513,1,2,0:0:0:0:
396,112,35821,1,8,0:0:0:0:
267,23,36129,5,2,0:0:0:0:
267,23,36282,2,0,L|204:4,1,60,8|0,0:0|0:0,0:0:0:0:
132,4,36589,2,0,P|96:48|112:108,1,120,2|8,0:0|0:0,0:0:0:0:
184,128,37051,6,0,L|215:136,2,30,2|0|2,0:0|0:0|0:0,0:0:0:0:
56,220,37512,2,0,P|72:245|96:264,1,60,2|0,0:0|0:0,0:0:0:0:
171,288,37820,2,0,P|203:288|243:304,2,60,2|0|8,0:0|0:0|0:0,0:0:0:0:
113,341,38282,1,2,0:0:0:0:
187,364,38435,6,0,P|235:376|299:332,1,120,2|8,0:0|0:0,0:0:0:0:
363,204,39051,1,2,0:0:0:0:
323,136,39205,1,2,0:0:0:0:
363,68,39358,2,2,L|415:68,2,30,2|2|2,2:0|2:0|2:0,2:0:0:0:
284,67,39666,6,0,P|227:52|169:67,1,120,6|0,0:0|0:0,0:0:0:0:
104,111,40128,1,2,0:0:0:0:
207,228,40435,1,2,0:0:0:0:
363,229,40743,6,0,P|418:210|446:146,1,120,2|0,0:0|0:0,0:0:0:0:
367,149,41204,2,0,P|377:113|404:91,1,60,8|0,0:0|0:0,0:0:0:0:
483,89,41512,1,2,0:0:0:0:
483,89,41666,1,2,0:0:0:0:
483,89,41820,2,0,P|471:61|445:30,1,60,8|0,0:0|0:0,0:0:0:0:
375,21,42128,6,0,P|325:52|294:103,1,120,2|8,0:0|0:0,0:0:0:0:
295,180,42589,2,0,L|304:244,1,60,2|0,0:0|0:0,0:0:0:0:
428,378,43051,1,2,0:0:0:0:
310,280,43358,6,0,L|278:280,3,30,2|0|0|0,0:0|0:0|0:0|0:0,0:0:0:0:
378,244,43666,2,0,L|409:225,3,30,8|0|0|0,0:0|0:0|0:0|0:0,0:0:0:0:
314,203,43974,2,0,L|285:169,3,30,2|0|0|0,0:0|0:0|0:0|0:0,0:0:0:0:
378,160,44282,2,0,L|400:121,3,30,8|0|0|0,0:0|0:0|0:0|0:0,0:0:0:0:
349,123,44589,6,0,P|292:100|231:131,1,120,6|0,0:0|0:0,0:0:0:0:
182,175,45051,1,2,0:0:0:0:
233,323,45359,1,2,0:0:0:0:
294,180,45667,1,8,0:0:0:0:
152,247,45975,5,2,0:0:0:0:
152,247,46128,2,0,L|81:247,1,60,8|0,0:0|0:0,0:0:0:0:
112,335,46435,1,0,0:0:0:0:
112,335,46589,1,2,0:0:0:0:
112,335,46743,2,0,L|187:335,1,60,8|0,0:0|0:0,0:0:0:0:
225,277,47051,6,0,P|277:253|333:277,1,120,2|0,0:0|0:0,0:0:0:0:
387,331,47512,2,0,L|434:368,1,60,2|0,0:0|0:0,0:0:0:0:
464,295,47820,2,0,L|417:258,1,60,2|0,0:0|0:0,0:0:0:0:
360,204,48128,1,4,0:0:0:0:
293,65,48435,5,2,0:0:0:0:
292,65,48589,2,0,P|311:41|337:27,1,60,8|0,0:0|0:0,0:0:0:0:
416,28,48897,2,0,L|468:28,3,30,2|0|0|0,0:0|0:0|0:0|0:0,0:0:0:0:
432,72,49205,2,0,L|477:98,3,30,8|0|0|0,0:0|0:0|0:0|0:0,0:0:0:0:
423,117,49512,6,0,L|476:208,2,90,8|0|0,0:0|0:0|0:0,0:0:0:0:
360,164,50128,2,0,P|329:173|280:168,2,60,2|0|2,0:0|0:0|0:0,0:0:0:0:
231,75,50743,5,10,0:0:0:0:
116,96,50974,1,0,0:0:0:0:
193,187,51205,1,0,0:0:0:0:
193,187,51358,2,0,L|277:279,1,120,2|0,0:0|0:0,0:0:0:0:
395,177,51974,6,0,P|413:136|418:88,1,90,10|0,0:0|0:0,0:0:0:0:
315,34,52435,1,2,0:0:0:0:
315,34,52589,2,0,P|296:74|291:122,1,90
299,243,53051,1,2,0:0:0:0:
299,243,53205,6,0,P|258:298|194:331,1,120,2|0,0:0|0:0,0:0:0:0:
60,342,53820,1,6,0:0:0:0:
51,225,54051,1,6,0:0:0:0:
152,283,54282,1,2,0:0:0:0:
164,206,54435,6,2,L|178:110,2,90,10|2|2,0:0|0:0|0:0,0:0:0:0:
108,150,55051,2,0,P|100:120|103:91,2,60,2|0|2,0:0|0:0|0:0,0:0:0:0:
258,192,55666,5,10,0:0:0:0:
341,283,55897,1,0,0:0:0:0:
226,320,56128,1,2,0:0:0:0:
226,320,56282,2,2,L|180:303,2,30
298,355,56589,2,0,P|326:365|356:366,1,60,2|0,0:0|0:0,0:0:0:0:
434,364,56897,6,0,P|479:348|494:300,1,90,10|0,0:0|0:0,0:0:0:0:
498,196,57358,2,0,P|481:170|454:152,1,60,0|2,0:0|0:0,0:0:0:0:
302,130,57820,1,2,0:0:0:0:
200,248,58128,6,0,P|208:284|264:308,1,90,10|0,0:0|0:0,0:0:0:0:
368,308,58589,2,0,P|394:292|415:271,1,60,0|2,0:0|0:0,0:0:0:0:
320,148,59051,1,2,0:0:0:0:
168,112,59358,5,10,0:0:0:0:
59,155,59589,1,0,0:0:0:0:
139,246,59820,1,0,0:0:0:0:
139,246,59974,2,0,P|134:275|120:301,2,60,2|0|2,0:0|0:0|0:0,0:0:0:0:
244,128,60589,5,10,0:0:0:0:
353,88,60820,1,0,0:0:0:0:
337,213,61051,1,0,0:0:0:0:
336,212,61204,2,0,P|287:246|228:254,1,120,2|0,0:0|0:0,0:0:0:0:
138,128,61820,6,0,P|94:132|50:152,1,90,8|0,0:0|0:0,0:0:0:0:
54,268,62281,1,0,0:0:0:0:
54,268,62435,2,0,P|98:264|142:244,1,90
242,188,62897,1,0,0:0:0:0:
242,188,63051,6,0,P|260:131|236:57,1,120,2|0,0:0|0:0,0:0:0:0:
98,23,63666,1,6,0:0:0:0:
53,131,63897,1,6,0:0:0:0:
98,238,64128,1,2,0:0:0:0:
171,210,64282,5,0,0:0:0:0:
281,170,64513,1,0,0:0:0:0:
267,295,64744,1,0,0:0:0:0:
267,295,64897,2,0,P|277:327|306:361,2,60,2|0|2,0:0|0:0|0:0,0:0:0:0:
280,127,65512,5,2,0:0:0:0:
172,84,65743,1,0,0:0:0:0:
86,164,65974,1,2,0:0:0:0:
86,164,66128,2,0,P|53:163|16:141,2,60,2|0|2,0:0|0:0|0:0,0:0:0:0:
144,216,66589,1,0,0:0:0:0:
184,284,66743,6,0,P|193:317|138:361,1,90,2|0,0:0|0:0,0:0:0:0:
56,308,67204,2,0,P|36:282|25:255,1,60,0|2,0:0|0:0,0:0:0:0:
40,100,67666,1,2,0:0:0:0:
188,48,67974,5,2,0:0:0:0:
472,185,68589,2,0,L|416:217,1,60,8|0,0:0|0:0,0:0:0:0:
300,214,68897,2,0,L|355:182,1,60,8|0,0:0|0:0,0:0:0:0:
388,112,69205,6,0,L|403:86,3,30,2|0|0|0,0:0|0:0|0:0|0:0,0:0:0:0:
316,92,69513,2,0,L|316:48,3,30,2|0|0|0,0:0|0:0|0:0|0:0,0:0:0:0:
244,112,69820,2,0,L|229:86,3,30,2|0|0|0,0:0|0:0|0:0|0:0,0:0:0:0:
268,148,70128,1,4,0:0:0:0:
312,284,70435,6,0,P|280:332|216:344,1,120,6|0,0:0|0:0,0:0:0:0:
236,268,70896,1,2,0:0:0:0:
172,124,71204,1,2,0:0:0:0:
80,252,71512,6,0,P|96:306|142:350,1,120,2|0,0:0|0:0,0:0:0:0:
217,371,71974,2,0,P|248:375|296:350,1,60,8|0,0:0|0:0,0:0:0:0:
241,299,72281,1,2,0:0:0:0:
241,299,72435,1,2,0:0:0:0:
241,299,72589,2,0,P|209:294|161:319,1,60,8|0,0:0|0:0,0:0:0:0:
105,312,72897,6,0,P|64:265|71:199,1,120,2|0,0:0|0:0,0:0:0:0:
136,241,73357,1,2,0:0:0:0:
262,143,73666,2,0,P|286:121|339:114,1,60,2|0,0:0|0:0,0:0:0:0:
375,160,73974,2,0,P|352:182|299:189,1,60,8|0,0:0|0:0,0:0:0:0:
254,223,74281,2,0,L|181:222,2,60,2|8|2,0:0|0:0|0:0,0:0:0:0:
320,264,74743,6,0,L|365:290,3,30,2|0|0|0,0:0|0:0|0:0|0:0,0:0:0:0:
311,310,75051,2,0,L|336:355,3,30,8|0|0|0,0:0|0:0|0:0|0:0,0:0:0:0:
358,368,75358,6,0,P|426:371|468:314,1,120,6|2,0:0|0:0,0:0:0:0:
500,272,75819,1,0,0:0:0:0:
500,272,75974,2,0,P|506:243|502:213,1,60
444,163,76281,1,2,0:0:0:0:
444,163,76435,1,0,0:0:0:0:
428,240,76589,6,0,P|372:256|312:240,1,120,2|0,0:0|0:0,0:0:0:0:
260,184,77051,1,0,0:0:0:0:
260,184,77205,2,0,P|246:158|242:127,1,60,2|0,0:0|0:0,0:0:0:0:
304,76,77512,2,0,P|318:102|322:133,1,60,8|0,0:0|0:0,0:0:0:0:
333,209,77820,6,0,P|320:265|257:297,1,120,6|0,0:0|0:0,0:0:0:0:
192,308,78281,1,2,0:0:0:0:
60,224,78589,2,0,L|0:224,2,60,2|0|2,0:0|0:0|0:0,0:0:0:0:
192,140,79205,5,2,0:0:0:0:
192,140,79359,2,0,P|216:122|231:97,1,60,8|0,0:0|0:0,0:0:0:0:
160,71,79667,1,2,0:0:0:0:
160,71,79821,1,2,0:0:0:0:
160,71,79974,2,0,P|135:87|119:112,1,60,8|0,0:0|0:0,0:0:0:0:
92,188,80282,6,0,P|92:248|116:304,1,120,6|0,0:0|0:0,0:0:0:0:
172,356,80743,1,2,0:0:0:0:
244,216,81051,1,2,0:0:0:0:
324,80,81359,6,0,P|365:41|427:26,1,120,2|0,0:0|0:0,0:0:0:0:
480,84,81820,2,0,P|489:115|473:166,1,60,8|0,0:0|0:0,0:0:0:0:
416,180,82128,1,2,0:0:0:0:
416,180,82282,1,2,0:0:0:0:
416,180,82435,2,0,P|405:149|421:98,1,60,8|0,0:0|0:0,0:0:0:0:
413,43,82743,6,0,P|353:43|297:67,1,120,10|0,0:0|0:0,0:0:0:0:
247,125,83205,1,0,0:0:0:0:
356,236,83513,1,0,0:0:0:0:
504,192,83820,6,0,P|515:250|483:317,1,120,12|0,0:0|0:0,0:0:0:0:
428,344,84282,2,0,P|396:350|346:330,1,60,8|0,0:0|0:0,0:0:0:0:
292,332,84589,2,0,L|241:345,3,30,2|0|0|0,0:0|0:0|0:0|0:0,0:0:0:0:
265,293,84897,2,0,L|215:278,3,30,8|0|0|0,0:0|0:0|0:0|0:0,0:0:0:0:
196,264,85205,6,0,P|159:206|187:141,1,120,2|0,0:0|0:0,0:0:0:0:
224,100,85666,1,0,0:0:0:0:
224,100,85820,2,0,P|246:80|274:68,1,60,2|0,0:0|0:0,0:0:0:0:
354,93,86128,1,2,0:0:0:0:
354,93,86282,1,2,0:0:0:0:
344,172,86435,6,0,P|315:222|261:254,1,120,10|0,0:0|0:0,0:0:0:0:
200,300,86896,1,0,0:0:0:0:
200,300,87051,2,0,P|221:320|250:332,1,60,2|0,0:0|0:0,0:0:0:0:
328,332,87359,2,0,P|355:320|377:300,1,60,2|0,0:0|0:0,0:0:0:0:
429,239,87666,6,0,P|443:171|395:120,1,120,6|0,0:0|0:0,0:0:0:0:
366,72,88128,1,0,0:0:0:0:
366,72,88282,2,0,P|392:58|422:54,2,60,2|0|2,0:0|0:0|0:0,0:0:0:0:
280,116,88743,6,0,P|225:135|163:125,1,120,6|0,0:0|0:0,0:0:0:0:
84,88,89205,2,0,L|56:75,3,30,2|0|0|0,0:0|0:0|0:0|0:0,0:0:0:0:
85,166,89513,2,0,L|45:184,3,30,2|0|0|0,0:0|0:0|0:0|0:0,0:0:0:0:
145,214,89820,2,0,L|137:242,3,30,2|0|0|0,0:0|0:0|0:0|0:0,0:0:0:0:
140,288,90128,6,0,P|181:342|252:338,1,120,2|0,0:0|0:0,0:0:0:0:
284,340,90589,1,2,0:0:0:0:
337,314,90742,1,2,0:0:0:0:
367,264,90896,1,2,0:0:0:0:
363,205,91050,1,2,0:0:0:0:
327,158,91204,1,2,0:0:0:0:
278,124,91358,6,0,L|252:108,3,30,2|0|0|0,0:0|0:0|0:0|0:0,0:0:0:0:
208,173,91666,2,0,L|181:187,3,30,2|0|0|0,0:0|0:0|0:0|0:0,0:0:0:0:
158,111,91974,2,0,L|132:95,3,30,2|0|0|0,0:0|0:0|0:0|0:0,0:0:0:0:
88,161,92281,1,4,0:0:0:0:
104,316,92589,6,0,P|151:347|215:333,1,120,6|0,0:0|0:0,0:0:0:0:
167,270,93050,1,2,0:0:0:0:
108,124,93358,1,2,0:0:0:0:
232,28,93666,6,0,P|288:34|339:72,1,120,2|0,0:0|0:0,0:0:0:0:
374,143,94128,2,0,P|383:173|368:225,1,60,8|0,0:0|0:0,0:0:0:0:
306,179,94435,1,2,0:0:0:0:
306,179,94589,1,2,0:0:0:0:
306,179,94743,2,0,P|296:148|311:96,1,60,8|0,0:0|0:0,0:0:0:0:
355,66,95051,6,0,P|411:54|465:91,1,120,2|0,0:0|0:0,0:0:0:0:
496,156,95512,1,2,0:0:0:0:
464,308,95820,2,0,P|454:339|411:371,1,60,2|0,0:0|0:0,0:0:0:0:
355,359,96128,2,0,P|336:337|329:308,1,60,8|0,0:0|0:0,0:0:0:0:
312,232,96436,6,0,P|345:232|378:248,2,60,2|8|0,0:0|0:0|0:0,0:0:0:0:
255,285,96897,2,0,P|224:294|172:279,1,60,2|0,0:0|0:0,0:0:0:0:
160,220,97205,2,0,P|190:210|242:225,1,60,8|0,0:0|0:0,0:0:0:0:
276,160,97512,6,0,P|268:92|204:60,1,120,6|0,0:0|0:0,0:0:0:0:
204,136,97973,1,0,0:0:0:0:
204,136,98128,2,0,P|179:120|161:96,1,60,2|0,0:0|0:0,0:0:0:0:
167,21,98435,1,2,0:0:0:0:
167,21,98589,1,2,0:0:0:0:
96,52,98743,6,0,P|54:92|38:152,1,120,8|0,0:0|0:0,0:0:0:0:
36,228,99205,1,0,0:0:0:0:
36,228,99358,2,0,P|36:257|48:286,1,60,2|0,0:0|0:0,0:0:0:0:
94,345,99666,2,0,P|115:323|126:296,1,60,8|0,0:0|0:0,0:0:0:0:
128,216,99974,6,0,P|141:160|204:128,1,120,6|0,0:0|0:0,0:0:0:0:
268,116,100435,1,2,0:0:0:0:
420,80,100743,2,0,L|461:37,2,60,2|0|2,0:0|0:0|0:0,0:0:0:0:
376,232,101358,5,2,0:0:0:0:
376,232,101512,2,0,P|366:262|324:295,1,60,8|0,0:0|0:0,0:0:0:0:
296,224,101820,1,2,0:0:0:0:
296,224,101974,1,2,0:0:0:0:
296,224,102128,2,0,P|305:193|347:160,1,60,8|0,0:0|0:0,0:0:0:0:
400,156,102435,6,0,P|444:192|448:264,1,120,2|0,0:0|0:0,0:0:0:0:
397,309,102897,1,2,0:0:0:0:
244,344,103205,1,2,0:0:0:0:
92,308,103512,6,0,P|44:276|38:204,1,120,2|0,0:0|0:0,0:0:0:0:
36,140,103974,2,0,P|43:108|82:72,1,60,8|0,0:0|0:0,0:0:0:0:
140,89,104281,1,2,0:0:0:0:
140,89,104435,1,2,0:0:0:0:
140,89,104589,2,0,P|133:120|94:156,1,60,8|0,0:0|0:0,0:0:0:0:
128,220,104897,6,0,P|170:262|226:285,1,120,6|0,0:0|0:0,0:0:0:0:
303,279,105359,1,2,0:0:0:0:
255,129,105667,1,2,0:0:0:0:
392,56,105974,6,0,P|441:89|466:159,1,120,2|0,0:0|0:0,0:0:0:0:
480,220,106435,2,0,P|451:219|423:207,1,60,8|0,0:0|0:0,0:0:0:0:
360,160,106743,1,2,0:0:0:0:
360,160,106897,1,2,0:0:0:0:
360,160,107051,2,0,P|344:189|352:242,1,60,8|0,0:0|0:0,0:0:0:0:
328,292,107358,6,0,P|281:342|211:332,1,120,2|0,0:0|0:0,0:0:0:0:
162,307,107819,1,0,0:0:0:0:
162,307,107974,2,0,P|136:290|118:266,1,60,2|0,0:0|0:0,0:0:0:0:
124,191,108281,1,2,0:0:0:0:
124,191,108435,1,2,0:0:0:0:
192,228,108589,6,0,P|196:163|156:120,1,120,6|2,0:0|0:0,0:0:0:0:
116,60,109051,1,0,0:0:0:0:
116,60,109204,2,0,P|141:48|173:47,1,60,2|0,0:0|0:0,0:0:0:0:
252,46,109512,2,0,P|281:47|309:58,1,60,2|2,0:0|0:0,0:0:0:0:
266,124,109820,6,0,P|230:170|236:228,1,120,6|2,0:0|0:0,0:0:0:0:
309,196,110281,1,0,0:0:0:0:
309,196,110436,2,0,P|316:224|311:253,1,60,2|0,0:0|0:0,0:0:0:0:
252,307,110743,2,0,P|280:328|304:333,1,60,2|2,0:0|0:0,0:0:0:0:
376,300,111051,6,0,L|406:294,3,30,2|0|0|0,0:0|0:0|0:0|0:0,0:0:0:0:
389,211,111359,2,0,L|417:187,3,30,2|0|0|0,0:0|0:0|0:0|0:0,0:0:0:0:
319,153,111666,2,0,L|331:118,3,30,2|0|0|0,0:0|0:0|0:0|0:0,0:0:0:0:
235,185,111974,2,0,L|228:148,3,30,2|0|0|0,0:0|0:0|0:0|0:0,0:0:0:0:
304,244,112282,6,0,P|292:304|244:336,1,120,6|0,0:0|0:0,0:0:0:0:
156,336,112743,1,2,0:0:0:0:
80,172,113051,1,2,0:0:0:0:
200,40,113359,6,0,P|254:26|315:43,1,120,6|0,0:0|0:0,0:0:0:0:
391,91,113820,2,0,P|409:115|412:169,1,60,8|0,0:0|0:0,0:0:0:0:
326,158,114128,1,2,0:0:0:0:
326,158,114282,1,2,0:0:0:0:
326,158,114436,2,0,P|332:184|350:209,1,60,8|0,0:0|0:0,0:0:0:0:
442,231,114743,6,6,P|409:281|335:300,1,120,4|0,0:0|0:0,0:0:0:0:
264,300,115204,1,2,0:0:0:0:
171,143,115512,1,2,0:0:0:0:
14,233,115820,6,0,P|28:285|74:331,1,120,6|0,0:0|0:0,0:0:0:0:
156,373,116281,2,0,P|186:376|234:352,1,60,8|0,0:0|0:0,0:0:0:0:
181,284,116589,1,2,0:0:0:0:
181,284,116743,1,2,0:0:0:0:
181,284,116897,2,0,P|207:276|237:280,1,60,8|0,0:0|0:0,0:0:0:0:
312,352,117205,6,0,P|367:371|427:358,1,120,6|0,0:0|0:0,0:0:0:0:
488,276,117666,1,2,0:0:0:0:
407,87,117974,1,2,0:0:0:0:
277,243,118282,6,0,P|218:250|172:216,1,120,6|0,0:0|0:0,0:0:0:0:
139,119,118743,2,0,P|111:100|56:101,1,60,8|0,0:0|0:0,0:0:0:0:
19,175,119051,1,2,0:0:0:0:
19,175,119205,1,2,0:0:0:0:
18,174,119359,2,0,P|43:189|72:194,1,60,8|0,0:0|0:0,0:0:0:0:
172,215,119666,6,0,L|222:184,1,60,2|0,0:0|0:0,0:0:0:0:
277,75,119974,2,0,L|224:104,1,60,2|0,0:0|0:0,0:0:0:0:
172,215,120282,2,0,L|201:265,1,60,2|0,0:0|0:0,0:0:0:0:
277,75,120589,2,0,L|246:22,1,60,2|0,0:0|0:0,0:0:0:0:
172,104,120897,6,0,L|146:87,3,30,2|0|0|0,0:0|0:0|0:0|0:0,0:0:0:0:
228,160,121205,2,0,L|255:148,3,30,2|0|0|0,0:0|0:0|0:0|0:0,0:0:0:0:
164,204,121512,2,0,L|138:187,3,30,2|0|0|0,0:0|0:0|0:0|0:0,0:0:0:0:
228,248,121820,2,0,L|255:236,3,30,2|0|0|0,0:0|0:0|0:0|0:0,0:0:0:0:
164,292,122128,5,4,0:0:0:0:
256,192,122205,12,0,125820,0:0:0:0:
