osu file format v14

[General]
AudioFilename: audio.ogg
AudioLeadIn: 0
PreviewTime: 502049
Countdown: 0
SampleSet: Normal
StackLeniency: 0.7
Mode: 1
LetterboxInBreaks: 0
WidescreenStoryboard: 0

[Editor]
Bookmarks: 269011,393609,441569,565409,643169,667169
DistanceSpacing: 0.1
BeatDivisor: 4
GridSize: 32
TimelineZoom: 3.191998

[Metadata]
Title:For Creatures Such As We
TitleUnicode:For Creatures Such As We
Artist:Iapetus
ArtistUnicode:Iapetus
Creator:Cookie_Tree
Version:Cookie and Heaxys' Celestial Voyage
Source:
Tags:Heaxys The body cosmic english progressive death metal deathmetal Matthew Cerami Jordan Navarro marathon stream tag co-op coop co op gungathon
BeatmapID:3369686
BeatmapSetID:1650657

[Difficulty]
HPDrainRate:3
CircleSize:4
OverallDifficulty:7
ApproachRate:5
SliderMultiplier:1.4
SliderTickRate:1

[Events]
//Background and Video events
0,0,"peakpx.jpg",0,100
//Break Periods
2,269211,277140
//Storyboard Layer 0 (Background)
//Storyboard Layer 1 (Fail)
//Storyboard Layer 2 (Pass)
//Storyboard Layer 3 (Foreground)
//Storyboard Layer 4 (Overlay)
//Storyboard Sound Samples

[TimingPoints]
46,258.620689655172,4,1,0,100,1,0
46,-105.263157894737,4,1,0,75,0,0
2114,-100.3861003861,4,1,0,100,0,0
17761,-100.3861003861,4,1,0,100,0,0
17826,-100.77519379845,4,1,0,100,0,0
17890,-101.167315175097,4,1,0,100,0,0
17955,-101.5625,4,1,0,100,0,0
18020,-101.960784313726,4,1,0,100,0,0
18084,-102.362204724409,4,1,0,100,0,0
18149,-102.766798418972,4,1,0,100,0,0
18213,-103.174603174603,4,1,0,100,0,0
18278,-103.585657370518,4,1,0,100,0,0
18343,-104,4,1,0,100,0,0
18408,-104.417670682731,4,1,0,100,0,0
18472,-104.838709677419,4,1,0,100,0,0
18537,-105.263157894737,4,1,0,100,0,0
18666,-100,4,1,0,100,0,0
33149,-99.601593625498,4,1,0,100,0,0
33214,-99.2063492063492,4,1,0,100,0,0
33278,-98.8142292490119,4,1,0,100,0,0
33343,-98.4251968503937,4,1,0,100,0,0
33408,-98.0392156862745,4,1,0,100,0,0
33472,-97.65625,4,1,0,100,0,0
33537,-97.2762645914397,4,1,0,100,0,0
33602,-96.8992248062015,4,1,0,100,0,0
33666,-96.5250965250965,4,1,0,100,0,0
33731,-96.1538461538461,4,1,0,100,0,0
33795,-95.7854406130268,4,1,0,100,0,0
33860,-95.4198473282443,4,1,0,100,0,0
33925,-95.0570342205323,4,1,0,100,0,0
33989,-94.6969696969697,4,1,0,100,0,0
34054,-94.3396226415094,4,1,0,100,0,0
34119,-93.984962406015,4,1,0,100,0,0
34183,-93.6329588014981,4,1,0,100,0,0
34248,-93.2835820895522,4,1,0,100,0,0
34313,-92.9368029739777,4,1,0,100,0,0
34377,-92.5925925925926,4,1,0,100,0,0
34442,-92.2509225092251,4,1,0,100,0,0
34507,-91.9117647058823,4,1,0,100,0,0
34571,-91.5750915750916,4,1,0,100,0,0
34636,-91.2408759124088,4,1,0,100,0,0
34701,-90.9090909090909,4,1,0,100,0,0
34959,-100,4,1,0,100,0,0
35218,-111.111111111111,4,1,0,100,0,0
38321,-109.090909090909,4,1,0,100,0,0
38451,-107.142857142857,4,1,0,100,0,0
38580,-105.263157894737,4,1,0,100,0,0
38709,-103.448275862069,4,1,0,100,0,0
38839,-101.694915254237,4,1,0,100,0,0
38968,-100,4,1,0,100,0,0
39096,-98.3606557377049,4,1,0,100,0,0
39225,-96.7741935483871,4,1,0,100,0,0
39356,-95.2380952380952,4,1,0,100,0,0
42459,-96.045197740113,4,1,0,100,0,0
42524,-96.8660968660969,4,1,0,100,0,0
42589,-97.7011494252874,4,1,0,100,0,0
42652,-98.5507246376812,4,1,0,100,0,0
42718,-99.4152046783626,4,1,0,100,0,0
42783,-100.294985250737,4,1,0,100,0,0
42847,-101.190476190476,4,1,0,100,0,0
42911,-102.102102102102,4,1,0,100,0,0
42977,-103.030303030303,4,1,0,100,0,0
43041,-103.975535168196,4,1,0,100,0,0
43106,-104.938271604938,4,1,0,100,0,0
43170,-105.919003115265,4,1,0,100,0,0
43235,-106.918238993711,4,1,0,100,0,0
43299,-107.936507936508,4,1,0,100,0,0
43364,-108.974358974359,4,1,0,100,0,0
43428,-110.032362459547,4,1,0,100,0,0
43494,-111.111111111111,4,1,0,100,0,0
46597,-109.090909090909,4,1,0,100,0,0
46727,-107.142857142857,4,1,0,100,0,0
46856,-105.263157894737,4,1,0,100,0,0
46985,-103.448275862069,4,1,0,100,0,0
47114,-101.694915254237,4,1,0,100,0,0
47244,-100,4,1,0,100,0,0
47373,-98.3606557377049,4,1,0,100,0,0
47502,-96.7741935483871,4,1,0,100,0,0
47567,-95.9969280983009,4,1,0,100,0,0
47632,-95.2380952380952,4,1,0,100,0,0
50735,-96.045197740113,4,1,0,100,0,0
50800,-96.8660968660969,4,1,0,100,0,0
50864,-97.7011494252874,4,1,0,100,0,0
50927,-98.5507246376812,4,1,0,100,0,0
50994,-99.4152046783626,4,1,0,100,0,0
51058,-100.294985250737,4,1,0,100,0,0
51123,-101.190476190476,4,1,0,100,0,0
51188,-102.102102102102,4,1,0,100,0,0
51252,-103.030303030303,4,1,0,100,0,0
51316,-103.975535168196,4,1,0,100,0,0
51382,-104.938271604938,4,1,0,100,0,0
51446,-105.919003115265,4,1,0,100,0,0
51511,-106.918238993711,4,1,0,100,0,0
51574,-107.936507936508,4,1,0,100,0,0
51640,-108.974358974359,4,1,0,100,0,0
51703,-110.032362459547,4,1,0,100,0,0
51770,-111.111111111111,4,1,0,100,0,0
54873,-109.090909090909,4,1,0,100,0,0
55002,-107.142857142857,4,1,0,100,0,0
55132,-105.263157894737,4,1,0,100,0,0
55261,-103.448275862069,4,1,0,100,0,0
55390,-101.694915254237,4,1,0,100,0,0
55520,-100,4,1,0,100,0,0
55649,-98.3606557377049,4,1,0,100,0,0
55778,-96.7741935483871,4,1,0,100,0,0
55908,-95.2380952380952,4,1,0,100,0,0
59011,-96.045197740113,4,1,0,100,0,0
59076,-96.8660968660969,4,1,0,100,0,0
59140,-97.7011494252874,4,1,0,100,0,0
59205,-98.5507246376812,4,1,0,100,0,0
59270,-99.4152046783626,4,1,0,100,0,0
59334,-100.294985250737,4,1,0,100,0,0
59399,-101.190476190476,4,1,0,100,0,0
59462,-102.102102102102,4,1,0,100,0,0
59528,-103.030303030303,4,1,0,100,0,0
59592,-103.975535168196,4,1,0,100,0,0
59658,-104.938271604938,4,1,0,100,0,0
59721,-105.919003115265,4,1,0,100,0,0
59787,-106.918238993711,4,1,0,100,0,0
59850,-107.936507936508,4,1,0,100,0,0
59916,-108.974358974359,4,1,0,100,0,0
59979,-110.032362459547,4,1,0,100,0,0
60045,-111.111111111111,4,1,0,100,0,0
63149,-109.090909090909,4,1,0,100,0,0
63278,-107.142857142857,4,1,0,100,0,0
63407,-105.263157894737,4,1,0,100,0,0
63537,-103.448275862069,4,1,0,100,0,0
63666,-101.694915254237,4,1,0,100,0,0
63795,-100,4,1,0,100,0,0
63925,-98.3606557377049,4,1,0,100,0,0
64054,-96.7741935483871,4,1,0,100,0,0
64183,-95.2380952380952,4,1,0,100,0,0
67287,-96.045197740113,4,1,0,100,0,0
67352,-96.8660968660969,4,1,0,100,0,0
67416,-97.7011494252874,4,1,0,100,0,0
67481,-98.5507246376812,4,1,0,100,0,0
67545,-99.4152046783626,4,1,0,100,0,0
67610,-100.294985250737,4,1,0,100,0,0
67675,-101.190476190476,4,1,0,100,0,0
67739,-102.102102102102,4,1,0,100,0,0
67804,-103.030303030303,4,1,0,100,0,0
67869,-103.975535168196,4,1,0,100,0,0
67933,-104.938271604938,4,1,0,100,0,0
67997,-105.919003115265,4,1,0,100,0,0
68063,-106.918238993711,4,1,0,100,0,0
68126,-107.936507936508,4,1,0,100,0,0
68192,-108.974358974359,4,1,0,100,0,0
68255,-110.032362459547,4,1,0,100,0,0
68321,-111.111111111111,4,1,0,100,0,0
71425,-107.142857142857,4,1,0,100,0,0
71554,-103.448275862069,4,1,0,100,0,0
71683,-100,4,1,0,100,0,0
71813,-96.7741935483871,4,1,0,100,0,0
71942,-93.75,4,1,0,100,0,0
72071,-90.9090909090909,4,1,0,100,0,0
72201,-88.2352941176471,4,1,0,100,0,0
72330,-85.7142857142857,4,1,0,100,0,0
72459,-83.3333333333333,4,1,0,100,0,0
72589,-84.2490842490842,4,1,0,100,0,0
72718,-85.1851851851852,4,1,0,100,0,0
72847,-86.1423220973783,4,1,0,100,0,0
72977,-87.1212121212121,4,1,0,100,0,0
73106,-88.1226053639847,4,1,0,100,0,0
73235,-89.1472868217054,4,1,0,100,0,0
73364,-90.1960784313726,4,1,0,100,0,0
73494,-91.2698412698413,4,1,0,100,0,0
73623,-92.3694779116466,4,1,0,100,0,0
73752,-93.4959349593496,4,1,0,100,0,0
73882,-94.6502057613169,4,1,0,100,0,0
74011,-95.8333333333333,4,1,0,100,0,0
74140,-97.0464135021097,4,1,0,100,0,0
74270,-98.2905982905983,4,1,0,100,0,0
74399,-99.5670995670996,4,1,0,100,0,0
74528,-100.877192982456,4,1,0,100,0,0
74658,-102.222222222222,4,1,0,100,0,0
74787,-103.603603603604,4,1,0,100,0,0
74916,-105.022831050228,4,1,0,100,0,0
75045,-106.481481481481,4,1,0,100,0,0
75175,-107.981220657277,4,1,0,100,0,0
75304,-109.52380952381,4,1,0,100,0,0
75433,-111.111111111111,4,1,0,100,0,0
79701,-107.142857142857,4,1,0,100,0,0
79830,-103.448275862069,4,1,0,100,0,0
79959,-100,4,1,0,100,0,0
80089,-96.7741935483871,4,1,0,100,0,0
80218,-93.75,4,1,0,100,0,0
80347,-90.9090909090909,4,1,0,100,0,0
80477,-88.2352941176471,4,1,0,100,0,0
80606,-85.7142857142857,4,1,0,100,0,0
80735,-83.3333333333333,4,1,0,100,0,0
80864,-84.2490842490842,4,1,0,100,0,0
80994,-85.1851851851852,4,1,0,100,0,0
81123,-86.1423220973783,4,1,0,100,0,0
81252,-87.1212121212121,4,1,0,100,0,0
81382,-88.1226053639847,4,1,0,100,0,0
81511,-89.1472868217054,4,1,0,100,0,0
81640,-90.1960784313726,4,1,0,100,0,0
81770,-91.2698412698413,4,1,0,100,0,0
81899,-92.3694779116466,4,1,0,100,0,0
82028,-93.4959349593496,4,1,0,100,0,0
82158,-94.6502057613169,4,1,0,100,0,0
82287,-92.5925925925926,4,1,0,100,0,0
82416,-90.0900900900901,4,1,0,100,0,0
82545,-87.719298245614,4,1,0,100,0,0
82675,-85.4700854700855,4,1,0,100,0,0
82804,-83.3333333333333,4,1,0,100,0,0
82933,-84.6560846560847,4,1,0,100,0,0
83063,-86.0215053763441,4,1,0,100,0,0
83192,-87.431693989071,4,1,0,100,0,0
83321,-88.8888888888889,4,1,0,100,0,0
83451,-90.3954802259887,4,1,0,100,0,0
83580,-91.9540229885058,4,1,0,100,0,0
83709,-93.5672514619883,4,1,0,100,0,0
83839,-95.2380952380952,4,1,0,100,0,0
84744,-97.5609756097561,4,1,0,100,0,0
84873,-100,4,1,0,100,0,0
85002,-100.62893081761,4,1,0,100,0,0
85132,-101.26582278481,4,1,0,100,0,0
85261,-101.910828025478,4,1,0,100,0,0
85390,-102.564102564103,4,1,0,100,0,0
85520,-103.225806451613,4,1,0,100,0,0
85649,-103.896103896104,4,1,0,100,0,0
85778,-104.575163398693,4,1,0,100,0,0
85908,-105.263157894737,4,1,0,100,0,0
86037,-105.960264900662,4,1,0,100,0,0
86166,-106.666666666667,4,1,0,100,0,0
86295,-107.38255033557,4,1,0,100,0,0
86425,-108.108108108108,4,1,0,100,0,0
86554,-108.843537414966,4,1,0,100,0,0
86683,-109.58904109589,4,1,0,100,0,0
86813,-110.344827586207,4,1,0,100,0,0
86942,-111.111111111111,4,1,0,100,0,0
88494,-108.695652173913,4,1,0,100,0,0
88623,-106.382978723404,4,1,0,100,0,0
88752,-104.166666666667,4,1,0,100,0,0
88882,-102.040816326531,4,1,0,100,0,0
89011,-100,4,1,0,100,0,0
89140,-101.26582278481,4,1,0,100,0,0
89270,-102.564102564103,4,1,0,100,0,0
89399,-103.896103896104,4,1,0,100,0,0
89528,-105.263157894737,4,1,0,100,0,0
89658,-106.666666666667,4,1,0,100,0,0
89787,-108.108108108108,4,1,0,100,0,0
89916,-109.58904109589,4,1,0,100,0,0
90045,-111.111111111111,4,1,0,100,0,0
92114,-108.433734939759,4,1,0,100,0,0
92244,-105.882352941176,4,1,0,100,0,0
92373,-103.448275862069,4,1,0,100,0,0
92502,-101.123595505618,4,1,0,100,0,0
92632,-98.9010989010989,4,1,0,100,0,0
92761,-96.7741935483871,4,1,0,100,0,0
92890,-94.7368421052632,4,1,0,100,0,0
93020,-92.7835051546392,4,1,0,100,0,0
93149,-90.9090909090909,4,1,0,100,0,0
93278,-91.9540229885057,4,1,0,100,0,0
93408,-93.0232558139535,4,1,0,100,0,0
93537,-94.1176470588235,4,1,0,100,0,0
93666,-95.2380952380952,4,1,0,100,0,0
93795,-96.3855421686747,4,1,0,100,0,0
93925,-97.5609756097561,4,1,0,100,0,0
94054,-98.7654320987654,4,1,0,100,0,0
94183,-100,4,1,0,100,0,0
94313,-101.26582278481,4,1,0,100,0,0
94442,-102.564102564103,4,1,0,100,0,0
94571,-103.896103896104,4,1,0,100,0,0
94701,-105.263157894737,4,1,0,100,0,0
94830,-106.666666666667,4,1,0,100,0,0
94959,-108.108108108108,4,1,0,100,0,0
95089,-109.58904109589,4,1,0,100,0,0
95218,-111.111111111111,4,1,0,100,0,0
96252,-109.375,4,1,0,100,0,0
96382,-107.692307692308,4,1,0,100,0,0
96511,-106.060606060606,4,1,0,100,0,0
96640,-104.477611940299,4,1,0,100,0,0
96770,-102.941176470588,4,1,0,100,0,0
96899,-101.449275362319,4,1,0,100,0,0
97028,-100,4,1,0,100,0,0
97416,-101.26582278481,4,1,0,100,0,0
97545,-102.564102564103,4,1,0,100,0,0
97675,-103.896103896104,4,1,0,100,0,0
97804,-105.263157894737,4,1,0,100,0,0
97933,-106.666666666667,4,1,0,100,0,0
98063,-108.108108108108,4,1,0,100,0,0
98192,-109.58904109589,4,1,0,100,0,0
98321,-111.111111111111,4,1,0,100,0,0
99097,-110.63829787234,4,1,0,100,0,0
99161,-110.169491525424,4,1,0,100,0,0
99227,-109.704641350211,4,1,0,100,0,0
99290,-109.243697478992,4,1,0,100,0,0
99356,-108.786610878661,4,1,0,100,0,0
99420,-108.333333333333,4,1,0,100,0,0
99484,-107.883817427386,4,1,0,100,0,0
99549,-107.438016528926,4,1,0,100,0,0
99614,-106.995884773663,4,1,0,100,0,0
99679,-106.55737704918,4,1,0,100,0,0
99744,-106.122448979592,4,1,0,100,0,0
99808,-105.691056910569,4,1,0,100,0,0
99873,-105.263157894737,4,1,0,100,0,0
100132,-102.564102564103,4,1,0,100,0,0
100390,-100,4,1,0,100,0,0
100455,-99.3788819875776,4,1,0,100,0,0
100520,-98.7654320987654,4,1,0,100,0,0
100584,-98.159509202454,4,1,0,100,0,0
100649,-97.5609756097561,4,1,0,100,0,0
100714,-96.969696969697,4,1,0,100,0,0
100778,-96.3855421686747,4,1,0,100,0,0
100843,-95.8083832335329,4,1,0,100,0,0
100908,-95.2380952380952,4,1,0,100,0,0
100972,-94.6745562130177,4,1,0,100,0,0
101037,-94.1176470588235,4,1,0,100,0,0
101102,-93.5672514619883,4,1,0,100,0,0
101166,-93.0232558139535,4,1,0,100,0,0
101231,-92.485549132948,4,1,0,100,0,0
101295,-91.9540229885057,4,1,0,100,0,0
101360,-91.4285714285714,4,1,0,100,0,0
101425,-90.9090909090909,4,1,0,100,0,1
105563,-90.9935004642525,4,1,0,100,0,1
105627,-91.0780669144981,4,1,0,100,0,1
105692,-91.1627906976744,4,1,0,100,0,1
105757,-91.2476722532588,4,1,0,100,0,1
105821,-91.3327120223672,4,1,0,100,0,1
105886,-91.4179104477612,4,1,0,100,0,1
105951,-91.5032679738562,4,1,0,100,0,1
106015,-91.588785046729,4,1,0,100,0,1
106080,-91.6744621141253,4,1,0,100,0,1
106145,-91.7602996254682,4,1,0,100,0,1
106209,-91.846298031865,4,1,0,100,0,1
106274,-91.9324577861163,4,1,0,100,0,1
106339,-92.018779342723,4,1,0,100,0,1
106403,-92.1052631578947,4,1,0,100,0,1
106468,-92.1919096895578,4,1,0,100,0,1
106533,-92.2787193973634,4,1,0,100,0,1
106597,-92.3656927426956,4,1,0,100,0,1
106662,-92.4528301886792,4,1,0,100,0,1
106727,-92.5401322001889,4,1,0,100,0,1
106791,-92.6275992438563,4,1,0,100,0,1
106856,-92.7152317880795,4,1,0,100,0,1
106920,-92.8030303030303,4,1,0,100,0,1
106985,-92.8909952606635,4,1,0,100,0,1
107050,-92.9791271347249,4,1,0,100,0,1
107114,-93.0674264007597,4,1,0,100,0,1
107179,-93.1558935361217,4,1,0,100,0,1
107244,-93.244529019981,4,1,0,100,0,1
107308,-93.3333333333333,4,1,0,100,0,1
107373,-93.4223069590086,4,1,0,100,0,1
107438,-93.5114503816794,4,1,0,100,0,1
107502,-93.6007640878701,4,1,0,100,0,1
107567,-93.6902485659656,4,1,0,100,0,1
107632,-93.7799043062201,4,1,0,100,0,1
107696,-93.8697318007663,4,1,0,100,0,1
107761,-93.9597315436242,4,1,0,100,0,1
107826,-94.0499040307102,4,1,0,100,0,1
107890,-94.1402497598463,4,1,0,100,0,1
107955,-94.2307692307692,4,1,0,100,0,1
108020,-94.3214629451396,4,1,0,100,0,1
108084,-94.412331406551,4,1,0,100,0,1
108149,-94.50337512054,4,1,0,100,0,1
108214,-94.5945945945946,4,1,0,100,0,1
108278,-94.6859903381642,4,1,0,100,0,1
108343,-94.7775628626693,4,1,0,100,0,1
108408,-94.8693126815102,4,1,0,100,0,1
108472,-94.9612403100775,4,1,0,100,0,1
108537,-95.0533462657614,4,1,0,100,0,1
108602,-95.1456310679612,4,1,0,100,0,1
108666,-95.2380952380952,4,1,0,100,0,1
108795,-95.5882352941176,4,1,0,100,0,1
108860,-95.9409594095941,4,1,0,100,0,1
108925,-96.2962962962963,4,1,0,100,0,1
108989,-96.6542750929368,4,1,0,100,0,1
109054,-97.0149253731343,4,1,0,100,0,1
109118,-97.378277153558,4,1,0,100,0,1
109183,-97.7443609022557,4,1,0,100,0,1
109247,-98.1132075471698,4,1,0,100,0,1
109313,-98.4848484848485,4,1,0,100,0,1
109377,-98.8593155893536,4,1,0,100,0,1
109442,-99.236641221374,4,1,0,100,0,1
109507,-99.6168582375479,4,1,0,100,0,1
109571,-100,4,1,0,100,0,1
109701,-90.9090909090909,4,1,0,100,0,1
111770,-91.1602209944751,4,1,0,100,0,1
111834,-91.4127423822715,4,1,0,100,0,1
111899,-91.6666666666667,4,1,0,100,0,1
111964,-91.9220055710306,4,1,0,100,0,1
112028,-92.1787709497207,4,1,0,100,0,1
112093,-92.436974789916,4,1,0,100,0,1
112158,-92.6966292134831,4,1,0,100,0,1
112222,-92.9577464788732,4,1,0,100,0,1
112287,-93.2203389830508,4,1,0,100,0,1
112352,-93.4844192634561,4,1,0,100,0,1
112416,-93.75,4,1,0,100,0,1
112481,-94.017094017094,4,1,0,100,0,1
112545,-94.2857142857143,4,1,0,100,0,1
112610,-94.5558739255014,4,1,0,100,0,1
112675,-94.8275862068965,4,1,0,100,0,1
112739,-95.1008645533141,4,1,0,100,0,1
112804,-95.3757225433526,4,1,0,100,0,1
112869,-95.6521739130435,4,1,0,100,0,1
112933,-95.9302325581395,4,1,0,100,0,1
112998,-96.2099125364431,4,1,0,100,0,1
113063,-96.4912280701754,4,1,0,100,0,1
113127,-96.7741935483871,4,1,0,100,0,1
113192,-97.0588235294118,4,1,0,100,0,1
113257,-97.3451327433628,4,1,0,100,0,1
113321,-97.6331360946746,4,1,0,100,0,1
113386,-97.9228486646884,4,1,0,100,0,1
113451,-98.2142857142857,4,1,0,100,0,1
113515,-98.5074626865672,4,1,0,100,0,1
113580,-98.8023952095808,4,1,0,100,0,1
113645,-99.0990990990991,4,1,0,100,0,1
113709,-99.3975903614458,4,1,0,100,0,1
113774,-99.6978851963746,4,1,0,100,0,1
113839,-100,4,1,0,100,0,0
116942,-100,4,1,0,100,0,0
117071,-99.236641221374,4,1,0,100,0,0
117136,-98.4848484848485,4,1,0,100,0,0
117201,-97.7443609022557,4,1,0,100,0,0
117264,-97.0149253731343,4,1,0,100,0,0
117330,-96.2962962962963,4,1,0,100,0,0
117394,-95.5882352941176,4,1,0,100,0,0
117459,-94.8905109489051,4,1,0,100,0,0
117524,-94.2028985507246,4,1,0,100,0,0
117589,-93.5251798561151,4,1,0,100,0,0
117652,-92.8571428571428,4,1,0,100,0,0
117718,-92.1985815602837,4,1,0,100,0,0
117782,-91.5492957746479,4,1,0,100,0,0
117847,-90.9090909090909,4,1,0,100,0,1
121080,-91.3978494623656,4,1,0,100,0,1
121145,-91.8918918918919,4,1,0,100,0,1
121209,-92.3913043478261,4,1,0,100,0,1
121274,-92.896174863388,4,1,0,100,0,1
121339,-93.4065934065934,4,1,0,100,0,1
121403,-93.9226519337017,4,1,0,100,0,1
121468,-94.4444444444444,4,1,0,100,0,1
121533,-94.9720670391062,4,1,0,100,0,1
121597,-95.5056179775281,4,1,0,100,0,1
121662,-96.045197740113,4,1,0,100,0,1
121727,-96.5909090909091,4,1,0,100,0,1
121791,-97.1428571428571,4,1,0,100,0,1
121856,-97.7011494252874,4,1,0,100,0,1
121920,-98.2658959537572,4,1,0,100,0,1
121985,-98.8372093023256,4,1,0,100,0,1
122050,-99.4152046783626,4,1,0,100,0,1
122114,-100,4,1,0,100,0,1
125218,-100.671140939597,4,1,0,100,0,1
125283,-101.351351351351,4,1,0,100,0,1
125347,-102.040816326531,4,1,0,100,0,1
125411,-102.739726027397,4,1,0,100,0,1
125477,-103.448275862069,4,1,0,100,0,1
125541,-104.166666666667,4,1,0,100,0,1
125606,-104.895104895105,4,1,0,100,0,1
125670,-105.633802816901,4,1,0,100,0,1
125735,-106.382978723404,4,1,0,100,0,1
125800,-107.142857142857,4,1,0,100,0,1
125864,-107.913669064748,4,1,0,100,0,1
125929,-108.695652173913,4,1,0,100,0,1
125994,-109.489051094891,4,1,0,100,0,1
126058,-110.294117647059,4,1,0,100,0,1
126123,-111.111111111111,4,1,0,100,0,1
126252,-100,4,1,0,100,0,1
130390,-99.4475138121547,4,1,0,100,0,1
130455,-98.9010989010989,4,1,0,100,0,1
130520,-98.3606557377049,4,1,0,100,0,1
130584,-97.8260869565217,4,1,0,100,0,1
130649,-97.2972972972973,4,1,0,100,0,1
130714,-96.7741935483871,4,1,0,100,0,1
130778,-96.2566844919786,4,1,0,100,0,1
130843,-95.7446808510638,4,1,0,100,0,1
130908,-95.2380952380952,4,1,0,100,0,1
131942,-94.7368421052632,4,1,0,100,0,1
132007,-94.2408376963351,4,1,0,100,0,1
132071,-93.75,4,1,0,100,0,1
132136,-93.2642487046632,4,1,0,100,0,1
132201,-92.7835051546392,4,1,0,100,0,1
132265,-92.3076923076923,4,1,0,100,0,1
132330,-91.8367346938775,4,1,0,100,0,1
132395,-91.3705583756345,4,1,0,100,0,1
132459,-90.9090909090909,4,1,0,100,0,1
134399,-95.2380952380952,4,1,0,100,0,1
134528,-100,4,1,0,100,0,0
134593,-111.111111111111,4,1,0,100,0,0
137632,-110.726643598616,4,1,0,100,0,0
137718,-109.215017064846,4,1,0,100,0,0
137804,-107.744107744108,4,1,0,100,0,0
137890,-106.312292358804,4,1,0,100,0,0
137977,-104.918032786885,4,1,0,100,0,0
138063,-103.559870550162,4,1,0,100,0,0
138149,-102.23642172524,4,1,0,100,0,0
138278,-100.313479623824,4,1,0,100,0,0
138408,-98.4615384615385,4,1,0,100,0,0
138537,-96.6767371601208,4,1,0,100,0,0
138666,-95.2380952380952,4,1,0,100,0,0
141770,-96.045197740113,4,1,0,100,0,0
141834,-96.8660968660969,4,1,0,100,0,0
141899,-97.7011494252874,4,1,0,100,0,0
141962,-98.5507246376812,4,1,0,100,0,0
142028,-99.4152046783626,4,1,0,100,0,0
142093,-100.294985250737,4,1,0,100,0,0
142158,-101.190476190476,4,1,0,100,0,0
142221,-102.102102102102,4,1,0,100,0,0
142287,-103.030303030303,4,1,0,100,0,0
142352,-103.975535168196,4,1,0,100,0,0
142416,-104.938271604938,4,1,0,100,0,0
142481,-105.919003115265,4,1,0,100,0,0
142545,-106.918238993711,4,1,0,100,0,0
142609,-107.936507936508,4,1,0,100,0,0
142675,-108.974358974359,4,1,0,100,0,0
142738,-110.032362459547,4,1,0,100,0,0
142804,-111.111111111111,4,1,0,100,0,0
145908,-110.734463276836,4,1,0,100,0,0
145994,-109.253065774805,4,1,0,100,0,0
146080,-107.810781078108,4,1,0,100,0,0
146166,-106.406080347448,4,1,0,100,0,0
146252,-105.037513397642,4,1,0,100,0,0
146339,-103.703703703704,4,1,0,100,0,0
146425,-102.403343782654,4,1,0,100,0,0
146554,-100.512820512821,4,1,0,100,0,0
146683,-98.6908358509567,4,1,0,100,0,0
146813,-96.9337289812067,4,1,0,100,0,0
146942,-95.2380952380952,4,1,0,100,0,0
150045,-96.045197740113,4,1,0,100,0,0
150108,-96.8660968660969,4,1,0,100,0,0
150175,-97.7011494252874,4,1,0,100,0,0
150236,-98.5507246376812,4,1,0,100,0,0
150304,-99.4152046783626,4,1,0,100,0,0
150367,-100.294985250737,4,1,0,100,0,0
150433,-101.190476190476,4,1,0,100,0,0
150495,-102.102102102102,4,1,0,100,0,0
150563,-103.030303030303,4,1,0,100,0,0
150626,-103.975535168196,4,1,0,100,0,0
150692,-104.938271604938,4,1,0,100,0,0
150755,-105.919003115265,4,1,0,100,0,0
150821,-106.918238993711,4,1,0,100,0,0
150883,-107.936507936508,4,1,0,100,0,0
150951,-108.974358974359,4,1,0,100,0,0
151012,-110.032362459547,4,1,0,100,0,0
151080,-111.111111111111,4,1,0,100,0,0
154183,-110.032362459547,4,1,0,100,0,0
154246,-108.974358974359,4,1,0,100,0,0
154313,-107.936507936508,4,1,0,100,0,0
154375,-106.918238993711,4,1,0,100,0,0
154442,-105.919003115265,4,1,0,100,0,0
154505,-104.938271604938,4,1,0,100,0,0
154571,-103.975535168196,4,1,0,100,0,0
154634,-103.030303030303,4,1,0,100,0,0
154701,-102.102102102102,4,1,0,100,0,0
154763,-101.190476190476,4,1,0,100,0,0
154830,-100.294985250737,4,1,0,100,0,0
154893,-99.4152046783626,4,1,0,100,0,0
154959,-98.5507246376812,4,1,0,100,0,0
155022,-97.7011494252874,4,1,0,100,0,0
155089,-96.8660968660969,4,1,0,100,0,0
155151,-96.045197740113,4,1,0,100,0,0
155218,-95.2380952380952,4,1,0,100,0,0
158321,-96.045197740113,4,1,0,100,0,0
158385,-96.8660968660969,4,1,0,100,0,0
158451,-97.7011494252874,4,1,0,100,0,0
158513,-98.5507246376812,4,1,0,100,0,0
158580,-99.4152046783626,4,1,0,100,0,0
158644,-100.294985250737,4,1,0,100,0,0
158709,-101.190476190476,4,1,0,100,0,0
158772,-102.102102102102,4,1,0,100,0,0
158839,-103.030303030303,4,1,0,100,0,0
158903,-103.975535168196,4,1,0,100,0,0
158968,-104.938271604938,4,1,0,100,0,0
159032,-105.919003115265,4,1,0,100,0,0
159097,-106.918238993711,4,1,0,100,0,0
159160,-107.936507936508,4,1,0,100,0,0
159227,-108.974358974359,4,1,0,100,0,0
159289,-110.032362459547,4,1,0,100,0,0
159356,-111.111111111111,4,1,0,100,0,0
162459,-87.9120879120879,4,1,0,100,0,0
162524,-88.8888888888889,4,1,0,100,0,0
162589,-89.8876404494382,4,1,0,100,0,0
162653,-90.9090909090909,4,1,0,100,0,0
162718,-91.9540229885058,4,1,0,100,0,0
162783,-93.0232558139535,4,1,0,100,0,0
162847,-94.1176470588235,4,1,0,100,0,0
162912,-95.2380952380952,4,1,0,100,0,0
162977,-87.8048780487805,4,1,0,100,0,0
163041,-88.6699507389163,4,1,0,100,0,0
163106,-89.5522388059701,4,1,0,100,0,0
163170,-90.4522613065326,4,1,0,100,0,0
163235,-91.3705583756345,4,1,0,100,0,0
163300,-92.3076923076923,4,1,0,100,0,0
163364,-93.2642487046632,4,1,0,100,0,0
163429,-94.2408376963351,4,1,0,100,0,0
163494,-95.2380952380952,4,1,0,100,0,0
164528,-94.4444444444444,4,1,0,100,0,0
164593,-93.66391184573,4,1,0,100,0,0
164658,-92.896174863388,4,1,0,100,0,0
164722,-92.1409214092141,4,1,0,100,0,0
164787,-91.3978494623656,4,1,0,100,0,0
164851,-90.6666666666667,4,1,0,100,0,0
164916,-89.9470899470899,4,1,0,100,0,0
164980,-89.2388451443569,4,1,0,100,0,0
165045,-88.5416666666667,4,1,0,100,0,0
165110,-87.8552971576227,4,1,0,100,0,0
165175,-87.1794871794872,4,1,0,100,0,0
165239,-86.5139949109415,4,1,0,100,0,0
165304,-85.8585858585859,4,1,0,100,0,0
165368,-85.2130325814536,4,1,0,100,0,0
165433,-84.5771144278607,4,1,0,100,0,0
165497,-83.9506172839506,4,1,0,100,0,0
165563,-83.3333333333333,4,1,0,100,0,0
167632,-83.3333333333333,4,1,0,100,0,0
167696,-100,4,1,0,100,0,0
169701,-83.3333333333333,4,1,0,100,0,0
169765,-100,4,1,0,100,0,0
171770,-83.3333333333333,4,1,0,100,0,0
171834,-100,4,1,0,100,0,0
173839,-83.3333333333333,4,1,0,100,0,0
173903,-100,4,1,0,100,0,0
175908,-83.3333333333333,4,1,0,100,0,0
175972,-100,4,1,0,100,0,0
177977,-83.3333333333333,4,1,0,100,0,0
178041,-100,4,1,0,100,0,0
180045,-83.3333333333333,4,1,0,100,0,0
180109,-100,4,1,0,100,0,0
182114,-83.3333333333333,4,1,0,100,0,0
182178,-100,4,1,0,100,0,0
183149,-91.3978494623656,4,1,0,100,0,0
183214,-91.8918918918919,4,1,0,100,0,0
183278,-92.3913043478261,4,1,0,100,0,0
183343,-92.896174863388,4,1,0,100,0,0
183408,-93.4065934065934,4,1,0,100,0,0
183472,-93.9226519337017,4,1,0,100,0,0
183537,-94.4444444444444,4,1,0,100,0,0
183602,-94.9720670391062,4,1,0,100,0,0
183666,-95.5056179775281,4,1,0,100,0,0
183731,-96.045197740113,4,1,0,100,0,0
183795,-96.5909090909091,4,1,0,100,0,0
183860,-97.1428571428571,4,1,0,100,0,0
183925,-97.7011494252874,4,1,0,100,0,0
183989,-98.2658959537572,4,1,0,100,0,0
184054,-98.8372093023256,4,1,0,100,0,0
184119,-99.4152046783626,4,1,0,100,0,0
184183,-100,4,1,0,100,0,0
187804,-91.8367346938775,4,1,0,100,0,0
187869,-92.7835051546392,4,1,0,100,0,0
187933,-93.75,4,1,0,100,0,0
187998,-94.7368421052632,4,1,0,100,0,0
188063,-95.7446808510638,4,1,0,100,0,0
188127,-96.7741935483871,4,1,0,100,0,0
188192,-97.8260869565217,4,1,0,100,0,0
188257,-98.9010989010989,4,1,0,100,0,0
188321,-100,4,1,0,100,0,0
191425,-90.9090909090909,4,1,0,100,0,0
191683,-91.5492957746479,4,1,0,100,0,0
191748,-92.1985815602837,4,1,0,100,0,0
191813,-92.8571428571428,4,1,0,100,0,0
191877,-93.5251798561151,4,1,0,100,0,0
191942,-94.2028985507246,4,1,0,100,0,0
192007,-94.8905109489051,4,1,0,100,0,0
192071,-95.5882352941176,4,1,0,100,0,0
192136,-96.2962962962963,4,1,0,100,0,0
192201,-97.0149253731343,4,1,0,100,0,0
192265,-97.7443609022557,4,1,0,100,0,0
192330,-98.4848484848485,4,1,0,100,0,0
192395,-99.236641221374,4,1,0,100,0,0
192459,-100,4,1,0,100,0,0
196080,-91.8367346938775,4,1,0,100,0,0
196145,-92.7835051546392,4,1,0,100,0,0
196209,-93.75,4,1,0,100,0,0
196274,-94.7368421052632,4,1,0,100,0,0
196339,-95.7446808510638,4,1,0,100,0,0
196403,-96.7741935483871,4,1,0,100,0,0
196468,-97.8260869565217,4,1,0,100,0,0
196533,-98.9010989010989,4,1,0,100,0,0
196597,-100,4,1,0,100,0,0
198666,-91.3978494623656,4,1,0,100,0,0
198731,-91.8918918918919,4,1,0,100,0,0
198795,-92.3913043478261,4,1,0,100,0,0
198860,-92.896174863388,4,1,0,100,0,0
198925,-93.4065934065934,4,1,0,100,0,0
198989,-93.9226519337017,4,1,0,100,0,0
199054,-94.4444444444444,4,1,0,100,0,0
199119,-94.9720670391062,4,1,0,100,0,0
199183,-95.5056179775281,4,1,0,100,0,0
199248,-96.045197740113,4,1,0,100,0,0
199313,-96.5909090909091,4,1,0,100,0,0
199377,-97.1428571428571,4,1,0,100,0,0
199442,-97.7011494252874,4,1,0,100,0,0
199507,-98.2658959537572,4,1,0,100,0,0
199571,-98.8372093023256,4,1,0,100,0,0
199636,-99.4152046783626,4,1,0,100,0,0
199701,-100,4,1,0,100,0,0
202804,-83.3333333333333,4,1,0,100,0,0
202869,-100,4,1,0,100,0,0
204873,-83.3333333333333,4,1,0,100,0,0
204938,-100,4,1,0,100,0,0
206942,-83.3333333333333,4,1,0,100,0,0
207007,-100,4,1,0,100,0,0
207977,-91.6666666666667,4,1,0,100,0,0
208041,-92.436974789916,4,1,0,100,0,0
208106,-93.2203389830508,4,1,0,100,0,0
208170,-94.017094017094,4,1,0,100,0,0
208235,-94.8275862068965,4,1,0,100,0,0
208300,-95.6521739130435,4,1,0,100,0,0
208364,-96.4912280701754,4,1,0,100,0,0
208429,-97.3451327433628,4,1,0,100,0,0
208494,-98.2142857142857,4,1,0,100,0,0
208558,-99.0990990990991,4,1,0,100,0,0
208623,-100,4,1,0,100,0,0
209011,-83.3333333333333,4,1,0,100,0,0
209076,-100,4,1,0,100,0,0
211080,-83.3333333333333,4,1,0,100,0,0
211145,-100,4,1,0,100,0,0
213149,-83.3333333333333,4,1,0,100,0,0
213214,-100,4,1,0,100,0,0
215218,-83.3333333333333,4,1,0,100,0,0
215283,-100,4,1,0,100,0,0
216252,-91.3978494623656,4,1,0,100,0,0
216317,-91.8918918918919,4,1,0,100,0,0
216382,-92.3913043478261,4,1,0,100,0,0
216446,-92.896174863388,4,1,0,100,0,0
216511,-93.4065934065934,4,1,0,100,0,0
216576,-93.9226519337017,4,1,0,100,0,0
216640,-94.4444444444444,4,1,0,100,0,0
216705,-94.9720670391062,4,1,0,100,0,0
216770,-95.5056179775281,4,1,0,100,0,0
216834,-96.045197740113,4,1,0,100,0,0
216899,-96.5909090909091,4,1,0,100,0,0
216964,-97.1428571428571,4,1,0,100,0,0
217028,-97.7011494252874,4,1,0,100,0,0
217093,-98.2658959537572,4,1,0,100,0,0
217158,-98.8372093023256,4,1,0,100,0,0
217222,-99.4152046783626,4,1,0,100,0,0
217287,-100,4,1,0,100,0,0
220908,-91.8367346938775,4,1,0,100,0,0
220972,-92.7835051546392,4,1,0,100,0,0
221037,-93.75,4,1,0,100,0,0
221102,-94.7368421052632,4,1,0,100,0,0
221166,-95.7446808510638,4,1,0,100,0,0
221231,-96.7741935483871,4,1,0,100,0,0
221295,-97.8260869565217,4,1,0,100,0,0
221360,-98.9010989010989,4,1,0,100,0,0
221425,-100,4,1,0,100,0,0
224140,-87.4524714828897,4,1,0,100,0,0
224205,-87.9541108986616,4,1,0,100,0,0
224270,-88.4615384615385,4,1,0,100,0,0
224334,-88.9748549323018,4,1,0,100,0,0
224399,-89.4941634241245,4,1,0,100,0,0
224464,-90.0195694716243,4,1,0,100,0,0
224528,-90.5511811023622,4,1,0,100,0,0
224593,-91.0891089108911,4,1,0,100,0,0
224658,-91.6334661354582,4,1,0,100,0,0
224722,-92.1843687374749,4,1,0,100,0,0
224787,-92.741935483871,4,1,0,100,0,0
224852,-93.3062880324544,4,1,0,100,0,0
224916,-93.8775510204082,4,1,0,100,0,0
224981,-94.4558521560575,4,1,0,100,0,0
225045,-95.0413223140496,4,1,0,100,0,0
225110,-95.6340956340956,4,1,0,100,0,0
225175,-96.234309623431,4,1,0,100,0,0
225239,-96.8421052631579,4,1,0,100,0,0
225304,-97.4576271186441,4,1,0,100,0,0
225369,-98.0810234541578,4,1,0,100,0,0
225433,-98.7124463519313,4,1,0,100,0,0
225498,-99.3520518358531,4,1,0,100,0,0
225563,-100,4,1,0,100,0,0
229183,-91.8367346938775,4,1,0,100,0,0
229248,-92.7835051546392,4,1,0,100,0,0
229313,-93.75,4,1,0,100,0,0
229377,-94.7368421052632,4,1,0,100,0,0
229442,-95.7446808510638,4,1,0,100,0,0
229507,-96.7741935483871,4,1,0,100,0,0
229571,-97.8260869565217,4,1,0,100,0,0
229636,-98.9010989010989,4,1,0,100,0,0
229701,-100,4,1,0,100,0,0
229959,-96.2566844919786,4,1,0,100,0,0
230024,-97.2972972972973,4,1,0,100,0,0
230089,-98.3606557377049,4,1,0,100,0,0
230153,-99.4475138121547,4,1,0,100,0,0
230218,-100.558659217877,4,1,0,100,0,0
230283,-101.694915254237,4,1,0,100,0,0
230347,-102.857142857143,4,1,0,100,0,0
230412,-104.046242774566,4,1,0,100,0,0
230477,-105.263157894737,4,1,0,100,0,0
230606,-100.917431192661,4,1,0,100,0,0
230670,-101.851851851852,4,1,0,100,0,0
230735,-102.803738317757,4,1,0,100,0,0
230800,-103.77358490566,4,1,0,100,0,0
230864,-104.761904761905,4,1,0,100,0,0
230929,-105.769230769231,4,1,0,100,0,0
230994,-106.796116504854,4,1,0,100,0,0
231058,-107.843137254902,4,1,0,100,0,0
231123,-108.910891089109,4,1,0,100,0,0
231188,-110,4,1,0,100,0,0
231252,-111.111111111111,4,1,0,100,0,0
231382,-112.676056338028,4,1,0,100,0,0
231511,-114.285714285714,4,1,0,100,0,0
231640,-115.942028985507,4,1,0,100,0,0
231770,-117.647058823529,4,1,0,100,0,0
231834,-116.666666666667,4,1,0,100,0,0
231899,-115.702479338843,4,1,0,100,0,0
231964,-114.754098360656,4,1,0,100,0,0
232028,-113.821138211382,4,1,0,100,0,0
232093,-112.903225806452,4,1,0,100,0,0
232158,-112,4,1,0,100,0,0
232222,-111.111111111111,4,1,0,100,0,0
232287,-110.236220472441,4,1,0,100,0,0
232352,-109.375,4,1,0,100,0,0
232416,-108.527131782946,4,1,0,100,0,0
232481,-107.692307692308,4,1,0,100,0,0
232545,-106.870229007634,4,1,0,100,0,0
232610,-106.060606060606,4,1,0,100,0,0
232675,-105.263157894737,4,1,0,100,0,0
232739,-104.477611940299,4,1,0,100,0,0
232804,-103.703703703704,4,1,0,100,0,0
232869,-102.941176470588,4,1,0,100,0,0
232933,-102.189781021898,4,1,0,100,0,0
232998,-101.449275362319,4,1,0,100,0,0
233063,-100.719424460432,4,1,0,100,0,0
233127,-100,4,1,0,100,0,0
233192,-99.290780141844,4,1,0,100,0,0
233257,-98.5915492957747,4,1,0,100,0,0
233321,-97.9020979020979,4,1,0,100,0,0
233386,-97.2222222222222,4,1,0,100,0,0
233451,-96.551724137931,4,1,0,100,0,0
233515,-95.8904109589041,4,1,0,100,0,0
233580,-95.2380952380952,4,1,0,100,0,0
233839,-90.9090909090909,4,1,0,100,0,1
240563,-91.3705583756345,4,1,0,100,0,1
240627,-91.8367346938775,4,1,0,100,0,1
240692,-92.3076923076923,4,1,0,100,0,1
240757,-92.7835051546392,4,1,0,100,0,1
240821,-93.2642487046632,4,1,0,100,0,1
240886,-93.75,4,1,0,100,0,1
240951,-94.2408376963351,4,1,0,100,0,1
241015,-94.7368421052632,4,1,0,100,0,1
241080,-95.2380952380952,4,1,0,100,0,1
242114,-90.9090909090909,4,1,0,100,0,1
245218,-91.1528150134048,4,1,0,100,0,1
245283,-91.3978494623656,4,1,0,100,0,1
245347,-91.644204851752,4,1,0,100,0,1
245412,-91.8918918918919,4,1,0,100,0,1
245477,-92.1409214092141,4,1,0,100,0,1
245541,-92.3913043478261,4,1,0,100,0,1
245606,-92.6430517711172,4,1,0,100,0,1
245670,-92.896174863388,4,1,0,100,0,1
245735,-93.1506849315069,4,1,0,100,0,1
245800,-93.4065934065934,4,1,0,100,0,1
245864,-93.66391184573,4,1,0,100,0,1
245929,-93.9226519337017,4,1,0,100,0,1
245994,-94.1828254847646,4,1,0,100,0,1
246058,-94.4444444444444,4,1,0,100,0,1
246123,-94.7075208913649,4,1,0,100,0,1
246188,-94.9720670391062,4,1,0,100,0,1
246252,-95.2380952380952,4,1,0,100,0,1
248321,-95.5056179775281,4,1,0,100,0,1
248386,-95.7746478873239,4,1,0,100,0,1
248451,-96.045197740113,4,1,0,100,0,1
248515,-96.3172804532578,4,1,0,100,0,1
248580,-96.5909090909091,4,1,0,100,0,1
248645,-96.8660968660969,4,1,0,100,0,1
248709,-97.1428571428571,4,1,0,100,0,1
248774,-97.4212034383954,4,1,0,100,0,1
248839,-97.7011494252874,4,1,0,100,0,1
248903,-97.9827089337176,4,1,0,100,0,1
248968,-98.2658959537572,4,1,0,100,0,1
249033,-98.5507246376812,4,1,0,100,0,1
249097,-98.8372093023256,4,1,0,100,0,1
249162,-99.1253644314869,4,1,0,100,0,1
249227,-99.4152046783626,4,1,0,100,0,1
249291,-99.7067448680352,4,1,0,100,0,1
249356,-100,4,1,0,100,0,0
249485,-95.2380952380952,4,1,0,100,0,0
250261,-90.9090909090909,4,1,0,100,0,1
256597,-91.1528150134048,4,1,0,100,0,1
256662,-91.3978494623656,4,1,0,100,0,1
256727,-91.644204851752,4,1,0,100,0,1
256791,-91.8918918918919,4,1,0,100,0,1
256856,-92.1409214092141,4,1,0,100,0,1
256920,-92.3913043478261,4,1,0,100,0,1
256985,-92.6430517711172,4,1,0,100,0,1
257050,-92.896174863388,4,1,0,100,0,1
257114,-93.1506849315069,4,1,0,100,0,1
257179,-93.4065934065934,4,1,0,100,0,1
257244,-93.66391184573,4,1,0,100,0,1
257308,-93.9226519337017,4,1,0,100,0,1
257373,-94.1828254847646,4,1,0,100,0,1
257438,-94.4444444444444,4,1,0,100,0,1
257502,-94.7075208913649,4,1,0,100,0,1
257567,-94.9720670391062,4,1,0,100,0,1
257632,-95.2380952380952,4,1,0,100,0,1
258666,-90.9090909090909,4,1,0,100,0,1
262804,-90.4522613065326,4,1,0,100,0,1
262869,-90,4,1,0,100,0,1
262933,-89.5522388059701,4,1,0,100,0,1
262998,-89.1089108910891,4,1,0,100,0,1
263063,-88.6699507389163,4,1,0,100,0,1
263127,-88.2352941176471,4,1,0,100,0,1
263192,-87.8048780487805,4,1,0,100,0,1
263257,-87.378640776699,4,1,0,100,0,1
263321,-86.9565217391304,4,1,0,100,0,1
263580,-86.5384615384615,4,1,0,100,0,1
263645,-86.1244019138756,4,1,0,100,0,1
263709,-85.7142857142857,4,1,0,100,0,1
263774,-85.3080568720379,4,1,0,100,0,1
263839,-84.9056603773585,4,1,0,100,0,1
263903,-84.5070422535211,4,1,0,100,0,1
263968,-84.1121495327103,4,1,0,100,0,1
264033,-83.7209302325581,4,1,0,100,0,1
264097,-83.3333333333333,4,1,0,100,0,1
264356,-82.9493087557604,4,1,0,100,0,1
264420,-82.5688073394495,4,1,0,100,0,1
264485,-82.1917808219178,4,1,0,100,0,1
264550,-81.8181818181818,4,1,0,100,0,1
264614,-81.447963800905,4,1,0,100,0,1
264679,-81.0810810810811,4,1,0,100,0,1
264744,-80.7174887892377,4,1,0,100,0,1
264808,-80.3571428571429,4,1,0,100,0,1
264873,-80,4,1,0,100,0,1
265908,-80.5687203791469,4,1,0,100,0,1
265972,-81.145584725537,4,1,0,100,0,1
266037,-81.7307692307692,4,1,0,100,0,1
266102,-82.3244552058111,4,1,0,100,0,1
266166,-82.9268292682927,4,1,0,100,0,1
266231,-83.5380835380835,4,1,0,100,0,1
266295,-84.1584158415842,4,1,0,100,0,1
266360,-84.788029925187,4,1,0,100,0,1
266425,-85.4271356783919,4,1,0,100,0,1
266489,-86.0759493670886,4,1,0,100,0,1
266554,-86.734693877551,4,1,0,100,0,1
266619,-87.4035989717223,4,1,0,100,0,1
266683,-88.0829015544041,4,1,0,100,0,1
266748,-88.7728459530026,4,1,0,100,0,1
266813,-89.4736842105263,4,1,0,100,0,1
266877,-90.1856763925729,4,1,0,100,0,1
266942,-90.9090909090909,4,1,0,100,0,1
267589,-100,4,1,0,100,0,0
268364,-113.207547169811,4,1,0,100,0,0
268494,-115.384615384615,4,1,0,100,0,0
268623,-117.647058823529,4,1,0,100,0,0
268752,-120,4,1,0,100,0,0
268882,-122.448979591837,4,1,0,100,0,0
269011,583.090379008746,4,1,0,100,1,0
269011,-54.9450549450549,4,1,0,100,0,0
269156,-54.9450549450549,4,1,0,10,0,0
271343,-61.9195046439628,4,1,0,10,0,0
273675,-70.9219858156028,4,1,0,10,0,0
276008,-82.9875518672199,4,1,0,10,0,0
278194,-82.9875518672199,4,1,0,25,0,0
278340,-100,4,1,0,25,0,0
283005,579.710144927536,4,1,0,25,1,0
283005,-100.48231511254,4,1,0,25,0,0
289961,612.244897959184,4,1,0,25,1,0
289961,-95.1474785918173,4,1,0,25,0,0
290573,588.235294117647,4,1,0,25,1,8
290573,-99.0295107942167,4,1,0,25,0,8
292310,589.68058968059,4,1,0,25,1,0
292310,-98.7849451743554,4,1,0,25,0,0
294668,576.923076923077,4,1,0,25,1,0
294668,-100.979501161264,4,1,0,25,0,0
299283,600,4,1,0,25,1,0
299283,-97.0873786407767,4,1,0,25,0,0
300483,576.923076923077,4,1,0,25,1,8
300483,-100.969305331179,4,1,0,25,0,0
301636,578.313253012048,4,1,0,25,1,0
301636,-100.725221595487,4,1,0,25,0,0
303949,588.235294117647,4,1,0,25,1,0
303949,-99.0295107942167,4,1,0,25,0,0
308654,574.162679425838,4,1,0,25,1,0
308654,-101.461038961039,4,1,0,25,0,0
310950,579.710144927536,4,1,0,25,1,0
310950,-100.48231511254,4,1,0,25,0,0
313268,588.235294117647,4,1,0,25,1,0
313268,-99.0295107942167,4,1,0,25,0,0
315620,582.52427184466,4,1,0,25,1,0
315620,-100,4,1,0,25,0,0
321445,606.060606060606,4,1,0,25,1,8
321445,-96.1168781237985,4,1,0,25,0,0
322655,833.333333333333,4,1,0,25,1,0
322655,-69.9790062981106,4,1,0,25,0,0
322932,-71.7875089734386,4,1,0,25,0,0
323210,-73.6919675755343,4,1,0,25,0,0
323488,-75.642965204236,4,1,0,25,0,0
323766,-77.7453838678328,4,1,0,25,0,0
324043,-80,4,1,0,25,0,0
324321,909.090909090909,4,1,0,25,1,0
324321,-75.4716981132076,4,1,0,25,0,0
324624,-77.7453838678328,4,1,0,25,0,0
324927,-80.1796023091725,4,1,0,25,0,0
325280,1132.07547169811,4,1,0,25,1,8
325280,-66.462847268377,4,1,0,25,0,0
325798,-71.0429099175902,4,1,0,25,0,0
326309,1132.07547169811,4,1,0,25,1,0
326309,-76.3067531476536,4,1,0,25,0,0
326592,-76.3067531476536,4,1,0,10,0,0
329422,-76.3067531476536,4,1,0,40,0,0
329609,500,4,1,0,40,1,0
329609,-66.6666666666667,4,1,0,40,0,0
359567,-66.6666666666667,4,1,0,65,0,0
361692,-66.6666666666667,4,1,0,40,0,0
364567,-66.6666666666667,4,1,0,65,0,0
364692,-66.6666666666667,4,1,0,40,0,0
365567,-66.6666666666667,4,1,0,65,0,0
365921,-66.6666666666667,4,1,0,40,0,0
368567,-66.6666666666667,4,1,0,65,0,0
368671,-66.6666666666667,4,1,0,40,0,0
369567,-66.6666666666667,4,1,0,65,0,0
369942,-66.6666666666667,4,1,0,40,0,0
371067,-66.6666666666667,4,1,0,65,0,0
371192,-66.6666666666667,4,1,0,40,0,0
373067,-66.6666666666667,4,1,0,65,0,0
373692,-66.6666666666667,4,1,0,40,0,0
374317,-66.6666666666667,4,1,0,65,0,0
374442,-66.6666666666667,4,1,0,40,0,0
375067,-66.6666666666667,4,1,0,65,0,0
375171,-66.6666666666667,4,1,0,40,0,0
375525,-66.6666666666667,4,1,0,65,0,0
375692,-66.6666666666667,4,1,0,40,0,0
377567,-66.6666666666667,4,1,0,65,0,0
377692,-66.6666666666667,4,1,0,40,0,0
379067,-66.6666666666667,4,1,0,65,0,0
379192,-66.6666666666667,4,1,0,40,0,0
379567,-66.6666666666667,4,1,0,65,0,0
379692,-66.6666666666667,4,1,0,40,0,0
380067,-66.6666666666667,4,1,0,65,0,0
380171,-66.6666666666667,4,1,0,40,0,0
380567,-66.6666666666667,4,1,0,65,0,0
380692,-66.6666666666667,4,1,0,40,0,0
381067,-66.6666666666667,4,1,0,65,0,0
381692,-66.6666666666667,4,1,0,40,0,0
383317,-66.6666666666667,4,1,0,65,0,0
383692,-66.6666666666667,4,1,0,40,0,0
384567,-66.6666666666667,4,1,0,65,0,0
384796,-66.6666666666667,4,1,0,40,0,0
385567,-66.6666666666667,4,1,0,65,0,0
385692,-66.6666666666667,4,1,0,40,0,0
386317,-66.6666666666667,4,1,0,65,0,0
386671,-66.6666666666667,4,1,0,40,0,0
387067,-66.6666666666667,4,1,0,65,0,0
387192,-66.6666666666667,4,1,0,40,0,0
389067,-66.6666666666667,4,1,0,65,0,0
389609,-65.9630606860158,4,1,0,65,0,0
389734,-65.2741514360313,4,1,0,65,0,0
389859,-64.5994832041344,4,1,0,65,0,0
389984,-63.9386189258312,4,1,0,65,0,0
390109,-63.2911392405063,4,1,0,65,0,0
390234,-62.65664160401,4,1,0,65,0,0
390359,-62.0347394540943,4,1,0,65,0,0
390484,-61.4250614250614,4,1,0,65,0,0
390609,-60.8272506082725,4,1,0,65,0,0
390734,-60.2409638554217,4,1,0,65,0,0
390859,-59.6658711217184,4,1,0,65,0,0
390984,-59.1016548463357,4,1,0,65,0,0
391109,-58.5480093676815,4,1,0,65,0,0
391234,-58.0046403712297,4,1,0,65,0,0
391359,-57.4712643678161,4,1,0,65,0,0
391484,-56.8181818181818,4,1,0,65,0,0
391609,-56.0224089635854,4,1,0,65,0,0
391734,-55.2486187845304,4,1,0,65,0,0
391859,-54.4959128065395,4,1,0,65,0,0
391984,-53.763440860215,4,1,0,65,0,0
392109,-53.0503978779841,4,1,0,65,0,0
392234,-52.3560209424084,4,1,0,65,0,0
392359,-51.6795865633075,4,1,0,65,0,0
392484,-51.0204081632653,4,1,0,65,0,0
392609,-50,4,1,0,65,0,0
392734,-49.0196078431373,4,1,0,65,0,0
392859,-48.0769230769231,4,1,0,65,0,0
392984,-47.1698113207547,4,1,0,65,0,0
393109,-46.2962962962963,4,1,0,65,0,0
393234,-45.4545454545455,4,1,0,65,0,0
393359,-40.983606557377,4,1,0,65,0,0
393421,-41.3223140495868,4,1,0,65,0,0
393484,-41.6666666666667,4,1,0,65,0,0
393546,-42.0168067226891,4,1,0,65,0,0
393609,250,4,1,0,100,1,0
393609,-85.1063829787234,4,1,0,100,0,0
393859,-86.9565217391304,4,1,0,100,0,0
394109,-88.8888888888889,4,1,0,100,0,0
394359,-90.9090909090909,4,1,0,100,0,0
394421,-100,4,1,0,100,0,0
397609,-85.1063829787234,4,1,0,100,0,0
397859,-86.9565217391304,4,1,0,100,0,0
398109,-88.8888888888889,4,1,0,100,0,0
398359,-90.9090909090909,4,1,0,100,0,0
398421,-100,4,1,0,100,0,0
408609,-98.8372093023256,4,1,0,100,0,0
408671,-97.7011494252874,4,1,0,100,0,0
408734,-96.5909090909091,4,1,0,100,0,0
408796,-95.5056179775281,4,1,0,100,0,0
408859,-94.4444444444444,4,1,0,100,0,0
408921,-93.4065934065934,4,1,0,100,0,0
408984,-92.3913043478261,4,1,0,100,0,0
409046,-91.3978494623656,4,1,0,100,0,0
409109,-90.4255319148936,4,1,0,100,0,0
409171,-89.4736842105263,4,1,0,100,0,0
409234,-88.5416666666667,4,1,0,100,0,0
409296,-87.6288659793814,4,1,0,100,0,0
409359,-86.734693877551,4,1,0,100,0,0
409421,-85.8585858585859,4,1,0,100,0,0
409484,-85,4,1,0,100,0,0
409546,-84.1584158415842,4,1,0,100,0,0
409609,-83.3333333333333,4,1,0,100,0,0
409859,-86.9565217391304,4,1,0,100,0,0
410109,-88.8888888888889,4,1,0,100,0,0
410359,-90.9090909090909,4,1,0,100,0,0
410421,-100,4,1,0,100,0,0
413609,-85.1063829787234,4,1,0,100,0,0
413859,-86.9565217391304,4,1,0,100,0,0
414109,-88.8888888888889,4,1,0,100,0,0
414359,-90.9090909090909,4,1,0,100,0,0
414421,-100,4,1,0,100,0,0
423859,-98.6842105263158,4,1,0,100,0,0
423984,-97.4025974025974,4,1,0,100,0,0
424109,-96.1538461538461,4,1,0,100,0,0
424234,-94.9367088607595,4,1,0,100,0,0
424359,-93.75,4,1,0,100,0,0
424484,-92.5925925925926,4,1,0,100,0,0
424609,-91.4634146341463,4,1,0,100,0,0
424734,-90.3614457831325,4,1,0,100,0,0
424859,-89.2857142857143,4,1,0,100,0,0
424984,-88.2352941176471,4,1,0,100,0,0
425109,-87.2093023255814,4,1,0,100,0,0
425234,-86.2068965517241,4,1,0,100,0,0
425359,-85.2272727272727,4,1,0,100,0,0
425421,-84.9834282314949,4,1,0,100,0,0
425484,-84.2696629213483,4,1,0,100,0,0
425546,-83.7942014412603,4,1,0,100,0,0
425609,-83.3333333333333,4,1,0,100,0,0
425859,-86.9565217391304,4,1,0,100,0,0
426109,-88.8888888888889,4,1,0,100,0,0
426359,-90.9090909090909,4,1,0,100,0,0
426421,-100,4,1,0,100,0,0
428609,-98.8372093023256,4,1,0,100,0,0
428671,-97.7011494252874,4,1,0,100,0,0
428734,-96.5909090909091,4,1,0,100,0,0
428796,-95.5056179775281,4,1,0,100,0,0
428859,-94.4444444444444,4,1,0,100,0,0
428921,-93.4065934065934,4,1,0,100,0,0
428984,-92.3913043478261,4,1,0,100,0,0
429046,-91.3978494623656,4,1,0,100,0,0
429109,-90.4255319148936,4,1,0,100,0,0
429171,-89.4736842105263,4,1,0,100,0,0
429234,-88.5416666666667,4,1,0,100,0,0
429296,-87.6288659793814,4,1,0,100,0,0
429359,-86.734693877551,4,1,0,100,0,0
429421,-85.8585858585859,4,1,0,100,0,0
429484,-85,4,1,0,100,0,0
429546,-84.1584158415842,4,1,0,100,0,0
429609,-85.1063829787234,4,1,0,100,0,0
429859,-86.9565217391304,4,1,0,100,0,0
430109,-88.8888888888889,4,1,0,100,0,0
430359,-90.9090909090909,4,1,0,100,0,0
430420,-100,4,1,0,100,0,0
432609,-98.8372093023256,4,1,0,100,0,0
432671,-97.7011494252874,4,1,0,100,0,0
432734,-96.5909090909091,4,1,0,100,0,0
432796,-95.5056179775281,4,1,0,100,0,0
432859,-94.4444444444444,4,1,0,100,0,0
432921,-93.4065934065934,4,1,0,100,0,0
432984,-92.3913043478261,4,1,0,100,0,0
433046,-91.3978494623656,4,1,0,100,0,0
433109,-90.4255319148936,4,1,0,100,0,0
433171,-89.4736842105263,4,1,0,100,0,0
433234,-88.5416666666667,4,1,0,100,0,0
433296,-87.6288659793814,4,1,0,100,0,0
433359,-86.734693877551,4,1,0,100,0,0
433421,-85.8585858585859,4,1,0,100,0,0
433484,-85,4,1,0,100,0,0
433546,-84.1584158415842,4,1,0,100,0,0
433609,-85.3658536585366,4,1,0,100,0,0
433733,-87.5,4,1,0,100,0,0
433859,-89.7435897435897,4,1,0,100,0,0
433984,-92.1052631578947,4,1,0,100,0,0
434108,-94.5945945945946,4,1,0,100,0,0
434233,-97.2222222222222,4,1,0,100,0,0
434359,-100,4,1,0,100,0,0
434420,-100,4,1,0,100,0,0
436609,-95.2380952380952,4,1,0,100,0,0
436984,-90.9090909090909,4,1,0,100,0,0
440609,240,4,1,0,100,1,0
440609,-86.9565217391304,4,1,0,100,0,0
441629,-100,4,1,0,80,0,0
441929,-101.351317111042,4,1,0,80,0,0
442049,-101.729399796541,4,1,0,80,0,0
442289,-102.564102564103,4,1,0,80,0,0
442529,-103.412616339193,4,1,0,80,0,0
442769,-104.347829716446,4,1,0,80,0,0
443009,-105.263157894737,4,1,0,80,0,0
443249,-106.194765447622,4,1,0,80,0,0
443489,-107.181136120043,4,1,0,80,0,0
443849,-108.695652173913,4,1,0,80,0,0
443969,-109.086942293008,4,1,0,80,0,0
444209,-110.092147127145,4,1,0,80,0,0
444449,-111.111111111111,4,1,0,80,0,0
470609,-102.040816326531,4,1,0,80,0,0
470669,-103.092783505155,4,1,0,80,0,0
470729,-104.166666666667,4,1,0,80,0,0
470789,-105.263157894737,4,1,0,80,0,0
470849,-106.382978723404,4,1,0,80,0,0
471089,-108.695652173913,4,1,0,80,0,0
471329,-98.0392156862745,4,1,0,80,0,0
471389,-99.009900990099,4,1,0,80,0,0
471449,-100,4,1,0,80,0,0
471509,-101.010101010101,4,1,0,80,0,0
471569,-102.040816326531,4,1,0,80,0,0
471629,-103.092783505155,4,1,0,80,0,0
471689,-104.166666666667,4,1,0,80,0,0
471749,-105.263157894737,4,1,0,80,0,0
471809,-106.382978723404,4,1,0,80,0,0
472049,-100.502512562814,4,1,0,80,0,0
472289,-95.2380952380952,4,1,0,80,0,0
472449,-95.2380952380952,4,1,0,60,0,0
478049,-96.1538461538461,4,1,0,60,0,0
478109,-97.0873786407767,4,1,0,60,0,0
478169,-98.0392156862745,4,1,0,60,0,0
478229,-99.009900990099,4,1,0,60,0,0
478289,-100,4,1,0,60,0,0
478409,-101.010101010101,4,1,0,60,0,0
478529,-102.040816326531,4,1,0,60,0,0
478649,-103.092783505155,4,1,0,60,0,0
478769,-104.166666666667,4,1,0,60,0,0
478889,-106.382978723404,4,1,0,80,0,0
479489,-109.89010989011,4,1,0,80,0,0
479969,-95.2380952380952,4,1,0,80,0,0
480129,-95.2380952380952,4,1,0,60,0,0
485729,-96.1538461538461,4,1,0,60,0,0
485789,-97.0873786407767,4,1,0,60,0,0
485849,-98.0392156862745,4,1,0,60,0,0
485909,-99.009900990099,4,1,0,60,0,0
485969,-100,4,1,0,60,0,0
486089,-101.010101010101,4,1,0,60,0,0
486209,-102.040816326531,4,1,0,60,0,0
486329,-103.092783505155,4,1,0,60,0,0
486449,-104.166666666667,4,1,0,60,0,0
486609,-106.382978723404,4,1,0,80,0,0
487169,-109.89010989011,4,1,0,80,0,0
487649,-117.647058823529,4,1,0,80,0,0
494369,-109.89010989011,4,1,0,80,0,0
494429,-111.111111111111,4,1,0,80,0,0
494489,-112.359550561798,4,1,0,80,0,0
494549,-113.636363636364,4,1,0,80,0,0
494609,-114.942528735632,4,1,0,80,0,0
494669,-116.279069767442,4,1,0,80,0,0
494729,-117.647058823529,4,1,0,80,0,0
494849,-119.047619047619,4,1,0,80,0,0
494969,-120.481927710843,4,1,0,80,0,0
495089,-121.951219512195,4,1,0,80,0,0
495209,-123.456790123457,4,1,0,80,0,0
495329,-117.647058823529,4,1,0,80,0,0
502049,-106.382978723404,4,1,0,80,0,0
502109,-107.52688172043,4,1,0,80,0,0
502169,-108.695652173913,4,1,0,80,0,0
502229,-109.89010989011,4,1,0,80,0,0
502289,-111.111111111111,4,1,0,80,0,0
502349,-112.359550561798,4,1,0,80,0,0
502409,-113.636363636364,4,1,0,80,0,0
502469,-114.942528735632,4,1,0,80,0,0
502529,-116.279069767442,4,1,0,80,0,0
502589,-117.647058823529,4,1,0,80,0,0
502649,-119.047619047619,4,1,0,80,0,0
502709,-120.481927710843,4,1,0,80,0,0
502769,-121.951219512195,4,1,0,80,0,0
502889,-123.456790123457,4,1,0,80,0,0
503009,-125,4,1,0,80,0,0
503849,-125,4,1,0,100,0,0
503969,-95.2380952380952,4,1,0,100,0,1
518249,-96.1538461538461,4,1,0,100,0,1
518369,-97.0873786407767,4,1,0,100,0,1
518489,-98.0392156862745,4,1,0,100,0,1
518549,-99.009900990099,4,1,0,100,0,1
518609,-100,4,1,0,100,0,1
518729,-101.010101010101,4,1,0,100,0,1
518849,-102.040816326531,4,1,0,100,0,1
518969,-103.092783505155,4,1,0,100,0,1
519029,-104.166666666667,4,1,0,100,0,1
519089,-105.263157894737,4,1,0,100,0,1
519329,-95.2380952380952,4,1,0,100,0,1
533609,-96.1538461538461,4,1,0,100,0,1
533729,-97.0873786407767,4,1,0,100,0,1
533849,-98.0392156862745,4,1,0,100,0,1
533909,-99.009900990099,4,1,0,100,0,1
533969,-100,4,1,0,100,0,1
534089,-101.010101010101,4,1,0,100,0,1
534209,-102.040816326531,4,1,0,100,0,1
534329,-103.092783505155,4,1,0,100,0,1
534389,-104.166666666667,4,1,0,100,0,1
534449,-105.263157894737,4,1,0,100,0,1
534569,-106.382978723404,4,1,0,100,0,1
534689,-95.2380952380952,4,1,0,100,0,0
534809,-96.4599209028649,4,1,0,80,0,0
535169,-96.8054211035818,4,1,0,80,0,0
535409,-97.5609756097561,4,1,0,80,0,0
535649,-98.3284169124877,4,1,0,80,0,0
535889,-99.1768322919766,4,1,0,80,0,0
536129,-100,4,1,0,80,0,0
536369,-100.836946657255,4,1,0,80,0,0
536609,-101.729399796541,4,1,0,80,0,0
536969,-103.092783505155,4,1,0,80,0,0
537089,-103.444708803145,4,1,0,80,0,0
537329,-104.351455702807,4,1,0,80,0,0
537569,-105.263157894737,4,1,0,80,0,0
537809,-106.010813102936,4,1,0,80,0,0
537929,-106.769165065129,4,1,0,80,0,0
538049,-107.52688172043,4,1,0,80,0,0
538169,-108.307159103217,4,1,0,80,0,0
538289,-109.098843552258,4,1,0,80,0,0
538409,-109.89010989011,4,1,0,80,0,0
538529,-110.705192073508,4,1,0,80,0,0
538889,-111.111111111111,4,1,0,80,0,0
565369,-100,4,1,0,80,0,0
565409,-100,4,1,0,100,0,0
579809,-100.591715976331,4,1,0,100,0,0
579869,-101.190476190476,4,1,0,100,0,0
579929,-101.796407185629,4,1,0,100,0,0
579989,-102.409638554217,4,1,0,100,0,0
580049,-103.030303030303,4,1,0,100,0,0
580109,-103.658536585366,4,1,0,100,0,0
580169,-104.294478527607,4,1,0,100,0,0
580229,-104.938271604938,4,1,0,100,0,0
580289,-105.590062111801,4,1,0,100,0,0
580349,-106.25,4,1,0,100,0,0
580409,-106.918238993711,4,1,0,100,0,0
580469,-107.594936708861,4,1,0,100,0,0
580529,-108.28025477707,4,1,0,100,0,0
580589,-108.974358974359,4,1,0,100,0,0
580649,-109.677419354839,4,1,0,100,0,0
580709,-110.38961038961,4,1,0,100,0,0
580769,-111.111111111111,4,1,0,100,0,0
581129,-117.647058823529,4,1,0,100,0,0
581729,-95.2380952380952,4,1,0,100,0,1
581789,-95.5574182732607,4,1,0,100,0,1
581849,-95.7178841309824,4,1,0,100,0,1
581909,-95.878889823381,4,1,0,100,0,1
581969,-96.0404380791912,4,1,0,100,0,1
582029,-96.2025316455696,4,1,0,100,0,1
582089,-96.3651732882502,4,1,0,100,0,1
582149,-96.5283657917019,4,1,0,100,0,1
582209,-96.6921119592875,4,1,0,100,0,1
582269,-96.856414613424,4,1,0,100,0,1
582329,-97.0212765957447,4,1,0,100,0,1
582389,-97.1867007672634,4,1,0,100,0,1
582449,-97.3526900085397,4,1,0,100,0,1
582509,-97.519247219846,4,1,0,100,0,1
582569,-97.6863753213368,4,1,0,100,0,1
582629,-97.8540772532189,4,1,0,100,0,1
582689,-98.0223559759243,4,1,0,100,0,1
582749,-98.1912144702842,4,1,0,100,0,1
582809,-98.3606557377049,4,1,0,100,0,1
582869,-98.5306828003457,4,1,0,100,0,1
582929,-98.7012987012987,4,1,0,100,0,1
582989,-98.8725065047702,4,1,0,100,0,1
583049,-99.0443092962641,4,1,0,100,0,1
583109,-99.2167101827676,4,1,0,100,0,1
583169,-99.3897122929381,4,1,0,100,0,1
583229,-99.5633187772926,4,1,0,100,0,1
583289,-99.737532808399,4,1,0,100,0,1
583349,-99.9123575810692,4,1,0,100,0,1
583409,-100.087796312555,4,1,0,100,0,1
583469,-100.263852242744,4,1,0,100,0,1
583529,-100.440528634361,4,1,0,100,0,1
583589,-100.617828773169,4,1,0,100,0,1
583649,-100.79575596817,4,1,0,100,0,1
583709,-100.974313551816,4,1,0,100,0,1
583769,-101.153504880213,4,1,0,100,0,1
583829,-101.333333333333,4,1,0,100,0,1
583889,-101.513802315227,4,1,0,100,0,1
583949,-101.694915254237,4,1,0,100,0,1
584009,-101.876675603217,4,1,0,100,0,1
584069,-102.059086839749,4,1,0,100,0,1
584129,-102.242152466368,4,1,0,100,0,1
584189,-102.425876010782,4,1,0,100,0,1
584249,-102.610261026103,4,1,0,100,0,1
584309,-102.795311091073,4,1,0,100,0,1
584369,-102.981029810298,4,1,0,100,0,1
584429,-103.16742081448,4,1,0,100,0,1
584489,-103.354487760653,4,1,0,100,0,1
584549,-103.542234332425,4,1,0,100,0,1
584609,-103.730664240218,4,1,0,100,0,1
584669,-103.919781221513,4,1,0,100,0,1
584729,-104.109589041096,4,1,0,100,0,1
584789,-104.300091491308,4,1,0,100,0,1
584849,-104.491292392301,4,1,0,100,0,1
584909,-104.683195592287,4,1,0,100,0,1
584969,-104.875804967801,4,1,0,100,0,1
585029,-105.069124423963,4,1,0,100,0,1
585089,-105.263157894737,4,1,0,100,0,1
585569,-95.3974895397489,4,1,0,100,0,1
585629,-95.5574182732607,4,1,0,100,0,1
585689,-95.7178841309824,4,1,0,100,0,1
585749,-95.878889823381,4,1,0,100,0,1
585809,-96.0404380791912,4,1,0,100,0,1
585869,-96.2025316455696,4,1,0,100,0,1
585929,-96.3651732882502,4,1,0,100,0,1
585989,-96.5283657917019,4,1,0,100,0,1
586049,-96.6921119592875,4,1,0,100,0,1
586109,-96.856414613424,4,1,0,100,0,1
586169,-97.0212765957447,4,1,0,100,0,1
586229,-97.1867007672634,4,1,0,100,0,1
586289,-97.3526900085397,4,1,0,100,0,1
586349,-97.519247219846,4,1,0,100,0,1
586409,-97.6863753213368,4,1,0,100,0,1
586469,-97.8540772532189,4,1,0,100,0,1
586529,-98.0223559759243,4,1,0,100,0,1
586589,-98.1912144702842,4,1,0,100,0,1
586649,-98.3606557377049,4,1,0,100,0,1
586709,-98.5306828003457,4,1,0,100,0,1
586769,-98.7012987012987,4,1,0,100,0,1
586829,-98.8725065047702,4,1,0,100,0,1
586889,-99.0443092962641,4,1,0,100,0,1
586949,-99.2167101827676,4,1,0,100,0,1
587009,-99.3897122929381,4,1,0,100,0,1
587069,-99.5633187772926,4,1,0,100,0,1
587129,-99.737532808399,4,1,0,100,0,1
587189,-99.9123575810692,4,1,0,100,0,1
587249,-100.087796312555,4,1,0,100,0,1
587309,-100.263852242744,4,1,0,100,0,1
587369,-100.440528634361,4,1,0,100,0,1
587429,-100.617828773169,4,1,0,100,0,1
587489,-100.79575596817,4,1,0,100,0,1
587549,-100.974313551816,4,1,0,100,0,1
587609,-101.153504880213,4,1,0,100,0,1
587669,-101.333333333333,4,1,0,100,0,1
587729,-101.513802315227,4,1,0,100,0,1
587789,-101.694915254237,4,1,0,100,0,1
587849,-101.876675603217,4,1,0,100,0,1
587909,-102.059086839749,4,1,0,100,0,1
587969,-102.242152466368,4,1,0,100,0,1
588029,-102.425876010782,4,1,0,100,0,1
588089,-102.610261026103,4,1,0,100,0,1
588149,-102.795311091073,4,1,0,100,0,1
588209,-102.981029810298,4,1,0,100,0,1
588269,-103.16742081448,4,1,0,100,0,1
588329,-103.354487760653,4,1,0,100,0,1
588389,-103.542234332425,4,1,0,100,0,1
588449,-103.730664240218,4,1,0,100,0,1
588509,-103.919781221513,4,1,0,100,0,1
588569,-104.109589041096,4,1,0,100,0,1
588629,-104.300091491308,4,1,0,100,0,1
588689,-104.491292392301,4,1,0,100,0,1
588749,-104.683195592287,4,1,0,100,0,1
588809,-104.875804967801,4,1,0,100,0,1
588869,-105.069124423963,4,1,0,100,0,1
588929,-105.263157894737,4,1,0,100,0,1
589409,-100.175746924429,4,1,0,100,0,1
589469,-100.352112676056,4,1,0,100,0,1
589529,-100.529100529101,4,1,0,100,0,1
589589,-100.706713780919,4,1,0,100,0,1
589649,-100.884955752212,4,1,0,100,0,1
589709,-101.063829787234,4,1,0,100,0,1
589769,-101.243339253996,4,1,0,100,0,1
589829,-101.423487544484,4,1,0,100,0,1
589889,-101.604278074866,4,1,0,100,0,1
589949,-101.785714285714,4,1,0,100,0,1
590009,-101.967799642218,4,1,0,100,0,1
590069,-102.150537634409,4,1,0,100,0,1
590129,-102.333931777379,4,1,0,100,0,1
590189,-102.517985611511,4,1,0,100,0,1
590249,-102.702702702703,4,1,0,100,0,1
590309,-102.888086642599,4,1,0,100,0,1
590369,-103.074141048825,4,1,0,100,0,1
590429,-103.260869565217,4,1,0,100,0,1
590489,-103.448275862069,4,1,0,100,0,1
590549,-103.636363636364,4,1,0,100,0,1
590609,-103.825136612022,4,1,0,100,0,1
590669,-104.014598540146,4,1,0,100,0,1
590729,-104.204753199269,4,1,0,100,0,1
590789,-104.395604395604,4,1,0,100,0,1
590849,-104.587155963303,4,1,0,100,0,1
590909,-104.779411764706,4,1,0,100,0,1
590969,-104.972375690608,4,1,0,100,0,1
591029,-105.166051660517,4,1,0,100,0,1
591089,-105.360443622921,4,1,0,100,0,1
591149,-105.555555555556,4,1,0,100,0,1
591209,-105.751391465677,4,1,0,100,0,1
591269,-105.947955390335,4,1,0,100,0,1
591329,-106.145251396648,4,1,0,100,0,1
591389,-106.34328358209,4,1,0,100,0,1
591449,-106.542056074766,4,1,0,100,0,1
591509,-106.741573033708,4,1,0,100,0,1
591569,-106.941838649156,4,1,0,100,0,1
591629,-107.142857142857,4,1,0,100,0,1
591689,-107.344632768362,4,1,0,100,0,1
591749,-107.547169811321,4,1,0,100,0,1
591809,-107.750472589792,4,1,0,100,0,1
591869,-107.954545454545,4,1,0,100,0,1
591929,-108.159392789374,4,1,0,100,0,1
591989,-108.365019011407,4,1,0,100,0,1
592049,-108.571428571429,4,1,0,100,0,1
592109,-108.778625954198,4,1,0,100,0,1
592169,-108.986615678776,4,1,0,100,0,1
592229,-109.195402298851,4,1,0,100,0,1
592289,-109.404990403071,4,1,0,100,0,1
592349,-109.615384615385,4,1,0,100,0,1
592409,-109.826589595376,4,1,0,100,0,1
592469,-110.03861003861,4,1,0,100,0,1
592529,-110.251450676983,4,1,0,100,0,1
592589,-110.46511627907,4,1,0,100,0,1
592649,-110.679611650485,4,1,0,100,0,1
592709,-110.894941634241,4,1,0,100,0,1
592769,-111.111111111111,4,1,0,100,0,1
593249,-100.175746924429,4,1,0,100,0,1
593309,-100.352112676056,4,1,0,100,0,1
593369,-100.529100529101,4,1,0,100,0,1
593429,-100.706713780919,4,1,0,100,0,1
593489,-100.884955752212,4,1,0,100,0,1
593549,-101.063829787234,4,1,0,100,0,1
593609,-101.243339253996,4,1,0,100,0,1
593669,-101.423487544484,4,1,0,100,0,1
593729,-101.604278074866,4,1,0,100,0,1
593789,-101.785714285714,4,1,0,100,0,1
593849,-101.967799642218,4,1,0,100,0,1
593909,-102.150537634409,4,1,0,100,0,1
593969,-102.333931777379,4,1,0,100,0,1
594029,-102.517985611511,4,1,0,100,0,1
594089,-102.702702702703,4,1,0,100,0,1
594149,-102.888086642599,4,1,0,100,0,1
594209,-103.074141048825,4,1,0,100,0,1
594269,-103.260869565217,4,1,0,100,0,1
594329,-103.448275862069,4,1,0,100,0,1
594389,-103.636363636364,4,1,0,100,0,1
594449,-103.825136612022,4,1,0,100,0,1
594509,-104.014598540146,4,1,0,100,0,1
594569,-104.204753199269,4,1,0,100,0,1
594629,-104.395604395604,4,1,0,100,0,1
594689,-104.587155963303,4,1,0,100,0,1
594749,-104.779411764706,4,1,0,100,0,1
594809,-104.972375690608,4,1,0,100,0,1
594869,-105.166051660517,4,1,0,100,0,1
594929,-105.360443622921,4,1,0,100,0,1
594989,-105.555555555556,4,1,0,100,0,1
595049,-105.751391465677,4,1,0,100,0,1
595109,-105.947955390335,4,1,0,100,0,1
595169,-106.145251396648,4,1,0,100,0,1
595229,-106.34328358209,4,1,0,100,0,1
595289,-106.542056074766,4,1,0,100,0,1
595349,-106.741573033708,4,1,0,100,0,1
595409,-106.941838649156,4,1,0,100,0,1
595469,-107.142857142857,4,1,0,100,0,1
595529,-107.344632768362,4,1,0,100,0,1
595589,-107.547169811321,4,1,0,100,0,1
595649,-107.750472589792,4,1,0,100,0,1
595709,-107.954545454545,4,1,0,100,0,1
595769,-108.159392789374,4,1,0,100,0,1
595829,-108.365019011407,4,1,0,100,0,1
595889,-108.571428571429,4,1,0,100,0,1
595949,-108.778625954198,4,1,0,100,0,1
596009,-108.986615678776,4,1,0,100,0,1
596069,-109.195402298851,4,1,0,100,0,1
596129,-109.404990403071,4,1,0,100,0,0
596189,-109.965635738832,4,1,0,100,0,0
596249,-108.843537414966,4,1,0,100,0,0
596309,-107.744107744108,4,1,0,100,0,0
596369,-106.666666666667,4,1,0,100,0,0
596429,-105.610561056106,4,1,0,100,0,0
596489,-104.575163398693,4,1,0,100,0,0
596549,-103.559870550162,4,1,0,100,0,0
596609,-102.564102564103,4,1,0,100,0,0
596669,-101.587301587302,4,1,0,100,0,0
596729,-100.62893081761,4,1,0,100,0,0
596789,-99.6884735202492,4,1,0,100,0,0
596849,-98.7654320987654,4,1,0,100,0,0
596909,-97.8593272171254,4,1,0,100,0,0
596969,-96.969696969697,4,1,0,100,0,0
597029,-96.0960960960961,4,1,0,100,0,0
597089,-95.2380952380952,4,1,0,100,0,1
597329,-95.3974895397489,4,1,0,100,0,1
597389,-95.5574182732607,4,1,0,100,0,1
597449,-95.7178841309824,4,1,0,100,0,1
597509,-95.878889823381,4,1,0,100,0,1
597569,-96.0404380791912,4,1,0,100,0,1
597629,-96.2025316455696,4,1,0,100,0,1
597689,-96.3651732882502,4,1,0,100,0,1
597749,-96.5283657917019,4,1,0,100,0,1
597809,-96.6921119592875,4,1,0,100,0,1
597869,-96.856414613424,4,1,0,100,0,1
597929,-97.0212765957447,4,1,0,100,0,1
597989,-97.1867007672634,4,1,0,100,0,1
598049,-97.3526900085397,4,1,0,100,0,1
598109,-97.519247219846,4,1,0,100,0,1
598169,-97.6863753213368,4,1,0,100,0,1
598229,-97.8540772532189,4,1,0,100,0,1
598289,-98.0223559759243,4,1,0,100,0,1
598349,-98.1912144702842,4,1,0,100,0,1
598409,-98.3606557377049,4,1,0,100,0,1
598469,-98.5306828003457,4,1,0,100,0,1
598529,-98.7012987012987,4,1,0,100,0,1
598589,-98.8725065047702,4,1,0,100,0,1
598649,-99.0443092962641,4,1,0,100,0,1
598709,-99.2167101827676,4,1,0,100,0,1
598769,-99.3897122929381,4,1,0,100,0,1
598829,-99.5633187772926,4,1,0,100,0,1
598889,-99.737532808399,4,1,0,100,0,1
598949,-99.9123575810692,4,1,0,100,0,1
599009,-100.087796312555,4,1,0,100,0,1
599069,-100.263852242744,4,1,0,100,0,1
599129,-100.440528634361,4,1,0,100,0,1
599189,-100.617828773169,4,1,0,100,0,1
599249,-100.79575596817,4,1,0,100,0,1
599309,-100.974313551816,4,1,0,100,0,1
599369,-101.153504880213,4,1,0,100,0,1
599429,-101.333333333333,4,1,0,100,0,1
599489,-101.513802315227,4,1,0,100,0,1
599549,-101.694915254237,4,1,0,100,0,1
599609,-101.876675603217,4,1,0,100,0,1
599669,-102.059086839749,4,1,0,100,0,1
599729,-102.242152466368,4,1,0,100,0,1
599789,-102.425876010782,4,1,0,100,0,1
599849,-102.610261026103,4,1,0,100,0,1
599909,-102.795311091073,4,1,0,100,0,1
599969,-102.981029810298,4,1,0,100,0,1
600029,-103.16742081448,4,1,0,100,0,1
600089,-103.354487760653,4,1,0,100,0,1
600149,-103.542234332425,4,1,0,100,0,1
600209,-103.730664240218,4,1,0,100,0,1
600269,-103.919781221513,4,1,0,100,0,1
600329,-104.109589041096,4,1,0,100,0,1
600389,-104.300091491308,4,1,0,100,0,1
600449,-104.491292392301,4,1,0,100,0,1
600929,-91.0543130990415,4,1,0,100,0,1
600989,-91.2,4,1,0,100,0,1
601049,-91.3461538461538,4,1,0,100,0,1
601109,-91.4927768860353,4,1,0,100,0,1
601169,-91.6398713826367,4,1,0,100,0,1
601229,-91.7874396135266,4,1,0,100,0,1
601289,-91.9354838709677,4,1,0,100,0,1
601349,-92.0840064620355,4,1,0,100,0,1
601409,-92.2330097087379,4,1,0,100,0,1
601469,-92.3824959481361,4,1,0,100,0,1
601529,-92.5324675324675,4,1,0,100,0,1
601589,-92.6829268292683,4,1,0,100,0,1
601649,-92.8338762214984,4,1,0,100,0,1
601709,-92.9853181076672,4,1,0,100,0,1
601769,-93.1372549019608,4,1,0,100,0,1
601829,-93.2896890343699,4,1,0,100,0,1
601889,-93.4426229508197,4,1,0,100,0,1
601949,-93.5960591133005,4,1,0,100,0,1
602009,-93.75,4,1,0,100,0,1
602069,-93.9044481054366,4,1,0,100,0,1
602129,-94.0594059405941,4,1,0,100,0,1
602189,-94.2148760330579,4,1,0,100,0,1
602249,-94.3708609271523,4,1,0,100,0,1
602309,-94.5273631840796,4,1,0,100,0,1
602369,-94.6843853820598,4,1,0,100,0,1
602429,-94.8419301164726,4,1,0,100,0,1
602489,-95,4,1,0,100,0,1
602549,-95.1585976627713,4,1,0,100,0,1
602609,-95.3177257525083,4,1,0,100,0,1
602669,-95.4773869346734,4,1,0,100,0,1
602729,-95.6375838926174,4,1,0,100,0,1
602789,-95.7983193277311,4,1,0,100,0,1
602849,-95.9595959595959,4,1,0,100,0,1
602909,-96.1214165261383,4,1,0,100,0,1
602969,-96.2837837837838,4,1,0,100,0,1
603029,-96.4467005076142,4,1,0,100,0,1
603089,-96.6101694915254,4,1,0,100,0,1
603149,-96.7741935483871,4,1,0,100,0,1
603209,-96.9387755102041,4,1,0,100,0,1
603269,-97.1039182282794,4,1,0,100,0,1
603329,-97.2696245733788,4,1,0,100,0,1
603389,-97.4358974358974,4,1,0,100,0,1
603449,-97.6027397260274,4,1,0,100,0,1
603509,-97.770154373928,4,1,0,100,0,1
603569,-97.9381443298969,4,1,0,100,0,1
603629,-98.1067125645439,4,1,0,100,0,1
603689,-98.2758620689655,4,1,0,100,0,1
603749,-98.4455958549223,4,1,0,100,0,1
603809,-98.6159169550173,4,1,0,100,0,1
603869,-98.786828422877,4,1,0,100,0,1
603929,-98.9583333333333,4,1,0,100,0,1
603989,-99.1304347826087,4,1,0,100,0,1
604049,-99.3031358885017,4,1,0,100,0,1
604109,-99.4764397905759,4,1,0,100,0,1
604169,-99.6503496503496,4,1,0,100,0,1
604229,-99.8248686514886,4,1,0,100,0,1
604289,-100,4,1,0,100,0,1
604769,-95.3974895397489,4,1,0,100,0,1
604829,-95.5574182732607,4,1,0,100,0,1
604889,-95.7178841309824,4,1,0,100,0,1
604949,-95.878889823381,4,1,0,100,0,1
605009,-96.0404380791912,4,1,0,100,0,1
605069,-96.2025316455696,4,1,0,100,0,1
605129,-96.3651732882502,4,1,0,100,0,1
605189,-96.5283657917019,4,1,0,100,0,1
605249,-96.6921119592875,4,1,0,100,0,1
605309,-96.856414613424,4,1,0,100,0,1
605369,-97.0212765957447,4,1,0,100,0,1
605429,-97.1867007672634,4,1,0,100,0,1
605489,-97.3526900085397,4,1,0,100,0,1
605549,-97.519247219846,4,1,0,100,0,1
605609,-97.6863753213368,4,1,0,100,0,1
605669,-97.8540772532189,4,1,0,100,0,1
605729,-98.0223559759243,4,1,0,100,0,1
605789,-98.1912144702842,4,1,0,100,0,1
605849,-98.3606557377049,4,1,0,100,0,1
605909,-98.5306828003457,4,1,0,100,0,1
605969,-98.7012987012987,4,1,0,100,0,1
606029,-98.8725065047702,4,1,0,100,0,1
606089,-99.0443092962641,4,1,0,100,0,1
606149,-99.2167101827676,4,1,0,100,0,1
606209,-99.3897122929381,4,1,0,100,0,1
606269,-99.5633187772926,4,1,0,100,0,1
606329,-99.737532808399,4,1,0,100,0,1
606389,-99.9123575810692,4,1,0,100,0,1
606449,-100.087796312555,4,1,0,100,0,1
606509,-100.263852242744,4,1,0,100,0,1
606569,-100.440528634361,4,1,0,100,0,1
606629,-100.617828773169,4,1,0,100,0,1
606689,-100.79575596817,4,1,0,100,0,1
606749,-100.974313551816,4,1,0,100,0,1
606809,-101.153504880213,4,1,0,100,0,1
606869,-101.333333333333,4,1,0,100,0,1
606929,-101.513802315227,4,1,0,100,0,1
606989,-101.694915254237,4,1,0,100,0,1
607049,-101.876675603217,4,1,0,100,0,1
607109,-102.059086839749,4,1,0,100,0,1
607169,-102.242152466368,4,1,0,100,0,1
607229,-102.425876010782,4,1,0,100,0,1
607289,-102.610261026103,4,1,0,100,0,1
607349,-102.795311091073,4,1,0,100,0,1
607409,-102.981029810298,4,1,0,100,0,1
607469,-103.16742081448,4,1,0,100,0,1
607529,-103.354487760653,4,1,0,100,0,1
607589,-103.542234332425,4,1,0,100,0,1
607649,-103.730664240218,4,1,0,100,0,1
607709,-103.919781221513,4,1,0,100,0,1
607769,-104.109589041096,4,1,0,100,0,1
607829,-104.300091491308,4,1,0,100,0,1
607889,-104.491292392301,4,1,0,100,0,1
607949,-104.683195592287,4,1,0,100,0,1
608009,-104.875804967801,4,1,0,100,0,1
608069,-105.069124423963,4,1,0,100,0,1
608129,-105.263157894737,4,1,0,100,0,1
608249,-103.448275862069,4,1,0,100,0,0
608369,-101.694915254237,4,1,0,100,0,0
608489,-100,4,1,0,100,0,0
608609,-92.5925925925926,4,1,0,100,0,0
608669,-94.3396226415094,4,1,0,100,0,0
608729,-96.1538461538461,4,1,0,100,0,0
608789,-98.0392156862745,4,1,0,100,0,0
608849,-100,4,1,0,100,0,0
609329,-92.5925925925926,4,1,0,100,0,0
609389,-94.3396226415094,4,1,0,100,0,0
609449,-96.1538461538461,4,1,0,100,0,0
609509,-98.0392156862745,4,1,0,100,0,0
609569,-100,4,1,0,100,0,0
610049,-92.5925925925926,4,1,0,100,0,0
610109,-94.3396226415094,4,1,0,100,0,0
610169,-96.1538461538461,4,1,0,100,0,0
610229,-98.0392156862745,4,1,0,100,0,0
610289,-100,4,1,0,100,0,0
610769,-92.5925925925926,4,1,0,100,0,0
610829,-94.3396226415094,4,1,0,100,0,0
610889,-96.1538461538461,4,1,0,100,0,0
610949,-98.0392156862745,4,1,0,100,0,0
611009,-100,4,1,0,100,0,0
611609,-99.0990990990991,4,1,0,100,0,0
611669,-98.2142857142857,4,1,0,100,0,0
611729,-97.3451327433628,4,1,0,100,0,0
611789,-96.4912280701754,4,1,0,100,0,0
611849,-95.6521739130435,4,1,0,100,0,0
611909,-94.8275862068965,4,1,0,100,0,0
611969,-94.017094017094,4,1,0,100,0,0
612029,-93.2203389830508,4,1,0,100,0,0
612089,-92.436974789916,4,1,0,100,0,0
612149,-91.6666666666667,4,1,0,100,0,0
612209,-90.9090909090909,4,1,0,100,0,0
612449,-90.9090909090909,4,1,0,100,0,1
626909,-91.254752851711,4,1,0,100,0,1
626969,-91.6030534351145,4,1,0,100,0,1
627029,-91.9540229885057,4,1,0,100,0,1
627089,-92.3076923076923,4,1,0,100,0,1
627149,-92.6640926640926,4,1,0,100,0,1
627209,-93.0232558139535,4,1,0,100,0,1
627269,-93.3852140077821,4,1,0,100,0,1
627329,-93.75,4,1,0,100,0,1
627389,-94.1176470588235,4,1,0,100,0,1
627449,-94.488188976378,4,1,0,100,0,1
627509,-94.8616600790514,4,1,0,100,0,1
627569,-95.2380952380952,4,1,0,100,0,1
627809,-95.2380952380952,4,1,0,100,0,1
642089,-95.2380952380952,4,1,0,100,0,0
642209,-95.2380952380952,4,1,0,100,0,0
642329,-97.5609756097561,4,1,0,100,0,0
642449,-100,4,1,0,100,0,0
642569,-102.564102564103,4,1,0,100,0,0
642689,-105.263157894737,4,1,0,100,0,0
642809,-108.108108108108,4,1,0,100,0,0
642929,-111.111111111111,4,1,0,100,0,0
643049,-114.285714285714,4,1,0,100,0,0
643169,499.999999999999,3,1,0,100,1,0
643169,-56.4705882352942,3,1,0,100,0,0
643294,-56.4705882352942,3,1,0,65,0,0
643481,-56.4705882352942,3,1,0,63,0,0
643606,-56.4705882352942,3,1,0,61,0,0
643731,-56.4705882352942,3,1,0,59,0,0
643856,-56.4705882352942,3,1,0,57,0,0
643981,-56.4705882352942,3,1,0,55,0,0
644106,-56.4705882352942,3,1,0,53,0,0
644231,-56.4705882352942,3,1,0,51,0,0
644356,-56.4705882352942,3,1,0,49,0,0
644481,-56.4705882352942,3,1,0,47,0,0
644606,-56.4705882352942,3,1,0,45,0,0
644856,-56.4705882352942,3,1,0,40,0,0
649085,-56.4705882352942,3,1,0,45,0,0
655085,-56.4705882352942,3,1,0,50,0,0
667085,-56.4705882352942,3,1,0,80,0,0
667169,250,6,1,0,100,1,0
667169,-100,6,1,0,100,0,1
689731,-99.5850622406639,4,1,0,100,0,0
689794,-99.1735537190083,4,1,0,100,0,0
689856,-98.7654320987654,4,1,0,100,0,0
689919,-98.3606557377049,4,1,0,100,0,0
689981,-97.9591836734694,4,1,0,100,0,0
690044,-97.5609756097561,4,1,0,100,0,0
690106,-97.165991902834,4,1,0,100,0,0
690169,-96.7741935483871,4,1,0,100,0,0
690231,-96.3855421686747,4,1,0,100,0,0
690294,-96,4,1,0,100,0,0
690356,-95.6175298804781,4,1,0,100,0,0
690419,-95.2380952380952,4,1,0,100,0,0
690481,-94.8616600790514,4,1,0,100,0,0
690544,-94.488188976378,4,1,0,100,0,0
690606,-94.1176470588235,4,1,0,100,0,0
690669,-93.75,4,1,0,100,0,0
690731,-93.3852140077821,4,1,0,100,0,0
690794,-93.0232558139535,4,1,0,100,0,0
690856,-92.6640926640926,4,1,0,100,0,0
690919,-92.3076923076923,4,1,0,100,0,0
690981,-91.9540229885057,4,1,0,100,0,0
691044,-91.6030534351145,4,1,0,100,0,0
691106,-91.254752851711,4,1,0,100,0,0
691169,-90.9090909090909,4,1,0,100,0,1
712169,-90.9090909090909,4,1,0,100,0,0
712294,-90.9090909090909,4,1,0,75,0,0
712669,-90.9090909090909,4,1,0,72,0,0
712919,-90.9090909090909,4,1,0,69,0,0
713169,-90.9090909090909,4,1,0,66,0,0
713419,-90.9090909090909,4,1,0,63,0,0
713669,-133.333333333333,4,1,0,60,0,0
713919,-133.333333333333,4,1,0,57,0,0
714169,-133.333333333333,4,1,0,54,0,0
714419,-133.333333333333,4,1,0,51,0,0
714669,-133.333333333333,4,1,0,48,0,0
714919,-133.333333333333,4,1,0,45,0,0
715169,-166.666666666667,4,1,0,42,0,0
715419,-166.666666666667,4,1,0,39,0,0
715669,-166.666666666667,4,1,0,36,0,0
715919,-166.666666666667,4,1,0,33,0,0
716169,-166.666666666667,4,1,0,30,0,0
716419,-166.666666666667,4,1,0,27,0,0
716669,-200,4,1,0,24,0,0
716919,-200,4,1,0,21,0,0
717169,-200,4,1,0,18,0,0
717419,-200,4,1,0,15,0,0
718169,-238.095238095238,4,1,0,15,0,0
719669,-285.714285714286,4,1,0,15,0,0
721169,-333.333333333333,4,1,0,15,0,0
722669,250,4,1,0,15,1,8
722669,-400,4,1,0,15,0,8
723019,951.625693893735,4,1,0,5,1,0
723019,-105.831304899989,4,1,0,5,0,0
726823,925.925925925926,4,1,0,5,1,0
726823,-108.003024084674,4,1,0,5,0,0
730525,952.380952380952,4,1,0,5,1,0
730525,-104.997900041999,4,1,0,5,0,0
734334,974.025974025974,4,1,0,5,1,0
734334,-102.669404517454,4,1,0,5,0,0
738230,956.175298804781,4,1,0,5,1,0
738230,-104.580631667015,4,1,0,5,0,0
742054,947.119179163378,4,1,0,5,1,0
742054,-105.58547143913,4,1,0,5,0,0
745842,933.125972006221,4,1,0,5,1,0
745842,-107.169649555246,4,1,0,5,0,0
749574,1034.48275862069,4,1,0,5,1,0
749574,-96.665055582407,4,1,0,5,0,0
751642,941.915227629513,4,1,0,5,1,8
751642,-106.168383055526,4,1,0,5,0,8
753526,967.741935483871,4,1,0,5,1,0
753526,-103.337811305157,4,1,0,5,0,0
757396,944.138473642801,4,1,0,5,1,0
757396,-105.920982946722,4,1,0,5,0,0
761170,1000,4,1,0,5,1,0
769170,1000,6,1,0,5,1,0
769670,-200,4,1,0,5,0,0

[HitObjects]
256,192,46,5,0,0:0:0:0:
256,192,110,1,8,0:0:0:0:
256,192,175,1,8,0:0:0:0:
256,192,239,1,8,0:0:0:0:
256,192,304,1,8,0:0:0:0:
256,192,369,1,8,0:0:0:0:
256,192,433,1,0,0:0:0:0:
256,192,498,1,8,0:0:0:0:
256,192,563,1,8,0:0:0:0:
256,192,627,1,8,0:0:0:0:
256,192,692,1,8,0:0:0:0:
256,192,757,1,8,0:0:0:0:
256,192,821,1,0,0:0:0:0:
256,192,886,1,0,0:0:0:0:
256,192,951,1,0,0:0:0:0:
256,192,1015,1,0,0:0:0:0:
256,192,1080,1,8,0:0:0:0:
256,192,1145,1,8,0:0:0:0:
256,192,1209,1,8,0:0:0:0:
256,192,1274,1,8,0:0:0:0:
256,192,1339,1,0,0:0:0:0:
256,192,1403,1,0,0:0:0:0:
256,192,1468,1,8,0:0:0:0:
256,192,1533,1,8,0:0:0:0:
256,96,1597,1,4,0:0:0:0:
256,96,1856,1,4,0:0:0:0:
256,192,2114,5,8,0:0:0:0:
256,192,2179,1,8,0:0:0:0:
256,192,2244,1,0,0:0:0:0:
256,192,2308,1,0,0:0:0:0:
256,192,2373,1,8,0:0:0:0:
256,192,2438,1,0,0:0:0:0:
256,192,2502,1,8,0:0:0:0:
256,192,2567,1,0,0:0:0:0:
256,192,2632,1,8,0:0:0:0:
256,192,2696,1,8,0:0:0:0:
256,192,2761,1,0,0:0:0:0:
256,192,2826,1,0,0:0:0:0:
256,192,2890,1,8,0:0:0:0:
256,192,2955,1,8,0:0:0:0:
256,192,3020,1,0,0:0:0:0:
256,192,3084,1,0,0:0:0:0:
256,192,3149,1,8,0:0:0:0:
256,192,3214,1,8,0:0:0:0:
256,192,3278,1,8,0:0:0:0:
256,192,3343,1,0,0:0:0:0:
256,192,3408,1,8,0:0:0:0:
256,192,3472,1,8,0:0:0:0:
256,192,3537,1,0,0:0:0:0:
256,192,3602,1,0,0:0:0:0:
256,192,3666,1,8,0:0:0:0:
256,192,3731,1,8,0:0:0:0:
256,192,3795,1,8,0:0:0:0:
256,192,3860,1,8,0:0:0:0:
256,192,3925,1,8,0:0:0:0:
256,192,3989,1,8,0:0:0:0:
256,192,4054,1,0,0:0:0:0:
256,192,4119,1,0,0:0:0:0:
256,192,4183,1,8,0:0:0:0:
256,192,4248,1,8,0:0:0:0:
256,192,4313,1,8,0:0:0:0:
256,192,4377,1,0,0:0:0:0:
256,192,4442,1,8,0:0:0:0:
256,192,4507,1,0,0:0:0:0:
256,192,4571,1,0,0:0:0:0:
256,192,4636,1,0,0:0:0:0:
256,192,4701,1,8,0:0:0:0:
256,192,4765,1,8,0:0:0:0:
256,192,4830,1,0,0:0:0:0:
256,192,4895,1,0,0:0:0:0:
256,192,4959,1,8,0:0:0:0:
256,192,5024,1,0,0:0:0:0:
256,192,5089,1,8,0:0:0:0:
256,192,5153,1,0,0:0:0:0:
256,192,5218,1,8,0:0:0:0:
256,192,5283,1,8,0:0:0:0:
256,192,5347,1,8,0:0:0:0:
256,192,5412,1,8,0:0:0:0:
256,192,5477,1,0,0:0:0:0:
256,192,5541,1,0,0:0:0:0:
256,192,5606,1,0,0:0:0:0:
256,192,5670,1,0,0:0:0:0:
256,192,5735,1,8,0:0:0:0:
256,192,5800,1,8,0:0:0:0:
256,192,5864,1,0,0:0:0:0:
256,192,5929,1,0,0:0:0:0:
256,192,5994,1,8,0:0:0:0:
256,192,6123,5,0,0:0:0:0:
256,192,6188,1,0,0:0:0:0:
256,192,6252,1,8,0:0:0:0:
256,192,6317,1,8,0:0:0:0:
256,192,6382,1,0,0:0:0:0:
256,192,6446,1,0,0:0:0:0:
256,192,6511,1,8,0:0:0:0:
256,192,6576,1,0,0:0:0:0:
256,192,6640,1,8,0:0:0:0:
256,192,6705,1,8,0:0:0:0:
256,192,6770,1,0,0:0:0:0:
256,192,6834,1,8,0:0:0:0:
256,192,6899,1,0,0:0:0:0:
256,192,6964,1,0,0:0:0:0:
256,192,7028,1,8,0:0:0:0:
256,192,7093,1,8,0:0:0:0:
256,192,7158,1,8,0:0:0:0:
256,192,7222,1,8,0:0:0:0:
256,192,7287,1,0,0:0:0:0:
256,192,7352,1,0,0:0:0:0:
256,192,7416,1,8,0:0:0:0:
256,192,7481,1,8,0:0:0:0:
256,192,7545,1,0,0:0:0:0:
256,192,7610,1,0,0:0:0:0:
256,192,7675,1,0,0:0:0:0:
256,192,7739,1,0,0:0:0:0:
256,192,7804,1,8,0:0:0:0:
256,192,7869,1,8,0:0:0:0:
256,192,7933,1,8,0:0:0:0:
256,192,7998,1,8,0:0:0:0:
256,192,8063,1,0,0:0:0:0:
256,192,8127,1,0,0:0:0:0:
256,192,8192,1,8,0:0:0:0:
256,192,8257,1,0,0:0:0:0:
256,192,8321,1,8,0:0:0:0:
256,192,8386,1,8,0:0:0:0:
256,192,8451,1,0,0:0:0:0:
256,192,8515,1,0,0:0:0:0:
256,192,8580,1,8,0:0:0:0:
256,192,8645,1,0,0:0:0:0:
256,192,8709,1,8,0:0:0:0:
256,192,8774,1,8,0:0:0:0:
256,192,8839,1,0,0:0:0:0:
256,192,8903,1,8,0:0:0:0:
256,192,8968,1,0,0:0:0:0:
256,192,9033,1,0,0:0:0:0:
256,192,9097,1,8,0:0:0:0:
256,192,9162,1,8,0:0:0:0:
256,192,9227,1,8,0:0:0:0:
256,192,9291,1,8,0:0:0:0:
256,192,9356,1,0,0:0:0:0:
256,192,9420,1,0,0:0:0:0:
256,192,9485,1,0,0:0:0:0:
256,192,9550,1,0,0:0:0:0:
256,192,9614,1,8,0:0:0:0:
256,192,9679,1,0,0:0:0:0:
256,192,9744,1,8,0:0:0:0:
256,192,9808,1,0,0:0:0:0:
256,192,9873,1,8,0:0:0:0:
256,192,9938,1,8,0:0:0:0:
256,192,10002,1,0,0:0:0:0:
256,192,10067,1,0,0:0:0:0:
256,192,10132,1,8,0:0:0:0:
256,192,10261,5,0,0:0:0:0:
256,192,10326,1,0,0:0:0:0:
256,192,10390,1,8,0:0:0:0:
256,192,10455,1,8,0:0:0:0:
256,192,10520,1,8,0:0:0:0:
256,192,10584,1,8,0:0:0:0:
256,192,10649,1,0,0:0:0:0:
256,192,10714,1,0,0:0:0:0:
256,192,10778,1,8,0:0:0:0:
256,192,10843,1,8,0:0:0:0:
256,192,10908,1,0,0:0:0:0:
256,192,10972,1,0,0:0:0:0:
256,192,11037,1,0,0:0:0:0:
256,192,11102,1,0,0:0:0:0:
256,192,11166,1,8,0:0:0:0:
256,192,11231,1,0,0:0:0:0:
256,192,11295,1,8,0:0:0:0:
256,192,11360,1,8,0:0:0:0:
256,192,11425,1,0,0:0:0:0:
256,192,11489,1,0,0:0:0:0:
256,192,11554,1,8,0:0:0:0:
256,192,11619,1,8,0:0:0:0:
256,192,11683,1,0,0:0:0:0:
256,192,11748,1,0,0:0:0:0:
256,192,11813,1,0,0:0:0:0:
256,192,11877,1,0,0:0:0:0:
256,192,11942,1,8,0:0:0:0:
256,192,12007,1,8,0:0:0:0:
256,192,12071,1,8,0:0:0:0:
256,192,12136,1,8,0:0:0:0:
256,192,12201,1,8,0:0:0:0:
256,192,12265,1,8,0:0:0:0:
256,192,12330,1,0,0:0:0:0:
256,192,12395,1,0,0:0:0:0:
256,192,12459,1,8,0:0:0:0:
256,192,12524,1,8,0:0:0:0:
256,192,12589,1,8,0:0:0:0:
256,192,12653,1,8,0:0:0:0:
256,192,12718,1,0,0:0:0:0:
256,192,12783,1,0,0:0:0:0:
256,192,12847,1,8,0:0:0:0:
256,192,12912,1,8,0:0:0:0:
256,192,12977,1,0,0:0:0:0:
256,192,13041,1,0,0:0:0:0:
256,192,13106,1,0,0:0:0:0:
256,192,13170,1,0,0:0:0:0:
256,192,13235,1,8,0:0:0:0:
256,192,13300,1,0,0:0:0:0:
256,192,13364,1,8,0:0:0:0:
256,192,13429,1,8,0:0:0:0:
256,192,13494,1,0,0:0:0:0:
256,192,13558,1,0,0:0:0:0:
256,192,13623,1,8,0:0:0:0:
256,192,13688,1,8,0:0:0:0:
256,192,13752,1,0,0:0:0:0:
256,192,13817,1,0,0:0:0:0:
256,192,13882,1,0,0:0:0:0:
256,192,13946,1,0,0:0:0:0:
256,192,14011,1,8,0:0:0:0:
256,192,14076,1,8,0:0:0:0:
256,192,14140,1,8,0:0:0:0:
256,192,14205,1,0,0:0:0:0:
256,192,14270,1,8,0:0:0:0:
256,192,14334,1,8,0:0:0:0:
256,192,14399,1,0,0:0:0:0:
256,192,14464,1,0,0:0:0:0:
256,192,14528,1,8,0:0:0:0:
256,192,14593,1,8,0:0:0:0:
256,192,14658,1,8,0:0:0:0:
256,192,14722,1,8,0:0:0:0:
256,192,14787,1,0,0:0:0:0:
256,192,14852,1,0,0:0:0:0:
256,192,14916,1,8,0:0:0:0:
256,192,14981,1,0,0:0:0:0:
256,192,15045,1,0,0:0:0:0:
256,192,15110,1,0,0:0:0:0:
256,192,15175,1,0,0:0:0:0:
256,192,15239,1,0,0:0:0:0:
256,192,15304,1,8,0:0:0:0:
256,192,15369,1,8,0:0:0:0:
256,192,15433,1,8,0:0:0:0:
256,192,15498,1,8,0:0:0:0:
256,192,15563,1,0,0:0:0:0:
256,192,15627,1,0,0:0:0:0:
256,192,15692,1,8,0:0:0:0:
256,192,15757,1,8,0:0:0:0:
256,192,15821,1,0,0:0:0:0:
256,192,15886,1,0,0:0:0:0:
256,192,15951,1,8,0:0:0:0:
256,192,16015,1,0,0:0:0:0:
256,192,16080,1,8,0:0:0:0:
256,192,16145,1,8,0:0:0:0:
256,192,16209,1,0,0:0:0:0:
256,192,16274,1,0,0:0:0:0:
256,192,16339,1,8,0:0:0:0:
256,192,16403,1,0,0:0:0:0:
256,192,16468,1,0,0:0:0:0:
256,192,16533,1,0,0:0:0:0:
256,192,16597,1,8,0:0:0:0:
256,192,16662,1,8,0:0:0:0:
256,192,16727,1,8,0:0:0:0:
256,192,16791,1,8,0:0:0:0:
256,192,16856,1,0,0:0:0:0:
256,192,16920,1,0,0:0:0:0:
256,192,16985,1,8,0:0:0:0:
256,192,17050,1,0,0:0:0:0:
256,192,17114,1,8,0:0:0:0:
256,192,17179,1,8,0:0:0:0:
256,192,17244,1,8,0:0:0:0:
256,192,17308,1,8,0:0:0:0:
256,192,17373,1,0,0:0:0:0:
256,192,17438,1,0,0:0:0:0:
256,192,17502,1,0,0:0:0:0:
256,192,17567,1,0,0:0:0:0:
256,192,17632,1,8,0:0:0:0:
256,192,17761,5,8,0:0:0:0:
256,192,17826,1,8,0:0:0:0:
256,192,17890,1,0,0:0:0:0:
256,192,17955,1,0,0:0:0:0:
256,192,18020,1,0,0:0:0:0:
256,192,18149,1,8,0:0:0:0:
256,192,18278,5,0,0:0:0:0:
256,192,18343,1,0,0:0:0:0:
256,192,18408,1,8,0:0:0:0:
256,192,18472,1,0,0:0:0:0:
256,192,18537,1,0,0:0:0:0:
256,192,18666,5,8,0:0:0:0:
256,192,18731,1,8,0:0:0:0:
256,192,18795,1,8,0:0:0:0:
256,192,18860,1,0,0:0:0:0:
256,192,18925,1,8,0:0:0:0:
256,192,18989,1,0,0:0:0:0:
256,192,19054,1,0,0:0:0:0:
256,192,19119,1,0,0:0:0:0:
256,192,19183,1,8,0:0:0:0:
256,192,19248,1,8,0:0:0:0:
256,192,19313,1,0,0:0:0:0:
256,192,19377,1,0,0:0:0:0:
256,192,19442,1,8,0:0:0:0:
256,192,19507,1,8,0:0:0:0:
256,192,19571,1,0,0:0:0:0:
256,192,19636,1,0,0:0:0:0:
256,192,19701,1,8,0:0:0:0:
256,192,19765,1,0,0:0:0:0:
256,192,19830,1,8,0:0:0:0:
256,192,19895,1,0,0:0:0:0:
256,192,19959,1,8,0:0:0:0:
256,192,20024,1,8,0:0:0:0:
256,192,20089,1,8,0:0:0:0:
256,192,20153,1,0,0:0:0:0:
256,192,20218,1,8,0:0:0:0:
256,192,20283,1,8,0:0:0:0:
256,192,20347,1,8,0:0:0:0:
256,192,20412,1,8,0:0:0:0:
256,192,20477,1,8,0:0:0:0:
256,192,20541,1,8,0:0:0:0:
256,192,20606,1,0,0:0:0:0:
256,192,20670,1,0,0:0:0:0:
256,192,20735,1,8,0:0:0:0:
256,192,20800,1,8,0:0:0:0:
256,192,20864,1,0,0:0:0:0:
256,192,20929,1,0,0:0:0:0:
256,192,20994,1,8,0:0:0:0:
256,192,21058,1,0,0:0:0:0:
256,192,21123,1,8,0:0:0:0:
256,192,21188,1,0,0:0:0:0:
256,192,21252,1,8,0:0:0:0:
256,192,21317,1,8,0:0:0:0:
256,192,21382,1,0,0:0:0:0:
256,192,21446,1,0,0:0:0:0:
256,192,21511,1,8,0:0:0:0:
256,192,21576,1,8,0:0:0:0:
256,192,21640,1,8,0:0:0:0:
256,192,21705,1,0,0:0:0:0:
256,192,21770,1,8,0:0:0:0:
256,192,21834,1,8,0:0:0:0:
256,192,21899,1,8,0:0:0:0:
256,192,21964,1,0,0:0:0:0:
256,192,22028,1,8,0:0:0:0:
256,192,22093,1,8,0:0:0:0:
256,192,22158,1,0,0:0:0:0:
256,192,22222,1,0,0:0:0:0:
256,192,22287,1,8,0:0:0:0:
256,192,22352,1,0,0:0:0:0:
256,192,22416,1,0,0:0:0:0:
256,192,22481,1,0,0:0:0:0:
256,192,22545,1,8,0:0:0:0:
256,192,22675,5,0,0:0:0:0:
256,192,22739,1,0,0:0:0:0:
256,192,22804,1,8,0:0:0:0:
256,192,22869,1,8,0:0:0:0:
256,192,22933,1,0,0:0:0:0:
256,192,22998,1,0,0:0:0:0:
256,192,23063,1,8,0:0:0:0:
256,192,23127,1,0,0:0:0:0:
256,192,23192,1,8,0:0:0:0:
256,192,23257,1,8,0:0:0:0:
256,192,23321,1,0,0:0:0:0:
256,192,23386,1,8,0:0:0:0:
256,192,23451,1,0,0:0:0:0:
256,192,23515,1,0,0:0:0:0:
256,192,23580,1,8,0:0:0:0:
256,192,23645,1,8,0:0:0:0:
256,192,23709,1,0,0:0:0:0:
256,192,23774,1,0,0:0:0:0:
256,192,23839,1,8,0:0:0:0:
256,192,23903,1,0,0:0:0:0:
256,192,23968,1,8,0:0:0:0:
256,192,24033,1,8,0:0:0:0:
256,192,24097,1,0,0:0:0:0:
256,192,24162,1,8,0:0:0:0:
256,192,24227,1,0,0:0:0:0:
256,192,24291,1,0,0:0:0:0:
256,192,24356,1,8,0:0:0:0:
256,192,24420,1,8,0:0:0:0:
256,192,24485,1,8,0:0:0:0:
256,192,24550,1,8,0:0:0:0:
256,192,24614,1,0,0:0:0:0:
256,192,24679,1,0,0:0:0:0:
256,192,24744,1,0,0:0:0:0:
256,192,24808,1,0,0:0:0:0:
256,192,24873,1,8,0:0:0:0:
256,192,24938,1,8,0:0:0:0:
256,192,25002,1,0,0:0:0:0:
256,192,25067,1,0,0:0:0:0:
256,192,25132,1,8,0:0:0:0:
256,192,25196,1,0,0:0:0:0:
256,192,25261,1,8,0:0:0:0:
256,192,25326,1,8,0:0:0:0:
256,192,25390,1,0,0:0:0:0:
256,192,25455,1,8,0:0:0:0:
256,192,25520,1,0,0:0:0:0:
256,192,25584,1,0,0:0:0:0:
256,192,25649,1,8,0:0:0:0:
256,192,25714,1,8,0:0:0:0:
256,192,25778,1,8,0:0:0:0:
256,192,25843,1,8,0:0:0:0:
256,192,25908,1,0,0:0:0:0:
256,192,25972,1,0,0:0:0:0:
256,192,26037,1,0,0:0:0:0:
256,192,26102,1,0,0:0:0:0:
256,192,26166,1,8,0:0:0:0:
256,192,26231,1,0,0:0:0:0:
256,192,26295,1,8,0:0:0:0:
256,192,26360,1,0,0:0:0:0:
256,192,26425,1,8,0:0:0:0:
256,192,26489,1,8,0:0:0:0:
256,192,26554,1,0,0:0:0:0:
256,192,26619,1,0,0:0:0:0:
256,192,26683,1,8,0:0:0:0:
256,192,26813,5,0,0:0:0:0:
256,192,26877,1,0,0:0:0:0:
256,192,26942,1,8,0:0:0:0:
256,192,27007,1,8,0:0:0:0:
256,192,27071,1,8,0:0:0:0:
256,192,27136,1,8,0:0:0:0:
256,192,27201,1,0,0:0:0:0:
256,192,27265,1,0,0:0:0:0:
256,192,27330,1,8,0:0:0:0:
256,192,27395,1,8,0:0:0:0:
256,192,27459,1,0,0:0:0:0:
256,192,27524,1,0,0:0:0:0:
256,192,27589,1,0,0:0:0:0:
256,192,27653,1,0,0:0:0:0:
256,192,27718,1,8,0:0:0:0:
256,192,27783,1,0,0:0:0:0:
256,192,27847,1,8,0:0:0:0:
256,192,27912,1,8,0:0:0:0:
256,192,27977,1,0,0:0:0:0:
256,192,28041,1,0,0:0:0:0:
256,192,28106,1,8,0:0:0:0:
256,192,28170,1,8,0:0:0:0:
256,192,28235,1,0,0:0:0:0:
256,192,28300,1,0,0:0:0:0:
256,192,28364,1,0,0:0:0:0:
256,192,28429,1,0,0:0:0:0:
256,192,28494,1,8,0:0:0:0:
256,192,28558,1,0,0:0:0:0:
256,192,28623,1,8,0:0:0:0:
256,192,28688,1,8,0:0:0:0:
256,192,28752,1,0,0:0:0:0:
256,192,28817,1,8,0:0:0:0:
256,192,28882,1,0,0:0:0:0:
256,192,28946,1,0,0:0:0:0:
256,192,29011,1,8,0:0:0:0:
256,192,29076,1,8,0:0:0:0:
256,192,29140,1,8,0:0:0:0:
256,192,29205,1,8,0:0:0:0:
256,192,29270,1,0,0:0:0:0:
256,192,29334,1,0,0:0:0:0:
256,192,29399,1,8,0:0:0:0:
256,192,29464,1,8,0:0:0:0:
256,192,29528,1,0,0:0:0:0:
256,192,29593,1,0,0:0:0:0:
256,192,29658,1,0,0:0:0:0:
256,192,29722,1,0,0:0:0:0:
256,192,29787,1,8,0:0:0:0:
256,192,29852,1,0,0:0:0:0:
256,192,29916,1,8,0:0:0:0:
256,192,29981,1,8,0:0:0:0:
256,192,30045,1,8,0:0:0:0:
256,192,30110,1,8,0:0:0:0:
256,192,30175,1,0,0:0:0:0:
256,192,30239,1,0,0:0:0:0:
256,192,30304,1,8,0:0:0:0:
256,192,30369,1,8,0:0:0:0:
256,192,30433,1,0,0:0:0:0:
256,192,30498,1,0,0:0:0:0:
256,192,30563,1,8,0:0:0:0:
256,192,30627,1,8,0:0:0:0:
256,192,30692,1,8,0:0:0:0:
256,192,30757,1,0,0:0:0:0:
256,192,30821,1,8,0:0:0:0:
256,192,30886,1,8,0:0:0:0:
256,192,30951,1,8,0:0:0:0:
256,192,31015,1,0,0:0:0:0:
256,192,31080,1,8,0:0:0:0:
256,192,31145,1,8,0:0:0:0:
256,192,31209,1,8,0:0:0:0:
256,192,31274,1,8,0:0:0:0:
256,192,31339,1,0,0:0:0:0:
256,192,31403,1,0,0:0:0:0:
256,192,31468,1,8,0:0:0:0:
256,192,31533,1,8,0:0:0:0:
256,192,31597,1,0,0:0:0:0:
256,192,31662,1,0,0:0:0:0:
256,192,31727,1,0,0:0:0:0:
256,192,31791,1,0,0:0:0:0:
256,192,31856,1,8,0:0:0:0:
256,192,31920,1,8,0:0:0:0:
256,192,31985,1,8,0:0:0:0:
256,192,32050,1,8,0:0:0:0:
256,192,32114,1,0,0:0:0:0:
256,192,32179,1,0,0:0:0:0:
256,192,32244,1,8,0:0:0:0:
256,192,32308,1,8,0:0:0:0:
256,192,32373,1,0,0:0:0:0:
256,192,32438,1,0,0:0:0:0:
256,192,32502,1,0,0:0:0:0:
256,192,32567,1,0,0:0:0:0:
256,192,32632,1,8,0:0:0:0:
256,192,32696,1,8,0:0:0:0:
256,192,32761,1,8,0:0:0:0:
256,192,32826,1,8,0:0:0:0:
256,192,32890,1,8,0:0:0:0:
256,192,32955,1,8,0:0:0:0:
256,192,33020,1,0,0:0:0:0:
256,192,33084,1,0,0:0:0:0:
256,192,33149,1,8,0:0:0:0:
256,192,33214,1,8,0:0:0:0:
256,192,33278,1,8,0:0:0:0:
256,192,33343,1,0,0:0:0:0:
256,192,33408,1,8,0:0:0:0:
256,192,33472,1,8,0:0:0:0:
256,192,33537,1,0,0:0:0:0:
256,192,33602,1,0,0:0:0:0:
256,192,33666,1,8,0:0:0:0:
256,192,33731,1,0,0:0:0:0:
256,192,33795,1,8,0:0:0:0:
256,192,33860,1,0,0:0:0:0:
256,192,33925,1,8,0:0:0:0:
256,192,33989,1,8,0:0:0:0:
256,192,34054,1,0,0:0:0:0:
256,192,34119,1,0,0:0:0:0:
256,192,34183,1,8,0:0:0:0:
256,192,34248,1,8,0:0:0:0:
256,192,34313,1,8,0:0:0:0:
256,192,34377,1,8,0:0:0:0:
256,192,34442,1,0,0:0:0:0:
256,192,34507,1,0,0:0:0:0:
256,192,34571,1,8,0:0:0:0:
256,192,34636,1,8,0:0:0:0:
256,96,34701,1,4,0:0:0:0:
256,96,34959,5,4,0:0:0:0:
256,96,35218,1,4,0:0:0:0:
256,192,35606,1,0,0:0:0:0:
256,192,35735,1,8,0:0:0:0:
256,192,35994,1,0,0:0:0:0:
256,192,36382,1,0,0:0:0:0:
256,192,36640,1,0,0:0:0:0:
256,192,36705,1,0,0:0:0:0:
256,192,36770,1,8,0:0:0:0:
256,192,37028,1,0,0:0:0:0:
256,96,37287,5,4,0:0:0:0:
256,192,37675,1,0,0:0:0:0:
256,192,37804,1,8,0:0:0:0:
256,192,38063,1,0,0:0:0:0:
256,192,38321,1,0,0:0:0:0:
256,192,38451,1,0,0:0:0:0:
256,192,38580,1,0,0:0:0:0:
256,192,38709,1,8,0:0:0:0:
256,192,38839,1,8,0:0:0:0:
256,192,38968,1,0,0:0:0:0:
256,192,39356,5,8,0:0:0:0:
256,192,39485,1,0,0:0:0:0:
256,192,39614,1,8,0:0:0:0:
256,192,39744,1,0,0:0:0:0:
256,192,39873,1,8,0:0:0:0:
256,192,40002,1,0,0:0:0:0:
256,192,40132,1,8,0:0:0:0:
256,192,40196,1,0,0:0:0:0:
256,192,40261,1,0,0:0:0:0:
256,192,40326,1,0,0:0:0:0:
256,192,40390,1,8,0:0:0:0:
256,192,40520,1,0,0:0:0:0:
256,192,40649,1,8,0:0:0:0:
256,192,40778,1,0,0:0:0:0:
256,192,40908,1,8,0:0:0:0:
256,192,40972,1,0,0:0:0:0:
256,192,41037,1,0,0:0:0:0:
256,192,41166,1,8,0:0:0:0:
256,192,41295,1,0,0:0:0:0:
256,192,41425,1,8,0:0:0:0:
256,192,41489,1,8,0:0:0:0:
256,192,41554,1,0,0:0:0:0:
256,192,41683,1,8,0:0:0:0:
256,192,41813,1,0,0:0:0:0:
256,192,41942,1,8,0:0:0:0:
256,192,42071,1,0,0:0:0:0:
256,192,42201,1,8,0:0:0:0:
256,192,42265,1,0,0:0:0:0:
256,192,42330,1,0,0:0:0:0:
256,192,42459,1,8,0:0:0:0:
256,192,42524,1,8,0:0:0:0:
256,192,42589,1,0,0:0:0:0:
256,192,42718,1,8,0:0:0:0:
256,192,42783,1,0,0:0:0:0:
256,192,42847,1,0,0:0:0:0:
256,192,42977,1,8,0:0:0:0:
256,192,43041,1,8,0:0:0:0:
256,192,43106,1,0,0:0:0:0:
256,192,43170,1,0,0:0:0:0:
256,192,43235,1,8,0:0:0:0:
256,192,43364,1,0,0:0:0:0:
256,96,43494,1,4,0:0:0:0:
256,192,43882,1,0,0:0:0:0:
256,192,43946,1,0,0:0:0:0:
256,192,44011,1,8,0:0:0:0:
256,192,44270,1,0,0:0:0:0:
256,192,44658,1,0,0:0:0:0:
256,192,44916,1,0,0:0:0:0:
256,192,45045,1,8,0:0:0:0:
256,192,45304,1,0,0:0:0:0:
256,96,45563,5,4,0:0:0:0:
256,192,45951,1,0,0:0:0:0:
256,192,46080,1,8,0:0:0:0:
256,192,46339,1,0,0:0:0:0:
256,192,46597,1,8,0:0:0:0:
256,192,46727,1,0,0:0:0:0:
256,192,46856,1,0,0:0:0:0:
256,192,46985,1,0,0:0:0:0:
256,192,47114,1,0,0:0:0:0:
256,192,47244,1,0,0:0:0:0:
256,192,47373,1,8,0:0:0:0:
256,192,47502,1,0,0:0:0:0:
256,192,47567,1,0,0:0:0:0:
256,192,47632,1,8,0:0:0:0:
256,192,47761,1,0,0:0:0:0:
256,192,47890,1,8,0:0:0:0:
256,192,48020,1,0,0:0:0:0:
256,192,48149,1,8,0:0:0:0:
256,192,48278,1,0,0:0:0:0:
256,192,48408,1,8,0:0:0:0:
256,192,48472,1,8,0:0:0:0:
256,192,48537,1,0,0:0:0:0:
256,192,48666,1,8,0:0:0:0:
256,192,48731,1,0,0:0:0:0:
256,192,48795,1,0,0:0:0:0:
256,192,48925,1,0,0:0:0:0:
256,192,49054,1,0,0:0:0:0:
256,192,49183,1,8,0:0:0:0:
256,192,49248,1,0,0:0:0:0:
256,192,49313,1,0,0:0:0:0:
256,192,49442,1,8,0:0:0:0:
256,192,49571,1,0,0:0:0:0:
256,192,49701,1,8,0:0:0:0:
256,192,49765,1,8,0:0:0:0:
256,192,49830,1,0,0:0:0:0:
256,192,49959,1,8,0:0:0:0:
256,192,50089,1,0,0:0:0:0:
256,192,50218,1,8,0:0:0:0:
256,192,50347,1,0,0:0:0:0:
256,192,50477,1,8,0:0:0:0:
256,192,50606,1,0,0:0:0:0:
256,192,50735,1,0,0:0:0:0:
256,192,50800,1,0,0:0:0:0:
256,192,50864,1,8,0:0:0:0:
256,192,50994,1,0,0:0:0:0:
256,192,51058,1,0,0:0:0:0:
256,192,51123,1,8,0:0:0:0:
256,192,51188,1,0,0:0:0:0:
256,192,51252,1,8,0:0:0:0:
256,192,51382,1,8,0:0:0:0:
256,192,51446,1,8,0:0:0:0:
256,192,51511,1,0,0:0:0:0:
256,192,51640,1,8,0:0:0:0:
256,96,51770,5,4,0:0:0:0:
256,192,52158,1,0,0:0:0:0:
256,192,52222,1,0,0:0:0:0:
256,192,52287,1,8,0:0:0:0:
256,192,52545,1,0,0:0:0:0:
256,192,52933,1,0,0:0:0:0:
256,192,53192,1,0,0:0:0:0:
256,192,53257,1,0,0:0:0:0:
256,192,53321,1,8,0:0:0:0:
256,192,53580,1,0,0:0:0:0:
256,96,53839,5,4,0:0:0:0:
256,192,54227,1,0,0:0:0:0:
256,192,54356,1,8,0:0:0:0:
256,192,54614,1,0,0:0:0:0:
256,192,54873,1,8,0:0:0:0:
256,192,55002,1,0,0:0:0:0:
256,192,55132,1,0,0:0:0:0:
256,192,55261,1,8,0:0:0:0:
256,192,55390,1,8,0:0:0:0:
256,192,55520,1,0,0:0:0:0:
256,192,55649,1,0,0:0:0:0:
256,192,55778,1,8,0:0:0:0:
256,192,55908,1,8,0:0:0:0:
256,192,55972,1,0,0:0:0:0:
256,192,56037,1,0,0:0:0:0:
256,192,56166,1,8,0:0:0:0:
256,192,56295,1,0,0:0:0:0:
256,192,56425,1,8,0:0:0:0:
256,192,56554,1,0,0:0:0:0:
256,192,56683,1,8,0:0:0:0:
256,192,56748,1,0,0:0:0:0:
256,192,56813,1,0,0:0:0:0:
256,192,56942,1,8,0:0:0:0:
256,192,57007,1,8,0:0:0:0:
256,192,57071,1,0,0:0:0:0:
256,192,57201,1,0,0:0:0:0:
256,192,57330,1,0,0:0:0:0:
256,192,57459,1,8,0:0:0:0:
256,192,57524,1,8,0:0:0:0:
256,192,57589,1,0,0:0:0:0:
256,192,57718,1,0,0:0:0:0:
256,192,57847,1,0,0:0:0:0:
256,192,57977,1,8,0:0:0:0:
256,192,58041,1,0,0:0:0:0:
256,192,58106,1,0,0:0:0:0:
256,192,58235,1,8,0:0:0:0:
256,192,58364,1,0,0:0:0:0:
256,192,58494,1,8,0:0:0:0:
256,192,58623,1,0,0:0:0:0:
256,192,58752,1,8,0:0:0:0:
256,192,58817,1,0,0:0:0:0:
256,192,58882,1,0,0:0:0:0:
256,192,59011,1,8,0:0:0:0:
256,192,59076,1,8,0:0:0:0:
256,192,59140,1,0,0:0:0:0:
256,192,59205,1,0,0:0:0:0:
256,192,59270,1,8,0:0:0:0:
256,192,59399,1,8,0:0:0:0:
256,192,59528,1,0,0:0:0:0:
256,192,59658,1,8,0:0:0:0:
256,192,59787,1,0,0:0:0:0:
256,192,59916,1,0,0:0:0:0:
256,96,60045,5,4,0:0:0:0:
256,192,60433,1,0,0:0:0:0:
256,192,60563,1,8,0:0:0:0:
256,192,60821,1,0,0:0:0:0:
256,192,61209,1,0,0:0:0:0:
256,192,61468,1,0,0:0:0:0:
256,192,61597,1,8,0:0:0:0:
256,192,61856,1,0,0:0:0:0:
256,96,62114,5,4,0:0:0:0:
256,192,62502,1,0,0:0:0:0:
256,192,62632,1,8,0:0:0:0:
256,192,62890,1,0,0:0:0:0:
256,192,63149,1,0,0:0:0:0:
256,192,63278,1,8,0:0:0:0:
256,192,63537,1,0,0:0:0:0:
256,192,63666,1,8,0:0:0:0:
256,192,63795,1,8,0:0:0:0:
256,192,63925,1,0,0:0:0:0:
256,192,64054,1,8,0:0:0:0:
256,192,64183,5,8,0:0:0:0:
256,192,64248,1,8,0:0:0:0:
256,192,64313,1,0,0:0:0:0:
256,192,64442,1,0,0:0:0:0:
256,192,64571,1,0,0:0:0:0:
256,192,64701,1,8,0:0:0:0:
256,192,64830,1,0,0:0:0:0:
256,192,64959,1,8,0:0:0:0:
256,192,65024,1,0,0:0:0:0:
256,192,65089,1,0,0:0:0:0:
256,192,65218,1,8,0:0:0:0:
256,192,65283,1,8,0:0:0:0:
256,192,65347,1,0,0:0:0:0:
256,192,65477,1,0,0:0:0:0:
256,192,65606,1,0,0:0:0:0:
256,192,65735,1,8,0:0:0:0:
256,192,65800,1,0,0:0:0:0:
256,192,65864,1,0,0:0:0:0:
256,192,65994,1,0,0:0:0:0:
256,192,66123,1,0,0:0:0:0:
256,192,66252,1,8,0:0:0:0:
256,192,66317,1,8,0:0:0:0:
256,192,66382,1,0,0:0:0:0:
256,192,66511,1,0,0:0:0:0:
256,192,66640,1,0,0:0:0:0:
256,192,66770,1,8,0:0:0:0:
256,192,66899,1,0,0:0:0:0:
256,192,67028,1,8,0:0:0:0:
256,192,67158,1,0,0:0:0:0:
256,192,67287,1,8,0:0:0:0:
256,192,67352,1,8,0:0:0:0:
256,192,67416,1,8,0:0:0:0:
256,192,67481,1,8,0:0:0:0:
256,192,67545,1,0,0:0:0:0:
256,192,67610,1,0,0:0:0:0:
256,192,67675,1,0,0:0:0:0:
256,192,67739,1,0,0:0:0:0:
256,192,67804,1,8,0:0:0:0:
256,192,67869,1,8,0:0:0:0:
256,192,67933,1,0,0:0:0:0:
256,192,68063,1,8,0:0:0:0:
256,192,68192,1,8,0:0:0:0:
256,96,68321,5,4,0:0:0:0:
256,192,68451,1,8,0:0:0:0:
256,192,68580,1,8,0:0:0:0:
256,192,68709,1,0,0:0:0:0:
256,192,68839,1,0,0:0:0:0:
256,192,68968,1,8,0:0:0:0:
256,192,69097,1,0,0:0:0:0:
256,192,69227,1,0,0:0:0:0:
256,192,69356,1,0,0:0:0:0:
256,192,69485,1,8,0:0:0:0:
256,192,69614,1,0,0:0:0:0:
256,192,69744,1,0,0:0:0:0:
256,192,69873,1,8,0:0:0:0:
256,192,70002,1,0,0:0:0:0:
256,192,70132,1,0,0:0:0:0:
256,192,70261,1,0,0:0:0:0:
256,192,70390,1,8,0:0:0:0:
256,192,70520,1,0,0:0:0:0:
256,192,70649,1,0,0:0:0:0:
256,192,70778,1,8,0:0:0:0:
256,192,70908,1,8,0:0:0:0:
256,192,71037,1,0,0:0:0:0:
256,192,71166,1,0,0:0:0:0:
256,192,71295,1,8,0:0:0:0:
256,192,71425,1,0,0:0:0:0:
256,192,71554,1,0,0:0:0:0:
256,192,71683,1,0,0:0:0:0:
256,192,71813,1,8,0:0:0:0:
256,192,71942,1,8,0:0:0:0:
256,192,72071,1,8,0:0:0:0:
256,192,72201,1,0,0:0:0:0:
256,192,72330,1,0,0:0:0:0:
256,96,72459,5,12,0:0:0:0:
256,192,72589,1,0,0:0:0:0:
256,192,72718,1,0,0:0:0:0:
256,192,72847,1,8,0:0:0:0:
256,192,72977,1,8,0:0:0:0:
256,192,73106,1,0,0:0:0:0:
256,192,73235,1,8,0:0:0:0:
256,192,73364,1,0,0:0:0:0:
256,192,73494,1,0,0:0:0:0:
256,192,73623,1,8,0:0:0:0:
256,192,73752,1,0,0:0:0:0:
256,192,73882,1,0,0:0:0:0:
256,192,74011,1,8,0:0:0:0:
256,192,74140,1,0,0:0:0:0:
256,192,74270,1,0,0:0:0:0:
256,192,74399,1,8,0:0:0:0:
256,192,74528,1,8,0:0:0:0:
256,192,74658,1,0,0:0:0:0:
256,192,74787,1,0,0:0:0:0:
256,192,74916,1,0,0:0:0:0:
256,192,75045,1,8,0:0:0:0:
256,192,75175,1,0,0:0:0:0:
256,192,75304,1,0,0:0:0:0:
256,192,75433,1,8,0:0:0:0:
256,192,75563,1,0,0:0:0:0:
256,192,75692,1,8,0:0:0:0:
256,192,75821,1,8,0:0:0:0:
256,192,75951,1,0,0:0:0:0:
256,192,76080,1,8,0:0:0:0:
256,192,76209,1,8,0:0:0:0:
256,192,76339,1,0,0:0:0:0:
256,192,76468,1,8,0:0:0:0:
256,96,76597,5,4,0:0:0:0:
256,192,76727,1,0,0:0:0:0:
256,192,76856,1,0,0:0:0:0:
256,192,76985,1,8,0:0:0:0:
256,192,77114,1,8,0:0:0:0:
256,192,77244,1,0,0:0:0:0:
256,192,77373,1,8,0:0:0:0:
256,192,77502,1,0,0:0:0:0:
256,192,77632,1,0,0:0:0:0:
256,192,77761,1,8,0:0:0:0:
256,192,77890,1,0,0:0:0:0:
256,192,78020,1,8,0:0:0:0:
256,192,78149,1,8,0:0:0:0:
256,192,78278,1,8,0:0:0:0:
256,192,78408,1,0,0:0:0:0:
256,192,78537,1,0,0:0:0:0:
256,192,78666,1,8,0:0:0:0:
256,192,78795,1,0,0:0:0:0:
256,192,78925,1,0,0:0:0:0:
256,192,79054,1,8,0:0:0:0:
256,192,79183,1,8,0:0:0:0:
256,192,79313,1,0,0:0:0:0:
256,192,79442,1,8,0:0:0:0:
256,192,79571,1,0,0:0:0:0:
256,192,79701,1,0,0:0:0:0:
256,192,79830,1,8,0:0:0:0:
256,192,79959,1,0,0:0:0:0:
256,192,80089,1,0,0:0:0:0:
256,192,80218,1,8,0:0:0:0:
256,192,80347,1,8,0:0:0:0:
256,192,80477,1,0,0:0:0:0:
256,192,80606,1,0,0:0:0:0:
256,96,80735,5,12,0:0:0:0:
256,192,80864,1,0,0:0:0:0:
256,192,80994,1,0,0:0:0:0:
256,192,81123,1,8,0:0:0:0:
256,192,81252,1,8,0:0:0:0:
256,192,81382,1,0,0:0:0:0:
256,192,81511,1,8,0:0:0:0:
256,192,81640,1,8,0:0:0:0:
256,192,81770,1,0,0:0:0:0:
256,192,81899,1,8,0:0:0:0:
256,192,82028,1,0,0:0:0:0:
256,192,82158,1,8,0:0:0:0:
256,192,82287,1,8,0:0:0:0:
256,192,82416,1,8,0:0:0:0:
256,192,82545,1,0,0:0:0:0:
256,192,82675,1,8,0:0:0:0:
256,192,82804,1,8,0:0:0:0:
256,192,82933,1,0,0:0:0:0:
256,192,83063,1,0,0:0:0:0:
256,192,83192,1,8,0:0:0:0:
256,192,83321,1,8,0:0:0:0:
256,192,83451,1,0,0:0:0:0:
256,192,83580,1,8,0:0:0:0:
256,192,83709,1,0,0:0:0:0:
256,96,83839,1,4,0:0:0:0:
256,192,83968,1,8,0:0:0:0:
256,96,84097,1,4,0:0:0:0:
256,192,84227,1,8,0:0:0:0:
256,192,84356,1,8,0:0:0:0:
256,192,84420,1,8,0:0:0:0:
256,192,84485,1,8,0:0:0:0:
256,192,84550,1,8,0:0:0:0:
256,192,84614,1,0,0:0:0:0:
256,192,84744,1,8,0:0:0:0:
256,96,84873,5,4,0:0:0:0:
256,192,85002,1,0,0:0:0:0:
256,192,85132,1,0,0:0:0:0:
256,192,85261,1,8,0:0:0:0:
256,192,85390,1,8,0:0:0:0:
256,192,85520,1,0,0:0:0:0:
256,192,85649,1,8,0:0:0:0:
256,192,85778,1,0,0:0:0:0:
256,192,85908,1,0,0:0:0:0:
256,192,86037,1,8,0:0:0:0:
256,192,86166,1,0,0:0:0:0:
256,192,86295,1,8,0:0:0:0:
256,192,86425,1,8,0:0:0:0:
256,192,86554,1,0,0:0:0:0:
256,192,86683,1,8,0:0:0:0:
256,192,86813,1,0,0:0:0:0:
256,192,86942,1,8,0:0:0:0:
256,192,87071,1,0,0:0:0:0:
256,192,87201,1,0,0:0:0:0:
256,192,87330,1,8,0:0:0:0:
256,192,87459,1,8,0:0:0:0:
256,192,87589,1,0,0:0:0:0:
256,192,87718,1,8,0:0:0:0:
256,192,87847,1,8,0:0:0:0:
256,192,87977,1,8,0:0:0:0:
256,192,88106,1,0,0:0:0:0:
256,192,88235,1,8,0:0:0:0:
256,192,88364,1,0,0:0:0:0:
256,192,88494,1,8,0:0:0:0:
256,192,88623,1,8,0:0:0:0:
256,192,88752,1,0,0:0:0:0:
256,192,88882,1,8,0:0:0:0:
256,96,89011,5,12,0:0:0:0:
256,192,89140,1,0,0:0:0:0:
256,192,89270,1,0,0:0:0:0:
256,192,89399,1,8,0:0:0:0:
256,192,89528,1,8,0:0:0:0:
256,192,89658,1,0,0:0:0:0:
256,192,89787,1,8,0:0:0:0:
256,192,89916,1,8,0:0:0:0:
256,192,90045,1,0,0:0:0:0:
256,192,90175,1,8,0:0:0:0:
256,192,90304,1,8,0:0:0:0:
256,192,90433,1,0,0:0:0:0:
256,192,90563,1,8,0:0:0:0:
256,192,90692,1,0,0:0:0:0:
256,192,90821,1,0,0:0:0:0:
256,192,90951,1,8,0:0:0:0:
256,192,91080,1,8,0:0:0:0:
256,192,91209,1,0,0:0:0:0:
256,192,91339,1,0,0:0:0:0:
256,192,91468,1,8,0:0:0:0:
256,192,91597,1,8,0:0:0:0:
256,192,91727,1,0,0:0:0:0:
256,192,91856,1,8,0:0:0:0:
256,192,91985,1,8,0:0:0:0:
256,192,92114,1,0,0:0:0:0:
256,192,92244,1,8,0:0:0:0:
256,192,92373,1,0,0:0:0:0:
256,192,92502,1,8,0:0:0:0:
256,192,92632,1,8,0:0:0:0:
256,192,92761,1,8,0:0:0:0:
256,192,92890,1,0,0:0:0:0:
256,192,93020,1,8,0:0:0:0:
256,96,93149,5,4,0:0:0:0:
256,192,93278,1,8,0:0:0:0:
256,192,93408,1,0,0:0:0:0:
256,192,93537,1,8,0:0:0:0:
256,192,93666,1,8,0:0:0:0:
256,192,93795,1,0,0:0:0:0:
256,192,93925,1,8,0:0:0:0:
256,192,94054,1,8,0:0:0:0:
256,192,94183,1,0,0:0:0:0:
256,192,94313,1,8,0:0:0:0:
256,192,94442,1,0,0:0:0:0:
256,192,94571,1,8,0:0:0:0:
256,192,94701,1,8,0:0:0:0:
256,192,94830,1,8,0:0:0:0:
256,192,94959,1,0,0:0:0:0:
256,192,95089,1,8,0:0:0:0:
256,192,95218,1,8,0:0:0:0:
256,192,95347,1,0,0:0:0:0:
256,192,95477,1,0,0:0:0:0:
256,192,95606,1,8,0:0:0:0:
256,192,95735,1,8,0:0:0:0:
256,192,95864,1,0,0:0:0:0:
256,192,95994,1,8,0:0:0:0:
256,192,96123,1,0,0:0:0:0:
256,192,96252,1,8,0:0:0:0:
256,192,96382,1,0,0:0:0:0:
256,192,96511,1,8,0:0:0:0:
256,192,96640,1,8,0:0:0:0:
256,192,96770,1,8,0:0:0:0:
256,192,96899,1,8,0:0:0:0:
256,192,97028,5,0,0:0:0:0:
256,192,97093,1,0,0:0:0:0:
256,192,97158,1,0,0:0:0:0:
256,192,97222,1,0,0:0:0:0:
256,96,97287,1,12,0:0:0:0:
256,192,97416,1,0,0:0:0:0:
256,192,97545,1,0,0:0:0:0:
256,192,97675,1,8,0:0:0:0:
256,192,97804,1,8,0:0:0:0:
256,192,97933,1,0,0:0:0:0:
256,192,98063,1,8,0:0:0:0:
256,192,98192,1,8,0:0:0:0:
256,192,98321,1,0,0:0:0:0:
256,192,98451,1,8,0:0:0:0:
256,192,98580,1,0,0:0:0:0:
256,192,98709,1,8,0:0:0:0:
256,192,98839,1,8,0:0:0:0:
256,192,98968,1,0,0:0:0:0:
256,192,99097,1,8,0:0:0:0:
256,192,99227,1,0,0:0:0:0:
256,192,99356,1,0,0:0:0:0:
256,192,99614,1,0,0:0:0:0:
256,192,99679,1,0,0:0:0:0:
256,192,99744,1,0,0:0:0:0:
256,192,99808,1,0,0:0:0:0:
256,192,99873,1,8,0:0:0:0:
256,192,100132,1,0,0:0:0:0:
256,192,100390,5,8,0:0:0:0:
256,192,100455,1,8,0:0:0:0:
256,192,100520,1,8,0:0:0:0:
256,192,100584,1,8,0:0:0:0:
256,192,100649,1,0,0:0:0:0:
256,192,100714,1,0,0:0:0:0:
256,192,100778,1,0,0:0:0:0:
256,192,100843,1,0,0:0:0:0:
256,192,100908,5,8,0:0:0:0:
256,192,100972,1,0,0:0:0:0:
256,192,101037,1,8,0:0:0:0:
256,192,101102,1,8,0:0:0:0:
256,192,101166,1,0,0:0:0:0:
256,192,101231,1,0,0:0:0:0:
256,192,101295,1,0,0:0:0:0:
256,192,101360,1,0,0:0:0:0:
256,192,101425,5,8,0:0:0:0:
256,192,101489,1,8,0:0:0:0:
256,192,101554,1,8,0:0:0:0:
256,192,101619,1,8,0:0:0:0:
256,192,101683,1,8,0:0:0:0:
256,192,101748,1,8,0:0:0:0:
256,192,101813,1,0,0:0:0:0:
256,192,101877,1,0,0:0:0:0:
256,192,101942,1,8,0:0:0:0:
256,192,102007,1,8,0:0:0:0:
256,192,102071,1,0,0:0:0:0:
256,192,102136,1,0,0:0:0:0:
256,192,102201,1,8,0:0:0:0:
256,192,102265,1,8,0:0:0:0:
256,192,102330,1,8,0:0:0:0:
256,192,102395,1,8,0:0:0:0:
256,192,102459,1,8,0:0:0:0:
256,192,102524,1,8,0:0:0:0:
256,192,102589,1,0,0:0:0:0:
256,192,102653,1,0,0:0:0:0:
256,192,102718,1,8,0:0:0:0:
256,192,102783,1,8,0:0:0:0:
256,192,102847,1,8,0:0:0:0:
256,192,102912,1,0,0:0:0:0:
256,192,102977,1,8,0:0:0:0:
256,192,103041,1,8,0:0:0:0:
256,192,103106,1,8,0:0:0:0:
256,192,103170,1,8,0:0:0:0:
256,192,103235,1,0,0:0:0:0:
256,192,103300,1,0,0:0:0:0:
256,192,103364,1,0,0:0:0:0:
256,192,103429,1,0,0:0:0:0:
256,192,103494,5,8,0:0:0:0:
256,192,103558,1,8,0:0:0:0:
256,192,103623,1,8,0:0:0:0:
256,192,103688,1,8,0:0:0:0:
256,192,103752,1,8,0:0:0:0:
256,192,103817,1,8,0:0:0:0:
256,192,103882,1,0,0:0:0:0:
256,192,103946,1,0,0:0:0:0:
256,192,104011,1,8,0:0:0:0:
256,192,104076,1,8,0:0:0:0:
256,192,104140,1,8,0:0:0:0:
256,192,104205,1,0,0:0:0:0:
256,192,104270,1,8,0:0:0:0:
256,192,104334,1,8,0:0:0:0:
256,192,104399,1,8,0:0:0:0:
256,192,104464,1,8,0:0:0:0:
256,192,104528,1,0,0:0:0:0:
256,192,104593,1,0,0:0:0:0:
256,192,104658,1,0,0:0:0:0:
256,192,104722,1,0,0:0:0:0:
256,192,104787,1,8,0:0:0:0:
256,192,104852,1,8,0:0:0:0:
256,192,104916,1,0,0:0:0:0:
256,192,104981,1,0,0:0:0:0:
256,192,105045,1,8,0:0:0:0:
256,192,105110,1,8,0:0:0:0:
256,192,105175,1,8,0:0:0:0:
256,192,105239,1,0,0:0:0:0:
256,192,105304,1,8,0:0:0:0:
256,192,105369,1,0,0:0:0:0:
256,192,105433,1,0,0:0:0:0:
256,192,105498,1,0,0:0:0:0:
256,192,105563,5,8,0:0:0:0:
256,192,105627,1,8,0:0:0:0:
256,192,105692,1,8,0:0:0:0:
256,192,105757,1,0,0:0:0:0:
256,192,105821,1,8,0:0:0:0:
256,192,105886,1,8,0:0:0:0:
256,192,105951,1,0,0:0:0:0:
256,192,106015,1,0,0:0:0:0:
256,192,106080,1,8,0:0:0:0:
256,192,106145,1,8,0:0:0:0:
256,192,106209,1,8,0:0:0:0:
256,192,106274,1,0,0:0:0:0:
256,192,106339,1,8,0:0:0:0:
256,192,106403,1,8,0:0:0:0:
256,192,106468,1,8,0:0:0:0:
256,192,106533,1,8,0:0:0:0:
256,192,106597,1,0,0:0:0:0:
256,192,106662,1,0,0:0:0:0:
256,192,106727,1,0,0:0:0:0:
256,192,106791,1,0,0:0:0:0:
256,192,106856,1,8,0:0:0:0:
256,192,106920,1,8,0:0:0:0:
256,192,106985,1,0,0:0:0:0:
256,192,107050,1,0,0:0:0:0:
256,192,107114,1,8,0:0:0:0:
256,192,107179,1,8,0:0:0:0:
256,192,107244,1,8,0:0:0:0:
256,192,107308,1,8,0:0:0:0:
256,192,107373,1,0,0:0:0:0:
256,192,107438,1,0,0:0:0:0:
256,192,107502,1,0,0:0:0:0:
256,192,107567,1,0,0:0:0:0:
256,192,107632,1,8,0:0:0:0:
256,192,107696,1,0,0:0:0:0:
256,192,107761,1,0,0:0:0:0:
256,192,107826,1,0,0:0:0:0:
256,192,107890,1,8,0:0:0:0:
256,192,107955,1,8,0:0:0:0:
256,192,108020,1,8,0:0:0:0:
256,192,108084,1,8,0:0:0:0:
256,192,108149,1,0,0:0:0:0:
256,192,108214,1,0,0:0:0:0:
256,192,108278,1,0,0:0:0:0:
256,192,108343,1,0,0:0:0:0:
256,192,108408,1,8,0:0:0:0:
256,192,108472,1,8,0:0:0:0:
256,192,108537,1,0,0:0:0:0:
256,192,108602,1,0,0:0:0:0:
256,192,108666,1,8,0:0:0:0:
256,192,108795,1,0,0:0:0:0:
256,192,108860,1,0,0:0:0:0:
256,192,108925,1,8,0:0:0:0:
256,192,108989,1,0,0:0:0:0:
256,192,109054,1,0,0:0:0:0:
256,192,109183,1,8,0:0:0:0:
256,192,109313,1,0,0:0:0:0:
256,192,109377,1,0,0:0:0:0:
256,192,109442,1,8,0:0:0:0:
256,192,109507,1,8,0:0:0:0:
256,192,109571,1,0,0:0:0:0:
256,192,109701,5,8,0:0:0:0:
256,192,109765,1,8,0:0:0:0:
256,192,109830,1,0,0:0:0:0:
256,192,109895,1,0,0:0:0:0:
256,192,109959,1,8,0:0:0:0:
256,192,110024,1,0,0:0:0:0:
256,192,110089,1,0,0:0:0:0:
256,192,110153,1,0,0:0:0:0:
256,192,110218,1,8,0:0:0:0:
256,192,110283,1,8,0:0:0:0:
256,192,110347,1,8,0:0:0:0:
256,192,110412,1,0,0:0:0:0:
256,192,110477,1,8,0:0:0:0:
256,192,110541,1,8,0:0:0:0:
256,192,110606,1,8,0:0:0:0:
256,192,110670,1,8,0:0:0:0:
256,192,110735,1,0,0:0:0:0:
256,192,110800,1,0,0:0:0:0:
256,192,110864,1,0,0:0:0:0:
256,192,110929,1,0,0:0:0:0:
256,192,110994,1,8,0:0:0:0:
256,192,111058,1,8,0:0:0:0:
256,192,111123,1,8,0:0:0:0:
256,192,111188,1,0,0:0:0:0:
256,192,111252,1,8,0:0:0:0:
256,192,111317,1,8,0:0:0:0:
256,192,111382,1,0,0:0:0:0:
256,192,111446,1,0,0:0:0:0:
256,192,111511,1,0,0:0:0:0:
256,192,111576,1,0,0:0:0:0:
256,192,111640,1,0,0:0:0:0:
256,192,111705,1,0,0:0:0:0:
256,192,111770,5,8,0:0:0:0:
256,192,111834,1,8,0:0:0:0:
256,192,111899,1,8,0:0:0:0:
256,192,111964,1,0,0:0:0:0:
256,192,112028,1,8,0:0:0:0:
256,192,112093,1,8,0:0:0:0:
256,192,112158,1,8,0:0:0:0:
256,192,112222,1,0,0:0:0:0:
256,192,112287,1,8,0:0:0:0:
256,192,112352,1,8,0:0:0:0:
256,192,112416,1,0,0:0:0:0:
256,192,112481,1,0,0:0:0:0:
256,192,112545,1,8,0:0:0:0:
256,192,112610,1,0,0:0:0:0:
256,192,112675,1,0,0:0:0:0:
256,192,112739,1,0,0:0:0:0:
256,192,112804,1,8,0:0:0:0:
256,192,112869,1,8,0:0:0:0:
256,192,112933,1,8,0:0:0:0:
256,192,112998,1,0,0:0:0:0:
256,192,113063,1,8,0:0:0:0:
256,192,113127,1,8,0:0:0:0:
256,192,113192,1,0,0:0:0:0:
256,192,113257,1,0,0:0:0:0:
256,192,113321,1,8,0:0:0:0:
256,192,113386,1,8,0:0:0:0:
256,192,113451,1,8,0:0:0:0:
256,192,113515,1,0,0:0:0:0:
256,192,113580,1,8,0:0:0:0:
256,192,113645,1,0,0:0:0:0:
256,192,113709,1,0,0:0:0:0:
256,192,113774,1,0,0:0:0:0:
256,192,113839,5,8,0:0:0:0:
256,192,113903,1,8,0:0:0:0:
256,192,113968,1,8,0:0:0:0:
256,192,114033,1,8,0:0:0:0:
256,192,114097,1,8,0:0:0:0:
256,192,114162,1,8,0:0:0:0:
256,192,114227,1,0,0:0:0:0:
256,192,114291,1,0,0:0:0:0:
256,192,114356,1,8,0:0:0:0:
256,192,114420,1,0,0:0:0:0:
256,192,114485,1,0,0:0:0:0:
256,192,114550,1,0,0:0:0:0:
256,192,114614,1,8,0:0:0:0:
256,192,114679,1,8,0:0:0:0:
256,192,114744,1,0,0:0:0:0:
256,192,114808,1,0,0:0:0:0:
256,192,114873,1,8,0:0:0:0:
256,192,114938,1,0,0:0:0:0:
256,192,115002,1,8,0:0:0:0:
256,192,115067,1,0,0:0:0:0:
256,192,115132,1,8,0:0:0:0:
256,192,115196,1,8,0:0:0:0:
256,192,115261,1,8,0:0:0:0:
256,192,115326,1,0,0:0:0:0:
256,192,115390,1,8,0:0:0:0:
256,192,115455,1,8,0:0:0:0:
256,192,115520,1,8,0:0:0:0:
256,192,115584,1,0,0:0:0:0:
256,192,115649,1,8,0:0:0:0:
256,192,115714,1,8,0:0:0:0:
256,192,115778,1,0,0:0:0:0:
256,192,115843,1,0,0:0:0:0:
256,192,115908,1,8,0:0:0:0:
256,192,115972,1,0,0:0:0:0:
256,192,116037,1,0,0:0:0:0:
256,192,116102,1,0,0:0:0:0:
256,192,116166,1,8,0:0:0:0:
256,192,116231,1,8,0:0:0:0:
256,192,116295,1,0,0:0:0:0:
256,192,116360,1,0,0:0:0:0:
256,192,116425,1,8,0:0:0:0:
256,192,116489,1,0,0:0:0:0:
256,192,116554,1,0,0:0:0:0:
256,192,116619,1,0,0:0:0:0:
256,192,116683,1,8,0:0:0:0:
256,192,116748,1,8,0:0:0:0:
256,192,116813,1,0,0:0:0:0:
256,192,116877,1,0,0:0:0:0:
256,192,116942,1,8,0:0:0:0:
256,192,117071,1,0,0:0:0:0:
256,192,117136,1,0,0:0:0:0:
256,192,117201,1,8,0:0:0:0:
256,192,117330,1,8,0:0:0:0:
256,192,117459,1,0,0:0:0:0:
256,192,117524,1,0,0:0:0:0:
256,192,117589,1,8,0:0:0:0:
256,192,117718,1,8,0:0:0:0:
256,192,117847,5,0,0:0:0:0:
256,192,117912,1,0,0:0:0:0:
256,192,117977,1,8,0:0:0:0:
256,192,118041,1,8,0:0:0:0:
256,192,118106,1,8,0:0:0:0:
256,192,118170,1,8,0:0:0:0:
256,192,118235,1,8,0:0:0:0:
256,192,118300,1,8,0:0:0:0:
256,192,118364,1,0,0:0:0:0:
256,192,118429,1,0,0:0:0:0:
256,192,118494,1,8,0:0:0:0:
256,192,118558,1,8,0:0:0:0:
256,192,118623,1,8,0:0:0:0:
256,192,118688,1,0,0:0:0:0:
256,192,118752,1,8,0:0:0:0:
256,192,118817,1,8,0:0:0:0:
256,192,118882,1,0,0:0:0:0:
256,192,118946,1,0,0:0:0:0:
256,192,119011,1,8,0:0:0:0:
256,192,119076,1,8,0:0:0:0:
256,192,119140,1,8,0:0:0:0:
256,192,119205,1,8,0:0:0:0:
256,192,119270,1,8,0:0:0:0:
256,192,119334,1,8,0:0:0:0:
256,192,119399,1,0,0:0:0:0:
256,192,119464,1,0,0:0:0:0:
256,192,119528,1,8,0:0:0:0:
256,192,119593,1,8,0:0:0:0:
256,192,119658,1,8,0:0:0:0:
256,192,119722,1,8,0:0:0:0:
256,192,119787,1,8,0:0:0:0:
256,192,119852,1,8,0:0:0:0:
256,192,119916,1,0,0:0:0:0:
256,192,119981,1,0,0:0:0:0:
256,192,120045,1,8,0:0:0:0:
256,192,120110,1,8,0:0:0:0:
256,192,120175,1,0,0:0:0:0:
256,192,120239,1,0,0:0:0:0:
256,192,120304,1,8,0:0:0:0:
256,192,120369,1,8,0:0:0:0:
256,192,120433,1,8,0:0:0:0:
256,192,120498,1,8,0:0:0:0:
256,192,120563,1,8,0:0:0:0:
256,192,120627,1,8,0:0:0:0:
256,192,120692,1,8,0:0:0:0:
256,192,120757,1,8,0:0:0:0:
256,192,120821,1,0,0:0:0:0:
256,192,120886,1,0,0:0:0:0:
256,192,120951,1,0,0:0:0:0:
256,192,121015,1,0,0:0:0:0:
256,192,121080,1,8,0:0:0:0:
256,192,121145,1,8,0:0:0:0:
256,192,121209,1,8,0:0:0:0:
256,192,121274,1,0,0:0:0:0:
256,192,121339,1,8,0:0:0:0:
256,192,121403,1,0,0:0:0:0:
256,192,121468,1,0,0:0:0:0:
256,192,121533,1,0,0:0:0:0:
256,192,121597,1,8,0:0:0:0:
256,192,121662,1,8,0:0:0:0:
256,192,121727,1,8,0:0:0:0:
256,192,121791,1,0,0:0:0:0:
256,192,121856,1,8,0:0:0:0:
256,192,121920,1,8,0:0:0:0:
256,192,121985,1,0,0:0:0:0:
256,192,122050,1,0,0:0:0:0:
256,192,122114,5,8,0:0:0:0:
256,192,122179,1,8,0:0:0:0:
256,192,122244,1,8,0:0:0:0:
256,192,122308,1,8,0:0:0:0:
256,192,122373,1,8,0:0:0:0:
256,192,122438,1,8,0:0:0:0:
256,192,122502,1,0,0:0:0:0:
256,192,122567,1,0,0:0:0:0:
256,192,122632,1,8,0:0:0:0:
256,192,122696,1,0,0:0:0:0:
256,192,122761,1,0,0:0:0:0:
256,192,122826,1,0,0:0:0:0:
256,192,122890,1,8,0:0:0:0:
256,192,122955,1,8,0:0:0:0:
256,192,123020,1,8,0:0:0:0:
256,192,123084,1,0,0:0:0:0:
256,192,123149,1,8,0:0:0:0:
256,192,123214,1,8,0:0:0:0:
256,192,123278,1,0,0:0:0:0:
256,192,123343,1,0,0:0:0:0:
256,192,123408,1,8,0:0:0:0:
256,192,123472,1,8,0:0:0:0:
256,192,123537,1,8,0:0:0:0:
256,192,123602,1,8,0:0:0:0:
256,192,123666,1,8,0:0:0:0:
256,192,123731,1,8,0:0:0:0:
256,192,123795,1,0,0:0:0:0:
256,192,123860,1,0,0:0:0:0:
256,192,123925,1,8,0:0:0:0:
256,192,123989,1,0,0:0:0:0:
256,192,124054,1,0,0:0:0:0:
256,192,124119,1,0,0:0:0:0:
256,192,124183,1,8,0:0:0:0:
256,192,124248,1,8,0:0:0:0:
256,192,124313,1,8,0:0:0:0:
256,192,124377,1,0,0:0:0:0:
256,192,124442,1,8,0:0:0:0:
256,192,124507,1,0,0:0:0:0:
256,192,124571,1,0,0:0:0:0:
256,192,124636,1,0,0:0:0:0:
256,192,124701,1,8,0:0:0:0:
256,192,124765,1,8,0:0:0:0:
256,192,124830,1,8,0:0:0:0:
256,192,124895,1,0,0:0:0:0:
256,192,124959,1,8,0:0:0:0:
256,192,125024,1,8,0:0:0:0:
256,192,125089,1,0,0:0:0:0:
256,192,125218,1,8,0:0:0:0:
256,192,125283,1,0,0:0:0:0:
256,192,125347,1,0,0:0:0:0:
256,192,125477,1,0,0:0:0:0:
256,192,125606,1,8,0:0:0:0:
256,192,125735,1,8,0:0:0:0:
256,192,125800,1,0,0:0:0:0:
256,192,125864,1,0,0:0:0:0:
256,192,125994,1,0,0:0:0:0:
256,192,126123,1,0,0:0:0:0:
256,192,126252,5,8,0:0:0:0:
256,192,126317,1,8,0:0:0:0:
256,192,126382,1,8,0:0:0:0:
256,192,126446,1,0,0:0:0:0:
256,192,126511,1,8,0:0:0:0:
256,192,126576,1,8,0:0:0:0:
256,192,126640,1,0,0:0:0:0:
256,192,126705,1,0,0:0:0:0:
256,192,126770,1,8,0:0:0:0:
256,192,126834,1,0,0:0:0:0:
256,192,126899,1,0,0:0:0:0:
256,192,126964,1,0,0:0:0:0:
256,192,127028,1,8,0:0:0:0:
256,192,127093,1,8,0:0:0:0:
256,192,127158,1,8,0:0:0:0:
256,192,127222,1,0,0:0:0:0:
256,192,127287,1,8,0:0:0:0:
256,192,127352,1,8,0:0:0:0:
256,192,127416,1,0,0:0:0:0:
256,192,127481,1,0,0:0:0:0:
256,192,127545,1,8,0:0:0:0:
256,192,127610,1,8,0:0:0:0:
256,192,127675,1,0,0:0:0:0:
256,192,127739,1,0,0:0:0:0:
256,192,127804,1,8,0:0:0:0:
256,192,127869,1,8,0:0:0:0:
256,192,127933,1,8,0:0:0:0:
256,192,127998,1,8,0:0:0:0:
256,192,128063,1,0,0:0:0:0:
256,192,128127,1,0,0:0:0:0:
256,192,128192,1,0,0:0:0:0:
256,192,128257,1,0,0:0:0:0:
256,192,128321,1,8,0:0:0:0:
256,192,128386,1,8,0:0:0:0:
256,192,128451,1,8,0:0:0:0:
256,192,128515,1,8,0:0:0:0:
256,192,128580,1,0,0:0:0:0:
256,192,128645,1,0,0:0:0:0:
256,192,128709,1,0,0:0:0:0:
256,192,128774,1,0,0:0:0:0:
256,192,128839,1,8,0:0:0:0:
256,192,128903,1,8,0:0:0:0:
256,192,128968,1,8,0:0:0:0:
256,192,129033,1,8,0:0:0:0:
256,192,129097,1,8,0:0:0:0:
256,192,129162,1,8,0:0:0:0:
256,192,129227,1,8,0:0:0:0:
256,192,129291,1,8,0:0:0:0:
256,192,129356,1,0,0:0:0:0:
256,192,129420,1,0,0:0:0:0:
256,192,129485,1,0,0:0:0:0:
256,192,129550,1,0,0:0:0:0:
256,192,129614,1,0,0:0:0:0:
256,192,129679,1,0,0:0:0:0:
256,192,129744,1,0,0:0:0:0:
256,192,129808,1,0,0:0:0:0:
256,192,129873,1,8,0:0:0:0:
256,192,129938,1,8,0:0:0:0:
256,192,130002,1,8,0:0:0:0:
256,192,130067,1,8,0:0:0:0:
256,192,130132,1,0,0:0:0:0:
256,192,130196,1,0,0:0:0:0:
256,192,130261,1,0,0:0:0:0:
256,192,130326,1,0,0:0:0:0:
256,192,130390,5,8,0:0:0:0:
256,192,130455,1,8,0:0:0:0:
256,192,130520,1,8,0:0:0:0:
256,192,130584,1,8,0:0:0:0:
256,192,130649,1,8,0:0:0:0:
256,192,130714,1,8,0:0:0:0:
256,192,130778,1,8,0:0:0:0:
256,192,130843,1,8,0:0:0:0:
256,192,130908,1,0,0:0:0:0:
256,192,130972,1,0,0:0:0:0:
256,192,131037,1,0,0:0:0:0:
256,192,131102,1,0,0:0:0:0:
256,192,131166,1,8,0:0:0:0:
256,192,131231,1,8,0:0:0:0:
256,192,131295,1,8,0:0:0:0:
256,192,131360,1,8,0:0:0:0:
256,192,131425,1,8,0:0:0:0:
256,192,131489,1,8,0:0:0:0:
256,192,131554,1,8,0:0:0:0:
256,192,131619,1,8,0:0:0:0:
256,192,131683,1,0,0:0:0:0:
256,192,131748,1,0,0:0:0:0:
256,192,131813,1,0,0:0:0:0:
256,192,131877,1,0,0:0:0:0:
256,192,131942,1,8,0:0:0:0:
256,192,132007,1,8,0:0:0:0:
256,192,132071,1,8,0:0:0:0:
256,192,132136,1,8,0:0:0:0:
256,192,132201,1,8,0:0:0:0:
256,192,132265,1,8,0:0:0:0:
256,192,132330,1,0,0:0:0:0:
256,192,132395,1,0,0:0:0:0:
256,192,132459,1,0,0:0:0:0:
256,192,132524,1,0,0:0:0:0:
256,192,132589,1,0,0:0:0:0:
256,192,132653,1,0,0:0:0:0:
256,192,132718,1,8,0:0:0:0:
256,192,132783,1,8,0:0:0:0:
256,192,132847,1,8,0:0:0:0:
256,192,132912,1,8,0:0:0:0:
256,192,132977,1,0,0:0:0:0:
256,192,133041,1,0,0:0:0:0:
256,192,133106,1,0,0:0:0:0:
256,192,133170,1,0,0:0:0:0:
256,192,133235,1,8,0:0:0:0:
256,192,133300,1,8,0:0:0:0:
256,192,133364,1,0,0:0:0:0:
256,192,133429,1,0,0:0:0:0:
256,192,133494,1,8,0:0:0:0:
256,192,133558,1,8,0:0:0:0:
256,192,133623,1,8,0:0:0:0:
256,192,133688,1,8,0:0:0:0:
256,192,133752,1,0,0:0:0:0:
256,192,133817,1,0,0:0:0:0:
256,192,133882,1,0,0:0:0:0:
256,192,133946,1,0,0:0:0:0:
256,192,134011,1,8,0:0:0:0:
256,192,134076,1,8,0:0:0:0:
256,192,134140,1,8,0:0:0:0:
256,192,134205,1,0,0:0:0:0:
256,192,134270,1,8,0:0:0:0:
256,192,134399,1,8,0:0:0:0:
256,96,134528,1,4,0:0:0:0:
256,192,134916,5,0,0:0:0:0:
256,192,135045,1,8,0:0:0:0:
256,192,135304,1,0,0:0:0:0:
256,192,135692,1,0,0:0:0:0:
256,192,135951,1,0,0:0:0:0:
256,192,136015,1,0,0:0:0:0:
256,192,136080,1,8,0:0:0:0:
256,192,136339,1,0,0:0:0:0:
256,96,136597,1,4,0:0:0:0:
256,192,136985,1,0,0:0:0:0:
256,192,137114,1,8,0:0:0:0:
256,192,137373,1,0,0:0:0:0:
256,192,137632,1,0,0:0:0:0:
256,192,137718,1,0,0:0:0:0:
256,192,137804,1,0,0:0:0:0:
256,192,137890,1,0,0:0:0:0:
256,192,137977,1,0,0:0:0:0:
256,192,138063,1,0,0:0:0:0:
256,192,138149,1,8,0:0:0:0:
256,192,138278,1,8,0:0:0:0:
256,192,138408,1,0,0:0:0:0:
256,192,138537,1,8,0:0:0:0:
256,192,138666,1,8,0:0:0:0:
256,192,138731,1,8,0:0:0:0:
256,192,138795,1,0,0:0:0:0:
256,192,138925,1,8,0:0:0:0:
256,192,139054,1,0,0:0:0:0:
256,192,139183,1,8,0:0:0:0:
256,192,139313,1,0,0:0:0:0:
256,192,139442,1,8,0:0:0:0:
256,192,139507,1,0,0:0:0:0:
256,192,139571,1,0,0:0:0:0:
256,192,139701,1,8,0:0:0:0:
256,192,139765,1,8,0:0:0:0:
256,192,139830,1,0,0:0:0:0:
256,192,139959,1,8,0:0:0:0:
256,192,140089,1,0,0:0:0:0:
256,192,140218,1,8,0:0:0:0:
256,192,140283,1,0,0:0:0:0:
256,192,140347,1,0,0:0:0:0:
256,192,140477,1,8,0:0:0:0:
256,192,140606,1,0,0:0:0:0:
256,192,140735,1,8,0:0:0:0:
256,192,140800,1,8,0:0:0:0:
256,192,140864,1,0,0:0:0:0:
256,192,140994,1,8,0:0:0:0:
256,192,141123,1,0,0:0:0:0:
256,192,141252,1,8,0:0:0:0:
256,192,141382,1,0,0:0:0:0:
256,192,141511,1,8,0:0:0:0:
256,192,141576,1,0,0:0:0:0:
256,192,141640,1,0,0:0:0:0:
256,192,141770,1,8,0:0:0:0:
256,192,141834,1,8,0:0:0:0:
256,192,141899,1,0,0:0:0:0:
256,192,141964,1,0,0:0:0:0:
256,192,142028,1,8,0:0:0:0:
256,192,142158,1,0,0:0:0:0:
256,192,142287,1,8,0:0:0:0:
256,192,142352,1,8,0:0:0:0:
256,192,142416,1,0,0:0:0:0:
256,192,142481,1,0,0:0:0:0:
256,192,142545,1,0,0:0:0:0:
256,192,142675,1,8,0:0:0:0:
256,96,142804,1,4,0:0:0:0:
256,192,143192,5,0,0:0:0:0:
256,192,143257,1,0,0:0:0:0:
256,192,143321,1,8,0:0:0:0:
256,192,143580,1,0,0:0:0:0:
256,192,143968,1,0,0:0:0:0:
256,192,144227,1,0,0:0:0:0:
256,192,144356,1,8,0:0:0:0:
256,192,144614,1,0,0:0:0:0:
256,96,144873,1,4,0:0:0:0:
256,192,145261,1,0,0:0:0:0:
256,192,145390,1,8,0:0:0:0:
256,192,145649,1,0,0:0:0:0:
256,192,145908,1,8,0:0:0:0:
256,192,145994,1,0,0:0:0:0:
256,192,146080,1,0,0:0:0:0:
256,192,146166,1,8,0:0:0:0:
256,192,146252,1,0,0:0:0:0:
256,192,146339,1,0,0:0:0:0:
256,192,146425,1,8,0:0:0:0:
256,192,146554,1,8,0:0:0:0:
256,192,146683,1,8,0:0:0:0:
256,192,146813,1,0,0:0:0:0:
256,192,146942,1,8,0:0:0:0:
256,192,147007,1,0,0:0:0:0:
256,192,147071,1,0,0:0:0:0:
256,192,147201,1,8,0:0:0:0:
256,192,147330,1,0,0:0:0:0:
256,192,147459,1,8,0:0:0:0:
256,192,147589,1,0,0:0:0:0:
256,192,147718,1,8,0:0:0:0:
256,192,147783,1,8,0:0:0:0:
256,192,147847,1,0,0:0:0:0:
256,192,147977,1,8,0:0:0:0:
256,192,148041,1,8,0:0:0:0:
256,192,148106,1,0,0:0:0:0:
256,192,148170,1,0,0:0:0:0:
256,192,148235,1,8,0:0:0:0:
256,192,148364,1,0,0:0:0:0:
256,192,148494,1,8,0:0:0:0:
256,192,148558,1,0,0:0:0:0:
256,192,148623,1,0,0:0:0:0:
256,192,148688,1,0,0:0:0:0:
256,192,148752,1,8,0:0:0:0:
256,192,148882,1,0,0:0:0:0:
256,192,149011,1,8,0:0:0:0:
256,192,149076,1,8,0:0:0:0:
256,192,149140,1,0,0:0:0:0:
256,192,149270,1,8,0:0:0:0:
256,192,149399,1,0,0:0:0:0:
256,192,149528,1,8,0:0:0:0:
256,192,149658,1,0,0:0:0:0:
256,192,149787,1,8,0:0:0:0:
256,192,149852,1,8,0:0:0:0:
256,192,149916,1,0,0:0:0:0:
256,192,150045,1,8,0:0:0:0:
256,192,150175,1,8,0:0:0:0:
256,192,150304,1,0,0:0:0:0:
256,192,150433,1,0,0:0:0:0:
256,192,150563,1,8,0:0:0:0:
256,192,150692,1,0,0:0:0:0:
256,192,150821,1,0,0:0:0:0:
256,192,150951,1,0,0:0:0:0:
256,96,151080,1,4,0:0:0:0:
256,192,151468,5,0,0:0:0:0:
256,192,151533,1,0,0:0:0:0:
256,192,151597,1,8,0:0:0:0:
256,192,151856,1,0,0:0:0:0:
256,192,152244,1,0,0:0:0:0:
256,192,152502,1,0,0:0:0:0:
256,192,152567,1,0,0:0:0:0:
256,192,152632,1,8,0:0:0:0:
256,192,152890,1,0,0:0:0:0:
256,96,153149,1,4,0:0:0:0:
256,192,153537,1,0,0:0:0:0:
256,192,153666,1,8,0:0:0:0:
256,192,153925,1,0,0:0:0:0:
256,192,154183,1,8,0:0:0:0:
256,192,154205,1,8,0:0:0:0:
256,192,154313,1,0,0:0:0:0:
256,192,154442,1,0,0:0:0:0:
256,192,154571,1,8,0:0:0:0:
256,192,154701,1,8,0:0:0:0:
256,192,154830,1,0,0:0:0:0:
256,192,154959,1,0,0:0:0:0:
256,192,155089,1,8,0:0:0:0:
256,192,155218,1,8,0:0:0:0:
256,192,155283,1,8,0:0:0:0:
256,192,155347,1,0,0:0:0:0:
256,192,155477,1,8,0:0:0:0:
256,192,155606,1,0,0:0:0:0:
256,192,155735,1,8,0:0:0:0:
256,192,155864,1,0,0:0:0:0:
256,192,155994,1,8,0:0:0:0:
256,192,156058,1,0,0:0:0:0:
256,192,156123,1,0,0:0:0:0:
256,192,156252,1,8,0:0:0:0:
256,192,156317,1,8,0:0:0:0:
256,192,156382,1,0,0:0:0:0:
256,192,156511,1,0,0:0:0:0:
256,192,156640,1,0,0:0:0:0:
256,192,156770,1,8,0:0:0:0:
256,192,156834,1,8,0:0:0:0:
256,192,156899,1,0,0:0:0:0:
256,192,157028,1,0,0:0:0:0:
256,192,157158,1,0,0:0:0:0:
256,192,157287,1,8,0:0:0:0:
256,192,157352,1,0,0:0:0:0:
256,192,157416,1,0,0:0:0:0:
256,192,157545,1,8,0:0:0:0:
256,192,157675,1,0,0:0:0:0:
256,192,157804,1,8,0:0:0:0:
256,192,157933,1,0,0:0:0:0:
256,192,158063,1,8,0:0:0:0:
256,192,158127,1,0,0:0:0:0:
256,192,158192,1,0,0:0:0:0:
256,192,158321,1,8,0:0:0:0:
256,192,158343,1,8,0:0:0:0:
256,192,158451,1,0,0:0:0:0:
256,192,158580,1,8,0:0:0:0:
256,192,158709,1,8,0:0:0:0:
256,192,158839,1,8,0:0:0:0:
256,192,158968,1,0,0:0:0:0:
256,192,159097,1,8,0:0:0:0:
256,192,159227,1,8,0:0:0:0:
256,96,159356,1,4,0:0:0:0:
256,192,159744,5,0,0:0:0:0:
256,192,159873,1,8,0:0:0:0:
256,192,160132,1,0,0:0:0:0:
256,192,160520,1,0,0:0:0:0:
256,192,160778,1,0,0:0:0:0:
256,192,160908,1,8,0:0:0:0:
256,192,161166,1,0,0:0:0:0:
256,96,161425,1,4,0:0:0:0:
256,192,161813,1,0,0:0:0:0:
256,192,161942,1,8,0:0:0:0:
256,192,162201,1,0,0:0:0:0:
256,192,162459,1,0,0:0:0:0:
256,192,162524,1,0,0:0:0:0:
256,192,162589,1,0,0:0:0:0:
256,192,162653,1,0,0:0:0:0:
256,192,162718,1,8,0:0:0:0:
256,192,162783,1,8,0:0:0:0:
256,192,162847,1,8,0:0:0:0:
256,192,162912,1,8,0:0:0:0:
256,192,162977,1,0,0:0:0:0:
256,192,163041,1,0,0:0:0:0:
256,192,163106,1,0,0:0:0:0:
256,192,163170,1,0,0:0:0:0:
256,192,163235,1,8,0:0:0:0:
256,192,163300,1,8,0:0:0:0:
256,192,163364,1,0,0:0:0:0:
256,192,163429,1,0,0:0:0:0:
256,192,163494,1,8,0:0:0:0:
256,192,163558,1,0,0:0:0:0:
256,192,163623,1,0,0:0:0:0:
256,192,163752,1,0,0:0:0:0:
256,192,163882,1,0,0:0:0:0:
256,192,164011,1,8,0:0:0:0:
256,192,164140,1,0,0:0:0:0:
256,192,164270,1,8,0:0:0:0:
256,192,164334,1,0,0:0:0:0:
256,192,164399,1,0,0:0:0:0:
256,192,164528,1,8,0:0:0:0:
256,192,164593,1,0,0:0:0:0:
256,192,164658,1,0,0:0:0:0:
256,192,164722,1,0,0:0:0:0:
256,192,164787,1,0,0:0:0:0:
256,192,164916,1,0,0:0:0:0:
256,192,165045,1,8,0:0:0:0:
256,192,165110,1,8,0:0:0:0:
256,192,165175,1,0,0:0:0:0:
256,192,165239,1,0,0:0:0:0:
256,192,165304,1,0,0:0:0:0:
256,192,165433,1,0,0:0:0:0:
256,192,165563,1,8,0:0:0:0:
256,192,165627,1,0,0:0:0:0:
256,192,165692,1,0,0:0:0:0:
256,192,165821,1,0,0:0:0:0:
256,192,165951,1,0,0:0:0:0:
256,192,166080,1,8,0:0:0:0:
256,192,166209,1,8,0:0:0:0:
256,192,166274,1,8,0:0:0:0:
256,192,166339,1,0,0:0:0:0:
256,192,166468,1,0,0:0:0:0:
256,192,166597,1,8,0:0:0:0:
256,96,167632,5,4,0:0:0:0:
256,192,167890,1,0,0:0:0:0:
256,192,167955,1,0,0:0:0:0:
256,192,168020,1,0,0:0:0:0:
256,192,168149,1,8,0:0:0:0:
256,192,168214,1,0,0:0:0:0:
256,192,168278,1,0,0:0:0:0:
256,192,168408,1,0,0:0:0:0:
256,192,168537,1,8,0:0:0:0:
256,192,168666,1,0,0:0:0:0:
256,192,168795,1,8,0:0:0:0:
256,192,168925,1,0,0:0:0:0:
256,192,168989,1,0,0:0:0:0:
256,192,169054,1,0,0:0:0:0:
256,192,169183,1,0,0:0:0:0:
256,192,169313,1,8,0:0:0:0:
256,96,169701,1,4,0:0:0:0:
256,192,169959,1,0,0:0:0:0:
256,192,170024,1,0,0:0:0:0:
256,192,170089,1,0,0:0:0:0:
256,192,170218,1,8,0:0:0:0:
256,192,170283,1,0,0:0:0:0:
256,192,170347,1,0,0:0:0:0:
256,192,170477,1,0,0:0:0:0:
256,192,170606,1,0,0:0:0:0:
256,192,170735,1,8,0:0:0:0:
256,192,170994,1,0,0:0:0:0:
256,192,171123,1,0,0:0:0:0:
256,192,171252,1,8,0:0:0:0:
256,192,171382,1,0,0:0:0:0:
256,192,171511,1,0,0:0:0:0:
256,192,171640,1,0,0:0:0:0:
256,96,171770,5,4,0:0:0:0:
256,192,172028,1,0,0:0:0:0:
256,192,172093,1,0,0:0:0:0:
256,192,172158,1,0,0:0:0:0:
256,192,172287,1,8,0:0:0:0:
256,192,172352,1,8,0:0:0:0:
256,192,172416,1,0,0:0:0:0:
256,192,172545,1,0,0:0:0:0:
256,192,172675,1,8,0:0:0:0:
256,192,172804,1,0,0:0:0:0:
256,192,172933,1,8,0:0:0:0:
256,192,173063,1,0,0:0:0:0:
256,192,173127,1,0,0:0:0:0:
256,192,173192,1,0,0:0:0:0:
256,192,173321,1,0,0:0:0:0:
256,192,173451,1,8,0:0:0:0:
256,96,173839,1,4,0:0:0:0:
256,192,174097,1,0,0:0:0:0:
256,192,174162,1,0,0:0:0:0:
256,192,174227,1,0,0:0:0:0:
256,192,174356,1,8,0:0:0:0:
256,192,174420,1,8,0:0:0:0:
256,192,174485,1,0,0:0:0:0:
256,192,174614,1,0,0:0:0:0:
256,192,174744,1,0,0:0:0:0:
256,192,174873,1,8,0:0:0:0:
256,192,175132,1,0,0:0:0:0:
256,192,175261,1,0,0:0:0:0:
256,192,175390,1,8,0:0:0:0:
256,192,175520,1,8,0:0:0:0:
256,192,175649,1,0,0:0:0:0:
256,192,175778,1,8,0:0:0:0:
256,96,175908,5,4,0:0:0:0:
256,192,176166,1,0,0:0:0:0:
256,192,176231,1,0,0:0:0:0:
256,192,176295,1,0,0:0:0:0:
256,192,176425,1,8,0:0:0:0:
256,192,176489,1,0,0:0:0:0:
256,192,176554,1,0,0:0:0:0:
256,192,176683,1,0,0:0:0:0:
256,192,176813,1,8,0:0:0:0:
256,192,176942,1,0,0:0:0:0:
256,192,177071,1,8,0:0:0:0:
256,192,177201,1,0,0:0:0:0:
256,192,177265,1,0,0:0:0:0:
256,192,177330,1,0,0:0:0:0:
256,192,177459,1,0,0:0:0:0:
256,192,177589,1,8,0:0:0:0:
256,96,177977,1,4,0:0:0:0:
256,192,178235,1,0,0:0:0:0:
256,192,178300,1,0,0:0:0:0:
256,192,178364,1,0,0:0:0:0:
256,192,178494,1,8,0:0:0:0:
256,192,178558,1,0,0:0:0:0:
256,192,178623,1,0,0:0:0:0:
256,192,178752,1,0,0:0:0:0:
256,192,178882,1,0,0:0:0:0:
256,192,179011,1,8,0:0:0:0:
256,192,179270,1,0,0:0:0:0:
256,192,179399,1,0,0:0:0:0:
256,192,179528,1,8,0:0:0:0:
256,192,179658,1,0,0:0:0:0:
256,192,179787,1,0,0:0:0:0:
256,192,179916,1,0,0:0:0:0:
256,96,180045,5,4,0:0:0:0:
256,192,180304,1,0,0:0:0:0:
256,192,180369,1,0,0:0:0:0:
256,192,180433,1,0,0:0:0:0:
256,192,180498,1,0,0:0:0:0:
256,192,180563,1,8,0:0:0:0:
256,192,180692,1,0,0:0:0:0:
256,192,180757,1,0,0:0:0:0:
256,192,180821,1,0,0:0:0:0:
256,192,180886,1,0,0:0:0:0:
256,192,180951,1,8,0:0:0:0:
256,192,181015,1,0,0:0:0:0:
256,192,181080,1,0,0:0:0:0:
256,192,181145,1,0,0:0:0:0:
256,192,181209,1,8,0:0:0:0:
256,192,181274,1,8,0:0:0:0:
256,192,181339,1,0,0:0:0:0:
256,192,181403,1,0,0:0:0:0:
256,192,181468,1,0,0:0:0:0:
256,192,181533,1,0,0:0:0:0:
256,192,181597,1,8,0:0:0:0:
256,192,181727,1,8,0:0:0:0:
256,96,182114,1,4,0:0:0:0:
256,192,182373,1,0,0:0:0:0:
256,192,182438,1,0,0:0:0:0:
256,192,182502,1,0,0:0:0:0:
256,192,182632,1,8,0:0:0:0:
256,192,182696,1,8,0:0:0:0:
256,192,182761,1,0,0:0:0:0:
256,192,182890,1,0,0:0:0:0:
256,192,183020,1,0,0:0:0:0:
256,192,183149,1,8,0:0:0:0:
256,192,183214,1,8,0:0:0:0:
256,192,183278,1,8,0:0:0:0:
256,192,183343,1,8,0:0:0:0:
256,192,183408,1,0,0:0:0:0:
256,192,183472,1,0,0:0:0:0:
256,192,183537,1,0,0:0:0:0:
256,192,183602,1,0,0:0:0:0:
256,192,183666,1,8,0:0:0:0:
256,192,183731,1,8,0:0:0:0:
256,192,183795,1,8,0:0:0:0:
256,192,183860,1,8,0:0:0:0:
256,192,183925,1,0,0:0:0:0:
256,192,183989,1,0,0:0:0:0:
256,192,184054,1,0,0:0:0:0:
256,192,184119,1,0,0:0:0:0:
256,192,184183,1,8,0:0:0:0:
256,192,184313,5,0,0:0:0:0:
256,192,184377,1,0,0:0:0:0:
256,192,184442,1,0,0:0:0:0:
256,192,184507,1,0,0:0:0:0:
256,192,184571,1,8,0:0:0:0:
256,192,184701,1,0,0:0:0:0:
256,192,184765,1,0,0:0:0:0:
256,192,184830,1,0,0:0:0:0:
256,192,184959,1,8,0:0:0:0:
256,192,185089,1,0,0:0:0:0:
256,192,185153,1,0,0:0:0:0:
256,192,185218,1,0,0:0:0:0:
256,192,185347,1,8,0:0:0:0:
256,192,185477,1,0,0:0:0:0:
256,192,185606,1,0,0:0:0:0:
256,192,185670,1,0,0:0:0:0:
256,192,185735,1,8,0:0:0:0:
256,192,185800,1,8,0:0:0:0:
256,192,185864,1,0,0:0:0:0:
256,192,185929,1,0,0:0:0:0:
256,192,185994,1,0,0:0:0:0:
256,192,186058,1,0,0:0:0:0:
256,192,186123,1,8,0:0:0:0:
256,192,186252,1,0,0:0:0:0:
256,192,186382,1,8,0:0:0:0:
256,192,186511,1,0,0:0:0:0:
256,192,186576,1,0,0:0:0:0:
256,192,186640,1,0,0:0:0:0:
256,192,186705,1,0,0:0:0:0:
256,192,186770,1,8,0:0:0:0:
256,192,186899,1,0,0:0:0:0:
256,192,187028,1,0,0:0:0:0:
256,192,187093,1,0,0:0:0:0:
256,192,187158,1,8,0:0:0:0:
256,192,187287,1,0,0:0:0:0:
256,192,187352,1,0,0:0:0:0:
256,192,187416,1,8,0:0:0:0:
256,192,187545,1,0,0:0:0:0:
256,192,187675,1,0,0:0:0:0:
256,192,187804,1,8,0:0:0:0:
256,192,187869,1,8,0:0:0:0:
256,192,187933,1,8,0:0:0:0:
256,192,187998,1,8,0:0:0:0:
256,192,188063,1,0,0:0:0:0:
256,192,188127,1,0,0:0:0:0:
256,192,188192,1,0,0:0:0:0:
256,192,188257,1,0,0:0:0:0:
256,192,188321,1,8,0:0:0:0:
256,192,188451,5,0,0:0:0:0:
256,192,188515,1,0,0:0:0:0:
256,192,188580,1,0,0:0:0:0:
256,192,188645,1,0,0:0:0:0:
256,192,188709,1,8,0:0:0:0:
256,192,188839,1,0,0:0:0:0:
256,192,188903,1,0,0:0:0:0:
256,192,188968,1,0,0:0:0:0:
256,192,189097,1,8,0:0:0:0:
256,192,189227,1,0,0:0:0:0:
256,192,189291,1,0,0:0:0:0:
256,192,189356,1,0,0:0:0:0:
256,192,189485,1,8,0:0:0:0:
256,192,189614,1,0,0:0:0:0:
256,192,189679,1,0,0:0:0:0:
256,192,189744,1,0,0:0:0:0:
256,192,189808,1,0,0:0:0:0:
256,192,189873,1,8,0:0:0:0:
256,192,190002,1,0,0:0:0:0:
256,192,190132,1,0,0:0:0:0:
256,192,190196,1,0,0:0:0:0:
256,192,190261,1,8,0:0:0:0:
256,192,190390,1,0,0:0:0:0:
256,192,190455,1,0,0:0:0:0:
256,192,190520,1,8,0:0:0:0:
256,192,190649,1,0,0:0:0:0:
256,192,190714,1,0,0:0:0:0:
256,192,190778,1,0,0:0:0:0:
256,192,190843,1,0,0:0:0:0:
256,192,190908,1,8,0:0:0:0:
256,192,191037,1,0,0:0:0:0:
256,192,191102,1,0,0:0:0:0:
256,192,191166,1,0,0:0:0:0:
256,192,191295,1,0,0:0:0:0:
256,96,191425,1,12,0:0:0:0:
256,192,191683,1,0,0:0:0:0:
256,192,191748,1,0,0:0:0:0:
256,192,191813,1,0,0:0:0:0:
256,192,191877,1,0,0:0:0:0:
256,192,191942,1,8,0:0:0:0:
256,192,192007,1,8,0:0:0:0:
256,192,192071,1,8,0:0:0:0:
256,192,192136,1,8,0:0:0:0:
256,192,192201,1,0,0:0:0:0:
256,192,192265,1,0,0:0:0:0:
256,192,192330,1,0,0:0:0:0:
256,192,192395,1,0,0:0:0:0:
256,192,192459,1,8,0:0:0:0:
256,192,192589,5,0,0:0:0:0:
256,192,192653,1,0,0:0:0:0:
256,192,192718,1,0,0:0:0:0:
256,192,192783,1,0,0:0:0:0:
256,192,192847,1,8,0:0:0:0:
256,192,192977,1,0,0:0:0:0:
256,192,193041,1,0,0:0:0:0:
256,192,193106,1,0,0:0:0:0:
256,192,193235,1,8,0:0:0:0:
256,192,193364,1,0,0:0:0:0:
256,192,193494,1,0,0:0:0:0:
256,192,193558,1,0,0:0:0:0:
256,192,193623,1,8,0:0:0:0:
256,192,193752,1,0,0:0:0:0:
256,192,193817,1,0,0:0:0:0:
256,192,193882,1,0,0:0:0:0:
256,192,193946,1,0,0:0:0:0:
256,192,194011,1,8,0:0:0:0:
256,192,194140,1,0,0:0:0:0:
256,192,194270,1,0,0:0:0:0:
256,192,194334,1,0,0:0:0:0:
256,192,194399,1,8,0:0:0:0:
256,192,194464,1,8,0:0:0:0:
256,192,194528,1,0,0:0:0:0:
256,192,194593,1,0,0:0:0:0:
256,192,194658,1,8,0:0:0:0:
256,192,194787,1,0,0:0:0:0:
256,192,194852,1,0,0:0:0:0:
256,192,194916,1,0,0:0:0:0:
256,192,195045,1,8,0:0:0:0:
256,192,195175,1,0,0:0:0:0:
256,192,195304,1,0,0:0:0:0:
256,192,195369,1,0,0:0:0:0:
256,192,195433,1,8,0:0:0:0:
256,192,195563,1,0,0:0:0:0:
256,192,195627,1,0,0:0:0:0:
256,192,195692,1,8,0:0:0:0:
256,192,195821,1,0,0:0:0:0:
256,192,195886,1,0,0:0:0:0:
256,192,195951,1,0,0:0:0:0:
256,192,196080,1,8,0:0:0:0:
256,192,196145,1,8,0:0:0:0:
256,192,196209,1,8,0:0:0:0:
256,192,196274,1,8,0:0:0:0:
256,192,196339,1,0,0:0:0:0:
256,192,196403,1,0,0:0:0:0:
256,192,196468,1,0,0:0:0:0:
256,192,196533,1,0,0:0:0:0:
256,192,196597,1,8,0:0:0:0:
256,192,196727,5,0,0:0:0:0:
256,192,196856,1,0,0:0:0:0:
256,192,196920,1,0,0:0:0:0:
256,192,196985,1,8,0:0:0:0:
256,192,197050,1,0,0:0:0:0:
256,192,197114,1,0,0:0:0:0:
256,192,197179,1,0,0:0:0:0:
256,192,197244,1,0,0:0:0:0:
256,192,197308,1,0,0:0:0:0:
256,192,197373,1,8,0:0:0:0:
256,192,197502,1,0,0:0:0:0:
256,192,197567,1,0,0:0:0:0:
256,192,197632,1,0,0:0:0:0:
256,192,197696,1,0,0:0:0:0:
256,192,197761,1,8,0:0:0:0:
256,192,197826,1,8,0:0:0:0:
256,192,197890,1,0,0:0:0:0:
256,192,197955,1,0,0:0:0:0:
256,192,198020,1,0,0:0:0:0:
256,192,198084,1,0,0:0:0:0:
256,192,198149,1,8,0:0:0:0:
256,192,198278,1,0,0:0:0:0:
256,192,198343,1,0,0:0:0:0:
256,192,198408,1,0,0:0:0:0:
256,192,198537,1,0,0:0:0:0:
256,192,198666,1,8,0:0:0:0:
256,192,198731,1,8,0:0:0:0:
256,192,198795,1,8,0:0:0:0:
256,192,198860,1,8,0:0:0:0:
256,192,198925,1,0,0:0:0:0:
256,192,198989,1,0,0:0:0:0:
256,192,199054,1,0,0:0:0:0:
256,192,199119,1,0,0:0:0:0:
256,192,199183,1,8,0:0:0:0:
256,192,199248,1,8,0:0:0:0:
256,192,199313,1,8,0:0:0:0:
256,192,199377,1,8,0:0:0:0:
256,192,199442,1,0,0:0:0:0:
256,192,199507,1,0,0:0:0:0:
256,192,199571,1,0,0:0:0:0:
256,192,199636,1,0,0:0:0:0:
256,192,199701,1,8,0:0:0:0:
256,192,199765,1,8,0:0:0:0:
256,192,199830,1,8,0:0:0:0:
256,192,199895,1,8,0:0:0:0:
256,192,199959,1,8,0:0:0:0:
256,192,200024,1,8,0:0:0:0:
256,192,200089,1,8,0:0:0:0:
256,192,200153,1,8,0:0:0:0:
256,192,200218,1,0,0:0:0:0:
256,192,200283,1,0,0:0:0:0:
256,192,200347,1,0,0:0:0:0:
256,192,200412,1,0,0:0:0:0:
256,192,200477,1,8,0:0:0:0:
256,192,200541,1,8,0:0:0:0:
256,192,200606,1,8,0:0:0:0:
256,192,200670,1,8,0:0:0:0:
256,96,200735,1,4,0:0:0:0:
256,192,200994,5,0,0:0:0:0:
256,192,201058,1,0,0:0:0:0:
256,192,201123,1,0,0:0:0:0:
256,192,201252,1,8,0:0:0:0:
256,192,201317,1,0,0:0:0:0:
256,192,201382,1,0,0:0:0:0:
256,192,201511,1,0,0:0:0:0:
256,192,201640,1,8,0:0:0:0:
256,192,201770,1,0,0:0:0:0:
256,192,201899,1,8,0:0:0:0:
256,192,202028,1,0,0:0:0:0:
256,192,202093,1,0,0:0:0:0:
256,192,202158,1,0,0:0:0:0:
256,192,202287,1,0,0:0:0:0:
256,192,202416,1,8,0:0:0:0:
256,96,202804,1,4,0:0:0:0:
256,192,203063,1,0,0:0:0:0:
256,192,203127,1,0,0:0:0:0:
256,192,203192,1,0,0:0:0:0:
256,192,203321,1,8,0:0:0:0:
256,192,203386,1,0,0:0:0:0:
256,192,203451,1,0,0:0:0:0:
256,192,203580,1,0,0:0:0:0:
256,192,203709,1,0,0:0:0:0:
256,192,203839,1,8,0:0:0:0:
256,192,204097,1,0,0:0:0:0:
256,192,204227,1,0,0:0:0:0:
256,192,204356,1,8,0:0:0:0:
256,192,204485,1,0,0:0:0:0:
256,192,204614,1,0,0:0:0:0:
256,192,204744,1,0,0:0:0:0:
256,96,204873,1,4,0:0:0:0:
256,192,205132,5,0,0:0:0:0:
256,192,205196,1,0,0:0:0:0:
256,192,205261,1,0,0:0:0:0:
256,192,205390,1,8,0:0:0:0:
256,192,205455,1,8,0:0:0:0:
256,192,205520,1,0,0:0:0:0:
256,192,205649,1,8,0:0:0:0:
256,192,205778,1,8,0:0:0:0:
256,192,205908,1,0,0:0:0:0:
256,192,206037,1,8,0:0:0:0:
256,192,206166,1,0,0:0:0:0:
256,192,206231,1,0,0:0:0:0:
256,192,206295,1,0,0:0:0:0:
256,192,206425,1,8,0:0:0:0:
256,192,206554,1,8,0:0:0:0:
256,96,206942,1,4,0:0:0:0:
256,192,207201,1,0,0:0:0:0:
256,192,207265,1,0,0:0:0:0:
256,192,207330,1,0,0:0:0:0:
256,192,207459,1,8,0:0:0:0:
256,192,207524,1,8,0:0:0:0:
256,192,207589,1,0,0:0:0:0:
256,192,207718,1,0,0:0:0:0:
256,192,207847,1,0,0:0:0:0:
256,192,207977,1,8,0:0:0:0:
256,192,208041,1,8,0:0:0:0:
256,192,208106,1,8,0:0:0:0:
256,192,208170,1,8,0:0:0:0:
256,192,208235,1,0,0:0:0:0:
256,192,208300,1,0,0:0:0:0:
256,192,208364,1,0,0:0:0:0:
256,192,208429,1,0,0:0:0:0:
256,192,208494,1,8,0:0:0:0:
256,192,208558,1,0,0:0:0:0:
256,192,208623,1,8,0:0:0:0:
256,192,208752,1,8,0:0:0:0:
256,192,208882,1,8,0:0:0:0:
256,96,209011,1,4,0:0:0:0:
256,192,209270,5,0,0:0:0:0:
256,192,209334,1,0,0:0:0:0:
256,192,209399,1,0,0:0:0:0:
256,192,209528,1,8,0:0:0:0:
256,192,209593,1,0,0:0:0:0:
256,192,209658,1,0,0:0:0:0:
256,192,209787,1,0,0:0:0:0:
256,192,209916,1,8,0:0:0:0:
256,192,210045,1,0,0:0:0:0:
256,192,210175,1,8,0:0:0:0:
256,192,210304,1,0,0:0:0:0:
256,192,210369,1,0,0:0:0:0:
256,192,210433,1,0,0:0:0:0:
256,192,210563,1,0,0:0:0:0:
256,192,210692,1,8,0:0:0:0:
256,96,211080,1,4,0:0:0:0:
256,192,211339,1,0,0:0:0:0:
256,192,211403,1,0,0:0:0:0:
256,192,211468,1,0,0:0:0:0:
256,192,211597,1,8,0:0:0:0:
256,192,211662,1,0,0:0:0:0:
256,192,211727,1,0,0:0:0:0:
256,192,211856,1,0,0:0:0:0:
256,192,211985,1,0,0:0:0:0:
256,192,212114,1,8,0:0:0:0:
256,192,212373,1,0,0:0:0:0:
256,192,212502,1,0,0:0:0:0:
256,192,212632,1,8,0:0:0:0:
256,192,212761,1,0,0:0:0:0:
256,192,212890,1,0,0:0:0:0:
256,192,213020,1,0,0:0:0:0:
256,96,213149,1,4,0:0:0:0:
256,192,213408,5,0,0:0:0:0:
256,192,213472,1,0,0:0:0:0:
256,192,213537,1,0,0:0:0:0:
256,192,213602,1,0,0:0:0:0:
256,192,213666,1,8,0:0:0:0:
256,192,213795,1,0,0:0:0:0:
256,192,213860,1,0,0:0:0:0:
256,192,213925,1,0,0:0:0:0:
256,192,213989,1,0,0:0:0:0:
256,192,214054,1,8,0:0:0:0:
256,192,214119,1,0,0:0:0:0:
256,192,214183,1,0,0:0:0:0:
256,192,214248,1,0,0:0:0:0:
256,192,214313,1,8,0:0:0:0:
256,192,214377,1,8,0:0:0:0:
256,192,214442,1,0,0:0:0:0:
256,192,214507,1,0,0:0:0:0:
256,192,214571,1,0,0:0:0:0:
256,192,214636,1,0,0:0:0:0:
256,192,214701,1,8,0:0:0:0:
256,192,214830,1,8,0:0:0:0:
256,96,215218,1,4,0:0:0:0:
256,192,215477,1,0,0:0:0:0:
256,192,215541,1,0,0:0:0:0:
256,192,215606,1,0,0:0:0:0:
256,192,215735,1,8,0:0:0:0:
256,192,215800,1,8,0:0:0:0:
256,192,215864,1,0,0:0:0:0:
256,192,215994,1,0,0:0:0:0:
256,192,216252,1,8,0:0:0:0:
256,192,216317,1,8,0:0:0:0:
256,192,216382,1,8,0:0:0:0:
256,192,216446,1,8,0:0:0:0:
256,192,216511,1,0,0:0:0:0:
256,192,216576,1,0,0:0:0:0:
256,192,216640,1,0,0:0:0:0:
256,192,216705,1,0,0:0:0:0:
256,192,216770,1,8,0:0:0:0:
256,192,216834,1,8,0:0:0:0:
256,192,216899,1,8,0:0:0:0:
256,192,216964,1,8,0:0:0:0:
256,192,217028,1,0,0:0:0:0:
256,192,217093,1,0,0:0:0:0:
256,192,217158,1,0,0:0:0:0:
256,192,217222,1,0,0:0:0:0:
256,96,217287,1,12,0:0:0:0:
256,192,217416,5,0,0:0:0:0:
256,192,217481,1,0,0:0:0:0:
256,192,217545,1,0,0:0:0:0:
256,192,217610,1,0,0:0:0:0:
256,192,217675,1,8,0:0:0:0:
256,192,217804,1,0,0:0:0:0:
256,192,217869,1,0,0:0:0:0:
256,192,217933,1,0,0:0:0:0:
256,192,218063,1,8,0:0:0:0:
256,192,218192,1,0,0:0:0:0:
256,192,218257,1,0,0:0:0:0:
256,192,218321,1,0,0:0:0:0:
256,192,218451,1,8,0:0:0:0:
256,192,218580,1,0,0:0:0:0:
256,192,218709,1,0,0:0:0:0:
256,192,218774,1,0,0:0:0:0:
256,192,218839,1,8,0:0:0:0:
256,192,218903,1,8,0:0:0:0:
256,192,218968,1,0,0:0:0:0:
256,192,219033,1,0,0:0:0:0:
256,192,219097,1,0,0:0:0:0:
256,192,219162,1,0,0:0:0:0:
256,192,219227,1,8,0:0:0:0:
256,192,219356,1,0,0:0:0:0:
256,192,219485,1,8,0:0:0:0:
256,192,219614,1,0,0:0:0:0:
256,192,219679,1,0,0:0:0:0:
256,192,219744,1,0,0:0:0:0:
256,192,219808,1,0,0:0:0:0:
256,192,219873,1,8,0:0:0:0:
256,192,220002,1,0,0:0:0:0:
256,192,220132,1,0,0:0:0:0:
256,192,220196,1,0,0:0:0:0:
256,192,220261,1,8,0:0:0:0:
256,192,220390,1,0,0:0:0:0:
256,192,220455,1,0,0:0:0:0:
256,192,220520,1,8,0:0:0:0:
256,192,220649,1,0,0:0:0:0:
256,192,220778,1,0,0:0:0:0:
256,192,220908,1,8,0:0:0:0:
256,192,220972,1,8,0:0:0:0:
256,192,221037,1,8,0:0:0:0:
256,192,221102,1,8,0:0:0:0:
256,192,221166,1,0,0:0:0:0:
256,192,221231,1,0,0:0:0:0:
256,192,221295,1,0,0:0:0:0:
256,192,221360,1,0,0:0:0:0:
256,192,221425,1,8,0:0:0:0:
256,192,221554,1,0,0:0:0:0:
256,192,221619,1,0,0:0:0:0:
256,192,221683,1,0,0:0:0:0:
256,192,221748,1,0,0:0:0:0:
256,192,221813,1,8,0:0:0:0:
256,192,221942,1,0,0:0:0:0:
256,192,222007,1,0,0:0:0:0:
256,192,222071,1,0,0:0:0:0:
256,192,222201,1,8,0:0:0:0:
256,192,222330,1,0,0:0:0:0:
256,192,222395,1,0,0:0:0:0:
256,192,222459,1,0,0:0:0:0:
256,192,222589,1,8,0:0:0:0:
256,192,222718,1,0,0:0:0:0:
256,192,222783,1,0,0:0:0:0:
256,192,222847,1,0,0:0:0:0:
256,192,222912,1,0,0:0:0:0:
256,192,222977,1,8,0:0:0:0:
256,192,223106,1,0,0:0:0:0:
256,192,223235,1,0,0:0:0:0:
256,192,223300,1,0,0:0:0:0:
256,192,223364,1,8,0:0:0:0:
256,192,223494,1,0,0:0:0:0:
256,192,223558,1,0,0:0:0:0:
256,192,223623,1,8,0:0:0:0:
256,192,223752,1,0,0:0:0:0:
256,192,223817,1,0,0:0:0:0:
256,192,223882,1,0,0:0:0:0:
256,192,223946,1,0,0:0:0:0:
256,192,224011,1,8,0:0:0:0:
256,192,224140,1,0,0:0:0:0:
256,192,224205,1,0,0:0:0:0:
256,192,224270,1,8,0:0:0:0:
256,192,224334,1,0,0:0:0:0:
256,192,224399,1,8,0:0:0:0:
256,192,224464,1,8,0:0:0:0:
256,192,224528,1,8,0:0:0:0:
256,192,224593,1,8,0:0:0:0:
256,192,224658,1,8,0:0:0:0:
256,192,224722,1,8,0:0:0:0:
256,192,224787,1,0,0:0:0:0:
256,192,224852,1,0,0:0:0:0:
256,192,224916,1,0,0:0:0:0:
256,192,224981,1,0,0:0:0:0:
256,192,225045,1,8,0:0:0:0:
256,192,225110,1,8,0:0:0:0:
256,192,225175,1,8,0:0:0:0:
256,192,225239,1,8,0:0:0:0:
256,192,225304,1,0,0:0:0:0:
256,192,225369,1,0,0:0:0:0:
256,192,225433,1,0,0:0:0:0:
256,192,225498,1,0,0:0:0:0:
256,192,225563,1,8,0:0:0:0:
256,192,225692,5,0,0:0:0:0:
256,192,225757,1,0,0:0:0:0:
256,192,225821,1,0,0:0:0:0:
256,192,225886,1,0,0:0:0:0:
256,192,225951,1,8,0:0:0:0:
256,192,226080,1,0,0:0:0:0:
256,192,226145,1,0,0:0:0:0:
256,192,226209,1,0,0:0:0:0:
256,192,226339,1,8,0:0:0:0:
256,192,226468,1,0,0:0:0:0:
256,192,226597,1,0,0:0:0:0:
256,192,226662,1,0,0:0:0:0:
256,192,226727,1,8,0:0:0:0:
256,192,226856,1,0,0:0:0:0:
256,192,226920,1,0,0:0:0:0:
256,192,226985,1,0,0:0:0:0:
256,192,227050,1,0,0:0:0:0:
256,192,227114,1,8,0:0:0:0:
256,192,227244,1,0,0:0:0:0:
256,192,227373,1,0,0:0:0:0:
256,192,227438,1,0,0:0:0:0:
256,192,227502,1,8,0:0:0:0:
256,192,227567,1,0,0:0:0:0:
256,192,227632,1,0,0:0:0:0:
256,192,227696,1,0,0:0:0:0:
256,192,227761,1,8,0:0:0:0:
256,192,227890,1,0,0:0:0:0:
256,192,227955,1,0,0:0:0:0:
256,192,228020,1,0,0:0:0:0:
256,192,228149,1,8,0:0:0:0:
256,192,228278,1,0,0:0:0:0:
256,192,228408,1,0,0:0:0:0:
256,192,228472,1,0,0:0:0:0:
256,192,228537,1,8,0:0:0:0:
256,192,228666,1,0,0:0:0:0:
256,192,228731,1,0,0:0:0:0:
256,192,228795,1,8,0:0:0:0:
256,192,228925,1,0,0:0:0:0:
256,192,228989,1,0,0:0:0:0:
256,192,229054,1,0,0:0:0:0:
256,192,229183,1,8,0:0:0:0:
256,192,229248,1,8,0:0:0:0:
256,192,229313,1,8,0:0:0:0:
256,192,229377,1,8,0:0:0:0:
256,192,229442,1,0,0:0:0:0:
256,192,229507,1,0,0:0:0:0:
256,192,229571,1,0,0:0:0:0:
256,192,229636,1,0,0:0:0:0:
256,192,229701,1,8,0:0:0:0:
256,192,229830,1,0,0:0:0:0:
256,192,229959,1,0,0:0:0:0:
256,192,230024,1,0,0:0:0:0:
256,192,230089,1,8,0:0:0:0:
256,192,230153,1,0,0:0:0:0:
256,192,230218,1,0,0:0:0:0:
256,192,230283,1,0,0:0:0:0:
256,192,230347,1,0,0:0:0:0:
256,192,230412,1,0,0:0:0:0:
256,192,230477,1,8,0:0:0:0:
256,192,230606,1,0,0:0:0:0:
256,192,230670,1,0,0:0:0:0:
256,192,230735,1,0,0:0:0:0:
256,192,230800,1,0,0:0:0:0:
256,192,230864,1,8,0:0:0:0:
256,192,230929,1,8,0:0:0:0:
256,192,230994,1,0,0:0:0:0:
256,192,231058,1,0,0:0:0:0:
256,192,231123,1,0,0:0:0:0:
256,192,231188,1,0,0:0:0:0:
256,192,231252,1,8,0:0:0:0:
256,192,231382,1,0,0:0:0:0:
256,192,231511,1,0,0:0:0:0:
256,192,231640,1,0,0:0:0:0:
256,192,231770,5,8,0:0:0:0:
256,192,231834,1,8,0:0:0:0:
256,192,231899,1,8,0:0:0:0:
256,192,231964,1,8,0:0:0:0:
256,192,232028,1,0,0:0:0:0:
256,192,232093,1,0,0:0:0:0:
256,192,232158,1,0,0:0:0:0:
256,192,232222,1,0,0:0:0:0:
256,192,232287,5,8,0:0:0:0:
256,192,232352,1,8,0:0:0:0:
256,192,232416,1,8,0:0:0:0:
256,192,232481,1,8,0:0:0:0:
256,192,232545,1,0,0:0:0:0:
256,192,232610,1,0,0:0:0:0:
256,192,232675,1,0,0:0:0:0:
256,192,232739,1,0,0:0:0:0:
256,192,232804,5,8,0:0:0:0:
256,192,232869,1,8,0:0:0:0:
256,192,232933,1,8,0:0:0:0:
256,192,232998,1,8,0:0:0:0:
256,192,233063,1,8,0:0:0:0:
256,192,233127,1,8,0:0:0:0:
256,192,233192,1,8,0:0:0:0:
256,192,233257,1,8,0:0:0:0:
256,192,233321,5,0,0:0:0:0:
256,192,233386,1,0,0:0:0:0:
256,192,233451,1,0,0:0:0:0:
256,192,233515,1,0,0:0:0:0:
256,192,233580,1,8,0:0:0:0:
256,192,233839,5,8,0:0:0:0:
256,192,233903,1,8,0:0:0:0:
256,192,233968,1,8,0:0:0:0:
256,192,234033,1,8,0:0:0:0:
256,192,234097,1,8,0:0:0:0:
256,192,234162,1,8,0:0:0:0:
256,192,234227,1,0,0:0:0:0:
256,192,234291,1,0,0:0:0:0:
256,192,234356,1,8,0:0:0:0:
256,192,234420,1,8,0:0:0:0:
256,192,234485,1,0,0:0:0:0:
256,192,234550,1,0,0:0:0:0:
256,192,234614,1,8,0:0:0:0:
256,192,234679,1,8,0:0:0:0:
256,192,234744,1,8,0:0:0:0:
256,192,234808,1,8,0:0:0:0:
256,192,234873,1,8,0:0:0:0:
256,192,234938,1,8,0:0:0:0:
256,192,235002,1,0,0:0:0:0:
256,192,235067,1,0,0:0:0:0:
256,192,235132,1,8,0:0:0:0:
256,192,235196,1,8,0:0:0:0:
256,192,235261,1,8,0:0:0:0:
256,192,235326,1,0,0:0:0:0:
256,192,235390,1,8,0:0:0:0:
256,192,235455,1,8,0:0:0:0:
256,192,235520,1,8,0:0:0:0:
256,192,235584,1,8,0:0:0:0:
256,192,235649,1,0,0:0:0:0:
256,192,235714,1,0,0:0:0:0:
256,192,235778,1,0,0:0:0:0:
256,192,235843,1,0,0:0:0:0:
256,192,235908,1,8,0:0:0:0:
256,192,235972,1,8,0:0:0:0:
256,192,236037,1,8,0:0:0:0:
256,192,236102,1,8,0:0:0:0:
256,192,236166,1,8,0:0:0:0:
256,192,236231,1,8,0:0:0:0:
256,192,236295,1,0,0:0:0:0:
256,192,236360,1,0,0:0:0:0:
256,192,236425,1,8,0:0:0:0:
256,192,236489,1,8,0:0:0:0:
256,192,236554,1,8,0:0:0:0:
256,192,236619,1,0,0:0:0:0:
256,192,236683,1,8,0:0:0:0:
256,192,236748,1,8,0:0:0:0:
256,192,236813,1,8,0:0:0:0:
256,192,236877,1,8,0:0:0:0:
256,192,236942,1,0,0:0:0:0:
256,192,237007,1,0,0:0:0:0:
256,192,237071,1,0,0:0:0:0:
256,192,237136,1,0,0:0:0:0:
256,192,237201,1,8,0:0:0:0:
256,192,237265,1,8,0:0:0:0:
256,192,237330,1,0,0:0:0:0:
256,192,237395,1,0,0:0:0:0:
256,192,237459,1,8,0:0:0:0:
256,192,237524,1,8,0:0:0:0:
256,192,237589,1,8,0:0:0:0:
256,192,237653,1,0,0:0:0:0:
256,192,237718,1,8,0:0:0:0:
256,192,237783,1,0,0:0:0:0:
256,192,237847,1,0,0:0:0:0:
256,192,237912,1,0,0:0:0:0:
256,192,237977,5,8,0:0:0:0:
256,192,238041,1,8,0:0:0:0:
256,192,238106,1,8,0:0:0:0:
256,192,238170,1,0,0:0:0:0:
256,192,238235,1,8,0:0:0:0:
256,192,238300,1,8,0:0:0:0:
256,192,238364,1,0,0:0:0:0:
256,192,238429,1,0,0:0:0:0:
256,192,238494,1,8,0:0:0:0:
256,192,238558,1,8,0:0:0:0:
256,192,238623,1,8,0:0:0:0:
256,192,238688,1,0,0:0:0:0:
256,192,238752,1,8,0:0:0:0:
256,192,238817,1,8,0:0:0:0:
256,192,238882,1,8,0:0:0:0:
256,192,238946,1,8,0:0:0:0:
256,192,239011,1,0,0:0:0:0:
256,192,239076,1,0,0:0:0:0:
256,192,239140,1,0,0:0:0:0:
256,192,239205,1,0,0:0:0:0:
256,192,239270,1,8,0:0:0:0:
256,192,239334,1,8,0:0:0:0:
256,192,239399,1,0,0:0:0:0:
256,192,239464,1,0,0:0:0:0:
256,192,239528,1,8,0:0:0:0:
256,192,239593,1,8,0:0:0:0:
256,192,239658,1,8,0:0:0:0:
256,192,239722,1,8,0:0:0:0:
256,192,239787,1,0,0:0:0:0:
256,192,239852,1,0,0:0:0:0:
256,192,239916,1,0,0:0:0:0:
256,192,239981,1,0,0:0:0:0:
256,192,240045,1,8,0:0:0:0:
256,192,240110,1,0,0:0:0:0:
256,192,240175,1,0,0:0:0:0:
256,192,240239,1,0,0:0:0:0:
256,192,240304,1,8,0:0:0:0:
256,192,240369,1,8,0:0:0:0:
256,192,240433,1,8,0:0:0:0:
256,192,240498,1,8,0:0:0:0:
256,192,240563,1,0,0:0:0:0:
256,192,240627,1,0,0:0:0:0:
256,192,240692,1,0,0:0:0:0:
256,192,240757,1,0,0:0:0:0:
256,192,240821,1,8,0:0:0:0:
256,192,240886,1,8,0:0:0:0:
256,192,240951,1,8,0:0:0:0:
256,192,241015,1,0,0:0:0:0:
256,192,241080,1,8,0:0:0:0:
256,192,241209,1,0,0:0:0:0:
256,192,241274,1,0,0:0:0:0:
256,192,241339,1,0,0:0:0:0:
256,192,241468,1,0,0:0:0:0:
256,192,241597,1,8,0:0:0:0:
256,192,241727,1,0,0:0:0:0:
256,192,241791,1,0,0:0:0:0:
256,192,241856,1,0,0:0:0:0:
256,192,241985,1,0,0:0:0:0:
256,192,242114,5,8,0:0:0:0:
256,192,242179,1,8,0:0:0:0:
256,192,242244,1,0,0:0:0:0:
256,192,242308,1,0,0:0:0:0:
256,192,242373,1,8,0:0:0:0:
256,192,242438,1,0,0:0:0:0:
256,192,242502,1,0,0:0:0:0:
256,192,242567,1,0,0:0:0:0:
256,192,242632,1,8,0:0:0:0:
256,192,242696,1,8,0:0:0:0:
256,192,242761,1,8,0:0:0:0:
256,192,242826,1,0,0:0:0:0:
256,192,242890,1,8,0:0:0:0:
256,192,242955,1,8,0:0:0:0:
256,192,243020,1,8,0:0:0:0:
256,192,243084,1,8,0:0:0:0:
256,192,243149,1,0,0:0:0:0:
256,192,243214,1,0,0:0:0:0:
256,192,243278,1,0,0:0:0:0:
256,192,243343,1,0,0:0:0:0:
256,192,243408,1,8,0:0:0:0:
256,192,243472,1,8,0:0:0:0:
256,192,243537,1,8,0:0:0:0:
256,192,243602,1,0,0:0:0:0:
256,192,243666,1,8,0:0:0:0:
256,192,243731,1,8,0:0:0:0:
256,192,243795,1,0,0:0:0:0:
256,192,243860,1,0,0:0:0:0:
256,192,243925,1,0,0:0:0:0:
256,192,243989,1,0,0:0:0:0:
256,192,244054,1,0,0:0:0:0:
256,192,244119,1,0,0:0:0:0:
256,192,244183,1,8,0:0:0:0:
256,192,244248,1,8,0:0:0:0:
256,192,244313,1,8,0:0:0:0:
256,192,244377,1,0,0:0:0:0:
256,192,244442,1,8,0:0:0:0:
256,192,244507,1,8,0:0:0:0:
256,192,244571,1,0,0:0:0:0:
256,192,244636,1,0,0:0:0:0:
256,192,244701,1,8,0:0:0:0:
256,192,244765,1,8,0:0:0:0:
256,192,244830,1,0,0:0:0:0:
256,192,244895,1,0,0:0:0:0:
256,192,244959,1,8,0:0:0:0:
256,192,245024,1,0,0:0:0:0:
256,192,245089,1,0,0:0:0:0:
256,192,245153,1,0,0:0:0:0:
256,192,245218,1,8,0:0:0:0:
256,192,245283,1,8,0:0:0:0:
256,192,245347,1,8,0:0:0:0:
256,192,245412,1,0,0:0:0:0:
256,192,245477,1,8,0:0:0:0:
256,192,245541,1,0,0:0:0:0:
256,192,245606,1,0,0:0:0:0:
256,192,245670,1,0,0:0:0:0:
256,192,245735,1,8,0:0:0:0:
256,192,245800,1,8,0:0:0:0:
256,192,245864,1,8,0:0:0:0:
256,192,245929,1,0,0:0:0:0:
256,192,245994,1,8,0:0:0:0:
256,192,246058,1,0,0:0:0:0:
256,192,246123,1,0,0:0:0:0:
256,192,246188,1,0,0:0:0:0:
256,192,246252,5,8,0:0:0:0:
256,192,246317,1,8,0:0:0:0:
256,192,246382,1,8,0:0:0:0:
256,192,246446,1,8,0:0:0:0:
256,192,246511,1,8,0:0:0:0:
256,192,246576,1,8,0:0:0:0:
256,192,246640,1,0,0:0:0:0:
256,192,246705,1,0,0:0:0:0:
256,192,246770,1,8,0:0:0:0:
256,192,246834,1,0,0:0:0:0:
256,192,246899,1,0,0:0:0:0:
256,192,246964,1,0,0:0:0:0:
256,192,247028,1,8,0:0:0:0:
256,192,247093,1,8,0:0:0:0:
256,192,247158,1,8,0:0:0:0:
256,192,247222,1,0,0:0:0:0:
256,192,247287,1,8,0:0:0:0:
256,192,247352,1,0,0:0:0:0:
256,192,247416,1,0,0:0:0:0:
256,192,247481,1,0,0:0:0:0:
256,192,247545,1,8,0:0:0:0:
256,192,247610,1,8,0:0:0:0:
256,192,247675,1,8,0:0:0:0:
256,192,247739,1,0,0:0:0:0:
256,192,247804,1,8,0:0:0:0:
256,192,247869,1,8,0:0:0:0:
256,192,247933,1,0,0:0:0:0:
256,192,247998,1,0,0:0:0:0:
256,192,248063,1,8,0:0:0:0:
256,192,248127,1,0,0:0:0:0:
256,192,248192,1,0,0:0:0:0:
256,192,248257,1,0,0:0:0:0:
256,192,248321,1,8,0:0:0:0:
256,192,248386,1,8,0:0:0:0:
256,192,248451,1,0,0:0:0:0:
256,192,248515,1,0,0:0:0:0:
256,192,248580,1,8,0:0:0:0:
256,192,248645,1,8,0:0:0:0:
256,192,248709,1,0,0:0:0:0:
256,192,248774,1,0,0:0:0:0:
256,192,248839,1,8,0:0:0:0:
256,192,248903,1,0,0:0:0:0:
256,192,248968,1,0,0:0:0:0:
256,192,249033,1,0,0:0:0:0:
256,192,249097,1,8,0:0:0:0:
256,192,249162,1,8,0:0:0:0:
256,192,249227,1,0,0:0:0:0:
256,192,249291,1,0,0:0:0:0:
256,192,249356,1,8,0:0:0:0:
256,192,249485,5,0,0:0:0:0:
256,192,249550,1,0,0:0:0:0:
256,192,249614,1,8,0:0:0:0:
256,192,249744,1,8,0:0:0:0:
256,192,249873,5,0,0:0:0:0:
256,192,249938,1,0,0:0:0:0:
256,192,250002,1,8,0:0:0:0:
256,192,250132,1,8,0:0:0:0:
256,192,250261,5,0,0:0:0:0:
256,192,250326,1,0,0:0:0:0:
256,192,250390,1,8,0:0:0:0:
256,192,250455,1,8,0:0:0:0:
256,192,250520,1,8,0:0:0:0:
256,192,250584,1,8,0:0:0:0:
256,192,250649,1,8,0:0:0:0:
256,192,250714,1,8,0:0:0:0:
256,192,250778,1,0,0:0:0:0:
256,192,250843,1,0,0:0:0:0:
256,192,250908,1,8,0:0:0:0:
256,192,250972,1,8,0:0:0:0:
256,192,251037,1,0,0:0:0:0:
256,192,251102,1,0,0:0:0:0:
256,192,251166,1,8,0:0:0:0:
256,192,251231,1,0,0:0:0:0:
256,192,251295,1,0,0:0:0:0:
256,192,251360,1,0,0:0:0:0:
256,192,251425,1,8,0:0:0:0:
256,192,251489,1,8,0:0:0:0:
256,192,251554,1,8,0:0:0:0:
256,192,251619,1,0,0:0:0:0:
256,192,251683,1,8,0:0:0:0:
256,192,251748,1,8,0:0:0:0:
256,192,251813,1,0,0:0:0:0:
256,192,251877,1,0,0:0:0:0:
256,192,251942,1,8,0:0:0:0:
256,192,252007,1,0,0:0:0:0:
256,192,252071,1,8,0:0:0:0:
256,192,252136,1,8,0:0:0:0:
256,192,252201,1,8,0:0:0:0:
256,192,252265,1,8,0:0:0:0:
256,192,252330,1,0,0:0:0:0:
256,192,252395,1,0,0:0:0:0:
256,192,252459,5,8,0:0:0:0:
256,192,252524,1,8,0:0:0:0:
256,192,252589,1,0,0:0:0:0:
256,192,252653,1,0,0:0:0:0:
256,192,252718,1,8,0:0:0:0:
256,192,252783,1,8,0:0:0:0:
256,192,252847,1,8,0:0:0:0:
256,192,252912,1,8,0:0:0:0:
256,192,252977,1,8,0:0:0:0:
256,192,253041,1,8,0:0:0:0:
256,192,253106,1,8,0:0:0:0:
256,192,253170,1,8,0:0:0:0:
256,192,253235,1,0,0:0:0:0:
256,192,253300,1,0,0:0:0:0:
256,192,253364,1,0,0:0:0:0:
256,192,253429,1,0,0:0:0:0:
256,192,253494,1,8,0:0:0:0:
256,192,253558,1,8,0:0:0:0:
256,192,253623,1,8,0:0:0:0:
256,192,253688,1,0,0:0:0:0:
256,192,253752,1,8,0:0:0:0:
256,192,253817,1,0,0:0:0:0:
256,192,253882,1,0,0:0:0:0:
256,192,253946,1,0,0:0:0:0:
256,192,254011,1,8,0:0:0:0:
256,192,254076,1,8,0:0:0:0:
256,192,254140,1,8,0:0:0:0:
256,192,254205,1,0,0:0:0:0:
256,192,254270,1,8,0:0:0:0:
256,192,254334,1,8,0:0:0:0:
256,192,254399,1,0,0:0:0:0:
256,192,254464,1,0,0:0:0:0:
256,192,254528,5,8,0:0:0:0:
256,192,254593,1,8,0:0:0:0:
256,192,254658,1,8,0:0:0:0:
256,192,254722,1,8,0:0:0:0:
256,192,254787,1,8,0:0:0:0:
256,192,254852,1,8,0:0:0:0:
256,192,254916,1,8,0:0:0:0:
256,192,254981,1,8,0:0:0:0:
256,192,255045,1,0,0:0:0:0:
256,192,255110,1,0,0:0:0:0:
256,192,255175,1,0,0:0:0:0:
256,192,255239,1,0,0:0:0:0:
256,192,255304,1,8,0:0:0:0:
256,192,255369,1,8,0:0:0:0:
256,192,255433,1,8,0:0:0:0:
256,192,255498,1,0,0:0:0:0:
256,192,255563,1,8,0:0:0:0:
256,192,255627,1,8,0:0:0:0:
256,192,255692,1,0,0:0:0:0:
256,192,255757,1,0,0:0:0:0:
256,192,255821,1,8,0:0:0:0:
256,192,255886,1,8,0:0:0:0:
256,192,255951,1,8,0:0:0:0:
256,192,256015,1,8,0:0:0:0:
256,192,256080,1,8,0:0:0:0:
256,192,256145,1,8,0:0:0:0:
256,192,256209,1,0,0:0:0:0:
256,192,256274,1,0,0:0:0:0:
256,192,256339,1,8,0:0:0:0:
256,192,256403,1,8,0:0:0:0:
256,192,256468,1,0,0:0:0:0:
256,192,256533,1,0,0:0:0:0:
256,192,256597,1,8,0:0:0:0:
256,192,256662,1,8,0:0:0:0:
256,192,256727,1,8,0:0:0:0:
256,192,256791,1,0,0:0:0:0:
256,192,256856,1,8,0:0:0:0:
256,192,256920,1,8,0:0:0:0:
256,192,256985,1,0,0:0:0:0:
256,192,257050,1,0,0:0:0:0:
256,192,257114,1,8,0:0:0:0:
256,192,257179,1,8,0:0:0:0:
256,192,257244,1,8,0:0:0:0:
256,192,257308,1,0,0:0:0:0:
256,192,257373,1,8,0:0:0:0:
256,192,257438,1,0,0:0:0:0:
256,192,257502,1,0,0:0:0:0:
256,192,257567,1,0,0:0:0:0:
256,192,257632,1,8,0:0:0:0:
256,192,257761,5,0,0:0:0:0:
256,192,257826,1,0,0:0:0:0:
256,192,257890,1,0,0:0:0:0:
256,192,258020,1,0,0:0:0:0:
256,192,258149,1,8,0:0:0:0:
256,192,258278,5,0,0:0:0:0:
256,192,258343,1,0,0:0:0:0:
256,192,258408,1,0,0:0:0:0:
256,192,258537,1,8,0:0:0:0:
256,192,258666,5,8,0:0:0:0:
256,192,258731,1,8,0:0:0:0:
256,192,258795,1,8,0:0:0:0:
256,192,258860,1,0,0:0:0:0:
256,192,258925,1,8,0:0:0:0:
256,192,258989,1,8,0:0:0:0:
256,192,259054,1,0,0:0:0:0:
256,192,259119,1,0,0:0:0:0:
256,192,259183,1,8,0:0:0:0:
256,192,259248,1,0,0:0:0:0:
256,192,259313,1,0,0:0:0:0:
256,192,259377,1,0,0:0:0:0:
256,192,259442,1,8,0:0:0:0:
256,192,259507,1,8,0:0:0:0:
256,192,259571,1,8,0:0:0:0:
256,192,259636,1,0,0:0:0:0:
256,192,259701,1,8,0:0:0:0:
256,192,259765,1,8,0:0:0:0:
256,192,259830,1,0,0:0:0:0:
256,192,259895,1,0,0:0:0:0:
256,192,259959,1,8,0:0:0:0:
256,192,260024,1,0,0:0:0:0:
256,192,260089,1,0,0:0:0:0:
256,192,260153,1,0,0:0:0:0:
256,192,260218,1,8,0:0:0:0:
256,192,260283,1,8,0:0:0:0:
256,192,260347,1,8,0:0:0:0:
256,192,260412,1,8,0:0:0:0:
256,192,260477,1,0,0:0:0:0:
256,192,260541,1,0,0:0:0:0:
256,192,260606,1,0,0:0:0:0:
256,192,260670,1,0,0:0:0:0:
256,192,260735,1,8,0:0:0:0:
256,192,260800,1,8,0:0:0:0:
256,192,260864,1,8,0:0:0:0:
256,192,260929,1,8,0:0:0:0:
256,192,260994,1,0,0:0:0:0:
256,192,261058,1,0,0:0:0:0:
256,192,261123,1,0,0:0:0:0:
256,192,261188,1,0,0:0:0:0:
256,192,261252,1,8,0:0:0:0:
256,192,261317,1,8,0:0:0:0:
256,192,261382,1,8,0:0:0:0:
256,192,261446,1,8,0:0:0:0:
256,192,261511,1,8,0:0:0:0:
256,192,261576,1,8,0:0:0:0:
256,192,261640,1,8,0:0:0:0:
256,192,261705,1,8,0:0:0:0:
256,192,261770,1,0,0:0:0:0:
256,192,261834,1,0,0:0:0:0:
256,192,261899,1,0,0:0:0:0:
256,192,261964,1,0,0:0:0:0:
256,192,262028,1,0,0:0:0:0:
256,192,262093,1,0,0:0:0:0:
256,192,262158,1,0,0:0:0:0:
256,192,262222,1,0,0:0:0:0:
256,192,262287,1,8,0:0:0:0:
256,192,262352,1,8,0:0:0:0:
256,192,262416,1,8,0:0:0:0:
256,192,262481,1,8,0:0:0:0:
256,192,262545,1,0,0:0:0:0:
256,192,262610,1,0,0:0:0:0:
256,192,262675,1,0,0:0:0:0:
256,192,262739,1,0,0:0:0:0:
256,192,262804,5,8,0:0:0:0:
256,192,262869,1,8,0:0:0:0:
256,192,262933,1,8,0:0:0:0:
256,192,262998,1,8,0:0:0:0:
256,192,263063,1,8,0:0:0:0:
256,192,263127,1,8,0:0:0:0:
256,192,263192,1,8,0:0:0:0:
256,192,263257,1,8,0:0:0:0:
256,192,263321,1,0,0:0:0:0:
256,192,263386,1,0,0:0:0:0:
256,192,263451,1,0,0:0:0:0:
256,192,263515,1,0,0:0:0:0:
256,192,263580,1,8,0:0:0:0:
256,192,263645,1,8,0:0:0:0:
256,192,263709,1,8,0:0:0:0:
256,192,263774,1,8,0:0:0:0:
256,192,263839,1,8,0:0:0:0:
256,192,263903,1,8,0:0:0:0:
256,192,263968,1,8,0:0:0:0:
256,192,264033,1,8,0:0:0:0:
256,192,264097,1,0,0:0:0:0:
256,192,264162,1,0,0:0:0:0:
256,192,264227,1,0,0:0:0:0:
256,192,264291,1,0,0:0:0:0:
256,192,264356,1,8,0:0:0:0:
256,192,264420,1,8,0:0:0:0:
256,192,264485,1,8,0:0:0:0:
256,192,264550,1,8,0:0:0:0:
256,192,264614,1,8,0:0:0:0:
256,192,264679,1,8,0:0:0:0:
256,192,264744,1,0,0:0:0:0:
256,192,264808,1,0,0:0:0:0:
256,192,264873,1,0,0:0:0:0:
256,192,264938,1,0,0:0:0:0:
256,192,265002,1,0,0:0:0:0:
256,192,265067,1,0,0:0:0:0:
256,192,265132,1,8,0:0:0:0:
256,192,265196,1,8,0:0:0:0:
256,192,265261,1,8,0:0:0:0:
256,192,265326,1,8,0:0:0:0:
256,192,265390,1,0,0:0:0:0:
256,192,265455,1,0,0:0:0:0:
256,192,265520,1,0,0:0:0:0:
256,192,265584,1,0,0:0:0:0:
256,192,265649,1,8,0:0:0:0:
256,192,265714,1,8,0:0:0:0:
256,192,265778,1,0,0:0:0:0:
256,192,265843,1,0,0:0:0:0:
256,192,265908,1,8,0:0:0:0:
256,192,265972,1,8,0:0:0:0:
256,192,266037,1,8,0:0:0:0:
256,192,266102,1,8,0:0:0:0:
256,192,266166,1,0,0:0:0:0:
256,192,266231,1,0,0:0:0:0:
256,192,266295,1,0,0:0:0:0:
256,192,266360,1,0,0:0:0:0:
256,192,266425,1,8,0:0:0:0:
256,192,266489,1,8,0:0:0:0:
256,192,266554,1,8,0:0:0:0:
256,192,266619,1,8,0:0:0:0:
256,192,266683,1,0,0:0:0:0:
256,192,266748,1,0,0:0:0:0:
256,192,266813,1,0,0:0:0:0:
256,192,266877,1,0,0:0:0:0:
256,192,266942,1,8,0:0:0:0:
256,192,267071,1,8,0:0:0:0:
256,192,267201,1,8,0:0:0:0:
256,192,267330,1,8,0:0:0:0:
256,192,267589,5,0,0:0:0:0:
256,192,267718,1,8,0:0:0:0:
256,192,267847,1,8,0:0:0:0:
256,192,267977,1,8,0:0:0:0:
256,192,268106,1,8,0:0:0:0:
256,192,268364,5,0,0:0:0:0:
256,192,268494,1,8,0:0:0:0:
256,192,268623,1,0,0:0:0:0:
256,192,268752,1,8,0:0:0:0:
256,192,268882,1,0,0:0:0:0:
256,96,269011,1,4,0:0:0:0:
256,192,278340,5,0,0:0:0:0:
256,192,278729,1,0,0:0:0:0:
256,192,278923,1,8,0:0:0:0:
256,192,279312,1,8,0:0:0:0:
256,192,279506,1,0,0:0:0:0:
256,192,279895,1,0,0:0:0:0:
256,192,280089,1,8,0:0:0:0:
256,192,280478,1,0,0:0:0:0:
256,192,280672,1,8,0:0:0:0:
256,192,280867,1,0,0:0:0:0:
256,192,281061,1,0,0:0:0:0:
256,192,281255,1,8,0:0:0:0:
256,192,281450,1,0,0:0:0:0:
256,192,281644,1,0,0:0:0:0:
256,192,281838,1,8,0:0:0:0:
256,192,282033,1,0,0:0:0:0:
256,192,282227,1,0,0:0:0:0:
256,192,282422,1,8,0:0:0:0:
256,192,282616,1,8,0:0:0:0:
256,192,282810,1,0,0:0:0:0:
256,192,283005,5,0,0:0:0:0:
256,192,283391,1,8,0:0:0:0:
256,192,283584,1,0,0:0:0:0:
256,192,283777,1,8,0:0:0:0:
256,192,283971,1,0,0:0:0:0:
256,192,284164,1,0,0:0:0:0:
256,192,284550,1,8,0:0:0:0:
256,192,284744,1,0,0:0:0:0:
256,192,284937,1,8,0:0:0:0:
256,192,285130,1,0,0:0:0:0:
256,192,285323,1,0,0:0:0:0:
256,192,285710,1,0,0:0:0:0:
256,192,285903,1,8,0:0:0:0:
256,192,286096,1,8,0:0:0:0:
256,192,286290,1,0,0:0:0:0:
256,192,286483,1,8,0:0:0:0:
256,192,286676,1,0,0:0:0:0:
256,192,286869,1,8,0:0:0:0:
256,192,287062,1,8,0:0:0:0:
256,192,287256,1,8,0:0:0:0:
256,192,287449,1,0,0:0:0:0:
256,192,287642,5,0,0:0:0:0:
256,192,288029,1,0,0:0:0:0:
256,192,288222,1,8,0:0:0:0:
256,192,288608,1,8,0:0:0:0:
256,192,288802,1,0,0:0:0:0:
256,192,289188,1,0,0:0:0:0:
256,192,289381,1,8,0:0:0:0:
256,192,289768,1,0,0:0:0:0:
256,192,289961,1,8,0:0:0:0:
256,192,290165,1,0,0:0:0:0:
256,192,290369,1,0,0:0:0:0:
256,192,290573,1,8,0:0:0:0:
256,192,290769,1,0,0:0:0:0:
256,192,290965,1,0,0:0:0:0:
256,192,291161,1,8,0:0:0:0:
256,192,291357,1,0,0:0:0:0:
256,192,291553,1,0,0:0:0:0:
256,192,291749,1,8,0:0:0:0:
256,192,291945,1,8,0:0:0:0:
256,192,292141,1,0,0:0:0:0:
256,192,292310,5,0,0:0:0:0:
256,192,292703,1,8,0:0:0:0:
256,192,292899,1,0,0:0:0:0:
256,192,293096,1,8,0:0:0:0:
256,192,293292,1,0,0:0:0:0:
256,192,293489,1,0,0:0:0:0:
256,192,293882,1,8,0:0:0:0:
256,192,294079,1,0,0:0:0:0:
256,192,294275,1,8,0:0:0:0:
256,192,294472,1,0,0:0:0:0:
256,192,294570,1,8,0:0:0:0:
256,192,294668,1,8,0:0:0:0:
256,192,294860,1,8,0:0:0:0:
256,192,295052,1,0,0:0:0:0:
256,192,295244,1,8,0:0:0:0:
256,192,295437,1,0,0:0:0:0:
256,192,295629,1,8,0:0:0:0:
256,192,295821,1,8,0:0:0:0:
256,192,296014,1,0,0:0:0:0:
256,192,296206,1,8,0:0:0:0:
256,192,296398,1,8,0:0:0:0:
256,192,296591,1,0,0:0:0:0:
256,192,296783,1,8,0:0:0:0:
256,192,296975,5,8,0:0:0:0:
256,192,297552,1,8,0:0:0:0:
256,192,297937,1,8,0:0:0:0:
256,192,298129,1,0,0:0:0:0:
256,192,298514,1,0,0:0:0:0:
256,192,298706,1,8,0:0:0:0:
256,192,299091,1,0,0:0:0:0:
256,192,299283,1,8,0:0:0:0:
256,192,299483,1,0,0:0:0:0:
256,192,299683,1,0,0:0:0:0:
256,192,299883,1,8,0:0:0:0:
256,192,300083,1,0,0:0:0:0:
256,192,300283,1,0,0:0:0:0:
256,192,300483,1,8,0:0:0:0:
256,192,300675,1,0,0:0:0:0:
256,192,300867,1,0,0:0:0:0:
256,192,301059,1,8,0:0:0:0:
256,192,301252,1,8,0:0:0:0:
256,192,301444,1,0,0:0:0:0:
256,192,301636,5,0,0:0:0:0:
256,192,302021,1,8,0:0:0:0:
256,192,302214,1,0,0:0:0:0:
256,192,302407,1,8,0:0:0:0:
256,192,302599,1,0,0:0:0:0:
256,192,302792,1,0,0:0:0:0:
256,192,303178,1,8,0:0:0:0:
256,192,303370,1,0,0:0:0:0:
256,192,303563,1,8,0:0:0:0:
256,192,303756,1,0,0:0:0:0:
256,192,303852,1,8,0:0:0:0:
256,192,303949,1,8,0:0:0:0:
256,192,304145,1,8,0:0:0:0:
256,192,304341,1,0,0:0:0:0:
256,192,304537,1,8,0:0:0:0:
256,192,304733,1,0,0:0:0:0:
256,192,304929,1,8,0:0:0:0:
256,192,305125,1,8,0:0:0:0:
256,192,305321,1,0,0:0:0:0:
256,192,305517,1,8,0:0:0:0:
256,192,305713,1,8,0:0:0:0:
256,192,305909,1,0,0:0:0:0:
256,192,306105,1,8,0:0:0:0:
256,192,306301,5,8,0:0:0:0:
256,192,306694,1,0,0:0:0:0:
256,192,306890,1,8,0:0:0:0:
256,192,307282,1,8,0:0:0:0:
256,192,307478,1,0,0:0:0:0:
256,192,307870,1,0,0:0:0:0:
256,192,308066,1,8,0:0:0:0:
256,192,308458,1,0,0:0:0:0:
256,192,308654,1,8,0:0:0:0:
256,192,308845,1,0,0:0:0:0:
256,192,309036,1,0,0:0:0:0:
256,192,309228,1,8,0:0:0:0:
256,192,309419,1,0,0:0:0:0:
256,192,309610,1,0,0:0:0:0:
256,192,309802,1,8,0:0:0:0:
256,192,309993,1,8,0:0:0:0:
256,192,310185,1,0,0:0:0:0:
256,192,310376,1,8,0:0:0:0:
256,192,310567,1,8,0:0:0:0:
256,192,310759,1,0,0:0:0:0:
256,192,310950,5,8,0:0:0:0:
256,192,311336,1,8,0:0:0:0:
256,192,311529,1,0,0:0:0:0:
256,192,311722,1,8,0:0:0:0:
256,192,311916,1,0,0:0:0:0:
256,192,312109,1,0,0:0:0:0:
256,192,312495,1,8,0:0:0:0:
256,192,312689,1,0,0:0:0:0:
256,192,312882,1,8,0:0:0:0:
256,192,313075,1,0,0:0:0:0:
256,192,313172,1,8,0:0:0:0:
256,192,313268,1,8,0:0:0:0:
256,192,313464,1,8,0:0:0:0:
256,192,313660,1,0,0:0:0:0:
256,192,313856,1,8,0:0:0:0:
256,192,314052,1,0,0:0:0:0:
256,192,314248,1,8,0:0:0:0:
256,192,314444,1,8,0:0:0:0:
256,192,314640,1,0,0:0:0:0:
256,192,314836,1,8,0:0:0:0:
256,192,315032,1,8,0:0:0:0:
256,192,315228,1,0,0:0:0:0:
256,192,315424,1,8,0:0:0:0:
256,192,315620,5,8,0:0:0:0:
256,192,316008,1,0,0:0:0:0:
256,192,316202,1,8,0:0:0:0:
256,192,316590,1,8,0:0:0:0:
256,192,316785,1,0,0:0:0:0:
256,192,317173,1,0,0:0:0:0:
256,192,317367,1,8,0:0:0:0:
256,192,317755,1,0,0:0:0:0:
256,192,317950,1,8,0:0:0:0:
256,192,318144,1,0,0:0:0:0:
256,192,318338,1,0,0:0:0:0:
256,192,318532,1,8,0:0:0:0:
256,192,318726,1,0,0:0:0:0:
256,192,318920,1,0,0:0:0:0:
256,192,319115,1,8,0:0:0:0:
256,192,319309,1,8,0:0:0:0:
256,192,319503,1,0,0:0:0:0:
256,192,319697,1,8,0:0:0:0:
256,192,319891,1,8,0:0:0:0:
256,192,320086,1,0,0:0:0:0:
256,192,320280,5,8,0:0:0:0:
256,192,320668,1,8,0:0:0:0:
256,192,320862,1,0,0:0:0:0:
256,192,321056,1,8,0:0:0:0:
256,192,321251,1,0,0:0:0:0:
256,192,321445,1,0,0:0:0:0:
256,192,321849,1,8,0:0:0:0:
256,192,322051,1,0,0:0:0:0:
256,192,322253,1,8,0:0:0:0:
256,192,322455,5,0,0:0:0:0:
256,192,322556,1,8,0:0:0:0:
256,192,322655,1,8,0:0:0:0:
256,192,322932,5,8,0:0:0:0:
256,192,323210,5,0,0:0:0:0:
256,192,323488,5,8,0:0:0:0:
256,192,323766,5,0,0:0:0:0:
256,192,324043,5,8,0:0:0:0:
256,192,324321,5,8,0:0:0:0:
256,192,324624,5,8,0:0:0:0:
256,192,324927,5,0,0:0:0:0:
256,192,325280,5,8,0:0:0:0:
256,192,325798,5,8,0:0:0:0:
256,192,326309,5,0,0:0:0:0:
256,192,329609,5,8,0:0:0:0:
256,192,329859,1,0,0:0:0:0:
256,192,329984,1,8,0:0:0:0:
256,192,330109,1,0,0:0:0:0:
256,192,330359,1,8,0:0:0:0:
256,192,330609,1,8,0:0:0:0:
256,192,330734,1,8,0:0:0:0:
256,192,330859,1,0,0:0:0:0:
256,192,330984,1,0,0:0:0:0:
256,192,331109,1,8,0:0:0:0:
256,192,331359,1,0,0:0:0:0:
256,192,331484,1,0,0:0:0:0:
256,192,331609,1,8,0:0:0:0:
256,192,331859,1,8,0:0:0:0:
256,192,331984,1,8,0:0:0:0:
256,192,332109,1,0,0:0:0:0:
256,192,332359,1,8,0:0:0:0:
256,192,332609,1,0,0:0:0:0:
256,192,332734,1,0,0:0:0:0:
256,192,332859,1,8,0:0:0:0:
256,192,332984,1,0,0:0:0:0:
256,192,333109,1,8,0:0:0:0:
256,192,333234,1,8,0:0:0:0:
256,192,333359,1,8,0:0:0:0:
256,192,333484,1,0,0:0:0:0:
256,192,333609,1,8,0:0:0:0:
256,192,333859,5,0,0:0:0:0:
256,192,333984,1,8,0:0:0:0:
256,192,334109,1,0,0:0:0:0:
256,192,334234,1,0,0:0:0:0:
256,192,334359,1,8,0:0:0:0:
256,192,334609,1,8,0:0:0:0:
256,192,334859,1,0,0:0:0:0:
256,192,334984,1,8,0:0:0:0:
256,192,335109,1,8,0:0:0:0:
256,192,335234,1,8,0:0:0:0:
256,192,335359,1,0,0:0:0:0:
256,192,335609,1,8,0:0:0:0:
256,192,335859,1,8,0:0:0:0:
256,192,335984,1,8,0:0:0:0:
256,192,336109,1,0,0:0:0:0:
256,192,336359,1,8,0:0:0:0:
256,192,336609,1,0,0:0:0:0:
256,192,336734,1,8,0:0:0:0:
256,192,336859,1,0,0:0:0:0:
256,192,336984,1,8,0:0:0:0:
256,192,337109,1,8,0:0:0:0:
256,192,337234,1,0,0:0:0:0:
256,192,337359,1,8,0:0:0:0:
256,192,337484,1,8,0:0:0:0:
256,192,337609,1,8,0:0:0:0:
256,192,337859,5,0,0:0:0:0:
256,192,337984,1,8,0:0:0:0:
256,192,338109,1,0,0:0:0:0:
256,192,338359,1,8,0:0:0:0:
256,192,338609,1,8,0:0:0:0:
256,192,338734,1,0,0:0:0:0:
256,192,338859,1,0,0:0:0:0:
256,192,338984,1,8,0:0:0:0:
256,192,339109,1,8,0:0:0:0:
256,192,339359,1,0,0:0:0:0:
256,192,339484,1,0,0:0:0:0:
256,192,339609,1,8,0:0:0:0:
256,192,339859,1,8,0:0:0:0:
256,192,339984,1,8,0:0:0:0:
256,192,340109,1,0,0:0:0:0:
256,192,340359,1,8,0:0:0:0:
256,192,340609,1,0,0:0:0:0:
256,192,340734,1,0,0:0:0:0:
256,192,340859,1,8,0:0:0:0:
256,192,340984,1,0,0:0:0:0:
256,192,341109,1,8,0:0:0:0:
256,192,341234,1,8,0:0:0:0:
256,192,341359,1,0,0:0:0:0:
256,192,341484,1,0,0:0:0:0:
256,192,341609,1,8,0:0:0:0:
256,192,341859,5,0,0:0:0:0:
256,192,341984,1,8,0:0:0:0:
256,192,342109,1,8,0:0:0:0:
256,192,342234,1,0,0:0:0:0:
256,192,342359,1,8,0:0:0:0:
256,192,342609,1,8,0:0:0:0:
256,192,342859,1,0,0:0:0:0:
256,192,342984,1,0,0:0:0:0:
256,192,343109,1,8,0:0:0:0:
256,192,343234,1,8,0:0:0:0:
256,192,343359,1,0,0:0:0:0:
256,192,343609,1,8,0:0:0:0:
256,192,343859,1,8,0:0:0:0:
256,192,343984,1,8,0:0:0:0:
256,192,344109,1,0,0:0:0:0:
256,192,344359,1,8,0:0:0:0:
256,192,344609,1,8,0:0:0:0:
256,192,344734,1,0,0:0:0:0:
256,192,344859,1,8,0:0:0:0:
256,192,344984,1,8,0:0:0:0:
256,192,345109,1,8,0:0:0:0:
256,192,345234,1,0,0:0:0:0:
256,192,345359,1,8,0:0:0:0:
256,192,345484,1,8,0:0:0:0:
256,192,345609,1,8,0:0:0:0:
256,192,345859,5,0,0:0:0:0:
256,192,345984,1,8,0:0:0:0:
256,192,346109,1,0,0:0:0:0:
256,192,346359,1,8,0:0:0:0:
256,192,346609,1,8,0:0:0:0:
256,192,346734,1,8,0:0:0:0:
256,192,346859,1,0,0:0:0:0:
256,192,346984,1,0,0:0:0:0:
256,192,347109,1,8,0:0:0:0:
256,192,347359,1,0,0:0:0:0:
256,192,347484,1,8,0:0:0:0:
256,192,347609,1,8,0:0:0:0:
256,192,347859,5,8,0:0:0:0:
256,192,347984,1,8,0:0:0:0:
256,192,348109,1,0,0:0:0:0:
256,192,348359,1,8,0:0:0:0:
256,192,348609,1,0,0:0:0:0:
256,192,348734,1,0,0:0:0:0:
256,192,348859,1,8,0:0:0:0:
256,192,348984,1,0,0:0:0:0:
256,192,349109,1,8,0:0:0:0:
256,192,349234,1,8,0:0:0:0:
256,192,349359,1,8,0:0:0:0:
256,192,349484,1,0,0:0:0:0:
256,192,349609,1,8,0:0:0:0:
256,192,349859,5,0,0:0:0:0:
256,192,349984,1,8,0:0:0:0:
256,192,350109,1,0,0:0:0:0:
256,192,350234,1,0,0:0:0:0:
256,192,350359,1,8,0:0:0:0:
256,192,350609,1,8,0:0:0:0:
256,192,350859,1,8,0:0:0:0:
256,192,350984,1,0,0:0:0:0:
256,192,351109,1,8,0:0:0:0:
256,192,351234,1,8,0:0:0:0:
256,192,351359,1,0,0:0:0:0:
256,192,351609,1,8,0:0:0:0:
256,192,351859,5,0,0:0:0:0:
256,192,351984,1,8,0:0:0:0:
256,192,352109,1,0,0:0:0:0:
256,192,352359,1,8,0:0:0:0:
256,192,352609,1,8,0:0:0:0:
256,192,352734,1,0,0:0:0:0:
256,192,352859,1,8,0:0:0:0:
256,192,352984,1,8,0:0:0:0:
256,192,353109,1,8,0:0:0:0:
256,192,353234,1,8,0:0:0:0:
256,192,353359,1,0,0:0:0:0:
256,192,353484,1,8,0:0:0:0:
256,192,353609,1,8,0:0:0:0:
256,192,353859,5,8,0:0:0:0:
256,192,353984,1,8,0:0:0:0:
256,192,354109,1,0,0:0:0:0:
256,192,354359,1,8,0:0:0:0:
256,192,354609,1,8,0:0:0:0:
256,192,354734,1,8,0:0:0:0:
256,192,354859,1,0,0:0:0:0:
256,192,354984,1,8,0:0:0:0:
256,192,355109,1,8,0:0:0:0:
256,192,355359,1,0,0:0:0:0:
256,192,355484,1,0,0:0:0:0:
256,192,355609,1,8,0:0:0:0:
256,192,355859,5,0,0:0:0:0:
256,192,355984,1,8,0:0:0:0:
256,192,356109,1,0,0:0:0:0:
256,192,356359,1,8,0:0:0:0:
256,192,356609,1,0,0:0:0:0:
256,192,356734,1,0,0:0:0:0:
256,192,356859,1,8,0:0:0:0:
256,192,356984,1,0,0:0:0:0:
256,192,357109,1,8,0:0:0:0:
256,192,357234,1,0,0:0:0:0:
256,192,357359,1,8,0:0:0:0:
256,192,357484,1,8,0:0:0:0:
256,192,357609,1,8,0:0:0:0:
256,192,357859,5,0,0:0:0:0:
256,192,357984,1,8,0:0:0:0:
256,192,358109,1,0,0:0:0:0:
256,192,358234,1,0,0:0:0:0:
256,192,358359,1,8,0:0:0:0:
256,192,358609,1,8,0:0:0:0:
256,192,358859,1,8,0:0:0:0:
256,192,358984,1,0,0:0:0:0:
256,192,359109,1,8,0:0:0:0:
256,192,359234,1,8,0:0:0:0:
256,192,359359,1,0,0:0:0:0:
256,192,359484,1,0,0:0:0:0:
256,192,359609,5,8,0:0:0:0:
256,192,359734,1,8,0:0:0:0:
256,192,359984,1,0,0:0:0:0:
256,192,360109,1,8,0:0:0:0:
256,192,360234,1,8,0:0:0:0:
256,192,360359,1,0,0:0:0:0:
256,192,360609,5,8,0:0:0:0:
256,192,360734,1,8,0:0:0:0:
256,192,360859,1,0,0:0:0:0:
256,192,360984,1,0,0:0:0:0:
256,192,361109,5,8,0:0:0:0:
256,192,361234,1,8,0:0:0:0:
256,192,361359,1,0,0:0:0:0:
256,192,361484,1,0,0:0:0:0:
256,192,361609,1,8,0:0:0:0:
256,192,361859,5,0,0:0:0:0:
256,192,361984,1,8,0:0:0:0:
256,192,362109,1,0,0:0:0:0:
256,192,362359,1,8,0:0:0:0:
256,192,362609,1,8,0:0:0:0:
256,192,362734,1,8,0:0:0:0:
256,192,362859,1,0,0:0:0:0:
256,192,362984,1,0,0:0:0:0:
256,192,363109,1,8,0:0:0:0:
256,192,363359,1,0,0:0:0:0:
256,192,363484,1,0,0:0:0:0:
256,192,363609,1,8,0:0:0:0:
256,192,363859,5,8,0:0:0:0:
256,192,363984,1,8,0:0:0:0:
256,192,364109,1,0,0:0:0:0:
256,192,364359,1,8,0:0:0:0:
256,192,364609,5,8,0:0:0:0:
256,192,364859,5,0,0:0:0:0:
256,192,365109,1,8,0:0:0:0:
256,192,365234,1,8,0:0:0:0:
256,192,365359,1,0,0:0:0:0:
256,192,365484,1,0,0:0:0:0:
256,192,365609,5,8,0:0:0:0:
256,192,365734,1,0,0:0:0:0:
256,192,365859,1,8,0:0:0:0:
256,192,365984,5,8,0:0:0:0:
256,192,366109,1,0,0:0:0:0:
256,192,366359,1,8,0:0:0:0:
256,192,366609,1,8,0:0:0:0:
256,192,366734,1,0,0:0:0:0:
256,192,366859,1,0,0:0:0:0:
256,192,366984,1,8,0:0:0:0:
256,192,367109,1,8,0:0:0:0:
256,192,367359,1,0,0:0:0:0:
256,192,367484,1,0,0:0:0:0:
256,192,367609,1,8,0:0:0:0:
256,192,367859,1,8,0:0:0:0:
256,192,367984,1,8,0:0:0:0:
256,192,368109,1,0,0:0:0:0:
256,192,368359,1,8,0:0:0:0:
256,192,368609,5,8,0:0:0:0:
256,192,368859,5,0,0:0:0:0:
256,192,368984,1,0,0:0:0:0:
256,192,369109,1,8,0:0:0:0:
256,192,369234,1,8,0:0:0:0:
256,192,369359,1,8,0:0:0:0:
256,192,369484,1,0,0:0:0:0:
256,192,369609,5,8,0:0:0:0:
256,192,369734,1,0,0:0:0:0:
256,192,369859,1,8,0:0:0:0:
256,192,370109,5,0,0:0:0:0:
256,192,370359,1,8,0:0:0:0:
256,192,370609,1,8,0:0:0:0:
256,192,370734,1,8,0:0:0:0:
256,192,370859,1,0,0:0:0:0:
256,192,370984,1,0,0:0:0:0:
256,192,371109,5,8,0:0:0:0:
256,192,371359,1,0,0:0:0:0:
256,192,371484,1,8,0:0:0:0:
256,192,371609,1,8,0:0:0:0:
256,192,371859,1,0,0:0:0:0:
256,192,371984,1,8,0:0:0:0:
256,192,372109,1,0,0:0:0:0:
256,192,372359,1,8,0:0:0:0:
256,192,372609,1,8,0:0:0:0:
256,192,372734,1,0,0:0:0:0:
256,192,372859,1,0,0:0:0:0:
256,192,372984,1,0,0:0:0:0:
256,192,373109,5,8,0:0:0:0:
256,192,373234,1,0,0:0:0:0:
256,192,373359,1,8,0:0:0:0:
256,192,373484,1,0,0:0:0:0:
256,192,373609,1,8,0:0:0:0:
256,192,373859,5,0,0:0:0:0:
256,192,373984,1,8,0:0:0:0:
256,192,374109,1,0,0:0:0:0:
256,192,374234,1,0,0:0:0:0:
256,192,374359,5,8,0:0:0:0:
256,192,374609,5,8,0:0:0:0:
256,192,374859,1,0,0:0:0:0:
256,192,374984,1,0,0:0:0:0:
256,192,375109,5,8,0:0:0:0:
256,192,375234,5,0,0:0:0:0:
256,192,375359,1,8,0:0:0:0:
256,192,375609,5,8,0:0:0:0:
256,192,375859,5,8,0:0:0:0:
256,192,375984,1,0,0:0:0:0:
256,192,376109,1,8,0:0:0:0:
256,192,376359,1,0,0:0:0:0:
256,192,376609,1,8,0:0:0:0:
256,192,376734,1,8,0:0:0:0:
256,192,376859,1,8,0:0:0:0:
256,192,376984,1,0,0:0:0:0:
256,192,377109,1,8,0:0:0:0:
256,192,377234,1,8,0:0:0:0:
256,192,377359,1,0,0:0:0:0:
256,192,377484,1,0,0:0:0:0:
256,192,377609,5,8,0:0:0:0:
256,192,377859,5,8,0:0:0:0:
256,192,377984,1,0,0:0:0:0:
256,192,378109,1,8,0:0:0:0:
256,192,378359,1,0,0:0:0:0:
256,192,378609,1,8,0:0:0:0:
256,192,378734,1,8,0:0:0:0:
256,192,378859,1,0,0:0:0:0:
256,192,378984,1,0,0:0:0:0:
256,192,379109,5,8,0:0:0:0:
256,192,379359,5,0,0:0:0:0:
256,192,379484,1,0,0:0:0:0:
256,192,379609,5,8,0:0:0:0:
256,192,379859,1,0,0:0:0:0:
256,192,380109,5,8,0:0:0:0:
256,192,380234,5,8,0:0:0:0:
256,192,380359,1,0,0:0:0:0:
256,192,380609,5,8,0:0:0:0:
256,192,380859,5,0,0:0:0:0:
256,192,380984,1,0,0:0:0:0:
256,192,381109,5,8,0:0:0:0:
256,192,381234,1,0,0:0:0:0:
256,192,381359,1,8,0:0:0:0:
256,192,381484,1,0,0:0:0:0:
256,192,381609,1,8,0:0:0:0:
256,192,381859,5,0,0:0:0:0:
256,192,381984,1,8,0:0:0:0:
256,192,382109,1,8,0:0:0:0:
256,192,382234,1,0,0:0:0:0:
256,192,382359,1,8,0:0:0:0:
256,192,382609,1,8,0:0:0:0:
256,192,382859,1,0,0:0:0:0:
256,192,382984,1,0,0:0:0:0:
256,192,383109,1,8,0:0:0:0:
256,192,383234,1,8,0:0:0:0:
256,192,383359,5,0,0:0:0:0:
256,192,383484,1,0,0:0:0:0:
256,192,383609,1,8,0:0:0:0:
256,192,383859,5,0,0:0:0:0:
256,192,383984,1,0,0:0:0:0:
256,192,384109,1,8,0:0:0:0:
256,192,384359,1,0,0:0:0:0:
256,192,384609,5,8,0:0:0:0:
256,192,384734,1,8,0:0:0:0:
256,192,384859,5,0,0:0:0:0:
256,192,384984,1,0,0:0:0:0:
256,192,385109,1,8,0:0:0:0:
256,192,385234,1,8,0:0:0:0:
256,192,385359,1,0,0:0:0:0:
256,192,385484,1,0,0:0:0:0:
256,192,385609,5,8,0:0:0:0:
256,192,385859,5,8,0:0:0:0:
256,192,385984,1,0,0:0:0:0:
256,192,386109,1,8,0:0:0:0:
256,192,386359,5,0,0:0:0:0:
256,192,386609,1,8,0:0:0:0:
256,192,386734,5,0,0:0:0:0:
256,192,386859,1,0,0:0:0:0:
256,192,386984,1,8,0:0:0:0:
256,192,387109,5,8,0:0:0:0:
256,192,387359,5,0,0:0:0:0:
256,192,387484,1,0,0:0:0:0:
256,192,387609,1,8,0:0:0:0:
256,192,387859,1,0,0:0:0:0:
256,192,387984,1,8,0:0:0:0:
256,192,388109,1,8,0:0:0:0:
256,192,388359,1,0,0:0:0:0:
256,192,388609,1,8,0:0:0:0:
256,192,388734,1,0,0:0:0:0:
256,192,388859,1,8,0:0:0:0:
256,192,388984,1,8,0:0:0:0:
256,192,389109,5,8,0:0:0:0:
256,192,389234,1,0,0:0:0:0:
256,192,389359,1,8,0:0:0:0:
256,192,389609,5,8,0:0:0:0:
256,192,389734,1,0,0:0:0:0:
256,192,389859,1,8,0:0:0:0:
256,192,389984,1,0,0:0:0:0:
256,192,390109,1,8,0:0:0:0:
256,192,390234,1,8,0:0:0:0:
256,192,390359,1,0,0:0:0:0:
256,192,390484,1,8,0:0:0:0:
256,192,390609,1,8,0:0:0:0:
256,192,390734,1,0,0:0:0:0:
256,192,390859,1,8,0:0:0:0:
256,192,390984,1,8,0:0:0:0:
256,192,391109,1,0,0:0:0:0:
256,192,391234,1,8,0:0:0:0:
256,192,391359,1,0,0:0:0:0:
256,192,391484,1,8,0:0:0:0:
256,192,391609,5,8,0:0:0:0:
256,192,391734,1,8,0:0:0:0:
256,192,391859,1,0,0:0:0:0:
256,192,391984,1,8,0:0:0:0:
256,192,392109,1,8,0:0:0:0:
256,192,392234,1,0,0:0:0:0:
256,192,392359,1,8,0:0:0:0:
256,192,392484,1,8,0:0:0:0:
256,192,392609,1,0,0:0:0:0:
256,192,392734,1,8,0:0:0:0:
256,192,392859,1,8,0:0:0:0:
256,192,392984,1,0,0:0:0:0:
256,192,393109,5,8,0:0:0:0:
256,192,393234,1,8,0:0:0:0:
256,192,393359,1,0,0:0:0:0:
256,192,393421,1,0,0:0:0:0:
256,192,393484,1,0,0:0:0:0:
256,192,393546,1,0,0:0:0:0:
256,96,393609,1,12,0:0:0:0:
256,192,393859,1,8,0:0:0:0:
256,192,394109,1,8,0:0:0:0:
256,96,394359,1,4,0:0:0:0:
256,192,394859,1,0,0:0:0:0:
256,192,394984,1,0,0:0:0:0:
256,192,395109,1,8,0:0:0:0:
256,192,395359,1,0,0:0:0:0:
256,192,395484,1,0,0:0:0:0:
256,192,395609,1,0,0:0:0:0:
256,192,395859,1,0,0:0:0:0:
256,192,395984,1,8,0:0:0:0:
256,192,396109,1,0,0:0:0:0:
256,192,396234,1,0,0:0:0:0:
256,192,396359,1,0,0:0:0:0:
256,192,396609,1,0,0:0:0:0:
256,192,396734,1,8,0:0:0:0:
256,192,396859,1,0,0:0:0:0:
256,192,396921,1,0,0:0:0:0:
256,192,396984,1,0,0:0:0:0:
256,192,397046,1,0,0:0:0:0:
256,192,397109,1,8,0:0:0:0:
256,192,397234,1,0,0:0:0:0:
256,192,397359,1,0,0:0:0:0:
256,192,397484,1,0,0:0:0:0:
256,96,397609,5,12,0:0:0:0:
256,192,397859,1,0,0:0:0:0:
256,192,398109,1,8,0:0:0:0:
256,96,398359,1,4,0:0:0:0:
256,192,398859,1,0,0:0:0:0:
256,192,398984,1,0,0:0:0:0:
256,192,399109,1,8,0:0:0:0:
256,192,399359,1,0,0:0:0:0:
256,192,399484,1,0,0:0:0:0:
256,192,399609,1,0,0:0:0:0:
256,192,399859,1,0,0:0:0:0:
256,192,399984,1,8,0:0:0:0:
256,192,400234,1,0,0:0:0:0:
256,192,400359,1,8,0:0:0:0:
256,192,400609,1,0,0:0:0:0:
256,192,400734,1,8,0:0:0:0:
256,192,400859,1,0,0:0:0:0:
256,192,400984,1,0,0:0:0:0:
256,192,401109,1,8,0:0:0:0:
256,192,401234,1,0,0:0:0:0:
256,192,401359,1,8,0:0:0:0:
256,192,401484,1,8,0:0:0:0:
256,192,401609,5,0,0:0:0:0:
256,192,401859,1,0,0:0:0:0:
256,192,401984,1,8,0:0:0:0:
256,192,402359,1,8,0:0:0:0:
256,192,402734,1,8,0:0:0:0:
256,192,402859,1,0,0:0:0:0:
256,192,402984,1,0,0:0:0:0:
256,192,403109,1,8,0:0:0:0:
256,192,403359,1,0,0:0:0:0:
256,192,403484,1,0,0:0:0:0:
256,192,403609,1,0,0:0:0:0:
256,192,403859,1,0,0:0:0:0:
256,192,403984,1,8,0:0:0:0:
256,192,404359,1,8,0:0:0:0:
256,192,404609,1,0,0:0:0:0:
256,192,404734,1,8,0:0:0:0:
256,192,404984,1,0,0:0:0:0:
256,192,405109,1,8,0:0:0:0:
256,192,405359,1,0,0:0:0:0:
256,192,405484,1,0,0:0:0:0:
256,192,405609,5,0,0:0:0:0:
256,192,405859,1,0,0:0:0:0:
256,192,405984,1,8,0:0:0:0:
256,192,406359,1,8,0:0:0:0:
256,192,406609,1,0,0:0:0:0:
256,192,406734,1,8,0:0:0:0:
256,192,406859,1,0,0:0:0:0:
256,192,406984,1,0,0:0:0:0:
256,192,407109,1,8,0:0:0:0:
256,192,407359,1,0,0:0:0:0:
256,192,407484,1,0,0:0:0:0:
256,192,407609,1,0,0:0:0:0:
256,192,407859,1,0,0:0:0:0:
256,192,407984,1,8,0:0:0:0:
256,192,408234,1,0,0:0:0:0:
256,192,408359,1,8,0:0:0:0:
256,192,408609,1,0,0:0:0:0:
256,192,408734,1,8,0:0:0:0:
256,192,408859,1,8,0:0:0:0:
256,192,408984,1,8,0:0:0:0:
256,192,409109,1,0,0:0:0:0:
256,192,409234,1,8,0:0:0:0:
256,192,409359,1,0,0:0:0:0:
256,192,409421,1,0,0:0:0:0:
256,192,409484,1,0,0:0:0:0:
256,192,409546,1,0,0:0:0:0:
256,96,409609,1,12,0:0:0:0:
256,192,409859,1,8,0:0:0:0:
256,192,410109,1,8,0:0:0:0:
256,96,410359,1,4,0:0:0:0:
256,192,410859,5,0,0:0:0:0:
256,192,410984,1,0,0:0:0:0:
256,192,411109,1,8,0:0:0:0:
256,192,411359,1,0,0:0:0:0:
256,192,411484,1,0,0:0:0:0:
256,192,411609,1,0,0:0:0:0:
256,192,411859,1,0,0:0:0:0:
256,192,411984,1,8,0:0:0:0:
256,192,412109,1,0,0:0:0:0:
256,192,412234,1,0,0:0:0:0:
256,192,412359,1,0,0:0:0:0:
256,192,412609,1,0,0:0:0:0:
256,192,412734,1,8,0:0:0:0:
256,192,412859,1,0,0:0:0:0:
256,192,412921,1,0,0:0:0:0:
256,192,412984,1,0,0:0:0:0:
256,192,413046,1,0,0:0:0:0:
256,192,413109,1,8,0:0:0:0:
256,192,413234,1,0,0:0:0:0:
256,192,413359,1,0,0:0:0:0:
256,192,413484,1,0,0:0:0:0:
256,96,413609,1,12,0:0:0:0:
256,192,413859,1,0,0:0:0:0:
256,192,414109,1,0,0:0:0:0:
256,96,414359,1,12,0:0:0:0:
256,192,414859,5,0,0:0:0:0:
256,192,414984,1,0,0:0:0:0:
256,192,415109,1,8,0:0:0:0:
256,192,415359,1,0,0:0:0:0:
256,192,415484,1,0,0:0:0:0:
256,192,415609,1,0,0:0:0:0:
256,192,415859,1,0,0:0:0:0:
256,192,415984,1,8,0:0:0:0:
256,192,416234,1,0,0:0:0:0:
256,192,416359,1,8,0:0:0:0:
256,192,416609,1,0,0:0:0:0:
256,192,416734,1,8,0:0:0:0:
256,192,416859,1,0,0:0:0:0:
256,192,416984,1,0,0:0:0:0:
256,192,417109,1,8,0:0:0:0:
256,192,417234,1,0,0:0:0:0:
256,192,417359,1,8,0:0:0:0:
256,192,417484,1,8,0:0:0:0:
256,192,417609,1,0,0:0:0:0:
256,192,417859,1,0,0:0:0:0:
256,192,417984,1,8,0:0:0:0:
256,192,418359,1,8,0:0:0:0:
256,192,418734,1,8,0:0:0:0:
256,192,418859,1,0,0:0:0:0:
256,192,418984,1,0,0:0:0:0:
256,192,419109,1,8,0:0:0:0:
256,192,419359,1,0,0:0:0:0:
256,192,419484,1,0,0:0:0:0:
256,192,419609,1,0,0:0:0:0:
256,192,419859,1,0,0:0:0:0:
256,192,419984,1,8,0:0:0:0:
256,192,420359,1,8,0:0:0:0:
256,192,420609,1,0,0:0:0:0:
256,192,420734,1,8,0:0:0:0:
256,192,420984,1,0,0:0:0:0:
256,192,421109,1,8,0:0:0:0:
256,192,421359,5,0,0:0:0:0:
256,192,421484,1,0,0:0:0:0:
256,192,421609,1,0,0:0:0:0:
256,192,421859,1,0,0:0:0:0:
256,192,421984,1,8,0:0:0:0:
256,192,422359,1,8,0:0:0:0:
256,192,422609,1,0,0:0:0:0:
256,192,422734,1,8,0:0:0:0:
256,192,422859,1,0,0:0:0:0:
256,192,422984,1,0,0:0:0:0:
256,192,423109,1,8,0:0:0:0:
256,192,423359,1,0,0:0:0:0:
256,192,423484,1,0,0:0:0:0:
256,96,423609,1,0,0:0:0:0:
256,192,423859,1,8,0:0:0:0:
256,192,423984,1,8,0:0:0:0:
256,192,424109,1,8,0:0:0:0:
256,192,424234,1,8,0:0:0:0:
256,192,424359,1,0,0:0:0:0:
256,192,424484,1,8,0:0:0:0:
256,192,424609,1,8,0:0:0:0:
256,192,424734,1,8,0:0:0:0:
256,192,424859,1,0,0:0:0:0:
256,192,424984,1,0,0:0:0:0:
256,192,425109,5,8,0:0:0:0:
256,192,425234,1,8,0:0:0:0:
256,192,425359,1,0,0:0:0:0:
256,192,425421,1,0,0:0:0:0:
256,192,425484,1,0,0:0:0:0:
256,192,425546,1,0,0:0:0:0:
256,96,425609,1,12,0:0:0:0:
256,192,425859,1,0,0:0:0:0:
256,192,426109,1,0,0:0:0:0:
256,96,426359,1,4,0:0:0:0:
256,192,426859,1,0,0:0:0:0:
256,192,426984,1,0,0:0:0:0:
256,192,427109,1,8,0:0:0:0:
256,192,427359,1,0,0:0:0:0:
256,192,427484,1,0,0:0:0:0:
256,192,427609,1,0,0:0:0:0:
256,192,427859,1,0,0:0:0:0:
256,192,427984,1,8,0:0:0:0:
256,192,428109,1,0,0:0:0:0:
256,192,428234,1,0,0:0:0:0:
256,192,428359,1,0,0:0:0:0:
256,192,428609,1,0,0:0:0:0:
256,192,428734,1,8,0:0:0:0:
256,192,428859,1,0,0:0:0:0:
256,192,428921,1,0,0:0:0:0:
256,192,428984,1,0,0:0:0:0:
256,192,429046,1,0,0:0:0:0:
256,192,429109,1,8,0:0:0:0:
256,192,429234,1,0,0:0:0:0:
256,192,429359,5,0,0:0:0:0:
256,192,429484,1,0,0:0:0:0:
256,96,429609,1,12,0:0:0:0:
256,192,429859,1,8,0:0:0:0:
256,192,430109,1,8,0:0:0:0:
256,96,430359,1,4,0:0:0:0:
256,192,430859,1,0,0:0:0:0:
256,192,430984,1,0,0:0:0:0:
256,192,431109,1,8,0:0:0:0:
256,192,431359,1,0,0:0:0:0:
256,192,431484,1,0,0:0:0:0:
256,192,431609,1,0,0:0:0:0:
256,192,431859,1,0,0:0:0:0:
256,192,431984,1,8,0:0:0:0:
256,192,432234,1,0,0:0:0:0:
256,192,432359,1,8,0:0:0:0:
256,192,432609,1,0,0:0:0:0:
256,192,432734,1,8,0:0:0:0:
256,192,432859,1,0,0:0:0:0:
256,192,432984,1,0,0:0:0:0:
256,192,433109,1,8,0:0:0:0:
256,192,433171,1,8,0:0:0:0:
256,192,433234,1,0,0:0:0:0:
256,192,433359,5,0,0:0:0:0:
256,192,433484,1,0,0:0:0:0:
256,96,433609,1,12,0:0:0:0:
256,192,433859,1,0,0:0:0:0:
256,192,433984,1,8,0:0:0:0:
256,96,434359,1,4,0:0:0:0:
256,192,434734,1,8,0:0:0:0:
256,192,434859,1,0,0:0:0:0:
256,192,434984,1,0,0:0:0:0:
256,192,435109,1,8,0:0:0:0:
256,192,435359,1,0,0:0:0:0:
256,192,435484,1,0,0:0:0:0:
256,192,435609,1,0,0:0:0:0:
256,192,435859,1,0,0:0:0:0:
256,192,435984,1,8,0:0:0:0:
256,192,436234,1,0,0:0:0:0:
256,192,436359,1,8,0:0:0:0:
256,192,436609,1,0,0:0:0:0:
256,192,436734,1,8,0:0:0:0:
256,192,436984,1,0,0:0:0:0:
256,192,437109,1,8,0:0:0:0:
256,192,437359,5,0,0:0:0:0:
256,192,437484,1,0,0:0:0:0:
256,192,437609,1,8,0:0:0:0:
256,192,437671,1,8,0:0:0:0:
256,192,437734,1,8,0:0:0:0:
256,192,437796,1,8,0:0:0:0:
256,192,437859,1,8,0:0:0:0:
256,192,437984,1,8,0:0:0:0:
256,192,438109,1,8,0:0:0:0:
256,192,438234,1,8,0:0:0:0:
256,96,438359,1,4,0:0:0:0:
256,192,438609,1,8,0:0:0:0:
256,96,438734,1,4,0:0:0:0:
256,192,438984,5,8,0:0:0:0:
256,192,439109,1,0,0:0:0:0:
256,192,439234,1,8,0:0:0:0:
256,192,439359,1,0,0:0:0:0:
256,192,439484,1,0,0:0:0:0:
256,192,439609,1,0,0:0:0:0:
256,192,439734,1,0,0:0:0:0:
256,192,439859,1,8,0:0:0:0:
256,192,439984,1,8,0:0:0:0:
256,192,440109,1,0,0:0:0:0:
256,192,440234,1,8,0:0:0:0:
256,192,440359,1,8,0:0:0:0:
256,192,440484,1,8,0:0:0:0:
256,192,440609,5,0,0:0:0:0:
256,192,440729,1,8,0:0:0:0:
256,192,440849,1,8,0:0:0:0:
256,192,440969,1,8,0:0:0:0:
256,192,441089,1,0,0:0:0:0:
256,192,441209,1,8,0:0:0:0:
256,192,441329,1,8,0:0:0:0:
256,192,441449,1,8,0:0:0:0:
256,96,441569,1,4,0:0:0:0:
256,192,441929,1,0,0:0:0:0:
256,192,442049,1,8,0:0:0:0:
256,192,442289,1,8,0:0:0:0:
256,192,442529,1,0,0:0:0:0:
256,192,442769,1,0,0:0:0:0:
256,192,443009,1,8,0:0:0:0:
256,192,443249,1,0,0:0:0:0:
256,192,443489,1,8,0:0:0:0:
256,192,443849,1,0,0:0:0:0:
256,192,443969,1,8,0:0:0:0:
256,192,444209,1,0,0:0:0:0:
256,192,444449,1,8,0:0:0:0:
256,192,444689,1,0,0:0:0:0:
256,192,444809,1,0,0:0:0:0:
256,192,444929,1,8,0:0:0:0:
256,192,445049,1,0,0:0:0:0:
256,192,445169,1,0,0:0:0:0:
256,192,445289,1,0,0:0:0:0:
256,192,445409,5,8,0:0:0:0:
256,192,445529,1,8,0:0:0:0:
256,192,445649,1,8,0:0:0:0:
256,192,445769,1,0,0:0:0:0:
256,192,445889,1,8,0:0:0:0:
256,192,446009,1,0,0:0:0:0:
256,192,446129,1,8,0:0:0:0:
256,192,446249,1,8,0:0:0:0:
256,192,446609,1,8,0:0:0:0:
256,192,446849,1,8,0:0:0:0:
256,192,447089,1,0,0:0:0:0:
256,192,447329,1,8,0:0:0:0:
256,192,447689,1,0,0:0:0:0:
256,192,447809,1,8,0:0:0:0:
256,192,448049,1,0,0:0:0:0:
256,192,448289,1,8,0:0:0:0:
256,192,448409,1,8,0:0:0:0:
256,192,448529,1,8,0:0:0:0:
256,192,448649,1,0,0:0:0:0:
256,192,448769,1,8,0:0:0:0:
256,192,448889,1,8,0:0:0:0:
256,192,449009,1,0,0:0:0:0:
256,192,449129,1,0,0:0:0:0:
256,192,449249,1,8,0:0:0:0:
256,192,449609,5,0,0:0:0:0:
256,192,449729,1,8,0:0:0:0:
256,192,449969,1,8,0:0:0:0:
256,192,450209,1,0,0:0:0:0:
256,192,450449,1,0,0:0:0:0:
256,192,450689,1,8,0:0:0:0:
256,192,450809,1,0,0:0:0:0:
256,192,450929,1,8,0:0:0:0:
256,192,451049,1,8,0:0:0:0:
256,192,451169,1,8,0:0:0:0:
256,192,451529,1,0,0:0:0:0:
256,192,451649,1,8,0:0:0:0:
256,192,451889,1,8,0:0:0:0:
256,192,452009,1,8,0:0:0:0:
256,192,452129,1,8,0:0:0:0:
256,192,452369,1,0,0:0:0:0:
256,192,452489,1,0,0:0:0:0:
256,192,452609,1,8,0:0:0:0:
256,192,452729,1,0,0:0:0:0:
256,192,452849,1,8,0:0:0:0:
256,192,452969,1,8,0:0:0:0:
256,192,453089,1,8,0:0:0:0:
256,192,453449,5,0,0:0:0:0:
256,192,453569,1,8,0:0:0:0:
256,192,453809,1,8,0:0:0:0:
256,192,454049,1,0,0:0:0:0:
256,192,454289,1,0,0:0:0:0:
256,192,454529,1,8,0:0:0:0:
256,192,454649,1,8,0:0:0:0:
256,192,454769,1,0,0:0:0:0:
256,192,454889,1,8,0:0:0:0:
256,192,455009,1,8,0:0:0:0:
256,192,455129,1,8,0:0:0:0:
256,192,455249,1,0,0:0:0:0:
256,192,455369,1,8,0:0:0:0:
256,192,455489,1,8,0:0:0:0:
256,192,455549,1,8,0:0:0:0:
256,192,455609,1,8,0:0:0:0:
256,192,455729,1,0,0:0:0:0:
256,192,455849,1,0,0:0:0:0:
256,192,455969,1,8,0:0:0:0:
256,192,456029,1,8,0:0:0:0:
256,192,456089,1,8,0:0:0:0:
256,192,456209,1,0,0:0:0:0:
256,192,456329,1,0,0:0:0:0:
256,192,456449,1,8,0:0:0:0:
256,192,456509,1,0,0:0:0:0:
256,192,456569,1,8,0:0:0:0:
256,192,456629,1,8,0:0:0:0:
256,192,456689,1,0,0:0:0:0:
256,192,456809,1,0,0:0:0:0:
256,192,456929,1,8,0:0:0:0:
256,192,457289,5,0,0:0:0:0:
256,192,457409,1,8,0:0:0:0:
256,192,457649,1,8,0:0:0:0:
256,192,457889,1,0,0:0:0:0:
256,192,458129,1,0,0:0:0:0:
256,192,458369,1,8,0:0:0:0:
256,192,458609,1,0,0:0:0:0:
256,192,458729,1,0,0:0:0:0:
256,192,458849,1,8,0:0:0:0:
256,192,459209,1,0,0:0:0:0:
256,192,459329,1,8,0:0:0:0:
256,192,459569,1,8,0:0:0:0:
256,192,459809,1,0,0:0:0:0:
256,192,460049,1,0,0:0:0:0:
256,192,460169,1,0,0:0:0:0:
256,192,460289,1,8,0:0:0:0:
256,192,460469,1,0,0:0:0:0:
256,192,460649,1,0,0:0:0:0:
256,192,460769,5,8,0:0:0:0:
256,192,460889,1,0,0:0:0:0:
256,192,461009,1,8,0:0:0:0:
256,192,461129,1,8,0:0:0:0:
256,192,461249,1,8,0:0:0:0:
256,192,461369,1,0,0:0:0:0:
256,192,461489,1,8,0:0:0:0:
256,192,461569,1,8,0:0:0:0:
256,192,461649,1,8,0:0:0:0:
256,192,461729,1,0,0:0:0:0:
256,192,461849,1,0,0:0:0:0:
256,192,461969,1,8,0:0:0:0:
256,192,462089,1,0,0:0:0:0:
256,192,462209,1,8,0:0:0:0:
256,192,462329,1,8,0:0:0:0:
256,192,462449,1,8,0:0:0:0:
256,192,462529,1,0,0:0:0:0:
256,192,462609,1,0,0:0:0:0:
256,192,462689,1,8,0:0:0:0:
256,192,462809,1,0,0:0:0:0:
256,192,462929,1,8,0:0:0:0:
256,192,463049,1,0,0:0:0:0:
256,192,463169,1,8,0:0:0:0:
256,192,463289,1,8,0:0:0:0:
256,192,463409,1,0,0:0:0:0:
256,192,463469,1,0,0:0:0:0:
256,192,463529,1,0,0:0:0:0:
256,192,463649,1,8,0:0:0:0:
256,192,463769,1,8,0:0:0:0:
256,192,463829,1,8,0:0:0:0:
256,192,463889,1,0,0:0:0:0:
256,192,464009,1,0,0:0:0:0:
256,192,464129,1,8,0:0:0:0:
256,192,464249,1,8,0:0:0:0:
256,192,464369,1,0,0:0:0:0:
256,192,464489,1,0,0:0:0:0:
256,192,464609,1,8,0:0:0:0:
256,192,464969,5,0,0:0:0:0:
256,192,465089,1,8,0:0:0:0:
256,192,465329,1,8,0:0:0:0:
256,192,465569,1,0,0:0:0:0:
256,192,465809,1,0,0:0:0:0:
256,192,466049,1,8,0:0:0:0:
256,192,466289,1,8,0:0:0:0:
256,192,466529,1,8,0:0:0:0:
256,192,466889,1,0,0:0:0:0:
256,192,467009,1,8,0:0:0:0:
256,192,467129,1,8,0:0:0:0:
256,192,467249,1,8,0:0:0:0:
256,192,467489,1,0,0:0:0:0:
256,192,467729,1,0,0:0:0:0:
256,192,467849,1,0,0:0:0:0:
256,192,467969,1,8,0:0:0:0:
256,192,468089,1,8,0:0:0:0:
256,192,468149,1,8,0:0:0:0:
256,192,468209,1,0,0:0:0:0:
256,192,468329,1,0,0:0:0:0:
256,192,468449,1,8,0:0:0:0:
256,192,468689,5,8,0:0:0:0:
256,192,468809,1,0,0:0:0:0:
256,192,468929,1,8,0:0:0:0:
256,192,469169,1,8,0:0:0:0:
256,192,469409,1,0,0:0:0:0:
256,192,469649,1,0,0:0:0:0:
256,192,469889,1,8,0:0:0:0:
256,192,470129,1,0,0:0:0:0:
256,192,470369,5,8,0:0:0:0:
256,192,470489,1,8,0:0:0:0:
256,192,470609,1,0,0:0:0:0:
256,192,470669,1,0,0:0:0:0:
256,192,470729,1,0,0:0:0:0:
256,192,470789,1,0,0:0:0:0:
256,192,470849,1,8,0:0:0:0:
256,192,471089,1,0,0:0:0:0:
256,192,471329,1,8,0:0:0:0:
256,192,471389,1,8,0:0:0:0:
256,192,471449,1,8,0:0:0:0:
256,192,471509,1,8,0:0:0:0:
256,192,471569,1,0,0:0:0:0:
256,192,471629,1,0,0:0:0:0:
256,192,471689,1,0,0:0:0:0:
256,192,471749,1,0,0:0:0:0:
256,192,471809,1,8,0:0:0:0:
256,192,472049,1,4,0:0:0:0:
256,192,472289,5,12,0:0:0:0:
256,192,472529,1,0,0:0:0:0:
256,192,472649,1,0,0:0:0:0:
256,192,472709,1,0,0:0:0:0:
256,192,472769,1,8,0:0:0:0:
256,192,472889,1,8,0:0:0:0:
256,192,473009,1,0,0:0:0:0:
256,192,473129,1,8,0:0:0:0:
256,192,473249,1,0,0:0:0:0:
256,192,473369,1,0,0:0:0:0:
256,192,473489,1,8,0:0:0:0:
256,192,473609,1,8,0:0:0:0:
256,192,473729,1,8,0:0:0:0:
256,192,473849,1,0,0:0:0:0:
256,192,473969,1,8,0:0:0:0:
256,192,474089,1,8,0:0:0:0:
256,192,474209,1,4,0:0:0:0:
256,192,474449,5,0,0:0:0:0:
256,192,474569,1,0,0:0:0:0:
256,192,474689,1,8,0:0:0:0:
256,192,474749,1,0,0:0:0:0:
256,192,474809,1,8,0:0:0:0:
256,192,474929,1,0,0:0:0:0:
256,192,475049,1,8,0:0:0:0:
256,192,475169,1,0,0:0:0:0:
256,192,475289,1,0,0:0:0:0:
256,192,475409,1,8,0:0:0:0:
256,192,475529,1,8,0:0:0:0:
256,192,475649,1,8,0:0:0:0:
256,192,475769,1,0,0:0:0:0:
256,192,475889,1,8,0:0:0:0:
256,192,476009,1,8,0:0:0:0:
256,192,476129,1,4,0:0:0:0:
256,192,476369,5,0,0:0:0:0:
256,192,476489,1,0,0:0:0:0:
256,192,476609,1,8,0:0:0:0:
256,192,476669,1,8,0:0:0:0:
256,192,476729,1,0,0:0:0:0:
256,192,476849,1,8,0:0:0:0:
256,192,476969,1,8,0:0:0:0:
256,192,477089,1,0,0:0:0:0:
256,192,477209,1,0,0:0:0:0:
256,192,477329,1,8,0:0:0:0:
256,192,477449,1,8,0:0:0:0:
256,192,477569,1,8,0:0:0:0:
256,192,477689,1,0,0:0:0:0:
256,192,477809,1,8,0:0:0:0:
256,192,477929,1,8,0:0:0:0:
256,192,478049,5,0,0:0:0:0:
256,192,478109,1,0,0:0:0:0:
256,192,478169,1,0,0:0:0:0:
256,192,478229,1,0,0:0:0:0:
256,192,478289,1,0,0:0:0:0:
256,192,478409,1,0,0:0:0:0:
256,192,478529,1,8,0:0:0:0:
256,192,478649,1,8,0:0:0:0:
256,192,478769,1,8,0:0:0:0:
256,192,479009,1,12,0:0:0:0:
256,192,479489,1,12,0:0:0:0:
256,192,479969,1,4,0:0:0:0:
256,192,480209,5,0,0:0:0:0:
256,192,480329,1,0,0:0:0:0:
256,192,480389,1,0,0:0:0:0:
256,192,480449,1,8,0:0:0:0:
256,192,480569,1,8,0:0:0:0:
256,192,480689,1,0,0:0:0:0:
256,192,480809,1,8,0:0:0:0:
256,192,480929,1,0,0:0:0:0:
256,192,481049,1,0,0:0:0:0:
256,192,481169,1,8,0:0:0:0:
256,192,481289,1,8,0:0:0:0:
256,192,481409,1,8,0:0:0:0:
256,192,481529,1,0,0:0:0:0:
256,192,481649,1,8,0:0:0:0:
256,192,481769,1,8,0:0:0:0:
256,192,481889,1,4,0:0:0:0:
256,192,482129,5,0,0:0:0:0:
256,192,482249,1,0,0:0:0:0:
256,192,482369,1,8,0:0:0:0:
256,192,482429,1,0,0:0:0:0:
256,192,482489,1,8,0:0:0:0:
256,192,482609,1,0,0:0:0:0:
256,192,482729,1,8,0:0:0:0:
256,192,482849,1,0,0:0:0:0:
256,192,482969,1,0,0:0:0:0:
256,192,483089,1,8,0:0:0:0:
256,192,483209,1,8,0:0:0:0:
256,192,483329,1,8,0:0:0:0:
256,192,483449,1,0,0:0:0:0:
256,192,483569,1,8,0:0:0:0:
256,192,483629,1,0,0:0:0:0:
256,192,483689,1,0,0:0:0:0:
256,192,483749,1,0,0:0:0:0:
256,192,483809,1,8,0:0:0:0:
256,192,484049,5,0,0:0:0:0:
256,192,484169,1,0,0:0:0:0:
256,192,484289,1,8,0:0:0:0:
256,192,484349,1,8,0:0:0:0:
256,192,484409,1,0,0:0:0:0:
256,192,484529,1,8,0:0:0:0:
256,192,484649,1,8,0:0:0:0:
256,192,484769,1,0,0:0:0:0:
256,192,484889,1,0,0:0:0:0:
256,192,485009,1,8,0:0:0:0:
256,192,485129,1,8,0:0:0:0:
256,192,485249,1,8,0:0:0:0:
256,192,485369,1,0,0:0:0:0:
256,192,485489,1,8,0:0:0:0:
256,192,485609,1,8,0:0:0:0:
256,192,485729,1,0,0:0:0:0:
256,192,485789,1,0,0:0:0:0:
256,192,485849,1,0,0:0:0:0:
256,192,485909,1,0,0:0:0:0:
256,192,485969,1,0,0:0:0:0:
256,192,486089,1,0,0:0:0:0:
256,192,486209,1,8,0:0:0:0:
256,192,486329,1,8,0:0:0:0:
256,192,486449,1,8,0:0:0:0:
256,192,486689,1,12,0:0:0:0:
256,192,487169,1,12,0:0:0:0:
256,192,487649,5,4,0:0:0:0:
256,192,487889,1,0,0:0:0:0:
256,192,488009,1,0,0:0:0:0:
256,192,488069,1,0,0:0:0:0:
256,192,488129,1,8,0:0:0:0:
256,192,488189,1,0,0:0:0:0:
256,192,488249,1,8,0:0:0:0:
256,192,488369,1,0,0:0:0:0:
256,192,488489,1,8,0:0:0:0:
256,192,488609,1,0,0:0:0:0:
256,192,488729,1,0,0:0:0:0:
256,192,488849,1,8,0:0:0:0:
256,192,488969,1,0,0:0:0:0:
256,192,489089,1,8,0:0:0:0:
256,192,489209,1,8,0:0:0:0:
256,192,489269,1,8,0:0:0:0:
256,192,489329,1,0,0:0:0:0:
256,192,489449,1,8,0:0:0:0:
256,192,489569,5,8,0:0:0:0:
256,192,489689,1,0,0:0:0:0:
256,192,489809,1,8,0:0:0:0:
256,192,489929,1,0,0:0:0:0:
256,192,490049,1,8,0:0:0:0:
256,192,490109,1,0,0:0:0:0:
256,192,490169,1,8,0:0:0:0:
256,192,490289,1,0,0:0:0:0:
256,192,490409,1,8,0:0:0:0:
256,192,490529,1,0,0:0:0:0:
256,192,490649,1,0,0:0:0:0:
256,192,490769,1,8,0:0:0:0:
256,192,490889,1,8,0:0:0:0:
256,192,491009,1,8,0:0:0:0:
256,192,491129,1,0,0:0:0:0:
256,192,491189,1,0,0:0:0:0:
256,192,491249,1,8,0:0:0:0:
256,192,491369,1,8,0:0:0:0:
256,192,491489,5,8,0:0:0:0:
256,192,491609,1,0,0:0:0:0:
256,192,491729,1,8,0:0:0:0:
256,192,491849,1,0,0:0:0:0:
256,192,491969,1,8,0:0:0:0:
256,192,492029,1,8,0:0:0:0:
256,192,492089,1,0,0:0:0:0:
256,192,492149,1,0,0:0:0:0:
256,192,492209,1,8,0:0:0:0:
256,192,492329,1,8,0:0:0:0:
256,192,492449,1,0,0:0:0:0:
256,192,492569,1,0,0:0:0:0:
256,192,492689,1,8,0:0:0:0:
256,192,492809,1,8,0:0:0:0:
256,192,492929,1,0,0:0:0:0:
256,192,492989,1,0,0:0:0:0:
256,192,493049,1,0,0:0:0:0:
256,192,493169,1,8,0:0:0:0:
256,192,493289,1,8,0:0:0:0:
256,192,493409,5,0,0:0:0:0:
256,192,493529,1,8,0:0:0:0:
256,192,493649,1,0,0:0:0:0:
256,192,493769,1,0,0:0:0:0:
256,192,493889,1,8,0:0:0:0:
256,192,494009,1,0,0:0:0:0:
256,192,494129,1,8,0:0:0:0:
256,192,494249,1,0,0:0:0:0:
256,192,494369,1,8,0:0:0:0:
256,192,494429,1,0,0:0:0:0:
256,192,494489,1,8,0:0:0:0:
256,192,494549,1,8,0:0:0:0:
256,192,494609,1,0,0:0:0:0:
256,192,494669,1,0,0:0:0:0:
256,192,494729,1,8,0:0:0:0:
256,192,494849,1,8,0:0:0:0:
256,192,494969,1,0,0:0:0:0:
256,192,495089,1,0,0:0:0:0:
256,192,495209,1,0,0:0:0:0:
256,192,495329,5,12,0:0:0:0:
256,192,495449,1,0,0:0:0:0:
256,192,495569,1,0,0:0:0:0:
256,192,495689,1,0,0:0:0:0:
256,192,495749,1,0,0:0:0:0:
256,192,495809,1,8,0:0:0:0:
256,192,495869,1,0,0:0:0:0:
256,192,495929,1,8,0:0:0:0:
256,192,496049,1,0,0:0:0:0:
256,192,496169,1,8,0:0:0:0:
256,192,496289,1,0,0:0:0:0:
256,192,496409,1,8,0:0:0:0:
256,192,496529,1,8,0:0:0:0:
256,192,496649,1,0,0:0:0:0:
256,192,496769,1,8,0:0:0:0:
256,192,496889,1,8,0:0:0:0:
256,192,496949,1,8,0:0:0:0:
256,192,497009,1,0,0:0:0:0:
256,192,497129,1,8,0:0:0:0:
256,192,497249,5,8,0:0:0:0:
256,192,497369,1,0,0:0:0:0:
256,192,497489,1,8,0:0:0:0:
256,192,497609,1,0,0:0:0:0:
256,192,497729,1,8,0:0:0:0:
256,192,497789,1,0,0:0:0:0:
256,192,497849,1,8,0:0:0:0:
256,192,497969,1,0,0:0:0:0:
256,192,498089,1,8,0:0:0:0:
256,192,498209,1,0,0:0:0:0:
256,192,498329,1,8,0:0:0:0:
256,192,498449,1,8,0:0:0:0:
256,192,498569,1,0,0:0:0:0:
256,192,498629,1,0,0:0:0:0:
256,192,498689,1,8,0:0:0:0:
256,192,498809,1,0,0:0:0:0:
256,192,498929,1,8,0:0:0:0:
256,192,499049,1,8,0:0:0:0:
256,192,499169,5,8,0:0:0:0:
256,192,499289,1,0,0:0:0:0:
256,192,499409,1,8,0:0:0:0:
256,192,499529,1,0,0:0:0:0:
256,192,499649,1,8,0:0:0:0:
256,192,499709,1,8,0:0:0:0:
256,192,499769,1,0,0:0:0:0:
256,192,499829,1,0,0:0:0:0:
256,192,499889,1,8,0:0:0:0:
256,192,500009,1,8,0:0:0:0:
256,192,500129,1,0,0:0:0:0:
256,192,500249,1,8,0:0:0:0:
256,192,500369,1,8,0:0:0:0:
256,192,500489,1,8,0:0:0:0:
256,192,500609,1,0,0:0:0:0:
256,192,500669,1,0,0:0:0:0:
256,192,500729,1,0,0:0:0:0:
256,192,500849,1,8,0:0:0:0:
256,192,500969,1,8,0:0:0:0:
256,192,501089,5,0,0:0:0:0:
256,192,501209,1,8,0:0:0:0:
256,192,501329,1,0,0:0:0:0:
256,192,501449,1,8,0:0:0:0:
256,192,501569,1,8,0:0:0:0:
256,192,501689,1,0,0:0:0:0:
256,192,501809,1,8,0:0:0:0:
256,192,501929,1,0,0:0:0:0:
256,192,502049,5,8,0:0:0:0:
256,192,502109,1,8,0:0:0:0:
256,192,502169,1,8,0:0:0:0:
256,192,502229,1,8,0:0:0:0:
256,192,502289,1,0,0:0:0:0:
256,192,502349,1,0,0:0:0:0:
256,192,502409,1,0,0:0:0:0:
256,192,502469,1,0,0:0:0:0:
256,192,502529,1,8,0:0:0:0:
256,192,502589,1,8,0:0:0:0:
256,192,502649,1,0,0:0:0:0:
256,192,502709,1,0,0:0:0:0:
256,192,502769,1,8,0:0:0:0:
256,192,502889,1,8,0:0:0:0:
256,192,503009,5,4,0:0:0:0:
256,192,503369,1,8,0:0:0:0:
256,192,503429,1,8,0:0:0:0:
256,192,503489,1,4,0:0:0:0:
256,192,503969,5,8,0:0:0:0:
256,192,504029,1,8,0:0:0:0:
256,192,504089,1,8,0:0:0:0:
256,192,504149,1,8,0:0:0:0:
256,192,504209,1,0,0:0:0:0:
256,192,504269,1,0,0:0:0:0:
256,192,504329,1,0,0:0:0:0:
256,192,504389,1,0,0:0:0:0:
256,192,504449,1,8,0:0:0:0:
256,192,504509,1,8,0:0:0:0:
256,192,504569,1,0,0:0:0:0:
256,192,504629,1,0,0:0:0:0:
256,192,504689,1,8,0:0:0:0:
256,192,504749,1,8,0:0:0:0:
256,192,504809,1,8,0:0:0:0:
256,192,504869,1,8,0:0:0:0:
256,192,504929,1,8,0:0:0:0:
256,192,504989,1,8,0:0:0:0:
256,192,505049,1,8,0:0:0:0:
256,192,505109,1,8,0:0:0:0:
256,192,505169,1,0,0:0:0:0:
256,192,505229,1,0,0:0:0:0:
256,192,505289,1,0,0:0:0:0:
256,192,505349,1,0,0:0:0:0:
256,192,505409,1,8,0:0:0:0:
256,192,505469,1,8,0:0:0:0:
256,192,505529,1,0,0:0:0:0:
256,192,505589,1,0,0:0:0:0:
256,192,505649,1,8,0:0:0:0:
256,192,505709,1,0,0:0:0:0:
256,192,505769,1,8,0:0:0:0:
256,192,505829,1,0,0:0:0:0:
256,192,505889,1,8,0:0:0:0:
256,192,505949,1,8,0:0:0:0:
256,192,506009,1,0,0:0:0:0:
256,192,506069,1,0,0:0:0:0:
256,192,506129,1,8,0:0:0:0:
256,192,506189,1,0,0:0:0:0:
256,192,506249,1,0,0:0:0:0:
256,192,506309,1,0,0:0:0:0:
256,192,506369,1,8,0:0:0:0:
256,192,506429,1,8,0:0:0:0:
256,192,506489,1,8,0:0:0:0:
256,192,506549,1,0,0:0:0:0:
256,192,506609,1,8,0:0:0:0:
256,192,506669,1,0,0:0:0:0:
256,192,506729,1,8,0:0:0:0:
256,192,506789,1,0,0:0:0:0:
256,192,506849,1,8,0:0:0:0:
256,192,506909,1,8,0:0:0:0:
256,192,506969,1,0,0:0:0:0:
256,192,507029,1,0,0:0:0:0:
256,192,507089,1,8,0:0:0:0:
256,192,507149,1,0,0:0:0:0:
256,192,507209,1,0,0:0:0:0:
256,192,507269,1,0,0:0:0:0:
256,192,507329,1,8,0:0:0:0:
256,192,507389,1,8,0:0:0:0:
256,192,507449,1,8,0:0:0:0:
256,192,507509,1,8,0:0:0:0:
256,192,507569,1,0,0:0:0:0:
256,192,507629,1,0,0:0:0:0:
256,192,507689,1,0,0:0:0:0:
256,192,507749,1,0,0:0:0:0:
256,192,507809,5,8,0:0:0:0:
256,192,507869,1,8,0:0:0:0:
256,192,507929,1,8,0:0:0:0:
256,192,507989,1,8,0:0:0:0:
256,192,508049,1,8,0:0:0:0:
256,192,508109,1,8,0:0:0:0:
256,192,508169,1,8,0:0:0:0:
256,192,508229,1,8,0:0:0:0:
256,192,508289,1,0,0:0:0:0:
256,192,508349,1,0,0:0:0:0:
256,192,508409,1,0,0:0:0:0:
256,192,508469,1,0,0:0:0:0:
256,192,508529,1,8,0:0:0:0:
256,192,508589,1,8,0:0:0:0:
256,192,508649,1,8,0:0:0:0:
256,192,508709,1,8,0:0:0:0:
256,192,508769,1,8,0:0:0:0:
256,192,508829,1,8,0:0:0:0:
256,192,508889,1,8,0:0:0:0:
256,192,508949,1,8,0:0:0:0:
256,192,509009,1,0,0:0:0:0:
256,192,509069,1,0,0:0:0:0:
256,192,509129,1,0,0:0:0:0:
256,192,509189,1,0,0:0:0:0:
256,192,509249,1,8,0:0:0:0:
256,192,509309,1,8,0:0:0:0:
256,192,509369,1,8,0:0:0:0:
256,192,509429,1,8,0:0:0:0:
256,192,509489,1,0,0:0:0:0:
256,192,509549,1,0,0:0:0:0:
256,192,509609,1,0,0:0:0:0:
256,192,509669,1,0,0:0:0:0:
256,192,509729,1,8,0:0:0:0:
256,192,509789,1,8,0:0:0:0:
256,192,509849,1,8,0:0:0:0:
256,192,509909,1,8,0:0:0:0:
256,192,509969,1,8,0:0:0:0:
256,192,510029,1,8,0:0:0:0:
256,192,510089,1,8,0:0:0:0:
256,192,510149,1,8,0:0:0:0:
256,192,510209,1,0,0:0:0:0:
256,192,510269,1,0,0:0:0:0:
256,192,510329,1,0,0:0:0:0:
256,192,510389,1,0,0:0:0:0:
256,192,510449,1,8,0:0:0:0:
256,192,510509,1,8,0:0:0:0:
256,192,510569,1,0,0:0:0:0:
256,192,510629,1,0,0:0:0:0:
256,192,510689,1,8,0:0:0:0:
256,192,510749,1,0,0:0:0:0:
256,192,510809,1,0,0:0:0:0:
256,192,510869,1,0,0:0:0:0:
256,192,510929,1,8,0:0:0:0:
256,192,510989,1,8,0:0:0:0:
256,192,511049,1,8,0:0:0:0:
256,192,511109,1,8,0:0:0:0:
256,192,511169,1,0,0:0:0:0:
256,192,511229,1,0,0:0:0:0:
256,192,511289,1,0,0:0:0:0:
256,192,511349,1,0,0:0:0:0:
256,192,511409,1,8,0:0:0:0:
256,192,511529,1,0,0:0:0:0:
256,192,511649,5,8,0:0:0:0:
256,192,511709,1,8,0:0:0:0:
256,192,511769,1,8,0:0:0:0:
256,192,511829,1,8,0:0:0:0:
256,192,511889,1,8,0:0:0:0:
256,192,511949,1,8,0:0:0:0:
256,192,512009,1,0,0:0:0:0:
256,192,512069,1,0,0:0:0:0:
256,192,512129,1,8,0:0:0:0:
256,192,512189,1,8,0:0:0:0:
256,192,512249,1,0,0:0:0:0:
256,192,512309,1,0,0:0:0:0:
256,192,512369,1,8,0:0:0:0:
256,192,512429,1,8,0:0:0:0:
256,192,512489,1,8,0:0:0:0:
256,192,512549,1,8,0:0:0:0:
256,192,512609,1,8,0:0:0:0:
256,192,512669,1,8,0:0:0:0:
256,192,512729,1,8,0:0:0:0:
256,192,512789,1,8,0:0:0:0:
256,192,512849,1,0,0:0:0:0:
256,192,512909,1,0,0:0:0:0:
256,192,512969,1,0,0:0:0:0:
256,192,513029,1,0,0:0:0:0:
256,192,513089,1,8,0:0:0:0:
256,192,513149,1,8,0:0:0:0:
256,192,513209,1,0,0:0:0:0:
256,192,513269,1,0,0:0:0:0:
256,192,513329,1,8,0:0:0:0:
256,192,513389,1,0,0:0:0:0:
256,192,513449,1,8,0:0:0:0:
256,192,513509,1,0,0:0:0:0:
256,192,513569,1,8,0:0:0:0:
256,192,513629,1,8,0:0:0:0:
256,192,513689,1,0,0:0:0:0:
256,192,513749,1,0,0:0:0:0:
256,192,513809,1,8,0:0:0:0:
256,192,513869,1,0,0:0:0:0:
256,192,513929,1,0,0:0:0:0:
256,192,513989,1,0,0:0:0:0:
256,192,514049,1,8,0:0:0:0:
256,192,514109,1,8,0:0:0:0:
256,192,514169,1,8,0:0:0:0:
256,192,514229,1,0,0:0:0:0:
256,192,514289,1,8,0:0:0:0:
256,192,514349,1,0,0:0:0:0:
256,192,514409,1,8,0:0:0:0:
256,192,514469,1,0,0:0:0:0:
256,192,514529,1,8,0:0:0:0:
256,192,514589,1,8,0:0:0:0:
256,192,514649,1,0,0:0:0:0:
256,192,514709,1,0,0:0:0:0:
256,192,514769,1,8,0:0:0:0:
256,192,514829,1,0,0:0:0:0:
256,192,514889,1,0,0:0:0:0:
256,192,514949,1,0,0:0:0:0:
256,192,515009,1,8,0:0:0:0:
256,192,515069,1,8,0:0:0:0:
256,192,515129,1,8,0:0:0:0:
256,192,515189,1,8,0:0:0:0:
256,192,515249,1,8,0:0:0:0:
256,192,515309,1,8,0:0:0:0:
256,192,515369,1,0,0:0:0:0:
256,192,515429,1,0,0:0:0:0:
256,192,515489,5,8,0:0:0:0:
256,192,515549,1,8,0:0:0:0:
256,192,515609,1,8,0:0:0:0:
256,192,515669,1,8,0:0:0:0:
256,192,515729,1,8,0:0:0:0:
256,192,515789,1,8,0:0:0:0:
256,192,515849,1,8,0:0:0:0:
256,192,515909,1,8,0:0:0:0:
256,192,515969,1,0,0:0:0:0:
256,192,516029,1,0,0:0:0:0:
256,192,516089,1,0,0:0:0:0:
256,192,516149,1,0,0:0:0:0:
256,192,516209,1,8,0:0:0:0:
256,192,516269,1,8,0:0:0:0:
256,192,516329,1,8,0:0:0:0:
256,192,516389,1,8,0:0:0:0:
256,192,516449,1,8,0:0:0:0:
256,192,516509,1,8,0:0:0:0:
256,192,516569,1,0,0:0:0:0:
256,192,516629,1,0,0:0:0:0:
256,192,516689,1,8,0:0:0:0:
256,192,516749,1,8,0:0:0:0:
256,192,516809,1,0,0:0:0:0:
256,192,516869,1,0,0:0:0:0:
256,192,516929,1,8,0:0:0:0:
256,192,516989,1,8,0:0:0:0:
256,192,517049,1,8,0:0:0:0:
256,192,517109,1,8,0:0:0:0:
256,192,517169,1,8,0:0:0:0:
256,192,517229,1,8,0:0:0:0:
256,192,517289,1,8,0:0:0:0:
256,192,517349,1,8,0:0:0:0:
256,192,517409,1,0,0:0:0:0:
256,192,517469,1,0,0:0:0:0:
256,192,517529,1,0,0:0:0:0:
256,192,517589,1,0,0:0:0:0:
256,192,517649,1,8,0:0:0:0:
256,192,517709,1,8,0:0:0:0:
256,192,517769,1,8,0:0:0:0:
256,192,517829,1,8,0:0:0:0:
256,192,517889,1,8,0:0:0:0:
256,192,517949,1,8,0:0:0:0:
256,192,518009,1,0,0:0:0:0:
256,192,518069,1,0,0:0:0:0:
256,192,518129,1,8,0:0:0:0:
256,192,518249,1,8,0:0:0:0:
256,192,518369,1,8,0:0:0:0:
256,192,518489,1,0,0:0:0:0:
256,192,518549,1,0,0:0:0:0:
256,192,518609,1,8,0:0:0:0:
256,192,518729,1,8,0:0:0:0:
256,192,518849,1,0,0:0:0:0:
256,192,518969,1,8,0:0:0:0:
256,192,519029,1,0,0:0:0:0:
256,192,519089,1,8,0:0:0:0:
256,192,519329,5,8,0:0:0:0:
256,192,519389,1,8,0:0:0:0:
256,192,519449,1,8,0:0:0:0:
256,192,519509,1,8,0:0:0:0:
256,192,519569,1,0,0:0:0:0:
256,192,519629,1,0,0:0:0:0:
256,192,519689,1,0,0:0:0:0:
256,192,519749,1,0,0:0:0:0:
256,192,519809,1,8,0:0:0:0:
256,192,519869,1,8,0:0:0:0:
256,192,519929,1,0,0:0:0:0:
256,192,519989,1,0,0:0:0:0:
256,192,520049,1,8,0:0:0:0:
256,192,520109,1,8,0:0:0:0:
256,192,520169,1,8,0:0:0:0:
256,192,520229,1,8,0:0:0:0:
256,192,520289,1,8,0:0:0:0:
256,192,520349,1,8,0:0:0:0:
256,192,520409,1,8,0:0:0:0:
256,192,520469,1,8,0:0:0:0:
256,192,520529,1,0,0:0:0:0:
256,192,520589,1,0,0:0:0:0:
256,192,520649,1,0,0:0:0:0:
256,192,520709,1,0,0:0:0:0:
256,192,520769,1,8,0:0:0:0:
256,192,520829,1,8,0:0:0:0:
256,192,520889,1,0,0:0:0:0:
256,192,520949,1,0,0:0:0:0:
256,192,521009,1,8,0:0:0:0:
256,192,521069,1,0,0:0:0:0:
256,192,521129,1,8,0:0:0:0:
256,192,521189,1,0,0:0:0:0:
256,192,521249,1,8,0:0:0:0:
256,192,521309,1,8,0:0:0:0:
256,192,521369,1,0,0:0:0:0:
256,192,521429,1,0,0:0:0:0:
256,192,521489,1,8,0:0:0:0:
256,192,521549,1,0,0:0:0:0:
256,192,521609,1,0,0:0:0:0:
256,192,521669,1,0,0:0:0:0:
256,192,521729,1,8,0:0:0:0:
256,192,521789,1,8,0:0:0:0:
256,192,521849,1,8,0:0:0:0:
256,192,521909,1,0,0:0:0:0:
256,192,521969,1,8,0:0:0:0:
256,192,522029,1,0,0:0:0:0:
256,192,522089,1,8,0:0:0:0:
256,192,522149,1,0,0:0:0:0:
256,192,522209,1,8,0:0:0:0:
256,192,522269,1,8,0:0:0:0:
256,192,522329,1,0,0:0:0:0:
256,192,522389,1,0,0:0:0:0:
256,192,522449,1,8,0:0:0:0:
256,192,522509,1,8,0:0:0:0:
256,192,522569,1,0,0:0:0:0:
256,192,522629,1,0,0:0:0:0:
256,192,522689,1,8,0:0:0:0:
256,192,522749,1,8,0:0:0:0:
256,192,522809,1,8,0:0:0:0:
256,192,522869,1,8,0:0:0:0:
256,192,522929,1,0,0:0:0:0:
256,192,522989,1,0,0:0:0:0:
256,192,523049,1,0,0:0:0:0:
256,192,523109,1,0,0:0:0:0:
256,192,523169,5,8,0:0:0:0:
256,192,523229,1,8,0:0:0:0:
256,192,523289,1,8,0:0:0:0:
256,192,523349,1,8,0:0:0:0:
256,192,523409,1,8,0:0:0:0:
256,192,523469,1,8,0:0:0:0:
256,192,523529,1,8,0:0:0:0:
256,192,523589,1,8,0:0:0:0:
256,192,523649,1,0,0:0:0:0:
256,192,523709,1,0,0:0:0:0:
256,192,523769,1,0,0:0:0:0:
256,192,523829,1,0,0:0:0:0:
256,192,523889,1,8,0:0:0:0:
256,192,523949,1,8,0:0:0:0:
256,192,524009,1,8,0:0:0:0:
256,192,524069,1,8,0:0:0:0:
256,192,524129,1,8,0:0:0:0:
256,192,524189,1,8,0:0:0:0:
256,192,524249,1,8,0:0:0:0:
256,192,524309,1,8,0:0:0:0:
256,192,524369,1,0,0:0:0:0:
256,192,524429,1,0,0:0:0:0:
256,192,524489,1,0,0:0:0:0:
256,192,524549,1,0,0:0:0:0:
256,192,524609,1,8,0:0:0:0:
256,192,524669,1,8,0:0:0:0:
256,192,524729,1,8,0:0:0:0:
256,192,524789,1,8,0:0:0:0:
256,192,524849,1,8,0:0:0:0:
256,192,524909,1,8,0:0:0:0:
256,192,524969,1,8,0:0:0:0:
256,192,525029,1,8,0:0:0:0:
256,192,525089,1,8,0:0:0:0:
256,192,525149,1,8,0:0:0:0:
256,192,525209,1,0,0:0:0:0:
256,192,525269,1,0,0:0:0:0:
256,192,525329,1,8,0:0:0:0:
256,192,525389,1,0,0:0:0:0:
256,192,525449,1,8,0:0:0:0:
256,192,525509,1,0,0:0:0:0:
256,192,525569,1,8,0:0:0:0:
256,192,525629,1,0,0:0:0:0:
256,192,525689,1,8,0:0:0:0:
256,192,525749,1,8,0:0:0:0:
256,192,525809,1,0,0:0:0:0:
256,192,525869,1,0,0:0:0:0:
256,192,525929,1,8,0:0:0:0:
256,192,525989,1,0,0:0:0:0:
256,192,526049,1,8,0:0:0:0:
256,192,526109,1,0,0:0:0:0:
256,192,526169,1,8,0:0:0:0:
256,192,526229,1,8,0:0:0:0:
256,192,526289,1,8,0:0:0:0:
256,192,526349,1,0,0:0:0:0:
256,192,526409,1,8,0:0:0:0:
256,192,526469,1,0,0:0:0:0:
256,192,526529,1,8,0:0:0:0:
256,192,526589,1,8,0:0:0:0:
256,192,526649,1,0,0:0:0:0:
256,192,526709,1,0,0:0:0:0:
256,192,526769,1,8,0:0:0:0:
256,192,526889,1,0,0:0:0:0:
256,192,527009,5,8,0:0:0:0:
256,192,527069,1,8,0:0:0:0:
256,192,527129,1,8,0:0:0:0:
256,192,527189,1,8,0:0:0:0:
256,192,527249,1,8,0:0:0:0:
256,192,527309,1,8,0:0:0:0:
256,192,527369,1,0,0:0:0:0:
256,192,527429,1,0,0:0:0:0:
256,192,527489,1,8,0:0:0:0:
256,192,527549,1,8,0:0:0:0:
256,192,527609,1,0,0:0:0:0:
256,192,527669,1,0,0:0:0:0:
256,192,527729,1,8,0:0:0:0:
256,192,527789,1,8,0:0:0:0:
256,192,527849,1,8,0:0:0:0:
256,192,527909,1,8,0:0:0:0:
256,192,527969,1,8,0:0:0:0:
256,192,528029,1,8,0:0:0:0:
256,192,528089,1,8,0:0:0:0:
256,192,528149,1,8,0:0:0:0:
256,192,528209,1,0,0:0:0:0:
256,192,528269,1,0,0:0:0:0:
256,192,528329,1,0,0:0:0:0:
256,192,528389,1,0,0:0:0:0:
256,192,528449,1,8,0:0:0:0:
256,192,528509,1,8,0:0:0:0:
256,192,528569,1,8,0:0:0:0:
256,192,528629,1,8,0:0:0:0:
256,192,528689,1,0,0:0:0:0:
256,192,528749,1,0,0:0:0:0:
256,192,528809,1,0,0:0:0:0:
256,192,528869,1,0,0:0:0:0:
256,192,528929,1,8,0:0:0:0:
256,192,528989,1,8,0:0:0:0:
256,192,529049,1,8,0:0:0:0:
256,192,529109,1,8,0:0:0:0:
256,192,529169,1,8,0:0:0:0:
256,192,529229,1,8,0:0:0:0:
256,192,529289,1,8,0:0:0:0:
256,192,529349,1,8,0:0:0:0:
256,192,529409,1,8,0:0:0:0:
256,192,529469,1,8,0:0:0:0:
256,192,529529,1,0,0:0:0:0:
256,192,529589,1,0,0:0:0:0:
256,192,529649,1,8,0:0:0:0:
256,192,529709,1,0,0:0:0:0:
256,192,529769,1,8,0:0:0:0:
256,192,529829,1,0,0:0:0:0:
256,192,529889,1,8,0:0:0:0:
256,192,529949,1,0,0:0:0:0:
256,192,530009,1,8,0:0:0:0:
256,192,530069,1,8,0:0:0:0:
256,192,530129,1,0,0:0:0:0:
256,192,530189,1,0,0:0:0:0:
256,192,530249,1,8,0:0:0:0:
256,192,530309,1,0,0:0:0:0:
256,192,530369,1,8,0:0:0:0:
256,192,530429,1,0,0:0:0:0:
256,192,530489,1,8,0:0:0:0:
256,192,530549,1,8,0:0:0:0:
256,192,530609,1,8,0:0:0:0:
256,192,530669,1,0,0:0:0:0:
256,192,530729,1,8,0:0:0:0:
256,192,530789,1,0,0:0:0:0:
256,192,530849,1,8,0:0:0:0:
256,192,530909,1,8,0:0:0:0:
256,192,530969,1,0,0:0:0:0:
256,192,531029,1,0,0:0:0:0:
256,192,531089,5,8,0:0:0:0:
256,192,531149,1,0,0:0:0:0:
256,192,531209,1,8,0:0:0:0:
256,192,531269,1,0,0:0:0:0:
256,192,531329,1,8,0:0:0:0:
256,192,531389,1,8,0:0:0:0:
256,192,531449,1,0,0:0:0:0:
256,192,531509,1,0,0:0:0:0:
256,192,531569,1,8,0:0:0:0:
256,192,531629,1,0,0:0:0:0:
256,192,531689,1,0,0:0:0:0:
256,192,531749,1,0,0:0:0:0:
256,192,531809,1,8,0:0:0:0:
256,192,531869,1,8,0:0:0:0:
256,192,531929,1,8,0:0:0:0:
256,192,531989,1,0,0:0:0:0:
256,192,532049,1,8,0:0:0:0:
256,192,532109,1,0,0:0:0:0:
256,192,532169,1,8,0:0:0:0:
256,192,532229,1,0,0:0:0:0:
256,192,532289,1,8,0:0:0:0:
256,192,532349,1,8,0:0:0:0:
256,192,532409,1,8,0:0:0:0:
256,192,532469,1,8,0:0:0:0:
256,192,532529,1,8,0:0:0:0:
256,192,532589,1,8,0:0:0:0:
256,192,532649,1,0,0:0:0:0:
256,192,532709,1,0,0:0:0:0:
256,192,532769,1,8,0:0:0:0:
256,192,532829,1,8,0:0:0:0:
256,192,532889,1,8,0:0:0:0:
256,192,532949,1,8,0:0:0:0:
256,192,533009,1,8,0:0:0:0:
256,192,533069,1,8,0:0:0:0:
256,192,533129,1,8,0:0:0:0:
256,192,533189,1,8,0:0:0:0:
256,192,533249,1,0,0:0:0:0:
256,192,533309,1,0,0:0:0:0:
256,192,533369,1,0,0:0:0:0:
256,192,533429,1,0,0:0:0:0:
256,192,533489,1,8,0:0:0:0:
256,192,533609,1,8,0:0:0:0:
256,192,533729,1,8,0:0:0:0:
256,192,533849,1,0,0:0:0:0:
256,192,533909,1,0,0:0:0:0:
256,192,533969,1,8,0:0:0:0:
256,192,534089,1,8,0:0:0:0:
256,192,534209,1,0,0:0:0:0:
256,192,534329,1,8,0:0:0:0:
256,192,534389,1,0,0:0:0:0:
256,192,534449,1,8,0:0:0:0:
256,192,534569,1,0,0:0:0:0:
256,192,534689,5,12,0:0:0:0:
256,192,535049,1,0,0:0:0:0:
256,192,535169,1,8,0:0:0:0:
256,192,535409,1,0,0:0:0:0:
256,192,535649,1,0,0:0:0:0:
256,192,535889,1,0,0:0:0:0:
256,192,536129,1,8,0:0:0:0:
256,192,536369,1,0,0:0:0:0:
256,192,536609,1,0,0:0:0:0:
256,192,536969,1,0,0:0:0:0:
256,192,537089,1,8,0:0:0:0:
256,192,537329,1,0,0:0:0:0:
256,192,537569,1,0,0:0:0:0:
256,192,537809,1,0,0:0:0:0:
256,192,537929,1,0,0:0:0:0:
256,192,538049,1,8,0:0:0:0:
256,192,538169,1,0,0:0:0:0:
256,192,538289,1,0,0:0:0:0:
256,192,538409,1,0,0:0:0:0:
256,192,538529,5,8,0:0:0:0:
256,192,538889,1,0,0:0:0:0:
256,192,539009,1,8,0:0:0:0:
256,192,539249,1,0,0:0:0:0:
256,192,539489,1,0,0:0:0:0:
256,192,539729,1,0,0:0:0:0:
256,192,539969,1,8,0:0:0:0:
256,192,540209,1,0,0:0:0:0:
256,192,540449,1,0,0:0:0:0:
256,192,540809,1,0,0:0:0:0:
256,192,540929,1,8,0:0:0:0:
256,192,541169,1,0,0:0:0:0:
256,192,541289,1,0,0:0:0:0:
256,192,541409,1,8,0:0:0:0:
256,192,541489,1,8,0:0:0:0:
256,192,541569,1,8,0:0:0:0:
256,192,541649,1,8,0:0:0:0:
256,192,541729,1,8,0:0:0:0:
256,192,541809,1,8,0:0:0:0:
256,192,541889,1,0,0:0:0:0:
256,192,541969,1,0,0:0:0:0:
256,192,542049,1,0,0:0:0:0:
256,192,542129,1,0,0:0:0:0:
256,192,542209,1,0,0:0:0:0:
256,192,542289,1,0,0:0:0:0:
256,192,542369,5,8,0:0:0:0:
256,192,542729,1,0,0:0:0:0:
256,192,542849,1,8,0:0:0:0:
256,192,543089,1,8,0:0:0:0:
256,192,543329,1,8,0:0:0:0:
256,192,543569,1,0,0:0:0:0:
256,192,543809,1,8,0:0:0:0:
256,192,544049,1,0,0:0:0:0:
256,192,544289,1,8,0:0:0:0:
256,192,544649,1,0,0:0:0:0:
256,192,544769,1,8,0:0:0:0:
256,192,545009,1,8,0:0:0:0:
256,192,545249,1,8,0:0:0:0:
256,192,545489,1,0,0:0:0:0:
256,192,545609,1,0,0:0:0:0:
256,192,545729,1,8,0:0:0:0:
256,192,545849,1,8,0:0:0:0:
256,192,545969,1,0,0:0:0:0:
256,192,546089,1,0,0:0:0:0:
256,192,546209,5,8,0:0:0:0:
256,192,546569,1,0,0:0:0:0:
256,192,546689,1,8,0:0:0:0:
256,192,546929,1,8,0:0:0:0:
256,192,547169,1,8,0:0:0:0:
256,192,547409,1,0,0:0:0:0:
256,192,547649,1,8,0:0:0:0:
256,192,547889,1,0,0:0:0:0:
256,192,548129,1,8,0:0:0:0:
256,192,548489,1,0,0:0:0:0:
256,192,548609,1,8,0:0:0:0:
256,192,548849,1,8,0:0:0:0:
256,192,549089,1,0,0:0:0:0:
256,192,549209,1,8,0:0:0:0:
256,192,549329,1,0,0:0:0:0:
256,192,549449,1,8,0:0:0:0:
256,192,549569,1,8,0:0:0:0:
256,192,549689,1,8,0:0:0:0:
256,192,549809,1,0,0:0:0:0:
256,192,549929,1,8,0:0:0:0:
256,192,550049,5,4,0:0:0:0:
256,192,550409,1,0,0:0:0:0:
256,192,550529,1,8,0:0:0:0:
256,192,550769,1,0,0:0:0:0:
256,192,551009,1,0,0:0:0:0:
256,192,551249,1,0,0:0:0:0:
256,192,551489,1,8,0:0:0:0:
256,192,551729,1,0,0:0:0:0:
256,192,551969,1,0,0:0:0:0:
256,192,552329,1,0,0:0:0:0:
256,192,552449,1,8,0:0:0:0:
256,192,552689,1,0,0:0:0:0:
256,192,552929,1,0,0:0:0:0:
256,192,553169,1,0,0:0:0:0:
256,192,553289,1,0,0:0:0:0:
256,192,553409,1,8,0:0:0:0:
256,192,553529,1,0,0:0:0:0:
256,192,553649,1,0,0:0:0:0:
256,192,553769,1,0,0:0:0:0:
256,192,553889,5,8,0:0:0:0:
256,192,554249,1,0,0:0:0:0:
256,192,554369,1,8,0:0:0:0:
256,192,554609,1,0,0:0:0:0:
256,192,554849,1,0,0:0:0:0:
256,192,555089,1,0,0:0:0:0:
256,192,555329,1,8,0:0:0:0:
256,192,555569,1,0,0:0:0:0:
256,192,555809,1,0,0:0:0:0:
256,192,556169,1,0,0:0:0:0:
256,192,556289,1,8,0:0:0:0:
256,192,556529,1,0,0:0:0:0:
256,192,556649,1,0,0:0:0:0:
256,192,556769,1,8,0:0:0:0:
256,192,556849,1,8,0:0:0:0:
256,192,556929,1,8,0:0:0:0:
256,192,557009,1,8,0:0:0:0:
256,192,557089,1,8,0:0:0:0:
256,192,557169,1,8,0:0:0:0:
256,192,557249,1,0,0:0:0:0:
256,192,557329,1,0,0:0:0:0:
256,192,557409,1,0,0:0:0:0:
256,192,557489,1,0,0:0:0:0:
256,192,557569,1,0,0:0:0:0:
256,192,557649,1,0,0:0:0:0:
256,192,557729,5,8,0:0:0:0:
256,192,558089,1,0,0:0:0:0:
256,192,558209,1,8,0:0:0:0:
256,192,558449,1,8,0:0:0:0:
256,192,558689,1,8,0:0:0:0:
256,192,558929,1,0,0:0:0:0:
256,192,559169,1,8,0:0:0:0:
256,192,559409,1,0,0:0:0:0:
256,192,559649,1,8,0:0:0:0:
256,192,560009,1,0,0:0:0:0:
256,192,560129,1,8,0:0:0:0:
256,192,560369,1,8,0:0:0:0:
256,192,560609,1,8,0:0:0:0:
256,192,560849,1,0,0:0:0:0:
256,192,560969,1,0,0:0:0:0:
256,192,561089,1,8,0:0:0:0:
256,192,561209,1,8,0:0:0:0:
256,192,561329,1,0,0:0:0:0:
256,192,561449,1,0,0:0:0:0:
256,192,561569,5,8,0:0:0:0:
256,192,561929,1,0,0:0:0:0:
256,192,562049,1,8,0:0:0:0:
256,192,562289,1,8,0:0:0:0:
256,192,562529,1,8,0:0:0:0:
256,192,562769,1,0,0:0:0:0:
256,192,563009,1,8,0:0:0:0:
256,192,563249,1,0,0:0:0:0:
256,192,563489,1,8,0:0:0:0:
256,192,563729,1,8,0:0:0:0:
256,192,563849,1,0,0:0:0:0:
256,192,563969,1,8,0:0:0:0:
256,192,564209,1,8,0:0:0:0:
256,192,564329,1,8,0:0:0:0:
256,192,564449,1,8,0:0:0:0:
256,192,564569,1,0,0:0:0:0:
256,192,564689,1,8,0:0:0:0:
256,192,564809,1,0,0:0:0:0:
256,192,564929,1,8,0:0:0:0:
256,192,565049,1,8,0:0:0:0:
256,192,565169,1,8,0:0:0:0:
256,192,565289,1,8,0:0:0:0:
256,96,565409,5,4,0:0:0:0:
256,192,565649,1,0,0:0:0:0:
256,192,565769,1,0,0:0:0:0:
256,192,565889,1,8,0:0:0:0:
256,192,566009,1,8,0:0:0:0:
256,192,566129,1,0,0:0:0:0:
256,192,566249,1,8,0:0:0:0:
256,192,566369,1,0,0:0:0:0:
256,192,566489,1,8,0:0:0:0:
256,192,566609,1,8,0:0:0:0:
256,192,566729,1,0,0:0:0:0:
256,192,566849,1,8,0:0:0:0:
256,192,566969,1,8,0:0:0:0:
256,192,567089,1,8,0:0:0:0:
256,192,567209,1,8,0:0:0:0:
256,192,567329,5,0,0:0:0:0:
256,192,567449,1,0,0:0:0:0:
256,192,567569,1,0,0:0:0:0:
256,192,567689,1,0,0:0:0:0:
256,192,567809,1,8,0:0:0:0:
256,192,567929,1,8,0:0:0:0:
256,192,568049,1,0,0:0:0:0:
256,192,568169,1,0,0:0:0:0:
256,192,568289,1,8,0:0:0:0:
256,192,568409,1,0,0:0:0:0:
256,192,568529,1,8,0:0:0:0:
256,192,568649,1,0,0:0:0:0:
256,192,568769,1,8,0:0:0:0:
256,192,568889,1,8,0:0:0:0:
256,192,569009,1,8,0:0:0:0:
256,192,569129,1,8,0:0:0:0:
256,192,569249,5,0,0:0:0:0:
256,192,569369,1,0,0:0:0:0:
256,192,569489,1,0,0:0:0:0:
256,192,569609,1,0,0:0:0:0:
256,192,569729,1,8,0:0:0:0:
256,192,569849,1,8,0:0:0:0:
256,192,569969,1,0,0:0:0:0:
256,192,570089,1,8,0:0:0:0:
256,192,570209,1,0,0:0:0:0:
256,192,570329,1,8,0:0:0:0:
256,192,570449,1,8,0:0:0:0:
256,192,570569,1,0,0:0:0:0:
256,192,570689,1,8,0:0:0:0:
256,192,570809,1,8,0:0:0:0:
256,192,570929,1,8,0:0:0:0:
256,192,571049,1,8,0:0:0:0:
256,192,571169,1,0,0:0:0:0:
256,192,571289,1,0,0:0:0:0:
256,192,571409,1,0,0:0:0:0:
256,192,571529,1,0,0:0:0:0:
256,192,571649,1,8,0:0:0:0:
256,192,571769,1,8,0:0:0:0:
256,192,571889,1,0,0:0:0:0:
256,192,572009,1,8,0:0:0:0:
256,192,572129,1,8,0:0:0:0:
256,192,572249,1,8,0:0:0:0:
256,192,572369,1,0,0:0:0:0:
256,192,572489,1,8,0:0:0:0:
256,192,572609,1,8,0:0:0:0:
256,192,572729,1,0,0:0:0:0:
256,192,572849,1,8,0:0:0:0:
256,192,572969,1,8,0:0:0:0:
256,192,573089,5,0,0:0:0:0:
256,192,573209,1,0,0:0:0:0:
256,192,573329,1,0,0:0:0:0:
256,192,573449,1,0,0:0:0:0:
256,192,573569,1,8,0:0:0:0:
256,192,573689,1,8,0:0:0:0:
256,192,573809,1,0,0:0:0:0:
256,192,573929,1,8,0:0:0:0:
256,192,574049,1,0,0:0:0:0:
256,192,574169,1,8,0:0:0:0:
256,192,574289,1,8,0:0:0:0:
256,192,574409,1,0,0:0:0:0:
256,192,574529,1,8,0:0:0:0:
256,192,574649,1,8,0:0:0:0:
256,192,574769,1,8,0:0:0:0:
256,192,574889,1,8,0:0:0:0:
256,192,575009,5,0,0:0:0:0:
256,192,575129,1,0,0:0:0:0:
256,192,575249,1,0,0:0:0:0:
256,192,575369,1,0,0:0:0:0:
256,192,575489,1,8,0:0:0:0:
256,192,575609,1,8,0:0:0:0:
256,192,575729,1,0,0:0:0:0:
256,192,575849,1,0,0:0:0:0:
256,192,575969,1,8,0:0:0:0:
256,192,576089,1,0,0:0:0:0:
256,192,576209,1,8,0:0:0:0:
256,192,576329,1,0,0:0:0:0:
256,192,576449,1,8,0:0:0:0:
256,192,576569,1,8,0:0:0:0:
256,192,576689,1,8,0:0:0:0:
256,192,576809,1,8,0:0:0:0:
256,192,576929,5,0,0:0:0:0:
256,192,577049,1,0,0:0:0:0:
256,192,577169,1,0,0:0:0:0:
256,192,577289,1,0,0:0:0:0:
256,192,577409,1,8,0:0:0:0:
256,192,577529,1,8,0:0:0:0:
256,192,577649,1,0,0:0:0:0:
256,192,577769,1,8,0:0:0:0:
256,192,577889,1,0,0:0:0:0:
256,192,578009,1,8,0:0:0:0:
256,192,578129,1,8,0:0:0:0:
256,192,578249,1,0,0:0:0:0:
256,192,578369,1,8,0:0:0:0:
256,192,578489,1,8,0:0:0:0:
256,192,578609,1,8,0:0:0:0:
256,192,578729,1,8,0:0:0:0:
256,192,578849,1,0,0:0:0:0:
256,192,578969,1,0,0:0:0:0:
256,192,579089,1,0,0:0:0:0:
256,192,579209,1,0,0:0:0:0:
256,192,579329,1,8,0:0:0:0:
256,192,579449,1,8,0:0:0:0:
256,192,579569,1,0,0:0:0:0:
256,192,579689,1,8,0:0:0:0:
256,192,579809,5,8,0:0:0:0:
256,192,579929,1,0,0:0:0:0:
256,192,580049,1,0,0:0:0:0:
256,192,580169,1,0,0:0:0:0:
256,192,580289,1,8,0:0:0:0:
256,192,580349,1,8,0:0:0:0:
256,192,580409,1,8,0:0:0:0:
256,192,580469,1,8,0:0:0:0:
256,192,580529,1,0,0:0:0:0:
256,192,580589,1,0,0:0:0:0:
256,192,580649,1,8,0:0:0:0:
256,192,580709,1,8,0:0:0:0:
256,96,580769,1,4,0:0:0:0:
256,192,581129,5,8,0:0:0:0:
256,192,581189,1,8,0:0:0:0:
256,96,581249,1,4,0:0:0:0:
256,192,581729,5,8,0:0:0:0:
256,192,581789,1,8,0:0:0:0:
256,192,581849,1,8,0:0:0:0:
256,192,581909,1,8,0:0:0:0:
256,192,581969,1,0,0:0:0:0:
256,192,582029,1,0,0:0:0:0:
256,192,582089,1,0,0:0:0:0:
256,192,582149,1,0,0:0:0:0:
256,192,582209,1,8,0:0:0:0:
256,192,582269,1,8,0:0:0:0:
256,192,582329,1,0,0:0:0:0:
256,192,582389,1,0,0:0:0:0:
256,192,582449,1,8,0:0:0:0:
256,192,582509,1,8,0:0:0:0:
256,192,582569,1,8,0:0:0:0:
256,192,582629,1,0,0:0:0:0:
256,192,582689,1,8,0:0:0:0:
256,192,582749,1,8,0:0:0:0:
256,192,582809,1,8,0:0:0:0:
256,192,582869,1,8,0:0:0:0:
256,192,582929,1,0,0:0:0:0:
256,192,582989,1,0,0:0:0:0:
256,192,583049,1,0,0:0:0:0:
256,192,583109,1,0,0:0:0:0:
256,192,583169,1,8,0:0:0:0:
256,192,583229,1,8,0:0:0:0:
256,192,583289,1,8,0:0:0:0:
256,192,583349,1,0,0:0:0:0:
256,192,583409,1,8,0:0:0:0:
256,192,583469,1,8,0:0:0:0:
256,192,583529,1,0,0:0:0:0:
256,192,583589,1,0,0:0:0:0:
256,192,583649,1,8,0:0:0:0:
256,192,583709,1,8,0:0:0:0:
256,192,583769,1,0,0:0:0:0:
256,192,583829,1,0,0:0:0:0:
256,192,583889,1,8,0:0:0:0:
256,192,583949,1,0,0:0:0:0:
256,192,584009,1,8,0:0:0:0:
256,192,584069,1,0,0:0:0:0:
256,192,584129,1,8,0:0:0:0:
256,192,584189,1,8,0:0:0:0:
256,192,584249,1,0,0:0:0:0:
256,192,584309,1,0,0:0:0:0:
256,192,584369,1,8,0:0:0:0:
256,192,584429,1,8,0:0:0:0:
256,192,584489,1,8,0:0:0:0:
256,192,584549,1,0,0:0:0:0:
256,192,584609,1,8,0:0:0:0:
256,192,584669,1,8,0:0:0:0:
256,192,584729,1,8,0:0:0:0:
256,192,584789,1,8,0:0:0:0:
256,192,584849,1,0,0:0:0:0:
256,192,584909,1,0,0:0:0:0:
256,192,584969,1,0,0:0:0:0:
256,192,585029,1,0,0:0:0:0:
256,192,585089,1,8,0:0:0:0:
256,192,585209,1,0,0:0:0:0:
256,192,585329,1,8,0:0:0:0:
256,192,585449,1,0,0:0:0:0:
256,192,585569,5,8,0:0:0:0:
256,192,585629,1,0,0:0:0:0:
256,192,585689,1,0,0:0:0:0:
256,192,585749,1,0,0:0:0:0:
256,192,585809,1,8,0:0:0:0:
256,192,585869,1,0,0:0:0:0:
256,192,585929,1,8,0:0:0:0:
256,192,585989,1,0,0:0:0:0:
256,192,586049,1,8,0:0:0:0:
256,192,586109,1,8,0:0:0:0:
256,192,586169,1,8,0:0:0:0:
256,192,586229,1,0,0:0:0:0:
256,192,586289,1,8,0:0:0:0:
256,192,586349,1,8,0:0:0:0:
256,192,586409,1,0,0:0:0:0:
256,192,586469,1,0,0:0:0:0:
256,192,586529,1,8,0:0:0:0:
256,192,586589,1,8,0:0:0:0:
256,192,586649,1,0,0:0:0:0:
256,192,586709,1,0,0:0:0:0:
256,192,586769,1,8,0:0:0:0:
256,192,586829,1,0,0:0:0:0:
256,192,586889,1,0,0:0:0:0:
256,192,586949,1,0,0:0:0:0:
256,192,587009,1,8,0:0:0:0:
256,192,587069,1,8,0:0:0:0:
256,192,587129,1,0,0:0:0:0:
256,192,587189,1,0,0:0:0:0:
256,192,587249,1,8,0:0:0:0:
256,192,587309,1,0,0:0:0:0:
256,192,587369,1,8,0:0:0:0:
256,192,587429,1,0,0:0:0:0:
256,192,587489,1,8,0:0:0:0:
256,192,587549,1,8,0:0:0:0:
256,192,587609,1,8,0:0:0:0:
256,192,587669,1,0,0:0:0:0:
256,192,587729,1,8,0:0:0:0:
256,192,587789,1,8,0:0:0:0:
256,192,587849,1,0,0:0:0:0:
256,192,587909,1,0,0:0:0:0:
256,192,587969,1,8,0:0:0:0:
256,192,588029,1,8,0:0:0:0:
256,192,588089,1,0,0:0:0:0:
256,192,588149,1,0,0:0:0:0:
256,192,588209,1,8,0:0:0:0:
256,192,588269,1,0,0:0:0:0:
256,192,588329,1,8,0:0:0:0:
256,192,588389,1,0,0:0:0:0:
256,192,588449,1,8,0:0:0:0:
256,192,588509,1,8,0:0:0:0:
256,192,588569,1,0,0:0:0:0:
256,192,588629,1,0,0:0:0:0:
256,192,588689,1,8,0:0:0:0:
256,192,588749,1,8,0:0:0:0:
256,192,588809,1,8,0:0:0:0:
256,192,588869,1,8,0:0:0:0:
256,192,588929,1,0,0:0:0:0:
256,192,589049,1,0,0:0:0:0:
256,192,589169,1,8,0:0:0:0:
256,192,589289,1,8,0:0:0:0:
256,192,589409,5,8,0:0:0:0:
256,192,589469,1,8,0:0:0:0:
256,192,589529,1,8,0:0:0:0:
256,192,589589,1,8,0:0:0:0:
256,192,589649,1,0,0:0:0:0:
256,192,589709,1,0,0:0:0:0:
256,192,589769,1,0,0:0:0:0:
256,192,589829,1,0,0:0:0:0:
256,192,589889,1,8,0:0:0:0:
256,192,589949,1,8,0:0:0:0:
256,192,590009,1,8,0:0:0:0:
256,192,590069,1,0,0:0:0:0:
256,192,590129,1,8,0:0:0:0:
256,192,590189,1,8,0:0:0:0:
256,192,590249,1,8,0:0:0:0:
256,192,590309,1,8,0:0:0:0:
256,192,590369,1,8,0:0:0:0:
256,192,590429,1,8,0:0:0:0:
256,192,590489,1,0,0:0:0:0:
256,192,590549,1,0,0:0:0:0:
256,192,590609,1,8,0:0:0:0:
256,192,590669,1,8,0:0:0:0:
256,192,590729,1,0,0:0:0:0:
256,192,590789,1,0,0:0:0:0:
256,192,590849,1,8,0:0:0:0:
256,192,590909,1,8,0:0:0:0:
256,192,590969,1,8,0:0:0:0:
256,192,591029,1,8,0:0:0:0:
256,192,591089,1,8,0:0:0:0:
256,192,591149,1,8,0:0:0:0:
256,192,591209,1,0,0:0:0:0:
256,192,591269,1,0,0:0:0:0:
256,192,591329,1,8,0:0:0:0:
256,192,591389,1,8,0:0:0:0:
256,192,591449,1,0,0:0:0:0:
256,192,591509,1,0,0:0:0:0:
256,192,591569,1,8,0:0:0:0:
256,192,591629,1,0,0:0:0:0:
256,192,591689,1,8,0:0:0:0:
256,192,591749,1,0,0:0:0:0:
256,192,591809,1,8,0:0:0:0:
256,192,591869,1,8,0:0:0:0:
256,192,591929,1,0,0:0:0:0:
256,192,591989,1,0,0:0:0:0:
256,192,592049,1,8,0:0:0:0:
256,192,592109,1,8,0:0:0:0:
256,192,592169,1,8,0:0:0:0:
256,192,592229,1,0,0:0:0:0:
256,192,592289,1,8,0:0:0:0:
256,192,592349,1,8,0:0:0:0:
256,192,592409,1,8,0:0:0:0:
256,192,592469,1,8,0:0:0:0:
256,192,592529,1,0,0:0:0:0:
256,192,592589,1,0,0:0:0:0:
256,192,592649,1,0,0:0:0:0:
256,192,592709,1,0,0:0:0:0:
256,192,592769,1,8,0:0:0:0:
256,192,592889,1,0,0:0:0:0:
256,192,593009,1,8,0:0:0:0:
256,192,593129,1,0,0:0:0:0:
256,192,593249,5,8,0:0:0:0:
256,192,593309,1,8,0:0:0:0:
256,192,593369,1,0,0:0:0:0:
256,192,593429,1,0,0:0:0:0:
256,192,593489,1,8,0:0:0:0:
256,192,593549,1,0,0:0:0:0:
256,192,593609,1,8,0:0:0:0:
256,192,593669,1,0,0:0:0:0:
256,192,593729,1,8,0:0:0:0:
256,192,593789,1,8,0:0:0:0:
256,192,593849,1,0,0:0:0:0:
256,192,593909,1,0,0:0:0:0:
256,192,593969,1,8,0:0:0:0:
256,192,594029,1,8,0:0:0:0:
256,192,594089,1,8,0:0:0:0:
256,192,594149,1,0,0:0:0:0:
256,192,594209,1,8,0:0:0:0:
256,192,594269,1,8,0:0:0:0:
256,192,594329,1,0,0:0:0:0:
256,192,594389,1,0,0:0:0:0:
256,192,594449,1,8,0:0:0:0:
256,192,594509,1,0,0:0:0:0:
256,192,594569,1,8,0:0:0:0:
256,192,594629,1,0,0:0:0:0:
256,192,594689,1,8,0:0:0:0:
256,192,594749,1,8,0:0:0:0:
256,192,594809,1,8,0:0:0:0:
256,192,594869,1,0,0:0:0:0:
256,192,594929,1,8,0:0:0:0:
256,192,594989,1,8,0:0:0:0:
256,192,595049,1,8,0:0:0:0:
256,192,595109,1,0,0:0:0:0:
256,192,595169,1,8,0:0:0:0:
256,192,595229,1,8,0:0:0:0:
256,192,595289,1,0,0:0:0:0:
256,192,595349,1,0,0:0:0:0:
256,192,595409,1,8,0:0:0:0:
256,192,595469,1,8,0:0:0:0:
256,192,595529,1,8,0:0:0:0:
256,192,595589,1,8,0:0:0:0:
256,192,595649,1,0,0:0:0:0:
256,192,595709,1,0,0:0:0:0:
256,192,595769,1,0,0:0:0:0:
256,192,595829,1,0,0:0:0:0:
256,192,595889,1,8,0:0:0:0:
256,192,595949,1,8,0:0:0:0:
256,192,596009,1,0,0:0:0:0:
256,192,596069,1,0,0:0:0:0:
256,192,596129,1,8,0:0:0:0:
256,192,596249,1,0,0:0:0:0:
256,192,596309,1,0,0:0:0:0:
256,192,596369,1,8,0:0:0:0:
256,192,596489,1,8,0:0:0:0:
256,192,596609,1,0,0:0:0:0:
256,192,596669,1,0,0:0:0:0:
256,192,596729,1,8,0:0:0:0:
256,192,596849,1,8,0:0:0:0:
256,192,596969,1,0,0:0:0:0:
256,96,597089,1,12,0:0:0:0:
256,192,597329,5,0,0:0:0:0:
256,192,597389,1,0,0:0:0:0:
256,192,597449,1,0,0:0:0:0:
256,192,597509,1,0,0:0:0:0:
256,192,597569,1,8,0:0:0:0:
256,192,597629,1,8,0:0:0:0:
256,192,597689,1,0,0:0:0:0:
256,192,597749,1,0,0:0:0:0:
256,192,597809,1,8,0:0:0:0:
256,192,597869,1,8,0:0:0:0:
256,192,597929,1,8,0:0:0:0:
256,192,597989,1,0,0:0:0:0:
256,192,598049,1,8,0:0:0:0:
256,192,598109,1,8,0:0:0:0:
256,192,598169,1,8,0:0:0:0:
256,192,598229,1,8,0:0:0:0:
256,192,598289,1,0,0:0:0:0:
256,192,598349,1,0,0:0:0:0:
256,192,598409,1,0,0:0:0:0:
256,192,598469,1,0,0:0:0:0:
256,192,598529,1,8,0:0:0:0:
256,192,598589,1,8,0:0:0:0:
256,192,598649,1,8,0:0:0:0:
256,192,598709,1,0,0:0:0:0:
256,192,598769,1,8,0:0:0:0:
256,192,598829,1,8,0:0:0:0:
256,192,598889,1,0,0:0:0:0:
256,192,598949,1,0,0:0:0:0:
256,192,599009,1,8,0:0:0:0:
256,192,599069,1,8,0:0:0:0:
256,192,599129,1,0,0:0:0:0:
256,192,599189,1,0,0:0:0:0:
256,192,599249,1,8,0:0:0:0:
256,192,599309,1,0,0:0:0:0:
256,192,599369,1,8,0:0:0:0:
256,192,599429,1,0,0:0:0:0:
256,192,599489,1,8,0:0:0:0:
256,192,599549,1,8,0:0:0:0:
256,192,599609,1,0,0:0:0:0:
256,192,599669,1,0,0:0:0:0:
256,192,599729,1,8,0:0:0:0:
256,192,599789,1,8,0:0:0:0:
256,192,599849,1,8,0:0:0:0:
256,192,599909,1,0,0:0:0:0:
256,192,599969,1,8,0:0:0:0:
256,192,600029,1,8,0:0:0:0:
256,192,600089,1,8,0:0:0:0:
256,192,600149,1,8,0:0:0:0:
256,192,600209,1,0,0:0:0:0:
256,192,600269,1,0,0:0:0:0:
256,192,600329,1,0,0:0:0:0:
256,192,600389,1,0,0:0:0:0:
256,192,600449,1,8,0:0:0:0:
256,192,600569,1,0,0:0:0:0:
256,192,600689,1,0,0:0:0:0:
256,192,600809,1,0,0:0:0:0:
256,192,600929,5,8,0:0:0:0:
256,192,600989,1,8,0:0:0:0:
256,192,601049,1,0,0:0:0:0:
256,192,601109,1,0,0:0:0:0:
256,192,601169,1,8,0:0:0:0:
256,192,601229,1,0,0:0:0:0:
256,192,601289,1,8,0:0:0:0:
256,192,601349,1,0,0:0:0:0:
256,192,601409,1,8,0:0:0:0:
256,192,601469,1,8,0:0:0:0:
256,192,601529,1,8,0:0:0:0:
256,192,601589,1,0,0:0:0:0:
256,192,601649,1,8,0:0:0:0:
256,192,601709,1,8,0:0:0:0:
256,192,601769,1,0,0:0:0:0:
256,192,601829,1,0,0:0:0:0:
256,192,601889,1,8,0:0:0:0:
256,192,601949,1,8,0:0:0:0:
256,192,602009,1,0,0:0:0:0:
256,192,602069,1,0,0:0:0:0:
256,192,602129,1,8,0:0:0:0:
256,192,602189,1,0,0:0:0:0:
256,192,602249,1,0,0:0:0:0:
256,192,602309,1,0,0:0:0:0:
256,192,602369,1,8,0:0:0:0:
256,192,602429,1,8,0:0:0:0:
256,192,602489,1,0,0:0:0:0:
256,192,602549,1,0,0:0:0:0:
256,192,602609,1,8,0:0:0:0:
256,192,602669,1,0,0:0:0:0:
256,192,602729,1,8,0:0:0:0:
256,192,602789,1,0,0:0:0:0:
256,192,602849,1,8,0:0:0:0:
256,192,602909,1,8,0:0:0:0:
256,192,602969,1,8,0:0:0:0:
256,192,603029,1,0,0:0:0:0:
256,192,603089,1,8,0:0:0:0:
256,192,603149,1,8,0:0:0:0:
256,192,603209,1,0,0:0:0:0:
256,192,603269,1,0,0:0:0:0:
256,192,603329,1,8,0:0:0:0:
256,192,603389,1,8,0:0:0:0:
256,192,603449,1,0,0:0:0:0:
256,192,603509,1,0,0:0:0:0:
256,192,603569,1,8,0:0:0:0:
256,192,603629,1,0,0:0:0:0:
256,192,603689,1,8,0:0:0:0:
256,192,603749,1,0,0:0:0:0:
256,192,603809,1,8,0:0:0:0:
256,192,603869,1,8,0:0:0:0:
256,192,603929,1,0,0:0:0:0:
256,192,603989,1,0,0:0:0:0:
256,192,604049,1,8,0:0:0:0:
256,192,604109,1,8,0:0:0:0:
256,192,604169,1,8,0:0:0:0:
256,192,604229,1,8,0:0:0:0:
256,192,604289,1,0,0:0:0:0:
256,192,604409,1,0,0:0:0:0:
256,192,604529,1,8,0:0:0:0:
256,192,604769,5,8,0:0:0:0:
256,192,604829,1,8,0:0:0:0:
256,192,604889,1,8,0:0:0:0:
256,192,604949,1,8,0:0:0:0:
256,192,605009,1,0,0:0:0:0:
256,192,605069,1,0,0:0:0:0:
256,192,605129,1,0,0:0:0:0:
256,192,605189,1,0,0:0:0:0:
256,192,605249,1,8,0:0:0:0:
256,192,605309,1,8,0:0:0:0:
256,192,605369,1,8,0:0:0:0:
256,192,605429,1,0,0:0:0:0:
256,192,605489,1,8,0:0:0:0:
256,192,605549,1,8,0:0:0:0:
256,192,605609,1,8,0:0:0:0:
256,192,605669,1,8,0:0:0:0:
256,192,605729,1,8,0:0:0:0:
256,192,605789,1,8,0:0:0:0:
256,192,605849,1,0,0:0:0:0:
256,192,605909,1,0,0:0:0:0:
256,192,605969,1,8,0:0:0:0:
256,192,606029,1,0,0:0:0:0:
256,192,606089,1,0,0:0:0:0:
256,192,606149,1,0,0:0:0:0:
256,192,606209,1,8,0:0:0:0:
256,192,606269,1,8,0:0:0:0:
256,192,606329,1,8,0:0:0:0:
256,192,606389,1,0,0:0:0:0:
256,192,606449,1,8,0:0:0:0:
256,192,606509,1,8,0:0:0:0:
256,192,606569,1,8,0:0:0:0:
256,192,606629,1,8,0:0:0:0:
256,192,606689,1,0,0:0:0:0:
256,192,606749,1,0,0:0:0:0:
256,192,606809,1,0,0:0:0:0:
256,192,606869,1,0,0:0:0:0:
256,192,606929,1,8,0:0:0:0:
256,192,606989,1,0,0:0:0:0:
256,192,607049,1,8,0:0:0:0:
256,192,607109,1,0,0:0:0:0:
256,192,607169,1,8,0:0:0:0:
256,192,607229,1,8,0:0:0:0:
256,192,607289,1,0,0:0:0:0:
256,192,607349,1,0,0:0:0:0:
256,192,607409,1,8,0:0:0:0:
256,192,607469,1,8,0:0:0:0:
256,192,607529,1,8,0:0:0:0:
256,192,607589,1,0,0:0:0:0:
256,192,607649,1,8,0:0:0:0:
256,192,607709,1,8,0:0:0:0:
256,192,607769,1,8,0:0:0:0:
256,192,607829,1,8,0:0:0:0:
256,192,607889,1,0,0:0:0:0:
256,192,607949,1,0,0:0:0:0:
256,192,608009,1,0,0:0:0:0:
256,192,608069,1,0,0:0:0:0:
256,192,608129,1,8,0:0:0:0:
256,192,608249,1,0,0:0:0:0:
256,192,608369,1,8,0:0:0:0:
256,192,608489,1,0,0:0:0:0:
256,192,608609,5,8,0:0:0:0:
256,192,608669,1,8,0:0:0:0:
256,192,608729,1,8,0:0:0:0:
256,192,608789,1,8,0:0:0:0:
256,192,608849,1,0,0:0:0:0:
256,192,608969,1,8,0:0:0:0:
256,192,609089,1,0,0:0:0:0:
256,192,609209,1,0,0:0:0:0:
256,192,609329,5,8,0:0:0:0:
256,192,609389,1,8,0:0:0:0:
256,192,609449,1,0,0:0:0:0:
256,192,609509,1,8,0:0:0:0:
256,192,609569,1,0,0:0:0:0:
256,192,609689,1,8,0:0:0:0:
256,192,609809,1,0,0:0:0:0:
256,192,609929,1,0,0:0:0:0:
256,192,610049,5,8,0:0:0:0:
256,192,610109,1,8,0:0:0:0:
256,192,610169,1,8,0:0:0:0:
256,192,610229,1,8,0:0:0:0:
256,192,610289,1,0,0:0:0:0:
256,192,610409,1,8,0:0:0:0:
256,192,610529,1,0,0:0:0:0:
256,192,610649,1,0,0:0:0:0:
256,192,610769,5,8,0:0:0:0:
256,192,610829,1,8,0:0:0:0:
256,192,610889,1,0,0:0:0:0:
256,192,610949,1,0,0:0:0:0:
256,192,611009,1,0,0:0:0:0:
256,192,611129,1,8,0:0:0:0:
256,192,611189,1,8,0:0:0:0:
256,192,611249,1,0,0:0:0:0:
256,192,611369,1,0,0:0:0:0:
256,192,611489,5,8,0:0:0:0:
256,192,611609,5,0,0:0:0:0:
256,192,611669,1,0,0:0:0:0:
256,192,611729,1,8,0:0:0:0:
256,192,611849,5,8,0:0:0:0:
256,192,611969,5,0,0:0:0:0:
256,192,612029,1,0,0:0:0:0:
256,192,612089,1,8,0:0:0:0:
256,192,612209,5,8,0:0:0:0:
256,192,612449,5,8,0:0:0:0:
256,192,612509,1,8,0:0:0:0:
256,192,612569,1,8,0:0:0:0:
256,192,612629,1,0,0:0:0:0:
256,192,612689,1,8,0:0:0:0:
256,192,612749,1,0,0:0:0:0:
256,192,612809,1,0,0:0:0:0:
256,192,612869,1,0,0:0:0:0:
256,192,612929,1,8,0:0:0:0:
256,192,612989,1,8,0:0:0:0:
256,192,613049,1,0,0:0:0:0:
256,192,613109,1,0,0:0:0:0:
256,192,613169,1,8,0:0:0:0:
256,192,613229,1,8,0:0:0:0:
256,192,613289,1,8,0:0:0:0:
256,192,613349,1,8,0:0:0:0:
256,192,613409,1,0,0:0:0:0:
256,192,613469,1,0,0:0:0:0:
256,192,613529,1,0,0:0:0:0:
256,192,613589,1,0,0:0:0:0:
256,192,613649,1,8,0:0:0:0:
256,192,613709,1,8,0:0:0:0:
256,192,613769,1,0,0:0:0:0:
256,192,613829,1,0,0:0:0:0:
256,192,613889,1,8,0:0:0:0:
256,192,613949,1,8,0:0:0:0:
256,192,614009,1,8,0:0:0:0:
256,192,614069,1,0,0:0:0:0:
256,192,614129,1,8,0:0:0:0:
256,192,614189,1,0,0:0:0:0:
256,192,614249,1,0,0:0:0:0:
256,192,614309,1,0,0:0:0:0:
256,192,614369,1,8,0:0:0:0:
256,192,614429,1,8,0:0:0:0:
256,192,614489,1,0,0:0:0:0:
256,192,614549,1,0,0:0:0:0:
256,192,614609,1,8,0:0:0:0:
256,192,614669,1,0,0:0:0:0:
256,192,614729,1,0,0:0:0:0:
256,192,614789,1,0,0:0:0:0:
256,192,614849,1,8,0:0:0:0:
256,192,614909,1,8,0:0:0:0:
256,192,614969,1,0,0:0:0:0:
256,192,615029,1,0,0:0:0:0:
256,192,615089,1,8,0:0:0:0:
256,192,615149,1,0,0:0:0:0:
256,192,615209,1,0,0:0:0:0:
256,192,615269,1,0,0:0:0:0:
256,192,615329,1,8,0:0:0:0:
256,192,615389,1,8,0:0:0:0:
256,192,615449,1,8,0:0:0:0:
256,192,615509,1,8,0:0:0:0:
256,192,615569,1,0,0:0:0:0:
256,192,615629,1,0,0:0:0:0:
256,192,615689,1,0,0:0:0:0:
256,192,615749,1,0,0:0:0:0:
256,192,615809,1,8,0:0:0:0:
256,192,615929,1,0,0:0:0:0:
256,192,615989,1,0,0:0:0:0:
256,192,616049,1,8,0:0:0:0:
256,192,616169,1,0,0:0:0:0:
256,192,616289,5,8,0:0:0:0:
256,192,616349,1,8,0:0:0:0:
256,192,616409,1,0,0:0:0:0:
256,192,616469,1,0,0:0:0:0:
256,192,616529,1,8,0:0:0:0:
256,192,616589,1,8,0:0:0:0:
256,192,616649,1,8,0:0:0:0:
256,192,616709,1,0,0:0:0:0:
256,192,616769,1,8,0:0:0:0:
256,192,616829,1,8,0:0:0:0:
256,192,616889,1,0,0:0:0:0:
256,192,616949,1,0,0:0:0:0:
256,192,617009,1,8,0:0:0:0:
256,192,617069,1,0,0:0:0:0:
256,192,617129,1,8,0:0:0:0:
256,192,617189,1,0,0:0:0:0:
256,192,617249,1,8,0:0:0:0:
256,192,617309,1,8,0:0:0:0:
256,192,617369,1,0,0:0:0:0:
256,192,617429,1,0,0:0:0:0:
256,192,617489,1,8,0:0:0:0:
256,192,617549,1,8,0:0:0:0:
256,192,617609,1,8,0:0:0:0:
256,192,617669,1,0,0:0:0:0:
256,192,617729,1,8,0:0:0:0:
256,192,617789,1,8,0:0:0:0:
256,192,617849,1,0,0:0:0:0:
256,192,617909,1,0,0:0:0:0:
256,192,617969,1,8,0:0:0:0:
256,192,618029,1,0,0:0:0:0:
256,192,618089,1,0,0:0:0:0:
256,192,618149,1,0,0:0:0:0:
256,192,618209,1,8,0:0:0:0:
256,192,618269,1,8,0:0:0:0:
256,192,618329,1,0,0:0:0:0:
256,192,618389,1,0,0:0:0:0:
256,192,618449,1,8,0:0:0:0:
256,192,618509,1,0,0:0:0:0:
256,192,618569,1,0,0:0:0:0:
256,192,618629,1,0,0:0:0:0:
256,192,618689,1,8,0:0:0:0:
256,192,618749,1,8,0:0:0:0:
256,192,618809,1,8,0:0:0:0:
256,192,618869,1,0,0:0:0:0:
256,192,618929,1,8,0:0:0:0:
256,192,618989,1,0,0:0:0:0:
256,192,619049,1,0,0:0:0:0:
256,192,619109,1,0,0:0:0:0:
256,192,619169,1,8,0:0:0:0:
256,192,619229,1,8,0:0:0:0:
256,192,619289,1,8,0:0:0:0:
256,192,619409,1,0,0:0:0:0:
256,192,619529,1,0,0:0:0:0:
256,192,619649,1,8,0:0:0:0:
256,192,619709,1,8,0:0:0:0:
256,192,619769,1,8,0:0:0:0:
256,192,619889,1,0,0:0:0:0:
256,192,620009,1,8,0:0:0:0:
256,192,620129,5,8,0:0:0:0:
256,192,620189,1,8,0:0:0:0:
256,192,620249,1,0,0:0:0:0:
256,192,620309,1,0,0:0:0:0:
256,192,620369,1,8,0:0:0:0:
256,192,620429,1,8,0:0:0:0:
256,192,620489,1,8,0:0:0:0:
256,192,620549,1,0,0:0:0:0:
256,192,620609,1,8,0:0:0:0:
256,192,620669,1,8,0:0:0:0:
256,192,620729,1,0,0:0:0:0:
256,192,620789,1,0,0:0:0:0:
256,192,620849,1,8,0:0:0:0:
256,192,620909,1,8,0:0:0:0:
256,192,620969,1,8,0:0:0:0:
256,192,621029,1,8,0:0:0:0:
256,192,621089,1,8,0:0:0:0:
256,192,621149,1,8,0:0:0:0:
256,192,621209,1,0,0:0:0:0:
256,192,621269,1,0,0:0:0:0:
256,192,621329,1,8,0:0:0:0:
256,192,621389,1,8,0:0:0:0:
256,192,621449,1,8,0:0:0:0:
256,192,621509,1,0,0:0:0:0:
256,192,621569,1,8,0:0:0:0:
256,192,621629,1,8,0:0:0:0:
256,192,621689,1,0,0:0:0:0:
256,192,621749,1,0,0:0:0:0:
256,192,621809,1,8,0:0:0:0:
256,192,621869,1,0,0:0:0:0:
256,192,621929,1,8,0:0:0:0:
256,192,621989,1,0,0:0:0:0:
256,192,622049,1,8,0:0:0:0:
256,192,622109,1,8,0:0:0:0:
256,192,622169,1,0,0:0:0:0:
256,192,622229,1,0,0:0:0:0:
256,192,622289,1,8,0:0:0:0:
256,192,622349,1,8,0:0:0:0:
256,192,622409,1,8,0:0:0:0:
256,192,622469,1,0,0:0:0:0:
256,192,622529,1,8,0:0:0:0:
256,192,622589,1,8,0:0:0:0:
256,192,622649,1,0,0:0:0:0:
256,192,622709,1,0,0:0:0:0:
256,192,622769,1,8,0:0:0:0:
256,192,622829,1,8,0:0:0:0:
256,192,622889,1,8,0:0:0:0:
256,192,622949,1,8,0:0:0:0:
256,192,623009,1,0,0:0:0:0:
256,192,623069,1,0,0:0:0:0:
256,192,623129,1,0,0:0:0:0:
256,192,623189,1,0,0:0:0:0:
256,192,623249,1,8,0:0:0:0:
256,192,623309,1,8,0:0:0:0:
256,192,623369,1,0,0:0:0:0:
256,192,623429,1,0,0:0:0:0:
256,192,623489,1,8,0:0:0:0:
256,192,623609,1,0,0:0:0:0:
256,192,623669,1,0,0:0:0:0:
256,192,623729,1,8,0:0:0:0:
256,192,623849,1,0,0:0:0:0:
256,192,623969,5,8,0:0:0:0:
256,192,624029,1,8,0:0:0:0:
256,192,624089,1,0,0:0:0:0:
256,192,624149,1,0,0:0:0:0:
256,192,624209,1,8,0:0:0:0:
256,192,624269,1,8,0:0:0:0:
256,192,624329,1,8,0:0:0:0:
256,192,624389,1,8,0:0:0:0:
256,192,624449,1,0,0:0:0:0:
256,192,624509,1,0,0:0:0:0:
256,192,624569,1,0,0:0:0:0:
256,192,624629,1,0,0:0:0:0:
256,192,624689,1,8,0:0:0:0:
256,192,624749,1,0,0:0:0:0:
256,192,624809,1,8,0:0:0:0:
256,192,624869,1,0,0:0:0:0:
256,192,624929,1,8,0:0:0:0:
256,192,624989,1,8,0:0:0:0:
256,192,625049,1,8,0:0:0:0:
256,192,625109,1,8,0:0:0:0:
256,192,625169,1,0,0:0:0:0:
256,192,625229,1,0,0:0:0:0:
256,192,625289,1,0,0:0:0:0:
256,192,625349,1,0,0:0:0:0:
256,192,625409,1,8,0:0:0:0:
256,192,625469,1,8,0:0:0:0:
256,192,625529,1,0,0:0:0:0:
256,192,625589,1,0,0:0:0:0:
256,192,625649,1,8,0:0:0:0:
256,192,625709,1,8,0:0:0:0:
256,192,625769,1,8,0:0:0:0:
256,192,625829,1,8,0:0:0:0:
256,192,625889,1,0,0:0:0:0:
256,192,625949,1,0,0:0:0:0:
256,192,626009,1,0,0:0:0:0:
256,192,626069,1,0,0:0:0:0:
256,192,626129,1,8,0:0:0:0:
256,192,626189,1,0,0:0:0:0:
256,192,626249,1,8,0:0:0:0:
256,192,626309,1,0,0:0:0:0:
256,192,626369,1,8,0:0:0:0:
256,192,626429,1,8,0:0:0:0:
256,192,626489,1,8,0:0:0:0:
256,192,626549,1,8,0:0:0:0:
256,192,626609,1,0,0:0:0:0:
256,192,626669,1,0,0:0:0:0:
256,192,626729,1,0,0:0:0:0:
256,192,626789,1,0,0:0:0:0:
256,192,626849,1,8,0:0:0:0:
256,192,626969,1,0,0:0:0:0:
256,192,627029,1,0,0:0:0:0:
256,192,627089,1,8,0:0:0:0:
256,192,627209,1,8,0:0:0:0:
256,192,627329,1,0,0:0:0:0:
256,192,627389,1,0,0:0:0:0:
256,192,627449,1,8,0:0:0:0:
256,192,627569,1,8,0:0:0:0:
256,192,627809,5,8,0:0:0:0:
256,192,627869,1,8,0:0:0:0:
256,192,627929,1,8,0:0:0:0:
256,192,627989,1,0,0:0:0:0:
256,192,628049,1,8,0:0:0:0:
256,192,628109,1,0,0:0:0:0:
256,192,628169,1,0,0:0:0:0:
256,192,628229,1,0,0:0:0:0:
256,192,628289,1,8,0:0:0:0:
256,192,628349,1,8,0:0:0:0:
256,192,628409,1,0,0:0:0:0:
256,192,628469,1,0,0:0:0:0:
256,192,628529,1,8,0:0:0:0:
256,192,628589,1,8,0:0:0:0:
256,192,628649,1,8,0:0:0:0:
256,192,628709,1,8,0:0:0:0:
256,192,628769,1,0,0:0:0:0:
256,192,628829,1,0,0:0:0:0:
256,192,628889,1,0,0:0:0:0:
256,192,628949,1,0,0:0:0:0:
256,192,629009,1,8,0:0:0:0:
256,192,629069,1,8,0:0:0:0:
256,192,629129,1,8,0:0:0:0:
256,192,629189,1,0,0:0:0:0:
256,192,629249,1,8,0:0:0:0:
256,192,629309,1,8,0:0:0:0:
256,192,629369,1,8,0:0:0:0:
256,192,629429,1,8,0:0:0:0:
256,192,629489,1,8,0:0:0:0:
256,192,629549,1,8,0:0:0:0:
256,192,629609,1,0,0:0:0:0:
256,192,629669,1,0,0:0:0:0:
256,192,629729,1,8,0:0:0:0:
256,192,629789,1,8,0:0:0:0:
256,192,629849,1,8,0:0:0:0:
256,192,629909,1,0,0:0:0:0:
256,192,629969,1,8,0:0:0:0:
256,192,630029,1,0,0:0:0:0:
256,192,630089,1,0,0:0:0:0:
256,192,630149,1,0,0:0:0:0:
256,192,630209,1,8,0:0:0:0:
256,192,630269,1,8,0:0:0:0:
256,192,630329,1,0,0:0:0:0:
256,192,630389,1,0,0:0:0:0:
256,192,630449,1,8,0:0:0:0:
256,192,630509,1,0,0:0:0:0:
256,192,630569,1,0,0:0:0:0:
256,192,630629,1,0,0:0:0:0:
256,192,630689,1,8,0:0:0:0:
256,192,630749,1,8,0:0:0:0:
256,192,630809,1,8,0:0:0:0:
256,192,630869,1,8,0:0:0:0:
256,192,630929,1,0,0:0:0:0:
256,192,630989,1,0,0:0:0:0:
256,192,631049,1,0,0:0:0:0:
256,192,631109,1,0,0:0:0:0:
256,192,631169,1,8,0:0:0:0:
256,192,631289,1,0,0:0:0:0:
256,192,631409,1,8,0:0:0:0:
256,192,631529,5,0,0:0:0:0:
256,192,631589,1,0,0:0:0:0:
256,192,631649,1,8,0:0:0:0:
256,192,631709,1,8,0:0:0:0:
256,192,631769,1,0,0:0:0:0:
256,192,631829,1,0,0:0:0:0:
256,192,631889,1,8,0:0:0:0:
256,192,631949,1,8,0:0:0:0:
256,192,632009,1,8,0:0:0:0:
256,192,632069,1,0,0:0:0:0:
256,192,632129,1,8,0:0:0:0:
256,192,632189,1,8,0:0:0:0:
256,192,632249,1,0,0:0:0:0:
256,192,632309,1,0,0:0:0:0:
256,192,632369,1,8,0:0:0:0:
256,192,632429,1,8,0:0:0:0:
256,192,632489,1,8,0:0:0:0:
256,192,632549,1,8,0:0:0:0:
256,192,632609,1,8,0:0:0:0:
256,192,632669,1,8,0:0:0:0:
256,192,632729,1,0,0:0:0:0:
256,192,632789,1,0,0:0:0:0:
256,192,632849,1,8,0:0:0:0:
256,192,632909,1,8,0:0:0:0:
256,192,632969,1,8,0:0:0:0:
256,192,633029,1,0,0:0:0:0:
256,192,633089,1,8,0:0:0:0:
256,192,633149,1,8,0:0:0:0:
256,192,633209,1,8,0:0:0:0:
256,192,633269,1,8,0:0:0:0:
256,192,633329,1,8,0:0:0:0:
256,192,633389,1,8,0:0:0:0:
256,192,633449,1,0,0:0:0:0:
256,192,633509,1,0,0:0:0:0:
256,192,633569,1,8,0:0:0:0:
256,192,633629,1,8,0:0:0:0:
256,192,633689,1,0,0:0:0:0:
256,192,633749,1,0,0:0:0:0:
256,192,633809,1,8,0:0:0:0:
256,192,633869,1,0,0:0:0:0:
256,192,633929,1,0,0:0:0:0:
256,192,633989,1,0,0:0:0:0:
256,192,634049,1,8,0:0:0:0:
256,192,634109,1,8,0:0:0:0:
256,192,634169,1,8,0:0:0:0:
256,192,634229,1,0,0:0:0:0:
256,192,634289,1,8,0:0:0:0:
256,192,634349,1,0,0:0:0:0:
256,192,634409,1,0,0:0:0:0:
256,192,634469,1,0,0:0:0:0:
256,192,634529,1,8,0:0:0:0:
256,192,634589,1,8,0:0:0:0:
256,192,634649,1,0,0:0:0:0:
256,192,634769,1,8,0:0:0:0:
256,192,634889,1,0,0:0:0:0:
256,192,634949,1,0,0:0:0:0:
256,192,635009,1,8,0:0:0:0:
256,192,635129,1,0,0:0:0:0:
256,192,635249,1,8,0:0:0:0:
256,192,635489,5,8,0:0:0:0:
256,192,635549,1,8,0:0:0:0:
256,192,635609,1,0,0:0:0:0:
256,192,635669,1,0,0:0:0:0:
256,192,635729,1,8,0:0:0:0:
256,192,635789,1,8,0:0:0:0:
256,192,635849,1,8,0:0:0:0:
256,192,635909,1,0,0:0:0:0:
256,192,635969,1,8,0:0:0:0:
256,192,636029,1,8,0:0:0:0:
256,192,636089,1,0,0:0:0:0:
256,192,636149,1,0,0:0:0:0:
256,192,636209,1,8,0:0:0:0:
256,192,636269,1,8,0:0:0:0:
256,192,636329,1,8,0:0:0:0:
256,192,636389,1,8,0:0:0:0:
256,192,636449,1,8,0:0:0:0:
256,192,636509,1,8,0:0:0:0:
256,192,636569,1,0,0:0:0:0:
256,192,636629,1,0,0:0:0:0:
256,192,636689,1,8,0:0:0:0:
256,192,636749,1,8,0:0:0:0:
256,192,636809,1,8,0:0:0:0:
256,192,636869,1,0,0:0:0:0:
256,192,636929,1,8,0:0:0:0:
256,192,636989,1,8,0:0:0:0:
256,192,637049,1,8,0:0:0:0:
256,192,637109,1,8,0:0:0:0:
256,192,637169,1,8,0:0:0:0:
256,192,637229,1,8,0:0:0:0:
256,192,637289,1,0,0:0:0:0:
256,192,637349,1,0,0:0:0:0:
256,192,637409,1,8,0:0:0:0:
256,192,637469,1,0,0:0:0:0:
256,192,637529,1,8,0:0:0:0:
256,192,637589,1,0,0:0:0:0:
256,192,637649,1,8,0:0:0:0:
256,192,637709,1,8,0:0:0:0:
256,192,637769,1,0,0:0:0:0:
256,192,637829,1,0,0:0:0:0:
256,192,637889,1,8,0:0:0:0:
256,192,637949,1,8,0:0:0:0:
256,192,638009,1,0,0:0:0:0:
256,192,638069,1,0,0:0:0:0:
256,192,638129,1,8,0:0:0:0:
256,192,638189,1,8,0:0:0:0:
256,192,638249,1,8,0:0:0:0:
256,192,638309,1,0,0:0:0:0:
256,192,638369,1,8,0:0:0:0:
256,192,638429,1,8,0:0:0:0:
256,192,638489,1,0,0:0:0:0:
256,192,638549,1,0,0:0:0:0:
256,192,638609,1,8,0:0:0:0:
256,192,638669,1,8,0:0:0:0:
256,192,638729,1,0,0:0:0:0:
256,192,638789,1,0,0:0:0:0:
256,192,638849,1,8,0:0:0:0:
256,192,638969,1,0,0:0:0:0:
256,192,639029,1,8,0:0:0:0:
256,192,639089,1,8,0:0:0:0:
256,192,639209,1,0,0:0:0:0:
256,192,639329,5,8,0:0:0:0:
256,192,639389,1,8,0:0:0:0:
256,192,639449,1,8,0:0:0:0:
256,192,639509,1,8,0:0:0:0:
256,192,639569,1,8,0:0:0:0:
256,192,639629,1,8,0:0:0:0:
256,192,639689,1,8,0:0:0:0:
256,192,639749,1,8,0:0:0:0:
256,192,639809,1,0,0:0:0:0:
256,192,639869,1,0,0:0:0:0:
256,192,639929,1,0,0:0:0:0:
256,192,639989,1,0,0:0:0:0:
256,192,640049,1,8,0:0:0:0:
256,192,640109,1,8,0:0:0:0:
256,192,640169,1,8,0:0:0:0:
256,192,640229,1,0,0:0:0:0:
256,192,640289,1,8,0:0:0:0:
256,192,640349,1,8,0:0:0:0:
256,192,640409,1,8,0:0:0:0:
256,192,640469,1,8,0:0:0:0:
256,192,640529,1,0,0:0:0:0:
256,192,640589,1,0,0:0:0:0:
256,192,640649,1,0,0:0:0:0:
256,192,640709,1,0,0:0:0:0:
256,192,640769,1,8,0:0:0:0:
256,192,640829,1,8,0:0:0:0:
256,192,640889,1,8,0:0:0:0:
256,192,640949,1,8,0:0:0:0:
256,192,641009,1,8,0:0:0:0:
256,192,641069,1,8,0:0:0:0:
256,192,641129,1,8,0:0:0:0:
256,192,641189,1,8,0:0:0:0:
256,192,641249,1,0,0:0:0:0:
256,192,641309,1,0,0:0:0:0:
256,192,641369,1,0,0:0:0:0:
256,192,641429,1,0,0:0:0:0:
256,192,641489,1,8,0:0:0:0:
256,192,641549,1,8,0:0:0:0:
256,192,641609,1,8,0:0:0:0:
256,192,641669,1,8,0:0:0:0:
256,192,641729,1,0,0:0:0:0:
256,192,641789,1,0,0:0:0:0:
256,192,641849,1,0,0:0:0:0:
256,192,641909,1,0,0:0:0:0:
256,192,641969,1,8,0:0:0:0:
256,192,642089,1,8,0:0:0:0:
256,192,642209,1,0,0:0:0:0:
256,192,642329,1,0,0:0:0:0:
256,192,642449,1,8,0:0:0:0:
256,192,642569,1,8,0:0:0:0:
256,192,642689,1,0,0:0:0:0:
256,192,642809,1,0,0:0:0:0:
256,192,642929,1,0,0:0:0:0:
256,192,643049,1,0,0:0:0:0:
256,96,643169,5,12,0:0:0:0:
256,192,643419,1,0,0:0:0:0:
256,192,643544,1,8,0:0:0:0:
256,192,643669,1,0,0:0:0:0:
256,192,643919,1,8,0:0:0:0:
256,192,644169,1,8,0:0:0:0:
256,192,644294,1,0,0:0:0:0:
256,192,644419,1,0,0:0:0:0:
256,192,644544,1,0,0:0:0:0:
256,192,644669,1,8,0:0:0:0:
256,192,644919,1,0,0:0:0:0:
256,192,645044,1,8,0:0:0:0:
256,192,645169,1,0,0:0:0:0:
256,192,645294,1,0,0:0:0:0:
256,192,645419,1,8,0:0:0:0:
256,192,645669,1,8,0:0:0:0:
256,192,645794,1,0,0:0:0:0:
256,192,645919,1,8,0:0:0:0:
256,192,646169,5,8,0:0:0:0:
256,192,646419,1,8,0:0:0:0:
256,192,646544,1,8,0:0:0:0:
256,192,646669,1,0,0:0:0:0:
256,192,646919,1,8,0:0:0:0:
256,192,647169,1,0,0:0:0:0:
256,192,647294,1,8,0:0:0:0:
256,192,647419,1,0,0:0:0:0:
256,192,647544,1,8,0:0:0:0:
256,192,647669,1,8,0:0:0:0:
256,192,647919,1,8,0:0:0:0:
256,192,648044,1,8,0:0:0:0:
256,192,648169,1,0,0:0:0:0:
256,192,648294,1,0,0:0:0:0:
256,192,648419,1,8,0:0:0:0:
256,192,648669,1,8,0:0:0:0:
256,192,648794,1,8,0:0:0:0:
256,192,648919,1,0,0:0:0:0:
256,192,649169,5,8,0:0:0:0:
256,192,649419,1,0,0:0:0:0:
256,192,649544,1,8,0:0:0:0:
256,192,649669,1,0,0:0:0:0:
256,192,649919,1,8,0:0:0:0:
256,192,650169,1,8,0:0:0:0:
256,192,650294,1,0,0:0:0:0:
256,192,650419,1,0,0:0:0:0:
256,192,650544,1,0,0:0:0:0:
256,192,650669,1,8,0:0:0:0:
256,192,650919,1,8,0:0:0:0:
256,192,651044,1,8,0:0:0:0:
256,192,651169,1,0,0:0:0:0:
256,192,651419,1,8,0:0:0:0:
256,192,651669,1,0,0:0:0:0:
256,192,651794,1,8,0:0:0:0:
256,192,651919,1,0,0:0:0:0:
256,192,652044,1,0,0:0:0:0:
256,192,652169,5,8,0:0:0:0:
256,192,652419,1,0,0:0:0:0:
256,192,652544,1,8,0:0:0:0:
256,192,652669,1,0,0:0:0:0:
256,192,652919,1,8,0:0:0:0:
256,192,653169,1,8,0:0:0:0:
256,192,653294,1,8,0:0:0:0:
256,192,653419,1,0,0:0:0:0:
256,192,653544,1,8,0:0:0:0:
256,192,653669,1,8,0:0:0:0:
256,192,653919,1,8,0:0:0:0:
256,192,654044,1,8,0:0:0:0:
256,192,654169,1,0,0:0:0:0:
256,192,654294,1,0,0:0:0:0:
256,192,654419,1,8,0:0:0:0:
256,192,654669,1,8,0:0:0:0:
256,192,654794,1,8,0:0:0:0:
256,192,654919,1,0,0:0:0:0:
256,192,655169,5,8,0:0:0:0:
256,192,655419,1,0,0:0:0:0:
256,192,655544,1,8,0:0:0:0:
256,192,655669,1,0,0:0:0:0:
256,192,655794,1,0,0:0:0:0:
256,192,655919,1,8,0:0:0:0:
256,192,656169,1,0,0:0:0:0:
256,192,656294,1,8,0:0:0:0:
256,192,656419,1,0,0:0:0:0:
256,192,656544,1,0,0:0:0:0:
256,192,656669,1,8,0:0:0:0:
256,192,656794,1,8,0:0:0:0:
256,192,656919,1,0,0:0:0:0:
256,192,657044,1,8,0:0:0:0:
256,192,657169,1,0,0:0:0:0:
256,192,657294,1,0,0:0:0:0:
256,192,657419,1,8,0:0:0:0:
256,192,657544,1,8,0:0:0:0:
256,192,657669,1,0,0:0:0:0:
256,192,657794,1,8,0:0:0:0:
256,192,657919,1,0,0:0:0:0:
256,192,658169,1,8,0:0:0:0:
256,192,658419,5,0,0:0:0:0:
256,192,658544,1,8,0:0:0:0:
256,192,658794,1,0,0:0:0:0:
256,192,658919,1,8,0:0:0:0:
256,192,659169,1,0,0:0:0:0:
256,192,659294,1,8,0:0:0:0:
256,192,659419,1,0,0:0:0:0:
256,192,659544,1,8,0:0:0:0:
256,192,659669,1,8,0:0:0:0:
256,192,659919,1,8,0:0:0:0:
256,192,660044,1,8,0:0:0:0:
256,192,660169,1,0,0:0:0:0:
256,192,660294,1,8,0:0:0:0:
256,192,660419,1,8,0:0:0:0:
256,192,660544,1,0,0:0:0:0:
256,192,660669,1,0,0:0:0:0:
256,192,660794,1,8,0:0:0:0:
256,192,660919,1,0,0:0:0:0:
256,192,661169,5,8,0:0:0:0:
256,192,661419,1,0,0:0:0:0:
256,192,661544,1,8,0:0:0:0:
256,192,661669,1,0,0:0:0:0:
256,192,661794,1,0,0:0:0:0:
256,192,661919,1,8,0:0:0:0:
256,192,662169,1,0,0:0:0:0:
256,192,662294,1,8,0:0:0:0:
256,192,662419,1,0,0:0:0:0:
256,192,662544,1,8,0:0:0:0:
256,192,662669,1,8,0:0:0:0:
256,192,662794,1,8,0:0:0:0:
256,192,662919,1,0,0:0:0:0:
256,192,663044,1,8,0:0:0:0:
256,192,663169,1,0,0:0:0:0:
256,192,663294,1,8,0:0:0:0:
256,192,663419,1,8,0:0:0:0:
256,192,663544,1,8,0:0:0:0:
256,192,663669,1,0,0:0:0:0:
256,192,663794,1,8,0:0:0:0:
256,192,663919,1,0,0:0:0:0:
256,192,664169,5,8,0:0:0:0:
256,192,664419,1,0,0:0:0:0:
256,192,664544,1,8,0:0:0:0:
256,192,664794,1,8,0:0:0:0:
256,192,664919,1,8,0:0:0:0:
256,192,665169,1,0,0:0:0:0:
256,192,665294,1,8,0:0:0:0:
256,192,665544,1,8,0:0:0:0:
256,192,665669,1,8,0:0:0:0:
256,192,665794,1,0,0:0:0:0:
256,192,665919,1,8,0:0:0:0:
256,192,666044,1,8,0:0:0:0:
256,192,666169,1,0,0:0:0:0:
256,192,666294,1,8,0:0:0:0:
256,192,666419,1,8,0:0:0:0:
256,192,666669,1,8,0:0:0:0:
256,192,666794,1,8,0:0:0:0:
256,192,666919,1,0,0:0:0:0:
256,192,667169,5,8,0:0:0:0:
256,192,667294,1,0,0:0:0:0:
256,192,667419,1,8,0:0:0:0:
256,192,667544,1,0,0:0:0:0:
256,192,667669,1,8,0:0:0:0:
256,192,667794,1,0,0:0:0:0:
256,192,667856,1,0,0:0:0:0:
256,192,667919,1,8,0:0:0:0:
256,192,668044,1,0,0:0:0:0:
256,192,668169,1,8,0:0:0:0:
256,192,668294,1,8,0:0:0:0:
256,192,668419,1,8,0:0:0:0:
256,192,668544,1,0,0:0:0:0:
256,192,668669,5,8,0:0:0:0:
256,192,668731,1,8,0:0:0:0:
256,192,668794,1,0,0:0:0:0:
256,192,668919,1,8,0:0:0:0:
256,192,669044,1,0,0:0:0:0:
256,192,669169,1,8,0:0:0:0:
256,192,669294,1,0,0:0:0:0:
256,192,669419,1,8,0:0:0:0:
256,192,669481,1,8,0:0:0:0:
256,192,669544,1,0,0:0:0:0:
256,192,669669,1,8,0:0:0:0:
256,192,669794,1,0,0:0:0:0:
256,192,669919,1,8,0:0:0:0:
256,192,670044,1,0,0:0:0:0:
256,192,670169,5,8,0:0:0:0:
256,192,670231,1,8,0:0:0:0:
256,192,670294,1,0,0:0:0:0:
256,192,670419,1,0,0:0:0:0:
256,192,670544,1,0,0:0:0:0:
256,192,670669,5,8,0:0:0:0:
256,192,670731,1,8,0:0:0:0:
256,192,670794,1,0,0:0:0:0:
256,192,670856,1,0,0:0:0:0:
256,192,670919,1,0,0:0:0:0:
256,192,671044,1,0,0:0:0:0:
256,192,671169,1,8,0:0:0:0:
256,192,671294,1,0,0:0:0:0:
256,192,671419,5,8,0:0:0:0:
256,192,671481,1,0,0:0:0:0:
256,192,671544,1,8,0:0:0:0:
256,192,671606,1,8,0:0:0:0:
256,192,671669,1,0,0:0:0:0:
256,192,671794,1,0,0:0:0:0:
256,192,671919,1,8,0:0:0:0:
256,192,672044,1,0,0:0:0:0:
256,192,672169,5,8,0:0:0:0:
256,192,672231,1,8,0:0:0:0:
256,192,672294,1,0,0:0:0:0:
256,192,672356,1,8,0:0:0:0:
256,192,672419,1,0,0:0:0:0:
256,192,672544,1,0,0:0:0:0:
256,192,672669,1,8,0:0:0:0:
256,192,672794,1,0,0:0:0:0:
256,192,672919,1,8,0:0:0:0:
256,192,673044,1,8,0:0:0:0:
256,192,673169,5,0,0:0:0:0:
256,192,673294,1,0,0:0:0:0:
256,192,673419,1,8,0:0:0:0:
256,192,673544,1,0,0:0:0:0:
256,192,673669,1,8,0:0:0:0:
256,192,673794,1,0,0:0:0:0:
256,192,673856,1,0,0:0:0:0:
256,192,673919,1,8,0:0:0:0:
256,192,674044,1,0,0:0:0:0:
256,192,674169,1,8,0:0:0:0:
256,192,674294,1,0,0:0:0:0:
256,192,674419,1,8,0:0:0:0:
256,192,674544,1,0,0:0:0:0:
256,192,674669,5,8,0:0:0:0:
256,192,674731,1,8,0:0:0:0:
256,192,674794,1,0,0:0:0:0:
256,192,674919,1,8,0:0:0:0:
256,192,675044,1,8,0:0:0:0:
256,192,675169,1,8,0:0:0:0:
256,192,675294,1,0,0:0:0:0:
256,192,675419,1,8,0:0:0:0:
256,192,675481,1,8,0:0:0:0:
256,192,675544,1,0,0:0:0:0:
256,192,675669,1,8,0:0:0:0:
256,192,675794,1,0,0:0:0:0:
256,192,675919,1,8,0:0:0:0:
256,192,676044,1,0,0:0:0:0:
256,192,676169,5,8,0:0:0:0:
256,192,676231,1,0,0:0:0:0:
256,192,676294,1,8,0:0:0:0:
256,192,676356,1,8,0:0:0:0:
256,192,676419,1,0,0:0:0:0:
256,192,676544,1,0,0:0:0:0:
256,192,676669,1,8,0:0:0:0:
256,192,676794,1,8,0:0:0:0:
256,192,676919,5,0,0:0:0:0:
256,192,676981,1,0,0:0:0:0:
256,192,677044,1,8,0:0:0:0:
256,192,677106,1,8,0:0:0:0:
256,192,677169,1,0,0:0:0:0:
256,192,677294,1,0,0:0:0:0:
256,192,677419,1,8,0:0:0:0:
256,192,677544,1,8,0:0:0:0:
256,192,677669,5,0,0:0:0:0:
256,192,677731,1,8,0:0:0:0:
256,192,677794,1,8,0:0:0:0:
256,192,677856,1,8,0:0:0:0:
256,192,677919,1,0,0:0:0:0:
256,192,678044,1,0,0:0:0:0:
256,192,678169,1,8,0:0:0:0:
256,192,678231,1,8,0:0:0:0:
256,192,678294,1,8,0:0:0:0:
256,192,678356,1,8,0:0:0:0:
256,192,678419,1,8,0:0:0:0:
256,192,678544,5,0,0:0:0:0:
256,192,678669,1,8,0:0:0:0:
256,192,678794,1,0,0:0:0:0:
256,192,678919,1,8,0:0:0:0:
256,192,678981,1,0,0:0:0:0:
256,192,679044,1,8,0:0:0:0:
256,192,679106,1,8,0:0:0:0:
256,192,679169,1,0,0:0:0:0:
256,192,679294,5,0,0:0:0:0:
256,192,679419,1,8,0:0:0:0:
256,192,679544,1,0,0:0:0:0:
256,192,679669,1,8,0:0:0:0:
256,192,679794,1,0,0:0:0:0:
256,192,679919,1,8,0:0:0:0:
256,192,679981,1,0,0:0:0:0:
256,192,680044,1,0,0:0:0:0:
256,192,680169,1,8,0:0:0:0:
256,192,680294,1,8,0:0:0:0:
256,192,680419,1,8,0:0:0:0:
256,192,680544,1,0,0:0:0:0:
256,192,680669,5,8,0:0:0:0:
256,192,680731,1,8,0:0:0:0:
256,192,680794,1,0,0:0:0:0:
256,192,680919,1,8,0:0:0:0:
256,192,681044,1,0,0:0:0:0:
256,192,681169,1,8,0:0:0:0:
256,192,681294,1,0,0:0:0:0:
256,192,681419,1,8,0:0:0:0:
256,192,681481,1,8,0:0:0:0:
256,192,681544,1,0,0:0:0:0:
256,192,681669,1,8,0:0:0:0:
256,192,681794,1,0,0:0:0:0:
256,192,681919,1,0,0:0:0:0:
256,192,682044,1,0,0:0:0:0:
256,192,682169,5,8,0:0:0:0:
256,192,682231,1,0,0:0:0:0:
256,192,682294,1,0,0:0:0:0:
256,192,682419,1,8,0:0:0:0:
256,192,682544,1,0,0:0:0:0:
256,192,682669,1,8,0:0:0:0:
256,192,682731,1,0,0:0:0:0:
256,192,682794,1,0,0:0:0:0:
256,192,682856,1,0,0:0:0:0:
256,192,682919,1,8,0:0:0:0:
256,192,683044,5,0,0:0:0:0:
256,192,683169,1,0,0:0:0:0:
256,192,683294,1,0,0:0:0:0:
256,192,683419,1,8,0:0:0:0:
256,192,683481,1,8,0:0:0:0:
256,192,683544,1,0,0:0:0:0:
256,192,683606,1,0,0:0:0:0:
256,192,683669,1,8,0:0:0:0:
256,192,683794,5,0,0:0:0:0:
256,192,683919,1,8,0:0:0:0:
256,192,684044,1,0,0:0:0:0:
256,192,684169,1,8,0:0:0:0:
256,192,684231,1,0,0:0:0:0:
256,192,684294,1,0,0:0:0:0:
256,192,684356,1,0,0:0:0:0:
256,192,684419,1,8,0:0:0:0:
256,192,684544,5,0,0:0:0:0:
256,192,684669,1,8,0:0:0:0:
256,192,684794,1,0,0:0:0:0:
256,192,684919,1,8,0:0:0:0:
256,192,685044,1,0,0:0:0:0:
256,192,685106,1,0,0:0:0:0:
256,192,685169,1,8,0:0:0:0:
256,192,685294,5,0,0:0:0:0:
256,192,685419,1,0,0:0:0:0:
256,192,685544,1,0,0:0:0:0:
256,192,685669,1,8,0:0:0:0:
256,192,685794,1,0,0:0:0:0:
256,192,685919,1,8,0:0:0:0:
256,192,685981,1,8,0:0:0:0:
256,192,686044,1,0,0:0:0:0:
256,192,686169,1,8,0:0:0:0:
256,192,686294,1,0,0:0:0:0:
256,192,686419,1,8,0:0:0:0:
256,192,686544,1,0,0:0:0:0:
256,192,686669,5,8,0:0:0:0:
256,192,686731,1,8,0:0:0:0:
256,192,686794,1,0,0:0:0:0:
256,192,686919,1,8,0:0:0:0:
256,192,687044,1,8,0:0:0:0:
256,192,687169,1,8,0:0:0:0:
256,192,687294,1,0,0:0:0:0:
256,192,687419,5,8,0:0:0:0:
256,192,687481,1,8,0:0:0:0:
256,192,687544,1,0,0:0:0:0:
256,192,687669,1,8,0:0:0:0:
256,192,687794,1,8,0:0:0:0:
256,192,687919,1,8,0:0:0:0:
256,192,688044,1,8,0:0:0:0:
256,192,688169,5,0,0:0:0:0:
256,192,688231,1,0,0:0:0:0:
256,192,688294,1,8,0:0:0:0:
256,192,688356,1,8,0:0:0:0:
256,192,688419,1,0,0:0:0:0:
256,192,688544,1,0,0:0:0:0:
256,192,688669,1,8,0:0:0:0:
256,192,688794,1,8,0:0:0:0:
256,192,688919,5,0,0:0:0:0:
256,192,688981,1,8,0:0:0:0:
256,192,689044,1,8,0:0:0:0:
256,192,689106,1,8,0:0:0:0:
256,192,689169,1,0,0:0:0:0:
256,192,689294,1,8,0:0:0:0:
256,192,689419,1,8,0:0:0:0:
256,192,689481,1,0,0:0:0:0:
256,192,689544,1,0,0:0:0:0:
256,192,689606,1,0,0:0:0:0:
256,192,689669,1,8,0:0:0:0:
256,192,689794,5,0,0:0:0:0:
256,192,689856,1,0,0:0:0:0:
256,192,689919,1,8,0:0:0:0:
256,192,690044,1,8,0:0:0:0:
256,192,690169,1,0,0:0:0:0:
256,192,690294,1,8,0:0:0:0:
256,192,690419,5,8,0:0:0:0:
256,192,690544,1,8,0:0:0:0:
256,192,690669,1,8,0:0:0:0:
256,192,690794,1,0,0:0:0:0:
256,192,690919,1,8,0:0:0:0:
256,192,691044,1,8,0:0:0:0:
256,96,691169,5,4,0:0:0:0:
256,192,691669,1,0,0:0:0:0:
256,96,691919,5,12,0:0:0:0:
256,192,692419,5,0,0:0:0:0:
256,96,692669,1,4,0:0:0:0:
256,192,692919,5,8,0:0:0:0:
256,192,693169,1,0,0:0:0:0:
256,96,693419,1,12,0:0:0:0:
256,192,693669,5,8,0:0:0:0:
256,192,693919,1,8,0:0:0:0:
256,96,694169,1,4,0:0:0:0:
256,192,694669,5,0,0:0:0:0:
256,96,694919,1,12,0:0:0:0:
256,192,695419,5,0,0:0:0:0:
256,96,695669,1,4,0:0:0:0:
256,192,695919,5,0,0:0:0:0:
256,192,696044,1,8,0:0:0:0:
256,192,696169,1,0,0:0:0:0:
256,192,696294,1,0,0:0:0:0:
256,96,696419,1,12,0:0:0:0:
256,192,696669,5,0,0:0:0:0:
256,192,696919,1,0,0:0:0:0:
256,96,697169,1,4,0:0:0:0:
256,192,697669,5,0,0:0:0:0:
256,96,697919,1,12,0:0:0:0:
256,192,698419,5,0,0:0:0:0:
256,96,698669,1,4,0:0:0:0:
256,192,698919,5,8,0:0:0:0:
256,192,699169,1,0,0:0:0:0:
256,96,699419,1,12,0:0:0:0:
256,192,699669,5,0,0:0:0:0:
256,192,699919,1,0,0:0:0:0:
256,96,700169,1,4,0:0:0:0:
256,192,700669,5,0,0:0:0:0:
256,96,700919,1,12,0:0:0:0:
256,192,701419,5,0,0:0:0:0:
256,96,701669,1,12,0:0:0:0:
256,192,701919,5,8,0:0:0:0:
256,192,702044,1,8,0:0:0:0:
256,192,702169,1,8,0:0:0:0:
256,192,702294,1,8,0:0:0:0:
256,192,702419,1,0,0:0:0:0:
256,192,702544,1,8,0:0:0:0:
256,192,702669,1,0,0:0:0:0:
256,192,702794,1,0,0:0:0:0:
256,192,702919,1,8,0:0:0:0:
256,192,703044,1,8,0:0:0:0:
256,96,703169,1,4,0:0:0:0:
256,192,703669,5,0,0:0:0:0:
256,96,703919,1,12,0:0:0:0:
256,192,704419,5,0,0:0:0:0:
256,96,704669,1,4,0:0:0:0:
256,192,705169,5,0,0:0:0:0:
256,96,705419,1,12,0:0:0:0:
256,192,705669,5,0,0:0:0:0:
256,192,705919,1,0,0:0:0:0:
256,96,706169,1,4,0:0:0:0:
256,192,706669,5,0,0:0:0:0:
256,96,706919,1,12,0:0:0:0:
256,192,707419,5,0,0:0:0:0:
256,96,707669,1,12,0:0:0:0:
256,192,707919,5,8,0:0:0:0:
256,192,708044,1,8,0:0:0:0:
256,192,708169,1,0,0:0:0:0:
256,192,708294,1,0,0:0:0:0:
256,96,708419,1,12,0:0:0:0:
256,192,708669,5,0,0:0:0:0:
256,192,708919,1,0,0:0:0:0:
256,96,709169,1,4,0:0:0:0:
256,192,709669,5,0,0:0:0:0:
256,96,709919,1,12,0:0:0:0:
256,192,710419,5,0,0:0:0:0:
256,96,710669,1,4,0:0:0:0:
256,192,711044,5,0,0:0:0:0:
256,192,711294,1,0,0:0:0:0:
256,96,711419,1,12,0:0:0:0:
256,192,711669,5,0,0:0:0:0:
256,192,711919,1,0,0:0:0:0:
256,96,712169,1,4,0:0:0:0:
256,192,712294,12,0,722669,0:0:0:0:
256,192,723019,5,0,0:0:0:0:
256,192,726823,5,8,0:0:0:0:
256,192,730525,5,8,0:0:0:0:
256,192,734334,5,8,0:0:0:0:
256,192,736282,5,0,0:0:0:0:
256,192,738230,5,0,0:0:0:0:
256,192,742054,5,8,0:0:0:0:
256,192,745842,5,0,0:0:0:0:
256,192,749574,5,8,0:0:0:0:
256,192,751642,5,0,0:0:0:0:
256,192,753526,5,0,0:0:0:0:
256,192,757396,5,8,0:0:0:0:
256,192,761170,5,0,0:0:0:0:
256,192,765170,5,8,0:0:0:0:
256,192,767170,5,0,0:0:0:0:
256,192,769170,5,0,0:0:0:0:
256,192,769670,12,0,774920,0:0:0:0:
