osu file format v14

[General]
AudioFilename: audio.mp3
AudioLeadIn: 0
PreviewTime: 4897
Countdown: 1
SampleSet: Soft
StackLeniency: 0.7
Mode: 0
LetterboxInBreaks: 0
WidescreenStoryboard: 1

[Editor]
Bookmarks: 1721,29692,35339,40986,52280,63574,74868,86162,97456,103103,114397,125692,136986,159574,170868,182162,193545,196368,207574,218868,230162,241456,247103
DistanceSpacing: 1
BeatDivisor: 8
GridSize: 4
TimelineZoom: 1

[Metadata]
Title:Scape Santa
TitleUnicode:Scape Santa
Artist:Ian Taylor
ArtistUnicode:Ian Taylor
Creator:Naotoshi
Version:Yuii-'s Normal
Source:RuneScape
Tags:rune scape christmas mmorpg bgm jagex foxy grandpa foxygrandpa pentori log off now yuii-
BeatmapID:1478594
BeatmapSetID:688987

[Difficulty]
HPDrainRate:4
CircleSize:4
OverallDifficulty:4
ApproachRate:5
SliderMultiplier:1.9
SliderTickRate:1

[Events]
//Background and Video events
0,0,"christmas grand exchange.jpg",0,0
//Break Periods
2,85715,90668
//Storyboard Layer 0 (Background)
//Storyboard Layer 1 (Fail)
//Storyboard Layer 2 (Pass)
//Storyboard Layer 3 (Foreground)
//Storyboard Sound Samples

[TimingPoints]
1516,705.882352941176,4,2,1,30,1,0
1516,-100,4,2,1,30,0,0
6104,-100,4,2,1,25,0,0
7163,-100,4,2,1,35,0,0
17398,-100,4,2,4,35,0,0
18104,-100,4,2,4,30,0,0
18457,-100,4,2,1,35,0,0
28692,-100,4,2,4,35,0,0
29398,-100,4,2,4,20,0,0
29751,-100,4,2,2,40,0,1
29752,-100,4,2,2,40,0,1
40692,-100,4,2,2,40,0,0
41046,-100,4,2,1,35,0,0
51280,-100,4,2,4,35,0,0
51986,-100,4,2,4,25,0,0
52339,-100,4,2,2,35,0,0
62927,-100,4,2,2,30,0,0
63280,-100,4,2,2,25,0,0
63633,-100,4,2,2,35,0,0
97515,-100,4,2,2,35,0,1
97516,-100,4,2,3,40,0,1
102457,-100,4,2,3,20,0,1
102545,-100,4,2,3,25,0,1
102633,-100,4,2,3,30,0,1
102721,-100,4,2,3,35,0,1
102810,-100,4,2,3,35,0,0
103163,-100,4,2,1,35,0,0
113398,-100,4,2,4,35,0,0
114104,-100,4,2,1,35,0,0
124692,-100,4,2,4,30,0,0
125398,-100,4,2,4,25,0,0
125751,-100,4,2,4,25,0,1
125752,-100,4,2,2,40,0,1
136692,-100,4,2,2,40,0,0
137046,-100,4,2,1,30,0,0
147280,-100,4,2,4,30,0,0
147986,-100,4,2,4,20,0,0

[Colours]
Combo1 : 234,172,68
Combo2 : 57,190,7
Combo3 : 207,22,22

[HitObjects]
64,196,1516,5,10,0:0:0:0:
136,136,1868,2,0,P|228:132|264:220,1,190,0|12,0:0|0:0,0:0:0:0:
240,304,2927,1,2,0:0:0:0:
312,364,3280,2,0,P|404:368|440:284,1,190,10|8,0:0|0:0,0:0:0:0:
400,204,4339,6,0,B|308:160|308:248|200:184,1,190,6|2,0:0|0:0,0:0:0:0:
132,152,5398,1,12,0:0:0:0:
140,244,5751,2,0,P|176:276|225:285,2,95,2|8|0,0:0|0:0|0:0,0:0:0:0:
216,68,7163,6,0,P|308:48|340:124,1,190,6|2,0:0|0:0,0:0:0:0:
292,204,8221,2,0,L|292:316,1,95,12|2,0:0|0:0,0:0:0:0:
368,356,8927,2,0,P|416:360|432:300,2,95,10|2|8,0:1|0:0|0:0,0:0:0:0:
292,299,9986,5,6,0:0:0:0:
108,232,10692,2,0,P|88:140|164:108,1,190,2|2,0:0|0:0,0:0:0:0:
252,80,11751,2,0,P|228:40|176:16,2,95,10|2|8,0:0|0:0|0:0,0:0:0:0:
228,172,12810,6,0,P|240:265|323:269,1,190,6|2,0:0|0:0,0:0:0:0:
392,204,13868,2,0,L|392:96,1,95,12|2,0:0|0:0,0:0:0:0:
332,32,14574,2,0,P|284:28|268:88,2,95,10|2|8,0:1|0:0|0:0,0:0:0:0:
392,109,15633,5,6,0:0:0:0:
320,172,15986,2,0,B|228:224|228:128|116:180,1,190,10|12,0:0|0:0,0:0:0:0:
92,88,17045,2,0,P|44:168|88:252,1,190,2|2,0:0|0:0,0:0:0:0:
240,356,18457,6,0,P|332:368|358:289,1,190,6|2,0:0|0:0,0:0:0:0:
308,212,19515,2,0,L|308:112,1,95,12|2,0:0|0:0,0:0:0:0:
376,48,20221,2,0,P|424:44|440:104,2,95,10|2|8,0:1|0:0|0:0,0:0:0:0:
308,117,21280,5,6,0:0:0:0:
232,296,21986,2,0,P|140:316|108:240,1,190,2|2,0:0|0:0,0:0:0:0:
80,151,23045,2,0,P|40:175|16:227,2,95,10|2|8,0:0|0:0|0:0,0:0:0:0:
172,176,24104,6,0,P|263:196|295:119,1,190,6|2,0:0|0:0,0:0:0:0:
216,68,25162,2,0,L|96:68,1,95,12|2,0:0|0:0,0:0:0:0:
80,152,25868,2,0,P|76:200|136:216,2,95,10|2|8,0:1|0:0|0:0,0:0:0:0:
121,68,26927,5,6,0:0:0:0:
216,68,27280,2,0,B|308:120|308:24|420:76,1,190,10|12,0:0|0:0,0:0:0:0:
468,132,28339,2,0,P|516:212|472:296,1,190,2|8,0:0|0:0,0:0:0:0:
272,300,29751,6,0,P|240:276|156:300,1,95,2|10,0:0|0:0,0:0:0:0:
156,320,30280,1,2,0:0:0:0:
120,356,30457,2,0,P|80:350|37:273,1,95,2|8,0:0|0:0,0:0:0:0:
72,212,31162,1,2,0:0:0:0:
136,128,31515,2,0,P|160:96|136:12,2,95,8|2|8,0:0|0:0|0:0,0:0:0:0:
72,212,32574,6,0,P|104:236|188:212,1,95,2|10,0:0|0:0,0:0:0:0:
204,212,33104,1,2,0:0:0:0:
244,176,33280,2,0,P|276:152|360:176,1,95,2|8,0:0|0:0,0:0:0:0:
416,212,33986,1,2,0:0:0:0:
492,144,34339,1,8,0:0:0:0:
424,64,34692,2,0,P|390:42|308:74,1,95,2|8,0:0|0:0,0:0:0:0:
306,136,35398,5,2,0:0:0:0:
270,166,35574,1,0,0:0:0:0:
227,144,35751,2,0,P|221:183|168:220,2,95,8|0|10,0:0|0:0|0:0,0:0:0:0:
237,49,36810,2,0,P|197:53|145:13,1,95,2|8,0:0|0:0,0:0:0:0:
60,32,37515,2,0,P|55:71|118:132,1,95,2|8,0:0|0:0,0:0:0:0:
120,152,38045,1,0,0:0:0:0:
148,196,38221,6,0,P|152:235|90:296,2,95,2|10|2,0:0|0:0|0:0,0:0:0:0:
224,124,39280,1,8,0:0:0:0:
320,168,39633,2,0,P|359:173|420:110,1,95,2|8,0:0|0:0,0:0:0:0:
452,124,40163,1,2,0:0:0:0:
480,168,40339,2,0,P|485:207|422:268,1,95,2|8,0:0|0:0,0:0:0:0:
372,312,41045,6,0,P|280:332|248:256,1,190,4|2,0:0|0:0,0:0:0:0:
296,176,42104,2,0,L|296:68,1,95,12|2,0:0|0:0,0:0:0:0:
220,24,42809,2,0,P|172:20|156:80,2,95,10|2|8,0:1|0:0|0:0,0:0:0:0:
296,81,43868,5,4,0:0:0:0:
248,264,44574,2,0,P|156:284|124:208,1,190,2|2,0:0|0:0,0:0:0:0:
96,119,45633,2,0,P|56:143|32:195,2,95,10|2|8,0:0|0:0|0:0,0:0:0:0:
188,144,46692,6,0,P|281:132|285:49,1,190,4|2,0:0|0:0,0:0:0:0:
192,32,47751,2,0,L|76:32,1,95,12|2,0:0|0:0,0:0:0:0:
32,100,48457,2,0,P|28:148|88:164,2,95,10|2|8,0:1|0:0|0:0,0:0:0:0:
97,32,49515,5,4,0:0:0:0:
176,88,49868,2,0,B|268:36|268:132|380:80,1,190,10|12,0:0|0:0,0:0:0:0:
428,152,50927,2,0,P|476:232|432:316,1,190,2|8,0:0|0:0,0:0:0:0:
248,336,52339,6,0,P|240:360|244:384,2,47.5,2|0|8,0:1|0:0|0:0,0:0:0:0:
304,256,53045,2,0,P|312:232|308:208,2,47.5,2|0|8,0:0|0:0|0:0,0:0:0:0:
204,256,53751,2,0,P|185:238|162:232,2,47.5,0|0|10,0:0|0:0|0:0,0:0:0:0:
248,336,54457,2,0,P|266:353|289:359,2,47.5,2|0|8,0:0|0:0|0:0,0:0:0:0:
304,256,55163,6,0,P|329:256|350:268,1,47.5,0|0,0:0|0:0,0:0:0:0:
384,300,55515,1,8,0:0:0:0:
456,236,55868,2,0,P|455:210|443:189,1,47.5,2|0,0:0|0:0,0:0:0:0:
412,156,56221,1,8,0:0:0:0:
320,168,56574,2,0,P|294:167|273:155,1,47.5,0|0,0:0|0:0,0:0:0:0:
240,124,56928,1,8,0:0:0:0:
160,180,57280,2,0,P|160:205|172:226,1,47.5,2|0,0:0|0:0,0:0:0:0:
204,260,57633,1,8,0:0:0:0:
300,256,57986,6,0,P|325:256|346:268,2,47.5,0|0|8,0:0|0:0|0:0,0:0:0:0:
256,340,58692,2,0,P|256:365|268:386,2,47.5,2|0|8,0:0|0:0|0:0,0:0:0:0:
204,260,59398,2,0,P|179:260|158:272,2,47.5,0|0|10,0:0|0:0|0:0,0:0:0:0:
248,176,60104,2,0,P|248:151|260:130,2,47.5,2|0|8,0:0|0:0|0:0,0:0:0:0:
313,245,60810,6,0,P|338:245|359:257,1,47.5,0|0,0:0|0:0,0:0:0:0:
397,281,61163,1,8,0:0:0:0:
321,337,61515,2,0,P|295:338|274:350,1,47.5,2|0,0:0|0:0,0:0:0:0:
241,381,61867,1,8,0:0:0:0:
177,309,62221,2,0,P|151:308|130:296,1,47.5,0|0,0:0|0:0,0:0:0:0:
97,265,62573,1,8,0:0:0:0:
164,192,62927,1,2,0:0:0:0:
260,28,63633,6,0,P|249:72|288:98,1,95,2|8,0:1|0:0,0:0:0:0:
381,117,64339,2,0,P|421:137|416:184,1,95,2|8,0:0|0:0,0:0:0:0:
328,216,65045,2,0,P|283:205|257:244,1,95,0|10,0:0|0:0,0:0:0:0:
238,336,65751,2,0,P|217:376|170:371,1,95,2|8,0:0|0:0,0:0:0:0:
88,328,66457,6,0,P|74:284|110:255,1,95,2|8,0:1|0:0,0:0:0:0:
188,204,67163,2,0,P|201:160|165:131,1,95,2|8,0:0|0:0,0:0:0:0:
220,48,67868,2,0,P|258:23|296:50,1,95,0|10,0:0|0:0,0:0:0:0:
328,135,68574,2,0,P|314:178|350:207,1,95,2|8,0:0|0:0,0:0:0:0:
416,140,69280,6,0,P|440:132|464:136,2,47.5,2|0|8,0:1|0:0|0:0,0:0:0:0:
348,208,69986,1,2,0:0:0:0:
220,64,70692,2,0,P|180:60|119:123,1,95,0|10,0:0|0:0,0:0:0:0:
84,168,71398,1,2,0:0:0:0:
140,244,71751,1,8,0:0:0:0:
220,192,72104,6,0,P|244:184|268:188,2,47.5,2|0|8,0:1|0:0|0:0,0:0:0:0:
140,244,72810,2,0,P|116:252|92:247,2,47.5,2|0|8,0:0|0:0|0:0,0:0:0:0:
216,304,73516,2,0,P|256:308|317:245,1,95,0|10,0:0|0:0,0:0:0:0:
380,224,74222,1,2,0:0:0:0:
268,80,74927,6,0,P|276:56|272:32,2,47.5,2|0|8,0:1|0:0|0:0,0:0:0:0:
212,160,75633,2,0,P|204:184|208:208,2,47.5,2|0|8,0:0|0:0|0:0,0:0:0:0:
312,160,76339,2,0,P|331:178|354:184,2,47.5,0|0|10,0:0|0:0|0:0,0:0:0:0:
268,80,77045,2,0,P|250:63|227:57,2,47.5,2|0|8,0:0|0:0|0:0,0:0:0:0:
212,160,77751,6,0,P|187:160|166:148,1,47.5,2|0,0:1|0:0,0:0:0:0:
132,116,78104,1,8,0:0:0:0:
60,179,78456,2,0,P|61:205|73:226,1,47.5,2|0,0:0|0:0,0:0:0:0:
104,260,78810,1,8,0:0:0:0:
196,248,79162,2,0,P|222:249|243:261,1,47.5,0|0,0:0|0:0,0:0:0:0:
276,292,79516,1,8,0:0:0:0:
356,236,79868,2,0,P|356:211|344:190,1,47.5,2|0,0:0|0:0,0:0:0:0:
312,156,80221,1,8,0:0:0:0:
216,160,80574,6,0,P|191:160|170:148,2,47.5,2|0|8,0:1|0:0|0:0,0:0:0:0:
260,76,81280,2,0,P|260:51|248:30,2,47.5,2|0|8,0:0|0:0|0:0,0:0:0:0:
312,156,81986,2,0,P|337:156|358:144,2,47.5,0|0|10,0:0|0:0|0:0,0:0:0:0:
268,240,82692,2,0,P|268:265|256:286,2,47.5,2|0|8,0:0|0:0|0:0,0:0:0:0:
208,164,83398,6,0,P|183:164|162:152,1,47.5,2|0,0:1|0:0,0:0:0:0:
124,128,83751,1,8,0:0:0:0:
200,72,84103,2,0,P|226:71|247:59,1,47.5,0|0,0:0|0:0,0:0:0:0:
280,28,84457,1,8,0:0:0:0:
344,100,84809,2,0,P|370:101|391:113,1,47.5,0|0,0:0|0:0,0:0:0:0:
424,144,85163,1,10,0:0:0:0:
360,220,85515,1,2,0:0:0:0:
96,140,91868,6,0,P|72:132|48:136,2,47.5,2|0|0,0:1|0:0|0:0,0:0:0:0:
164,208,92574,1,2,0:0:0:0:
292,64,93280,2,0,P|332:60|393:123,1,95,0|10,0:0|0:0,0:0:0:0:
428,168,93986,1,2,0:0:0:0:
372,244,94339,1,8,0:0:0:0:
292,192,94692,6,0,P|268:184|244:188,2,47.5,0|0|8,0:0|0:0|0:0,0:0:0:0:
372,244,95398,2,0,P|396:252|420:247,2,47.5,2|0|8,0:0|0:0|0:0,0:0:0:0:
288,288,96104,2,0,P|248:284|187:347,1,95,0|10,0:0|0:0,0:0:0:0:
140,384,96810,1,2,0:0:0:0:
64,188,97515,5,4,0:0:0:0:
108,92,97868,1,8,0:0:0:0:
184,164,98221,2,0,P|224:160|285:223,1,95,2|8,0:0|0:0,0:0:0:0:
232,284,98927,1,6,0:0:0:0:
276,380,99280,1,8,0:0:0:0:
352,308,99633,2,0,P|392:312|453:249,1,95,2|8,0:0|0:0,0:0:0:0:
464,184,100339,6,0,P|489:186|508:201,2,47.5,6|0|8,0:0|0:0|0:0,0:0:0:0:
360,199,101045,2,0,P|313:202|274:176,1,95,2|8,0:0|0:0,0:0:0:0:
216,88,101751,1,2,0:0:0:0:
160,177,102104,1,8,0:0:0:0:
104,268,102457,2,0,L|40:268,2,47.5,10|0|4,0:0|0:0|0:0,0:0:0:0:
184,324,103163,6,0,P|276:336|302:257,1,190,2|2,0:0|0:0,0:0:0:0:
252,176,104221,2,0,L|252:76,1,95,8|2,0:0|0:0,0:0:0:0:
324,16,104927,2,0,P|372:12|388:72,2,95,10|2|8,0:1|0:0|0:0,0:0:0:0:
252,81,105986,5,2,0:0:0:0:
72,144,106692,2,0,P|8:213|58:279,1,190,2|2,0:0|0:0,0:0:0:0:
121,348,107751,2,0,P|80:370|23:365,2,95,8|2|8,0:0|0:0|0:0,0:0:0:0:
164,264,108810,6,0,P|236:204|299:258,1,190,2|2,0:0|0:0,0:0:0:0:
284,348,109868,2,0,L|404:348,1,95,8|2,0:0|0:0,0:0:0:0:
452,288,110574,2,0,P|485:253|450:202,2,95,10|2|8,0:1|0:0|0:0,0:0:0:0:
380,224,111633,6,0,P|356:133|432:99,2,190,2|2|2,0:0|0:0|0:0,0:0:0:0:
452,288,113398,2,0,P|485:322|450:373,2,95,8|8|8,0:0|0:0|0:0,0:0:0:0:
356,308,114457,5,2,0:0:0:0:
276,260,114810,2,0,P|236:256|175:319,1,95,8|2,0:0|0:0,0:0:0:0:
64,144,115868,2,0,P|32:118|34:30,2,95,0|10|2,0:0|0:1|0:0,0:0:0:0:
156,120,116927,1,8,0:0:0:0:
244,88,117280,6,0,P|284:83|345:147,2,95,2|10|2,0:0|0:0|0:0,0:0:0:0:
160,260,118692,2,0,P|185:291|273:289,1,95,2|8,0:0|0:0,0:0:0:0:
324,268,119398,1,2,0:0:0:0:
440,120,120104,5,2,0:0:0:0:
488,200,120457,2,0,P|492:240|429:301,1,95,0|2,0:0|0:0,0:0:0:0:
308,176,121515,2,0,P|282:144|194:146,2,95,2|10|2,0:0|0:1|0:0,0:0:0:0:
324,268,122574,1,8,0:0:0:0:
264,340,122927,5,2,0:0:0:0:
180,300,123280,2,0,P|140:295|79:359,2,95,10|2|8,0:0|0:0|0:0,0:0:0:0:
264,340,124339,2,0,P|289:340|310:328,2,47.5,2|0|8,0:0|0:0|0:0,0:0:0:0:
252,244,125045,1,8,0:0:0:0:
136,72,125751,6,0,P|168:48|252:72,1,95,2|10,0:0|0:0,0:0:0:0:
252,92,126280,1,2,0:0:0:0:
288,128,126457,2,0,P|328:122|371:45,1,95,0|0,0:0|0:0,0:0:0:0:
464,48,127162,1,2,0:0:0:0:
456,152,127515,2,0,P|432:184|456:268,2,95,8|2|8,0:0|0:0|0:0,0:0:0:0:
464,48,128574,6,0,P|432:24|348:48,1,95,2|10,0:0|0:0,0:0:0:0:
332,48,129104,1,2,0:0:0:0:
292,84,129280,2,0,P|260:108|176:84,1,95,2|8,0:0|0:0,0:0:0:0:
108,74,129986,1,2,0:0:0:0:
32,142,130339,1,8,0:0:0:0:
100,222,130692,2,0,P|134:244|216:212,1,95,2|8,0:0|0:0,0:0:0:0:
292,248,131398,6,0,P|286:287|209:330,2,95,2|10|2,0:0|0:0|0:0,0:0:0:0:
288,196,132280,1,0,0:0:0:0:
268,148,132457,1,0,0:0:0:0:
268,44,132810,2,0,P|308:40|369:103,1,95,2|8,0:0|0:0,0:0:0:0:
440,128,133515,2,0,P|445:167|382:228,1,95,2|8,0:0|0:0,0:0:0:0:
380,248,134045,1,0,0:0:0:0:
352,293,134221,6,0,P|348:332|410:393,2,95,2|10|2,0:0|0:0|0:0,0:0:0:0:
288,212,135280,1,8,0:0:0:0:
216,140,135633,2,0,P|177:135|116:198,1,95,2|8,0:0|0:0,0:0:0:0:
104,208,136163,1,2,0:0:0:0:
124,256,136339,2,0,P|157:277|239:245,1,95,2|8,0:0|0:0,0:0:0:0:
288,212,137045,6,0,P|380:192|412:268,1,190,2|2,0:0|0:0,0:0:0:0:
348,336,138104,2,0,L|236:336,1,95,8|2,0:0|0:0,0:0:0:0:
172,284,138809,2,0,P|124:280|108:340,2,95,10|2|8,0:1|0:0|0:0,0:0:0:0:
253,336,139868,5,2,0:0:0:0:
416,232,140574,2,0,P|403:138|320:134,1,190,2|2,0:0|0:0,0:0:0:0:
228,138,141633,2,0,P|236:92|277:51,2,95,10|2|8,0:0|0:0|0:0,0:0:0:0:
284,216,142692,6,0,P|304:307|227:339,1,190,2|2,0:0|0:0,0:0:0:0:
156,284,143751,2,0,L|56:284,1,95,8|2,0:0|0:0,0:0:0:0:
12,204,144457,2,0,P|8:156|68:139,2,95,10|2|8,0:1|0:0|0:0,0:0:0:0:
61,284,145515,6,0,P|47:321|-35:350,2,95,2|10|2,0:0|0:0|0:0,0:0:0:0:
124,212,146573,1,0,0:0:0:0:
88,124,146927,2,0,P|180:104|212:180,1,190,2|8,0:0|0:0,0:0:0:0:
124,212,147986,1,8,0:0:0:0:
