osu file format v14

[General]
AudioFilename: audio.mp3
AudioLeadIn: 0
PreviewTime: 4897
Countdown: 1
SampleSet: Soft
StackLeniency: 0.7
Mode: 0
LetterboxInBreaks: 0
WidescreenStoryboard: 1

[Editor]
DistanceSpacing: 1
BeatDivisor: 8
GridSize: 32
TimelineZoom: 1

[Metadata]
Title:Scape Santa
TitleUnicode:Scape Santa
Artist:Ian Taylor
ArtistUnicode:Ian Taylor
Creator:Naotoshi
Version:Pentori's Hard
Source:RuneScape
Tags:rune scape christmas mmorpg bgm jagex foxy grandpa foxygrandpa pentori log off now yuii-
BeatmapID:1477079
BeatmapSetID:688987

[Difficulty]
HPDrainRate:5.5
CircleSize:4
OverallDifficulty:6
ApproachRate:7.5
SliderMultiplier:2.7
SliderTickRate:1

[Events]
//Background and Video events
0,0,"christmas grand exchange.jpg",0,0
//Break Periods
//Storyboard Layer 0 (Background)
//Storyboard Layer 1 (Fail)
//Storyboard Layer 2 (Pass)
//Storyboard Layer 3 (Foreground)
//Storyboard Sound Samples

[TimingPoints]
1516,705.882352941176,4,2,1,30,1,0
1516,-100,4,2,1,30,0,0
6104,-100,4,2,1,25,0,0
7163,-100,4,2,1,35,0,0
17398,-100,4,2,4,35,0,0
18104,-100,4,2,4,30,0,0
18457,-100,4,2,1,35,0,0
28692,-100,4,2,4,35,0,0
29398,-100,4,2,4,20,0,0
29751,-83.3333333333333,4,2,2,40,0,1
41045,-100,4,2,2,40,0,0
41046,-100,4,2,1,35,0,0
51280,-100,4,2,4,35,0,0
51986,-100,4,2,4,25,0,0
52339,-100,4,2,2,35,0,0
62927,-100,4,2,2,30,0,0
63280,-100,4,2,2,25,0,0
63633,-100,4,2,2,35,0,0
97515,-83.3333333333333,4,2,2,35,0,1
97516,-83.3333333333333,4,2,3,40,0,1
102457,-83.3333333333333,4,2,3,20,0,1
102545,-83.3333333333333,4,2,3,25,0,1
102633,-83.3333333333333,4,2,3,30,0,1
102721,-83.3333333333333,4,2,3,35,0,1
103163,-100,4,2,1,35,0,0
113398,-100,4,2,4,35,0,0
114104,-100,4,2,1,35,0,0
124692,-100,4,2,4,30,0,0
125398,-100,4,2,4,25,0,0
125751,-83.3333333333333,4,2,4,25,0,1
125752,-83.3333333333333,4,2,2,40,0,1
137045,-100,4,2,2,40,0,0
137046,-100,4,2,1,30,0,0
147280,-100,4,2,4,30,0,0
147986,-100,4,2,4,20,0,0

[Colours]
Combo1 : 234,172,68
Combo2 : 57,190,7
Combo3 : 207,22,22

[HitObjects]
443,79,1516,6,0,L|271:57,1,135,10|0,0:0|0:0,0:0:0:0:
230,7,2046,1,2,0:0:0:0:
241,132,2222,2,0,L|69:110,1,135,2|12,0:0|0:0,0:0:0:0:
454,204,2928,2,0,L|320:186,1,135,2|10,0:0|0:0,0:0:0:0:
241,132,3458,1,0,0:0:0:0:
252,257,3634,2,0,L|80:235,1,135,2|8,0:0|0:0,0:0:0:0:
465,329,4340,2,0,L|293:307,1,135,6|10,0:0|0:0,0:0:0:0:
252,257,4868,1,2,0:0:0:0:
263,382,5046,5,2,0:0:0:0:
355,185,5399,1,12,0:0:0:0:
139,204,5752,1,2,0:0:0:0:
248,284,6105,2,0,L|256:217,2,67.5,8|0|0,0:0|0:0|0:0,0:0:0:0:
168,112,6810,1,8,0:0:0:0:
330,163,7163,6,0,B|226:138|237:230|124:200,1,202.5,6|2,0:0|0:0,0:0:0:0:
47,179,7869,2,0,L|64:312,1,135,2|12,0:0|0:0,0:0:0:0:
64,312,8575,1,2,0:0:0:0:
168,112,8928,1,10,0:1:0:0:
254,261,9281,2,0,L|187:253,2,67.5,2|0|8,0:0|0:0|0:0,0:0:0:0:
409,341,9987,6,0,B|329:332|329:332|289:353|289:353|194:344,1,202.5,6|0,0:0|0:0,0:0:0:0:
134,291,10693,2,0,P|198:252|273:273,1,135,2|12,0:0|0:0,0:0:0:0:
254,261,11399,1,2,0:0:0:0:
354,100,11752,2,0,P|290:139|215:118,1,135,10|2,0:0|0:0,0:0:0:0:
84,248,12457,2,0,L|76:181,1,67.5,8|0,0:0|0:0,0:0:0:0:
42,89,12810,6,0,B|146:64|135:156|248:126,1,202.5,6|2,0:0|0:0,0:0:0:0:
278,46,13516,2,0,L|411:63,1,135,2|12,0:0|0:0,0:0:0:0:
411,63,14222,1,2,0:0:0:0:
311,223,14575,1,10,0:1:0:0:
474,191,14928,2,0,L|466:258,2,67.5,2|0|8,0:0|0:0|0:0,0:0:0:0:
233,129,15634,5,6,0:0:0:0:
374,294,15987,1,10,0:0:0:0:
311,223,16163,1,2,0:0:0:0:
225,263,16340,2,0,L|92:246,1,135,2|12,0:0|0:0,0:0:0:0:
91,245,17046,1,2,0:0:0:0:
311,223,17399,2,0,P|323:255|319:289,2,67.5,10|0|2,0:0|0:0|0:0,0:0:0:0:
163,103,18105,1,8,0:0:0:0:
225,263,18457,6,0,L|252:50,1,202.5,6|2,0:0|0:0,0:0:0:0:
163,103,19163,2,0,P|97:110|42:72,1,135,2|12,0:0|0:0,0:0:0:0:
42,72,19869,1,2,0:0:0:0:
157,196,20222,1,10,0:1:0:0:
8,274,20575,2,0,L|0:207,2,67.5,2|0|8,0:0|0:0|0:0,0:0:0:0:
171,296,21281,6,0,B|225:285|251:238|251:238|295:277|369:262,1,202.5,6|0,0:0|0:0,0:0:0:0:
431,226,21987,2,0,P|468:280|461:346,1,135,2|12,0:0|0:0,0:0:0:0:
461,346,22693,1,2,0:0:0:0:
333,252,23046,1,10,0:0:0:0:
233,379,23399,1,2,0:0:0:0:
344,265,23752,2,0,L|277:257,1,67.5,8|0,0:0|0:0,0:0:0:0:
189,292,24105,6,0,B|164:188|256:199|226:86,1,202.5,6|0,0:0|0:0,0:0:0:0:
139,129,24810,2,0,L|6:112,1,135,2|12,0:0|0:0,0:0:0:0:
5,111,25516,1,2,0:0:0:0:
141,24,25869,1,10,0:1:0:0:
237,167,26222,2,0,L|229:100,2,67.5,2|0|8,0:0|0:0|0:0,0:0:0:0:
50,203,26928,5,6,0:0:0:0:
206,316,27281,1,10,0:0:0:0:
166,230,27457,1,2,0:0:0:0:
237,167,27634,2,0,L|370:184,1,135,2|12,0:0|0:0,0:0:0:0:
370,184,28340,1,2,0:0:0:0:
215,60,28693,2,0,L|282:68,2,67.5,8|0|8,0:0|0:0|0:0,0:0:0:0:
388,2,29399,1,8,0:0:0:0:
442,241,29752,6,0,P|459:204|456:164,1,80.9999975280763,2|0,0:0|0:0,0:0:0:0:
376,109,30105,1,10,0:0:0:0:
300,169,30281,1,2,0:0:0:0:
205,147,30457,2,0,L|231:351,1,161.999995056153,2|8,0:0|0:0,0:0:0:0:
244,333,31163,2,0,P|189:286|99:301,1,161.999995056153,2|8,0:0|0:0,0:0:0:0:
40,370,31693,1,2,0:0:0:0:
3,245,31869,2,0,P|80:257|142:208,1,161.999995056153,2|8,0:0|0:0,0:0:0:0:
47,84,32575,6,0,L|59:186,1,80.9999975280763,2|0,0:0|0:0,0:0:0:0:
146,211,32928,1,10,0:0:0:0:
146,211,33105,1,2,0:0:0:0:
215,143,33281,2,0,B|302:118|293:182|381:165,1,161.999995056153,2|8,0:0|0:0,0:0:0:0:
389,191,33987,2,0,L|409:30,1,161.999995056153,2|8,0:0|0:0,0:0:0:0:
491,82,34516,1,2,0:0:0:0:
315,11,34693,2,0,P|268:66|283:156,1,161.999995056153,2|8,0:0|0:0,0:0:0:0:
419,285,35399,6,0,L|258:305,1,161.999995056153,2|10,0:0|0:0,0:0:0:0:
185,239,35928,1,2,0:0:0:0:
91,266,36105,2,0,L|100:185,2,80.9999975280763,2|0|0,0:0|0:0|0:0,0:0:0:0:
50,93,36810,2,0,P|87:76|127:79,1,80.9999975280763,2|0,0:0|0:0,0:0:0:0:
205,21,37163,2,0,P|242:38|282:35,1,80.9999975280763,8|2,0:0|0:0,0:0:0:0:
345,108,37516,2,0,P|406:59|484:71,1,161.999995056153,2|8,0:0|0:0,0:0:0:0:
439,160,38046,1,0,0:0:0:0:
439,160,38134,1,0,0:0:0:0:
439,160,38222,6,0,L|427:262,1,80.9999975280763,2|0,0:0|0:0,0:0:0:0:
340,279,38575,2,0,L|349:198,1,80.9999975280763,10|2,0:0|0:0,0:0:0:0:
260,158,38928,2,0,P|223:175|183:172,1,80.9999975280763,2|0,0:0|0:0,0:0:0:0:
95,131,39281,1,8,0:0:0:0:
95,131,39634,2,0,L|85:211,1,80.9999975280763,2|0,0:0|0:0,0:0:0:0:
23,286,39987,1,8,0:0:0:0:
23,286,40163,1,2,0:0:0:0:
118,307,40340,2,0,B|205:282|196:346|284:329,1,161.999995056153,2|8,0:0|0:0,0:0:0:0:
397,187,41046,6,0,P|351:122|226:144,1,202.5,4|0,0:0|0:0,0:0:0:0:
266,221,41752,2,0,L|133:204,1,135,2|12,0:0|0:0,0:0:0:0:
132,203,42457,1,2,0:0:0:0:
273,330,42810,1,10,0:1:0:0:
354,159,43163,2,0,L|362:226,2,67.5,2|0|8,0:0|0:0|0:0,0:0:0:0:
455,34,43869,6,0,L|242:7,1,202.5,4|2,0:0|0:0,0:0:0:0:
179,67,44575,2,0,P|216:121|209:187,1,135,2|12,0:0|0:0,0:0:0:0:
208,187,45281,1,2,0:0:0:0:
22,149,45634,2,0,L|39:282,1,135,10|2,0:0|0:0,0:0:0:0:
215,352,46340,2,0,P|218:318|206:287,1,67.5,8|0,0:0|0:0,0:0:0:0:
133,227,46693,6,0,B|108:123|200:134|170:21,1,202.5,4|0,0:0|0:0,0:0:0:0:
262,67,47399,2,0,P|327:74|382:37,1,135,2|12,0:0|0:0,0:0:0:0:
382,37,48105,1,2,0:0:0:0:
296,205,48457,1,10,0:1:0:0:
480,165,48810,2,0,L|413:157,2,67.5,2|0|8,0:0|0:0|0:0,0:0:0:0:
437,349,49516,5,4,0:0:0:0:
317,202,49869,1,10,0:0:0:0:
409,228,50046,1,2,0:0:0:0:
480,165,50222,2,0,L|463:32,1,135,2|12,0:0|0:0,0:0:0:0:
462,31,50928,1,2,0:0:0:0:
289,107,51281,2,0,L|356:115,2,67.5,8|0|8,0:0|0:0|0:0,0:0:0:0:
480,165,51987,1,8,0:0:0:0:
312,252,52340,6,0,B|416:227|405:319|518:289,1,202.5,2|0,0:1|0:0,0:0:0:0:
468,380,53046,2,0,L|335:363,1,135,2|8,0:0|0:0,0:0:0:0:
145,383,53752,2,0,L|128:250,1,135,0|10,0:0|0:0,0:0:0:0:
191,178,54281,1,0,0:0:0:0:
145,95,54457,2,0,P|199:132|265:125,1,135,2|8,0:0|0:0,0:0:0:0:
289,100,55163,6,0,L|272:233,1,135,0|8,0:0|0:0,0:0:0:0:
369,232,55693,1,0,0:0:0:0:
423,308,55869,2,0,P|460:254|453:188,1,135,2|8,0:0|0:0,0:0:0:0:
506,5,56575,2,0,L|373:22,1,135,0|10,0:0|0:0,0:0:0:0:
312,96,57105,1,0,0:0:0:0:
229,51,57281,2,0,L|96:34,1,135,2|8,0:0|0:0,0:0:0:0:
4,200,57987,6,0,B|84:191|84:191|124:212|124:212|219:203,1,202.5,0|0,0:0|0:0,0:0:0:0:
294,192,58693,2,0,L|277:325,1,135,2|8,0:0|0:0,0:0:0:0:
502,308,59399,2,0,P|436:315|381:278,1,135,0|10,0:0|0:0,0:0:0:0:
460,225,59928,1,0,0:0:0:0:
424,137,60105,2,0,L|441:4,1,135,2|8,0:0|0:0,0:0:0:0:
305,135,60810,6,0,B|251:124|225:77|225:77|181:116|107:101,1,202.5,0|0,0:0|0:0,0:0:0:0:
50,56,61516,2,0,P|13:111|20:176,1,135,2|8,0:0|0:0,0:0:0:0:
0,365,62222,2,0,L|133:348,1,135,0|10,0:0|0:0,0:0:0:0:
208,287,62752,1,0,0:0:0:0:
294,324,62928,2,0,L|311:191,1,135,2|8,0:0|0:0,0:0:0:0:
330,162,63634,6,0,B|226:137|237:229|124:199,1,202.5,2|0,0:1|0:0,0:0:0:0:
49,234,64340,2,0,L|32:101,1,135,2|8,0:0|0:0,0:0:0:0:
194,2,65046,2,0,P|249:38|314:31,1,135,0|10,0:0|0:0,0:0:0:0:
399,73,65575,1,0,0:0:0:0:
352,155,65752,2,0,P|407:118|472:125,1,135,2|8,0:0|0:0,0:0:0:0:
395,297,66457,6,0,L|262:280,1,135,2|8,0:1|0:0,0:0:0:0:
191,214,66987,1,0,0:0:0:0:
100,241,67163,2,0,P|63:185|70:120,1,135,2|8,0:0|0:0,0:0:0:0:
200,23,67869,1,0,0:0:0:0:
314,173,68222,2,0,L|322:106,1,67.5,10|0,0:0|0:0,0:0:0:0:
334,6,68575,2,0,L|201:23,1,135,2|8,0:0|0:0,0:0:0:0:
29,106,69281,6,0,B|133:81|122:173|235:143,1,202.5,2|0,0:1|0:0,0:0:0:0:
314,173,69987,2,0,P|351:229|344:294,1,135,2|8,0:0|0:0,0:0:0:0:
469,151,70693,2,0,L|486:18,1,135,0|10,0:0|0:0,0:0:0:0:
396,47,71222,1,0,0:0:0:0:
306,76,71399,2,0,L|173:59,1,135,2|8,0:0|0:0,0:0:0:0:
209,235,72105,6,0,P|163:170|38:192,1,202.5,2|0,0:1|0:0,0:0:0:0:
114,254,72810,2,0,L|97:387,1,135,2|8,0:0|0:0,0:0:0:0:
224,247,73515,2,0,P|289:240|344:277,1,135,0|10,0:0|0:0,0:0:0:0:
300,147,74046,1,0,0:0:0:0:
384,189,74222,2,0,P|449:195|504:158,1,135,2|8,0:0|0:0,0:0:0:0:
435,36,74928,6,0,L|427:103,2,67.5,2|0|8,0:1|0:0|0:0,0:0:0:0:
344,63,75457,1,0,0:0:0:0:
262,14,75634,2,0,P|224:68|230:134,1,135,2|8,0:0|0:0,0:0:0:0:
334,292,76340,2,0,L|201:275,1,135,0|10,0:0|0:0,0:0:0:0:
134,206,76869,1,0,0:0:0:0:
43,233,77046,2,0,P|5:179|11:113,1,135,2|8,0:0|0:0,0:0:0:0:
176,20,77752,6,0,B|320:4|320:4|288:22|276:62,1,202.5,2|0,0:1|0:0,0:0:0:0:
367,86,78457,2,0,L|350:219,1,135,2|8,0:0|0:0,0:0:0:0:
474,362,79163,2,0,P|419:324|353:330,1,135,0|8,0:0|0:0,0:0:0:0:
274,277,79693,1,0,0:0:0:0:
208,344,79869,2,0,P|153:381|87:375,1,135,2|8,0:0|0:0,0:0:0:0:
188,215,80575,6,0,B|179:135|179:135|200:95|200:95|191:0,1,202.5,2|0,0:1|0:0,0:0:0:0:
108,62,81281,2,0,L|-25:45,1,135,2|8,0:0|0:0,0:0:0:0:
54,232,81987,2,0,L|187:215,1,135,0|10,0:0|0:0,0:0:0:0:
253,146,82516,1,0,0:0:0:0:
342,177,82693,2,0,L|359:44,1,135,2|8,0:0|0:0,0:0:0:0:
509,232,83399,6,0,B|405:207|416:299|303:269,1,202.5,2|0,0:1|0:0,0:0:0:0:
239,219,84104,2,0,P|184:257|118:251,1,135,2|8,0:0|0:0,0:0:0:0:
169,98,84810,2,0,L|161:165,2,67.5,0|0|10,0:0|0:0|0:0,0:0:0:0:
246,43,85340,1,0,0:0:0:0:
327,90,85516,2,0,L|460:73,1,135,2|8,0:0|0:0,0:0:0:0:
487,51,86222,6,0,L|460:264,1,202.5,2|0,0:1|0:0,0:0:0:0:
511,328,86928,2,0,B|456:293|456:293|361:313,1,135,2|8,0:0|0:0,0:0:0:0:
248,220,87634,2,0,B|193:255|193:255|98:235,1,135,0|10,0:0|0:0,0:0:0:0:
178,162,88163,1,0,0:0:0:0:
231,83,88340,2,0,L|364:100,1,135,2|8,0:0|0:0,0:0:0:0:
467,259,89045,6,0,P|412:221|346:227,1,135,2|8,0:1|0:0,0:0:0:0:
287,300,89575,1,0,0:0:0:0:
195,273,89752,2,0,L|178:140,1,135,2|8,0:0|0:0,0:0:0:0:
45,4,90457,2,0,P|7:59|13:125,1,135,0|10,0:0|0:0,0:0:0:0:
92,177,90987,1,0,0:0:0:0:
178,139,91163,2,0,L|311:122,1,135,2|8,0:0|0:0,0:0:0:0:
464,252,91869,6,0,B|410:241|384:194|384:194|340:233|266:218,1,202.5,2|0,0:1|0:0,0:0:0:0:
312,122,92575,2,0,L|295:-11,1,135,2|8,0:0|0:0,0:0:0:0:
151,112,93281,2,0,P|85:117|30:79,1,135,0|10,0:0|0:0,0:0:0:0:
78,161,93810,1,0,0:0:0:0:
125,242,93987,2,0,L|258:225,1,135,2|8,0:0|0:0,0:0:0:0:
444,176,94693,6,0,L|436:243,2,67.5,0|0|8,0:0|0:0|0:0,0:0:0:0:
387,99,95222,1,0,0:0:0:0:
292,105,95399,2,0,P|254:159|259:225,1,135,2|8,0:0|0:0,0:0:0:0:
368,380,96105,2,0,L|235:363,1,135,0|10,0:0|0:0,0:0:0:0:
164,298,96634,1,0,0:0:0:0:
72,322,96811,2,0,L|55:189,1,135,2|8,0:0|0:0,0:0:0:0:
218,83,97516,6,0,P|255:100|295:97,1,80.9999975280763,4|2,0:0|0:0,0:0:0:0:
388,71,97869,2,0,L|362:275,1,161.999995056153,8|2,0:0|0:0,0:0:0:0:
405,329,98399,1,8,0:0:0:0:
405,329,98487,1,8,0:0:0:0:
405,329,98575,2,0,L|303:341,1,80.9999975280763,8|8,0:0|0:0,0:0:0:0:
236,380,98928,6,0,P|181:333|91:348,1,161.999995056153,6|8,0:0|0:0,0:0:0:0:
18,285,99457,1,2,0:0:0:0:
58,196,99634,2,0,P|95:213|135:210,1,80.9999975280763,2|8,0:0|0:0,0:0:0:0:
134,210,99899,1,8,0:0:0:0:
134,210,99987,1,8,0:0:0:0:
209,148,100163,1,8,0:0:0:0:
301,179,100340,6,0,L|313:77,1,80.9999975280763,6|0,0:0|0:0,0:0:0:0:
275,7,100693,2,0,B|362:-18|353:46|441:29,1,161.999995056153,8|2,0:0|0:0,0:0:0:0:
472,118,101222,2,0,L|512:113,2,40.4999987640381,8|0|8,0:0|0:0|0:0,0:0:0:0:
407,191,101575,1,8,0:0:0:0:
459,273,101752,6,0,P|404:226|314:241,1,161.999995056153,2|8,0:0|0:0,0:0:0:0:
179,140,102457,2,0,L|174:180,3,40.4999987640381,10|0|0|0,0:0|0:0|0:0|0:0,0:0:0:0:
151,214,102810,2,0,L|253:202,1,80.9999975280763,4|0,0:0|0:0,0:0:0:0:
320,237,103163,6,0,B|345:133|253:144|283:31,1,202.5,2|2,0:0|0:0,0:0:0:0:
370,74,103869,2,0,L|503:57,1,135,2|8,0:0|0:0,0:0:0:0:
503,56,104575,1,2,0:0:0:0:
453,238,104928,1,10,0:1:0:0:
299,128,105281,2,0,L|366:136,2,67.5,2|0|8,0:0|0:0|0:0,0:0:0:0:
131,180,105987,6,0,B|211:187|211:187|245:216|245:216|340:227,1,202.5,2|0,0:0|0:0,0:0:0:0:
395,273,106693,2,0,P|329:265|275:303,1,135,2|8,0:0|0:0,0:0:0:0:
275,303,107399,1,2,0:0:0:0:
131,180,107752,1,8,0:0:0:0:
310,75,108105,1,2,0:0:0:0:
144,191,108457,2,0,L|152:124,1,67.5,8|0,0:0|0:0,0:0:0:0:
119,35,108810,6,0,B|223:10|212:102|325:72,1,202.5,2|2,0:0|0:0,0:0:0:0:
394,33,109516,2,0,P|431:87|423:152,1,135,2|8,0:0|0:0,0:0:0:0:
423,152,110222,1,2,0:0:0:0:
278,274,110575,1,10,0:1:0:0:
443,256,110928,2,0,L|435:323,2,67.5,2|0|8,0:0|0:0|0:0,0:0:0:0:
275,167,111634,6,0,L|142:184,2,135,2|10|2,0:0|0:0|0:0,0:0:0:0:
275,167,112693,1,8,0:0:0:0:
118,61,113046,1,2,0:0:0:0:
297,0,113399,2,0,P|308:31|305:64,2,67.5,8|0|8,0:0|0:0|0:0,0:0:0:0:
170,141,114105,1,8,0:0:0:0:
394,196,114457,6,0,P|339:158|274:166,1,135,2|8,0:0|0:0,0:0:0:0:
205,231,114987,1,2,0:0:0:0:
112,211,115163,2,0,L|129:344,1,135,2|8,0:0|0:0,0:0:0:0:
276,281,115869,2,0,P|309:284|340:273,1,67.5,0|0,0:0|0:0,0:0:0:0:
394,196,116222,2,0,P|427:192|458:203,1,67.5,10|2,0:1|0:0,0:0:0:0:
510,283,116575,2,0,L|502:350,2,67.5,2|0|8,0:0|0:0|0:0,0:0:0:0:
394,196,117281,6,0,L|411:63,1,135,2|10,0:0|0:0,0:0:0:0:
336,3,117810,1,2,0:0:0:0:
250,44,117987,2,0,L|117:61,1,135,2|10,0:0|0:0,0:0:0:0:
10,189,118693,2,0,P|41:177|74:181,1,67.5,2|0,0:0|0:0,0:0:0:0:
150,239,119046,2,0,P|161:270|157:303,1,67.5,8|0,0:0|0:0,0:0:0:0:
59,278,119399,1,2,0:0:0:0:
177,130,119752,2,0,L|244:138,1,67.5,8|0,0:0|0:0,0:0:0:0:
320,99,120105,6,0,P|282:153|290:218,1,135,2|0,0:0|0:0,0:0:0:0:
356,285,120634,1,2,0:0:0:0:
304,363,120810,2,0,L|171:346,1,135,2|8,0:0|0:0,0:0:0:0:
78,371,121340,1,2,0:0:0:0:
78,371,121428,1,2,0:0:0:0:
78,371,121516,2,0,L|70:304,1,67.5,2|0,0:0|0:0,0:0:0:0:
138,238,121869,2,0,L|146:171,1,67.5,10|2,0:1|0:0,0:0:0:0:
94,91,122222,2,0,L|161:83,2,67.5,2|0|8,0:0|0:0|0:0,0:0:0:0:
256,188,122928,5,2,0:0:0:0:
216,7,123281,1,10,0:0:0:0:
161,83,123457,1,2,0:0:0:0:
255,93,123634,2,0,L|388:76,1,135,2|8,0:0|0:0,0:0:0:0:
388,75,124340,1,2,0:0:0:0:
475,242,124693,2,0,L|483:175,2,67.5,8|8|8,0:0|0:0|0:0,0:0:0:0:
327,171,125399,1,8,0:0:0:0:
250,349,125752,6,0,L|330:339,1,80.9999975280763,2|0,0:0|0:0,0:0:0:0:
421,374,126105,1,10,0:0:0:0:
421,374,126280,1,2,0:0:0:0:
402,278,126457,2,0,B|377:191|441:200|424:112,1,161.999995056153,0|8,0:0|0:0,0:0:0:0:
259,22,127163,2,0,L|279:182,1,161.999995056153,2|8,0:0|0:0,0:0:0:0:
224,263,127693,1,2,0:0:0:0:
138,217,127869,2,0,P|61:229|-1:180,1,161.999995056153,2|8,0:0|0:0,0:0:0:0:
94,56,128575,6,0,L|82:158,2,80.9999975280763,2|0|10,0:0|0:0|0:0,0:0:0:0:
177,4,129105,1,2,0:0:0:0:
253,63,129281,2,0,B|318:55|318:55|348:70|348:70|423:62,1,161.999995056153,2|8,0:0|0:0,0:0:0:0:
438,82,129987,2,0,P|388:143|400:221,1,161.999995056153,2|8,0:0|0:0,0:0:0:0:
481,166,130516,1,2,0:0:0:0:
484,263,130693,2,0,L|324:243,1,161.999995056153,2|8,0:0|0:0,0:0:0:0:
158,346,131399,6,0,P|121:363|81:360,1,80.9999975280763,2|0,0:0|0:0,0:0:0:0:
26,280,131752,1,10,0:0:0:0:
86,204,131928,1,2,0:0:0:0:
54,111,132105,2,0,B|141:86|132:150|220:133,1,161.999995056153,2|8,0:0|0:0,0:0:0:0:
393,72,132810,2,0,L|381:174,1,80.9999975280763,2|0,0:0|0:0,0:0:0:0:
300,203,133163,2,0,L|312:305,1,80.9999975280763,8|2,0:0|0:0,0:0:0:0:
366,362,133516,2,0,P|305:312|227:324,1,161.999995056153,2|8,0:0|0:0,0:0:0:0:
132,217,134046,1,0,0:0:0:0:
132,217,134134,1,0,0:0:0:0:
132,217,134222,6,0,P|169:234|209:231,1,80.9999975280763,2|0,0:0|0:0,0:0:0:0:
300,203,134575,2,0,P|317:166|314:126,1,80.9999975280763,10|2,0:0|0:0,0:0:0:0:
260,45,134928,2,0,L|362:33,1,80.9999975280763,2|0,0:0|0:0,0:0:0:0:
430,81,135281,1,8,0:0:0:0:
430,81,135634,2,0,L|440:1,2,80.9999975280763,2|0|8,0:0|0:0|0:0,0:0:0:0:
489,158,136163,1,2,0:0:0:0:
425,231,136340,2,0,P|347:219|286:269,1,161.999995056153,2|8,0:0|0:0,0:0:0:0:
112,344,137046,6,0,B|216:319|205:411|318:381,1,202.5,2|0,0:0|0:0,0:0:0:0:
382,333,137752,2,0,L|365:200,1,135,2|8,0:0|0:0,0:0:0:0:
364,199,138457,1,2,0:0:0:0:
185,260,138810,1,10,0:1:0:0:
271,91,139163,2,0,L|263:158,2,67.5,2|0|8,0:0|0:0|0:0,0:0:0:0:
201,267,139869,6,0,P|247:202|372:224,1,202.5,2|2,0:0|0:0,0:0:0:0:
337,303,140575,2,0,L|470:286,1,135,2|8,0:0|0:0,0:0:0:0:
470,285,141281,1,2,0:0:0:0:
497,84,141634,2,0,P|442:122|377:114,1,135,10|2,0:0|0:0,0:0:0:0:
192,69,142340,2,0,L|200:136,1,67.5,8|0,0:0|0:0,0:0:0:0:
120,194,142693,6,0,B|174:183|200:136|200:136|244:175|318:160,1,202.5,2|0,0:0|0:0,0:0:0:0:
377,114,143399,2,0,P|415:169|407:234,1,135,2|8,0:0|0:0,0:0:0:0:
407,233,144105,1,2,0:0:0:0:
220,263,144457,1,10,0:1:0:0:
331,373,144810,2,0,L|339:306,2,67.5,2|0|8,0:0|0:0|0:0,0:0:0:0:
143,302,145516,6,0,P|132:271|135:238,1,67.5,2|0,0:0|0:0,0:0:0:0:
89,154,145869,2,0,P|110:128|140:115,1,67.5,10|2,0:0|0:0,0:0:0:0:
230,147,146222,2,0,L|363:130,1,135,2|8,0:0|0:0,0:0:0:0:
363,129,146928,1,2,0:0:0:0:
269,259,147281,2,0,L|261:326,2,67.5,8|0|8,0:0|0:0|0:0,0:0:0:0:
457,236,147987,1,8,0:0:0:0:
