osu file format v14

[General]
AudioFilename: audio.mp3
AudioLeadIn: 0
PreviewTime: 4897
Countdown: 1
SampleSet: Normal
StackLeniency: 0.7
Mode: 1
LetterboxInBreaks: 0
WidescreenStoryboard: 1

[Editor]
Bookmarks: 1721,29692,35339,40986,52280,63574,74868,86162,97456,103103,114397,125692,136986,159574,170868,182162,193545,196368,207574,218868,230162,241456,247103
DistanceSpacing: 1
BeatDivisor: 8
GridSize: 16
TimelineZoom: 1

[Metadata]
Title:Scape Santa
TitleUnicode:Scape Santa
Artist:Ian Taylor
ArtistUnicode:Ian Taylor
Creator:Naotoshi
Version:Muzukashii
Source:RuneScape
Tags:rune scape christmas mmorpg bgm jagex foxy grandpa foxygrandpa pentori log off now yuii-
BeatmapID:1463213
BeatmapSetID:688987

[Difficulty]
HPDrainRate:5
CircleSize:4
OverallDifficulty:5
ApproachRate:4
SliderMultiplier:1.4
SliderTickRate:1

[Events]
//Background and Video events
0,0,"christmas grand exchange.jpg",0,0
//Break Periods
//Storyboard Layer 0 (Background)
//Storyboard Layer 1 (Fail)
//Storyboard Layer 2 (Pass)
//Storyboard Layer 3 (Foreground)
//Storyboard Sound Samples

[TimingPoints]
1516,705.882352941176,4,1,0,50,1,0
1516,-55.5555555555556,4,1,0,50,0,0
29751,-55.5555555555556,4,1,0,62,0,1
41045,-55.5555555555556,4,1,0,50,0,0
97515,-55.5555555555556,4,1,0,62,0,1
102986,-55.5555555555556,4,1,0,62,0,1
103163,-55.5555555555556,4,1,0,50,0,0
125751,-55.5555555555556,4,1,0,62,0,1
137045,-55.5555555555556,4,1,0,50,0,0

[Colours]
Combo1 : 234,172,68
Combo2 : 57,190,7
Combo3 : 207,22,22

[HitObjects]
252,192,1516,5,0,0:0:0:0:
252,192,1868,1,8,0:0:0:0:
252,192,2221,1,0,0:0:0:0:
256,192,2574,1,8,0:0:0:0:
252,192,2927,1,0,0:0:0:0:
252,192,3280,1,8,0:0:0:0:
252,192,3633,1,0,0:0:0:0:
256,192,3986,1,8,0:0:0:0:
252,192,4339,1,4,0:0:0:0:
252,192,5045,1,8,0:0:0:0:
256,192,5398,1,8,0:0:0:0:
256,192,5751,1,8,0:0:0:0:
256,192,6104,1,0,0:0:0:0:
256,192,6456,1,0,0:0:0:0:
256,192,7162,1,0,0:0:0:0:
256,192,7515,1,0,0:0:0:0:
256,192,7692,1,0,0:0:0:0:
256,192,7868,1,8,0:0:0:0:
256,192,8927,1,8,0:0:0:0:
256,192,9280,1,8,0:0:0:0:
256,192,9456,1,8,0:0:0:0:
256,192,9633,1,0,0:0:0:0:
256,192,9986,1,8,0:0:0:0:
256,192,10339,1,0,0:0:0:0:
256,192,10515,1,0,0:0:0:0:
256,192,10692,1,8,0:0:0:0:
256,192,11398,1,0,0:0:0:0:
256,192,12456,1,8,0:0:0:0:
256,192,12809,1,8,0:0:0:0:
256,192,13162,1,0,0:0:0:0:
256,192,13339,1,0,0:0:0:0:
256,192,13515,1,8,0:0:0:0:
256,192,14574,1,8,0:0:0:0:
256,192,14927,1,8,0:0:0:0:
256,192,15103,1,8,0:0:0:0:
256,192,15280,1,0,0:0:0:0:
256,192,15633,1,8,0:0:0:0:
256,192,15986,1,0,0:0:0:0:
256,192,16162,1,0,0:0:0:0:
256,192,16339,1,8,0:0:0:0:
256,192,16692,1,0,0:0:0:0:
256,192,17045,1,8,0:0:0:0:
256,192,17751,1,0,0:0:0:0:
256,192,18104,1,0,0:0:0:0:
256,192,18457,1,8,0:0:0:0:
256,192,18809,1,0,0:0:0:0:
256,192,18986,1,0,0:0:0:0:
256,192,19162,1,8,0:0:0:0:
256,192,20221,1,8,0:0:0:0:
256,192,20574,1,8,0:0:0:0:
256,192,20750,1,8,0:0:0:0:
256,192,20927,1,0,0:0:0:0:
256,192,21281,1,8,0:0:0:0:
256,192,21633,1,0,0:0:0:0:
256,192,21809,1,0,0:0:0:0:
256,192,21986,1,8,0:0:0:0:
256,192,23045,1,8,0:0:0:0:
256,192,23750,1,8,0:0:0:0:
256,192,24104,1,8,0:0:0:0:
256,192,24456,1,0,0:0:0:0:
256,192,24633,1,0,0:0:0:0:
256,192,24809,1,8,0:0:0:0:
256,192,25868,1,8,0:0:0:0:
256,192,26221,1,8,0:0:0:0:
256,192,26397,1,8,0:0:0:0:
256,192,26574,1,0,0:0:0:0:
256,192,26927,1,8,0:0:0:0:
256,192,27280,1,0,0:0:0:0:
256,192,27456,1,0,0:0:0:0:
256,192,27633,1,8,0:0:0:0:
256,192,27986,1,0,0:0:0:0:
256,192,28339,1,8,0:0:0:0:
256,192,29045,1,0,0:0:0:0:
256,192,29751,1,12,0:0:0:0:
256,192,30104,1,0,0:0:0:0:
256,192,30280,1,0,0:0:0:0:
256,192,30456,1,8,0:0:0:0:
256,192,30809,1,0,0:0:0:0:
256,192,30986,1,8,0:0:0:0:
256,192,31162,1,8,0:0:0:0:
256,192,31515,1,0,0:0:0:0:
256,192,31692,1,8,0:0:0:0:
256,192,31868,1,8,0:0:0:0:
256,192,32221,1,0,0:0:0:0:
256,192,32574,1,8,0:0:0:0:
256,192,32927,1,8,0:1:0:0:
256,192,33104,1,8,0:0:0:0:
256,192,33280,1,0,0:0:0:0:
256,192,33633,1,8,0:0:0:0:
256,192,33809,1,8,0:0:0:0:
256,192,33986,1,0,0:0:0:0:
256,192,34339,1,0,0:0:0:0:
256,192,34515,1,0,0:0:0:0:
256,192,34692,1,8,0:0:0:0:
256,192,35398,1,12,0:0:0:0:
256,192,35751,1,0,0:0:0:0:
256,192,35927,1,0,0:0:0:0:
256,192,36103,1,8,0:0:0:0:
256,192,36456,1,0,0:0:0:0:
256,192,36633,1,0,0:0:0:0:
256,192,36809,1,8,0:0:0:0:
256,192,37162,1,0,0:0:0:0:
256,192,37339,1,8,0:0:0:0:
256,192,37515,1,8,0:0:0:0:
256,192,37868,1,0,0:0:0:0:
256,192,38045,1,0,0:0:0:0:
256,192,38133,1,0,0:0:0:0:
256,192,38221,1,0,0:0:0:0:
256,192,38574,1,8,0:0:0:0:
256,192,38751,1,0,0:0:0:0:
256,192,38927,1,8,0:0:0:0:
256,192,39280,1,0,0:0:0:0:
256,192,39456,1,0,0:0:0:0:
256,192,39633,1,8,0:0:0:0:
256,192,39986,1,0,0:0:0:0:
256,192,40162,1,8,0:0:0:0:
256,192,40339,1,8,0:0:0:0:
256,192,41045,1,8,0:0:0:0:
256,192,41398,1,0,0:0:0:0:
256,192,41575,1,0,0:0:0:0:
256,192,41751,1,8,0:0:0:0:
256,192,42810,1,8,0:0:0:0:
256,192,43163,1,8,0:0:0:0:
256,192,43339,1,8,0:0:0:0:
256,192,43516,1,0,0:0:0:0:
256,192,43869,1,8,0:0:0:0:
256,192,44222,1,0,0:0:0:0:
256,192,44398,1,0,0:0:0:0:
256,192,44575,1,8,0:0:0:0:
256,192,45634,1,8,0:0:0:0:
256,192,46339,1,0,0:0:0:0:
256,192,46692,1,8,0:0:0:0:
256,192,47045,1,0,0:0:0:0:
256,192,47222,1,0,0:0:0:0:
256,192,47398,1,8,0:0:0:0:
256,192,48457,1,8,0:0:0:0:
256,192,48810,1,8,0:0:0:0:
256,192,48986,1,8,0:0:0:0:
256,192,49163,1,0,0:0:0:0:
256,192,49516,1,8,0:0:0:0:
256,192,49869,1,0,0:0:0:0:
256,192,50045,1,0,0:0:0:0:
256,192,50222,1,8,0:0:0:0:
256,192,50575,1,0,0:0:0:0:
256,192,50928,1,8,0:0:0:0:
256,192,51634,1,0,0:0:0:0:
256,192,52339,1,8,0:0:0:0:
256,192,53045,1,8,0:0:0:0:
256,192,53398,1,8,0:0:0:0:
256,192,53751,1,0,0:0:0:0:
256,192,54457,1,0,0:0:0:0:
256,192,55163,1,8,0:0:0:0:
256,192,55339,1,8,0:0:0:0:
256,192,55692,1,8,0:0:0:0:
256,192,55869,1,8,0:0:0:0:
256,192,56575,1,0,0:0:0:0:
256,192,57104,1,8,0:0:0:0:
256,192,57281,1,0,0:0:0:0:
256,192,57633,1,8,0:0:0:0:
256,192,57986,1,0,0:0:0:0:
256,192,58692,1,8,0:0:0:0:
256,192,59045,1,0,0:0:0:0:
256,192,59398,1,8,0:0:0:0:
256,192,60104,1,8,0:0:0:0:
256,192,60457,1,0,0:0:0:0:
256,192,60633,1,0,0:0:0:0:
256,192,60809,1,8,0:0:0:0:
256,192,61163,1,0,0:0:0:0:
256,192,61516,1,8,0:0:0:0:
256,192,62222,1,8,0:0:0:0:
256,192,62574,1,8,0:0:0:0:
256,192,62927,1,0,0:0:0:0:
256,192,63633,1,8,0:0:0:0:
256,192,64339,1,8,0:0:0:0:
256,192,64692,1,8,0:0:0:0:
256,192,65045,1,0,0:0:0:0:
256,192,65751,1,8,0:0:0:0:
256,192,66457,1,0,0:0:0:0:
256,192,66633,1,8,0:0:0:0:
256,192,66986,1,8,0:0:0:0:
256,192,67163,1,0,0:0:0:0:
256,192,67869,1,0,0:0:0:0:
256,192,68398,1,8,0:0:0:0:
256,192,68575,1,0,0:0:0:0:
256,192,68927,1,8,0:0:0:0:
256,192,69280,1,0,0:0:0:0:
256,192,69986,1,8,0:0:0:0:
256,192,70339,1,0,0:0:0:0:
256,192,70692,1,8,0:0:0:0:
256,192,71398,1,8,0:0:0:0:
256,192,71751,1,8,0:0:0:0:
256,192,71927,1,0,0:0:0:0:
256,192,72103,1,8,0:0:0:0:
256,192,72810,1,8,0:0:0:0:
256,192,73163,1,0,0:0:0:0:
256,192,73516,1,8,0:0:0:0:
256,192,73869,1,8,0:0:0:0:
256,192,74045,1,8,0:0:0:0:
256,192,74221,1,0,0:0:0:0:
256,192,74927,1,8,0:0:0:0:
256,192,75633,1,8,0:0:0:0:
256,192,75986,1,8,0:0:0:0:
256,192,76339,1,0,0:0:0:0:
256,192,77045,1,8,0:0:0:0:
256,192,77751,1,8,0:0:0:0:
256,192,77927,1,0,0:0:0:0:
256,192,78280,1,0,0:0:0:0:
256,192,78457,1,8,0:0:0:0:
256,192,78810,1,8,0:0:0:0:
256,192,79163,1,0,0:0:0:0:
256,192,79692,1,0,0:0:0:0:
256,192,79869,1,0,0:0:0:0:
256,192,80221,1,0,0:0:0:0:
256,192,80574,1,0,0:0:0:0:
256,192,81280,1,8,0:0:0:0:
256,192,81633,1,0,0:0:0:0:
256,192,81986,1,8,0:0:0:0:
256,192,82339,1,8,0:0:0:0:
256,192,82516,1,0,0:0:0:0:
256,192,82692,1,8,0:0:0:0:
256,192,83045,1,0,0:0:0:0:
256,192,83221,1,0,0:0:0:0:
256,192,83397,1,8,0:0:0:0:
256,192,84104,1,8,0:0:0:0:
256,192,84810,1,8,0:0:0:0:
256,192,85163,1,0,0:0:0:0:
256,192,85339,1,0,0:0:0:0:
256,192,85515,1,8,0:0:0:0:
256,192,86221,1,8,0:0:0:0:
256,192,86927,1,8,0:0:0:0:
256,192,87280,1,8,0:0:0:0:
256,192,87633,1,0,0:0:0:0:
256,192,88339,1,8,0:0:0:0:
240,192,88692,1,0,0:0:0:0:
256,192,89045,1,8,0:0:0:0:
256,192,89574,1,0,0:0:0:0:
256,192,89751,1,8,0:0:0:0:
256,192,90104,1,0,0:0:0:0:
256,192,90456,1,8,0:0:0:0:
256,192,90986,1,8,0:0:0:0:
256,192,91163,1,0,0:0:0:0:
256,192,91515,1,8,0:0:0:0:
256,192,91868,1,0,0:0:0:0:
256,192,92574,1,8,0:0:0:0:
256,192,93280,1,8,0:0:0:0:
256,192,93633,1,0,0:0:0:0:
256,192,93986,1,8,0:0:0:0:
256,192,94339,1,8,0:0:0:0:
256,192,94515,1,0,0:0:0:0:
256,192,94691,1,8,0:0:0:0:
256,192,95398,1,8,0:0:0:0:
256,192,95751,1,0,0:0:0:0:
256,192,95927,1,0,0:0:0:0:
256,192,96104,1,8,0:0:0:0:
256,192,96457,1,0,0:0:0:0:
256,192,96809,1,8,0:0:0:0:
256,192,97515,1,0,0:0:0:0:
256,192,97692,1,8,0:0:0:0:
256,192,97780,1,8,0:0:0:0:
256,192,97868,1,8,0:0:0:0:
256,192,98221,1,8,0:0:0:0:
256,192,98574,1,0,0:0:0:0:
256,192,98927,1,8,0:0:0:0:
256,192,99104,1,8,0:0:0:0:
256,192,99192,1,8,0:0:0:0:
256,192,99280,1,8,0:0:0:0:
256,192,99633,1,8,0:0:0:0:
256,192,99986,1,0,0:0:0:0:
256,192,100339,1,8,0:0:0:0:
256,192,100515,1,8,0:0:0:0:
256,192,100604,1,8,0:0:0:0:
256,192,100692,1,8,0:0:0:0:
256,192,101045,1,8,0:0:0:0:
256,192,101398,1,0,0:0:0:0:
256,192,101574,1,0,0:0:0:0:
256,192,101751,1,12,0:0:0:0:
256,192,102104,1,0,0:0:0:0:
256,192,102456,1,8,0:0:0:0:
256,192,102545,1,8,0:0:0:0:
256,192,102633,1,8,0:0:0:0:
256,192,102809,1,4,0:0:0:0:
256,192,103163,1,8,0:0:0:0:
256,192,103516,1,0,0:0:0:0:
256,192,103693,1,0,0:0:0:0:
256,192,103869,1,8,0:0:0:0:
256,192,104928,1,8,0:0:0:0:
256,192,105281,1,8,0:0:0:0:
256,192,105457,1,8,0:0:0:0:
256,192,105634,1,0,0:0:0:0:
256,192,105987,1,8,0:0:0:0:
256,192,106340,1,0,0:0:0:0:
256,192,106516,1,0,0:0:0:0:
256,192,106693,1,8,0:0:0:0:
256,192,107752,1,8,0:0:0:0:
256,192,108457,1,8,0:0:0:0:
256,192,108810,1,8,0:0:0:0:
256,192,109163,1,0,0:0:0:0:
256,192,109340,1,0,0:0:0:0:
256,192,109516,1,8,0:0:0:0:
256,192,110575,1,8,0:0:0:0:
256,192,110928,1,8,0:0:0:0:
256,192,111104,1,8,0:0:0:0:
256,192,111281,1,0,0:0:0:0:
256,192,111634,1,8,0:0:0:0:
256,192,111987,1,0,0:0:0:0:
256,192,112163,1,0,0:0:0:0:
256,192,112340,1,8,0:0:0:0:
256,192,113046,1,8,0:0:0:0:
256,192,113399,1,8,0:0:0:0:
256,192,113575,1,8,0:0:0:0:
256,192,113752,1,0,0:0:0:0:
256,192,114457,1,8,0:0:0:0:
256,192,114810,1,0,0:0:0:0:
256,192,114986,1,8,0:0:0:0:
256,192,115163,1,8,0:0:0:0:
256,192,115515,1,0,0:0:0:0:
256,192,115692,1,0,0:0:0:0:
256,192,115868,1,8,0:0:0:0:
256,192,116221,1,8,0:0:0:0:
256,192,116574,1,0,0:0:0:0:
256,192,116751,1,8,0:0:0:0:
256,192,116927,1,0,0:0:0:0:
256,192,117280,1,0,0:0:0:0:
256,192,117633,1,0,0:0:0:0:
256,192,117810,1,8,0:0:0:0:
256,192,117986,1,8,0:0:0:0:
256,192,118339,1,0,0:0:0:0:
256,192,118515,1,0,0:0:0:0:
256,192,118692,1,8,0:0:0:0:
256,192,119045,1,0,0:0:0:0:
256,192,119398,1,0,0:0:0:0:
256,192,119751,1,0,0:0:0:0:
256,192,120104,1,8,0:0:0:0:
256,192,120810,1,8,0:0:0:0:
256,192,121163,1,0,0:0:0:0:
256,192,121339,1,0,0:0:0:0:
256,192,121515,1,8,0:0:0:0:
256,192,121868,1,8,0:0:0:0:
256,192,122221,1,8,0:0:0:0:
256,192,122398,1,8,0:0:0:0:
256,192,122574,1,0,0:0:0:0:
256,208,122927,1,0,0:0:0:0:
256,192,123280,1,0,0:0:0:0:
256,192,123457,1,0,0:0:0:0:
256,192,123633,1,8,0:0:0:0:
256,192,123986,1,0,0:0:0:0:
256,192,124339,1,8,0:0:0:0:
256,192,124692,1,0,0:0:0:0:
256,192,124868,1,0,0:0:0:0:
256,192,125045,1,0,0:0:0:0:
256,192,125751,1,12,0:0:0:0:
256,192,126104,1,0,0:0:0:0:
256,192,126280,1,0,0:0:0:0:
256,192,126456,1,8,0:0:0:0:
256,192,126809,1,8,0:0:0:0:
256,192,126986,1,0,0:0:0:0:
256,192,127162,1,8,0:0:0:0:
256,192,127515,1,0,0:0:0:0:
256,192,127692,1,8,0:0:0:0:
256,192,127868,1,8,0:0:0:0:
256,192,128221,1,0,0:0:0:0:
256,192,128574,1,8,0:0:0:0:
256,192,128751,1,8,0:0:0:0:
256,192,128927,1,0,0:0:0:0:
256,192,129280,1,0,0:0:0:0:
256,192,129456,1,8,0:0:0:0:
256,192,129633,1,8,0:0:0:0:
256,192,129809,1,8,0:0:0:0:
256,192,129986,1,0,0:0:0:0:
256,192,130339,1,0,0:0:0:0:
256,192,130515,1,8,0:0:0:0:
256,192,130692,1,8,0:0:0:0:
256,192,131045,1,0,0:0:0:0:
256,192,131398,1,12,0:0:0:0:
256,192,131574,1,0,0:0:0:0:
256,192,131751,1,8,0:0:0:0:
256,192,132103,1,8,0:0:0:0:
256,192,132280,1,0,0:0:0:0:
256,192,132456,1,0,0:0:0:0:
256,192,132809,1,8,0:0:0:0:
256,192,133162,1,0,0:0:0:0:
256,192,133339,1,8,0:0:0:0:
256,192,133515,1,8,0:0:0:0:
256,192,133868,1,0,0:0:0:0:
256,192,134045,1,8,0:0:0:0:
256,192,134133,1,8,0:0:0:0:
256,192,134221,1,8,0:0:0:0:
256,192,134574,1,0,0:0:0:0:
256,192,134927,1,8,0:0:0:0:
256,192,135103,1,8,0:0:0:0:
256,192,135280,1,0,0:0:0:0:
256,192,135633,1,8,0:0:0:0:
256,192,135986,1,0,0:0:0:0:
256,192,136162,1,8,0:0:0:0:
256,192,136339,1,8,0:0:0:0:
256,192,137045,1,8,0:0:0:0:
256,192,137398,1,0,0:0:0:0:
256,192,137575,1,0,0:0:0:0:
256,192,137751,1,8,0:0:0:0:
256,192,138104,1,0,0:0:0:0:
256,192,138457,1,0,0:0:0:0:
256,192,138633,1,0,0:0:0:0:
256,192,138810,1,8,0:0:0:0:
256,192,139163,1,8,0:0:0:0:
256,192,139339,1,8,0:0:0:0:
256,192,139516,1,0,0:0:0:0:
256,192,139869,1,8,0:0:0:0:
256,192,140222,1,0,0:0:0:0:
256,192,140398,1,0,0:0:0:0:
256,192,140575,1,8,0:0:0:0:
256,192,141281,1,0,0:0:0:0:
256,192,141634,1,8,0:0:0:0:
256,192,141810,1,8,0:0:0:0:
256,192,141987,1,0,0:0:0:0:
256,192,142339,1,8,0:0:0:0:
256,192,142692,1,8,0:0:0:0:
256,192,143045,1,0,0:0:0:0:
256,192,143222,1,0,0:0:0:0:
256,192,143398,1,8,0:0:0:0:
256,192,143751,1,0,0:0:0:0:
256,192,144104,1,0,0:0:0:0:
256,192,144457,1,8,0:0:0:0:
256,192,144810,1,8,0:0:0:0:
256,192,144986,1,8,0:0:0:0:
256,192,145163,1,0,0:0:0:0:
256,192,145516,1,8,0:0:0:0:
256,192,145869,1,0,0:0:0:0:
256,192,146045,1,8,0:0:0:0:
256,192,146222,1,8,0:0:0:0:
256,192,146575,1,0,0:0:0:0:
256,192,146928,1,8,0:0:0:0:
256,192,147281,1,8,0:0:0:0:
256,192,147457,1,8,0:0:0:0:
256,192,147633,1,0,0:0:0:0:
256,192,147987,1,0,0:0:0:0:
