osu file format v14

[General]
AudioFilename: audio.mp3
AudioLeadIn: 0
PreviewTime: 4897
Countdown: 1
SampleSet: Soft
StackLeniency: 0.7
Mode: 0
LetterboxInBreaks: 0
WidescreenStoryboard: 1

[Editor]
Bookmarks: 1516,29751,35398,41045,52339,63633,74927,86221,97515,103163,114457,125751,136986,159574,170868,182162,193545,196368,207574,218868,230162,241456,247103
DistanceSpacing: 1
BeatDivisor: 8
GridSize: 4
TimelineZoom: 1

[Metadata]
Title:Scape Santa
TitleUnicode:Scape Santa
Artist:Ian Taylor
ArtistUnicode:Ian Taylor
Creator:Naotoshi
Version:Log's Easy
Source:RuneScape
Tags:rune scape christmas mmorpg bgm jagex foxy grandpa foxygrandpa pentori log off now yuii-
BeatmapID:1465436
BeatmapSetID:688987

[Difficulty]
HPDrainRate:2.5
CircleSize:3
OverallDifficulty:2.5
ApproachRate:3
SliderMultiplier:1.6
SliderTickRate:1

[Events]
//Background and Video events
0,0,"christmas grand exchange.jpg",0,0
//Break Periods
//Storyboard Layer 0 (Background)
//Storyboard Layer 1 (Fail)
//Storyboard Layer 2 (Pass)
//Storyboard Layer 3 (Foreground)
//Storyboard Sound Samples

[TimingPoints]
1516,705.882352941176,4,2,1,30,1,0
1516,-100,4,2,1,30,0,0
6104,-100,4,2,1,25,0,0
7163,-100,4,2,1,35,0,0
17398,-100,4,2,4,35,0,0
18104,-100,4,2,4,30,0,0
18457,-100,4,2,1,35,0,0
28692,-100,4,2,4,35,0,0
29398,-100,4,2,4,20,0,0
29751,-100,4,2,2,40,0,1
29752,-100,4,2,2,40,0,1
41045,-100,4,2,2,40,0,0
41046,-100,4,2,1,35,0,0
51280,-100,4,2,4,35,0,0
51986,-100,4,2,4,25,0,0
52339,-100,4,2,2,35,0,0
62927,-100,4,2,2,30,0,0
63280,-100,4,2,2,25,0,0
63633,-100,4,2,2,35,0,0
97515,-100,4,2,2,35,0,1
97516,-100,4,2,3,40,0,1
102457,-100,4,2,3,20,0,1
102545,-100,4,2,3,25,0,1
102633,-100,4,2,3,30,0,1
102721,-100,4,2,3,35,0,1
102810,-100,4,2,3,35,0,0
103163,-100,4,2,1,35,0,0
113398,-100,4,2,4,35,0,0
114104,-100,4,2,1,35,0,0
124692,-100,4,2,4,30,0,0
125398,-100,4,2,4,25,0,0
125751,-100,4,2,4,25,0,1
125752,-100,4,2,2,40,0,1
137045,-100,4,2,2,40,0,0
137046,-100,4,2,1,30,0,0
146927,-100,4,2,1,30,0,0
147280,-100,4,2,4,30,0,0
147986,-100,4,2,4,20,0,0

[Colours]
Combo1 : 234,172,68
Combo2 : 57,190,7
Combo3 : 207,22,22

[HitObjects]
44,209,457,6,0,L|53:300,2,80,0|0|0,0:0|0:0|0:0,0:0:0:0:
83,139,1516,6,0,P|125:111|232:161,1,160,10|2,0:0|0:0,0:0:0:0:
276,292,2927,2,0,P|344:344|424:313,1,160,2|2,0:0|0:0,0:0:0:0:
504,196,4340,5,6,0:0:0:0:
376,96,5046,2,0,P|328:104|279:103,1,80,2|12,0:0|0:0,0:0:0:0:
228,60,5752,1,2,0:0:0:0:
176,124,6105,2,0,L|184:219,1,80,8|0,0:0|0:0,0:0:0:0:
319,286,7163,5,6,0:0:0:0:
330,128,7868,2,0,B|245:84|245:170|145:108,1,160,2|2,0:0|0:0,0:0:0:0:
103,88,8928,2,0,P|94:29|93:-10,2,80,10|2|8,0:1|0:0|0:0,0:0:0:0:
79,164,9986,5,6,0:0:0:0:
70,323,10692,2,0,B|155:367|155:281|255:343,1,160,2|2,0:0|0:0,0:0:0:0:
301,304,11751,2,0,P|309:257|294:208,1,80,10|2,0:0|0:0,0:0:0:0:
225,201,12457,1,8,0:0:0:0:
146,183,12810,5,6,0:0:0:0:
210,36,13516,2,0,B|288:3|288:68|382:26,1,160,2|2,0:0|0:0,0:0:0:0:
430,79,14575,2,0,P|489:70|528:69,2,80,10|2|8,0:1|0:0|0:0,0:0:0:0:
383,144,15633,5,6,0:0:0:0:
323,197,15986,2,0,P|283:194|243:186,1,80,10|2,0:0|0:0,0:0:0:0:
183,132,16693,1,12,0:0:0:0:
111,167,17046,1,2,0:0:0:0:
313,367,18457,5,6,0:0:0:0:
481,342,19163,2,0,B|525:257|439:257|501:157,1,160,2|2,0:0|0:0,0:0:0:0:
438,122,20221,2,0,P|447:63|448:24,2,80,10|2|8,0:1|0:0|0:0,0:0:0:0:
366,159,21280,5,6,0:0:0:0:
248,49,21986,2,0,B|163:93|163:7|63:69,1,160,2|2,0:0|0:0,0:0:0:0:
34,107,23045,2,0,L|27:186,1,80,10|2,0:0|0:0,0:0:0:0:
74,251,23751,1,8,0:0:0:0:
51,327,24104,5,6,0:0:0:0:
208,355,24810,2,0,B|284:329|284:389|367:354,1,160,2|2,0:0|0:0,0:0:0:0:
404,286,25868,2,0,P|443:293|483:296,2,80,10|2|8,0:1|0:0|0:0,0:0:0:0:
334,245,26927,5,6,0:0:0:0:
264,205,27280,2,0,P|224:207|184:215,1,80,10|2,0:0|0:0,0:0:0:0:
122,265,27986,1,12,0:0:0:0:
51,225,28339,1,2,0:0:0:0:
342,93,29751,6,0,L|334:200,1,80,2|10,0:0|0:0,0:0:0:0:
273,223,30457,2,0,P|221:207|187:215,1,80,2|8,0:0|0:0,0:0:0:0:
138,266,31163,2,0,P|86:282|52:274,1,80,2|8,0:0|0:0,0:0:0:0:
10,216,31868,1,2,0:0:0:0:
27,137,32221,1,8,0:0:0:0:
39,57,32574,6,0,P|78:53|115:68,1,80,2|10,0:0|0:0,0:0:0:0:
162,133,33280,2,0,P|201:136|238:121,1,80,2|8,0:0|0:0,0:0:0:0:
310,157,33986,2,0,L|302:271,1,80,2|8,0:0|0:0,0:0:0:0:
297,316,34692,1,2,0:0:0:0:
168,220,35398,6,0,L|160:113,1,80,2|10,0:0|0:0,0:0:0:0:
231,99,36104,2,0,P|283:115|317:107,1,80,2|0,0:0|0:0,0:0:0:0:
366,56,36810,2,0,P|418:40|452:48,1,80,2|8,0:0|0:0,0:0:0:0:
494,106,37515,1,2,0:0:0:0:
477,185,37868,1,8,0:0:0:0:
465,265,38221,6,0,P|426:269|389:254,1,80,2|10,0:0|0:0,0:0:0:0:
342,189,38927,2,0,P|303:186|266:201,1,80,2|8,0:0|0:0,0:0:0:0:
196,241,39633,2,0,L|190:320,1,80,2|8,0:0|0:0,0:0:0:0:
125,367,40339,1,2,0:0:0:0:
20,245,41045,5,4,0:0:0:0:
153,157,41751,2,0,B|228:131|228:193|316:154,1,160,2|2,0:0|0:0,0:0:0:0:
386,175,42810,2,0,P|388:220|384:261,2,80,10|2|8,0:1|0:0|0:0,0:0:0:0:
420,103,43868,5,4,0:0:0:0:
278,27,44574,2,0,B|197:-8|197:53|122:27,1,160,2|2,0:0|0:0,0:0:0:0:
43,35,45633,2,0,P|39:85|44:125,1,80,10|2,0:0|0:0,0:0:0:0:
90,178,46339,1,8,0:0:0:0:
62,253,46692,5,4,0:0:0:0:
199,335,47398,2,0,B|269:357|269:294|355:326,1,160,2|2,0:0|0:0,0:0:0:0:
431,308,48457,2,0,P|473:319|511:319,2,80,10|2|8,0:1|0:0|0:0,0:0:0:0:
407,232,49515,5,4,0:0:0:0:
388,154,49868,2,0,P|346:143|308:143,1,80,10|2,0:0|0:0,0:0:0:0:
244,189,50574,1,12,0:0:0:0:
170,156,50927,1,2,0:0:0:0:
489,166,52339,6,0,P|500:228|485:331,2,160,2|2|0,0:1|0:0|0:0,0:0:0:0:
430,111,54104,1,10,0:0:0:0:
362,153,54457,1,2,0:0:0:0:
232,59,55163,6,0,P|170:47|67:59,1,160,0|2,0:0|0:0,0:0:0:0:
16,206,56574,2,0,P|95:216|173:203,1,160,0|2,0:0|0:0,0:0:0:0:
328,163,57986,6,0,B|345:212|345:212|332:349,2,160,0|2|0,0:0|0:0|0:0,0:0:0:0:
273,104,59751,1,10,0:0:0:0:
324,42,60104,1,2,0:0:0:0:
176,102,60810,6,0,B|127:119|127:119|-10:106,2,160,0|2|0,0:0|0:0|0:0,0:0:0:0:
248,69,62574,1,10,0:0:0:0:
299,130,62927,1,2,0:0:0:0:
159,208,63633,6,0,P|145:270|156:392,2,160,2|2|0,0:1|0:0|0:0,0:0:0:0:
133,132,65398,1,10,0:0:0:0:
203,93,65751,1,2,0:0:0:0:
275,235,66457,6,0,P|337:249|459:238,1,160,2|2,0:1|0:0,0:0:0:0:
494,97,67868,2,0,P|415:81|336:87,1,160,0|2,0:0|0:0,0:0:0:0:
201,173,69280,6,0,B|184:222|184:222|197:359,2,160,2|2|0,0:1|0:0|0:0,0:0:0:0:
248,107,71045,1,10,0:0:0:0:
183,59,71398,1,2,0:0:0:0:
339,24,72104,6,0,B|388:7|388:7|525:20,2,160,2|2|0,0:1|0:0|0:0,0:0:0:0:
366,99,73868,1,10,0:0:0:0:
317,162,74221,1,2,0:0:0:0:
249,306,74927,6,0,P|338:324|414:293,2,160,2|2|0,0:1|0:0|0:0,0:0:0:0:
168,303,76692,1,10,0:0:0:0:
107,251,77045,1,2,0:0:0:0:
241,164,77751,6,0,B|267:89|208:89|244:1,2,160,2|2|0,0:1|0:0|0:0,0:0:0:0:
198,318,79868,1,2,0:0:0:0:
321,216,80574,6,0,P|383:183|491:201,2,160,2|2|0,0:1|0:0|0:0,0:0:0:0:
263,271,82339,1,10,0:0:0:0:
189,238,82692,1,2,0:0:0:0:
190,77,83398,6,0,P|128:44|20:62,2,160,2|2|0,0:1|0:0|0:0,0:0:0:0:
231,145,85163,1,10,0:0:0:0:
309,130,85515,1,2,0:0:0:0:
260,282,86221,6,0,P|198:315|90:297,2,160,2|2|0,0:1|0:0|0:0,0:0:0:0:
324,234,87986,1,10,0:0:0:0:
301,157,88339,1,2,0:0:0:0:
457,165,89045,6,0,P|467:90|452:-3,1,160,2|2,0:1|0:0,0:0:0:0:
321,94,90457,2,0,P|311:169|326:262,1,160,0|2,0:0|0:0,0:0:0:0:
204,360,91868,6,0,B|129:386|129:327|41:363,2,160,2|2|0,0:1|0:0|0:0,0:0:0:0:
254,297,93633,1,10,0:0:0:0:
233,219,93986,1,2,0:0:0:0:
322,86,94692,6,0,B|397:60|397:119|485:83,2,160,0|2|0,0:0|0:0|0:0,0:0:0:0:
246,114,96457,1,10,0:0:0:0:
212,41,96810,1,2,0:0:0:0:
108,163,97515,6,0,L|114:258,1,80,4|8,0:0|0:0,0:0:0:0:
122,322,98221,1,2,0:0:0:0:
200,339,98574,1,8,0:0:0:0:
271,301,98927,2,0,P|327:289|371:297,1,80,6|8,0:0|0:0,0:0:0:0:
421,326,99633,1,2,0:0:0:0:
444,249,99986,1,8,0:0:0:0:
465,172,100339,6,0,L|459:92,1,80,6|8,0:0|0:0,0:0:0:0:
380,78,101045,1,2,0:0:0:0:
311,119,101398,1,8,0:0:0:0:
232,103,101751,2,0,P|176:91|132:99,1,80,2|8,0:0|0:0,0:0:0:0:
84,52,102457,1,10,0:0:0:0:
11,194,103163,5,2,0:0:0:0:
160,254,103868,2,0,B|235:289|235:230|314:258,1,160,2|2,0:0|0:0,0:0:0:0:
393,276,104927,2,0,P|432:283|472:286,2,80,10|2|8,0:1|0:0|0:0,0:0:0:0:
371,198,105986,5,2,0:0:0:0:
299,341,106692,2,0,B|219:369|219:310|141:339,1,160,2|2,0:0|0:0,0:0:0:0:
64,354,107751,2,0,L|69:265,1,80,8|2,0:0|0:0,0:0:0:0:
35,201,108457,1,8,0:0:0:0:
87,140,108810,5,2,0:0:0:0:
234,200,109515,2,0,B|309:235|309:176|388:204,1,160,2|2,0:0|0:0,0:0:0:0:
451,254,110574,2,0,P|458:293|461:333,2,80,10|2|8,0:1|0:0|0:0,0:0:0:0:
389,204,111633,6,0,P|406:121|435:44,2,160,2|2|2,0:0|0:0|0:0,0:0:0:0:
256,294,113751,1,8,0:0:0:0:
107,235,114457,6,0,L|101:133,1,80,2|8,0:0|0:0,0:0:0:0:
96,75,115163,2,0,P|159:47|255:73,1,160,2|0,0:0|0:0,0:0:0:0:
296,127,116221,1,10,0:1:0:0:
246,189,116574,2,0,L|250:268,1,80,2|8,0:0|0:0,0:0:0:0:
305,327,117280,6,0,P|361:315|411:331,1,80,2|10,0:0|0:0,0:0:0:0:
460,339,117986,2,0,B|479:242|479:242|462:180,1,160,2|2,0:0|0:0,0:0:0:0:
388,153,119045,1,8,0:0:0:0:
313,183,119398,1,2,0:0:0:0:
192,77,120104,6,0,P|153:85|113:78,1,80,2|0,0:0|0:0,0:0:0:0:
35,58,120810,2,0,B|16:155|16:155|33:217,1,160,2|2,0:0|0:0,0:0:0:0:
82,276,121868,1,10,0:1:0:0:
156,247,122221,2,0,P|207:243|243:259,1,80,2|8,0:0|0:0,0:0:0:0:
304,290,122927,5,2,0:0:0:0:
336,217,123280,2,0,L|331:137,2,80,10|2|8,0:0|0:0|0:0,0:0:0:0:
397,268,124339,1,2,0:0:0:0:
88,353,125751,6,0,L|81:268,1,80,2|10,0:0|0:0,0:0:0:0:
70,193,126457,2,0,P|109:190|145:173,1,80,0|0,0:0|0:0,0:0:0:0:
223,151,127163,2,0,L|230:66,1,80,2|8,0:0|0:0,0:0:0:0:
290,19,127868,1,2,0:0:0:0:
356,63,128221,1,8,0:0:0:0:
425,22,128574,6,0,P|476:7|520:17,1,80,2|10,0:0|0:0,0:0:0:0:
490,92,129280,2,0,L|483:171,1,80,2|8,0:0|0:0,0:0:0:0:
404,190,129986,2,0,L|410:269,1,80,2|8,0:0|0:0,0:0:0:0:
417,349,130692,1,2,0:0:0:0:
258,331,131398,6,0,L|265:252,1,80,2|10,0:0|0:0,0:0:0:0:
272,171,132104,2,0,P|308:154|347:151,1,80,2|0,0:0|0:0,0:0:0:0:
427,156,132810,2,0,L|420:77,1,80,2|8,0:0|0:0,0:0:0:0:
375,10,133515,1,2,0:0:0:0:
303,45,133868,1,8,0:0:0:0:
227,18,134221,6,0,P|172:9|134:17,1,80,2|10,0:0|0:0,0:0:0:0:
129,90,134927,2,0,L|136:169,1,80,2|8,0:0|0:0,0:0:0:0:
183,234,135633,2,0,L|176:313,1,80,2|8,0:0|0:0,0:0:0:0:
118,370,136339,1,2,0:0:0:0:
34,233,137045,5,2,0:0:0:0:
192,208,137751,2,0,B|277:238|272:177|347:212,1,160,2|2,0:0|0:0,0:0:0:0:
426,225,138810,2,0,P|435:284|436:323,2,80,10|2|8,0:1|0:0|0:0,0:0:0:0:
458,151,139868,5,2,0:0:0:0:
331,52,140574,2,0,B|251:24|251:83|176:48,1,160,2|2,0:0|0:0,0:0:0:0:
95,40,141633,2,0,L|99:133,1,80,10|2,0:0|0:0,0:0:0:0:
101,200,142339,1,8,0:0:0:0:
108,279,142692,5,2,0:0:0:0:
264,246,143398,2,0,B|296:165|232:166|268:91,1,160,2|2,0:0|0:0,0:0:0:0:
217,28,144457,2,0,P|158:37|119:38,2,80,10|2|8,0:1|0:0|0:0,0:0:0:0:
296,16,145515,6,0,L|395:29,1,80,2|10,0:0|0:0,0:0:0:0:
426,88,146221,2,0,L|415:167,1,80,2|8,0:0|0:0,0:0:0:0:
402,246,146927,2,0,P|323:263|243:218,1,160,2|8,0:0|0:0,0:0:0:0:
