osu file format v14

[General]
AudioFilename: audio.mp3
AudioLeadIn: 0
PreviewTime: 4897
Countdown: 1
SampleSet: Soft
StackLeniency: 0.7
Mode: 0
LetterboxInBreaks: 0
WidescreenStoryboard: 0

[Editor]
Bookmarks: 1721,29692,35339,40986,52280,63574,74868,86162,97456,103103,114397,125692,136986,159574,170868,182162,193545,196368,207574,218868,230162,241456,247103
DistanceSpacing: 1
BeatDivisor: 8
GridSize: 4
TimelineZoom: 1

[Metadata]
Title:Scape Santa
TitleUnicode:Scape Santa
Artist:Ian Taylor
ArtistUnicode:Ian Taylor
Creator:Naotoshi
Version:Land of Snow
Source:RuneScape
Tags:rune scape christmas mmorpg bgm jagex foxy grandpa foxygrandpa pentori log off now yuii-
BeatmapID:1458569
BeatmapSetID:688987

[Difficulty]
HPDrainRate:6
CircleSize:4
OverallDifficulty:7.5
ApproachRate:8.5
SliderMultiplier:3.2
SliderTickRate:1

[Events]
//Background and Video events
0,0,"christmas grand exchange.jpg",0,0
//Break Periods
//Storyboard Layer 0 (Background)
//Storyboard Layer 1 (Fail)
//Storyboard Layer 2 (Pass)
//Storyboard Layer 3 (Foreground)
//Storyboard Sound Samples

[TimingPoints]
1516,705.882352941176,4,2,1,30,1,0
6104,-100,4,2,1,25,0,0
7163,-100,4,2,1,35,0,0
17398,-100,4,2,4,35,0,0
18104,-100,4,2,4,30,0,0
18457,-100,4,2,1,35,0,0
28692,-100,4,2,4,35,0,0
29398,-100,4,2,4,20,0,0
29751,-83.3333333333333,4,2,2,40,0,1
40692,-100,4,2,2,40,0,0
41046,-100,4,2,1,35,0,0
51280,-100,4,2,4,35,0,0
51986,-100,4,2,4,25,0,0
52339,-100,4,2,2,35,0,0
62927,-100,4,2,2,30,0,0
63280,-100,4,2,2,25,0,0
63633,-100,4,2,2,35,0,0
97515,-83.3333333333333,4,2,2,35,0,1
97516,-83.3333333333333,4,2,3,40,0,1
102457,-83.3333333333333,4,2,3,20,0,1
102545,-83.3333333333333,4,2,3,25,0,1
102633,-83.3333333333333,4,2,3,30,0,1
102721,-83.3333333333333,4,2,3,35,0,1
102810,-100,4,2,3,35,0,0
103163,-100,4,2,1,35,0,0
113398,-100,4,2,4,35,0,0
114104,-100,4,2,1,35,0,0
124692,-100,4,2,4,30,0,0
125398,-100,4,2,4,25,0,0
125751,-83.3333333333333,4,2,4,25,0,1
125752,-83.3333333333333,4,2,2,40,0,1
136692,-100,4,2,2,40,0,0
137046,-100,4,2,1,30,0,0
147280,-100,4,2,4,30,0,0
147986,-100,4,2,4,20,0,0

[Colours]
Combo1 : 234,172,68
Combo2 : 57,190,7
Combo3 : 207,22,22

[HitObjects]
130,173,456,5,2,0:1:0:0:
227,92,809,1,0,0:3:0:0:
257,159,986,1,0,0:3:0:0:
246,235,1162,1,0,0:3:0:0:
340,326,1515,6,0,P|388:343|488:300,1,160,10|10,0:0|0:0,0:0:0:0:
404,242,2045,1,2,0:0:0:0:
473,173,2221,2,0,P|445:93|426:19,1,160,2|12,0:0|0:0,0:0:0:0:
284,137,2927,2,0,B|200:155|217:104|117:125,1,160,2|10,0:0|0:0,0:0:0:0:
159,210,3456,1,2,0:0:0:0:
277,211,3633,2,0,P|292:112|248:54,1,160,2|8,0:0|0:0,0:0:0:0:
65,42,4339,6,0,P|30:112|50:187,1,160,6|10,0:0|0:0,0:0:0:0:
155,212,4868,1,2,0:0:0:0:
212,290,5045,1,2,0:0:0:0:
394,238,5398,1,12,0:0:0:0:
268,124,5751,1,2,0:0:0:0:
301,208,6104,1,8,0:0:0:0:
301,208,6280,1,8,0:0:0:0:
301,208,6456,1,0,0:0:0:0:
362,149,6809,1,8,0:0:0:0:
432,323,7162,6,0,P|375:306|271:355,1,160,6|10,0:0|0:0,0:0:0:0:
190,285,7692,1,2,0:0:0:0:
79,347,7868,2,0,P|98:287|59:201,1,160,2|12,0:0|0:0,0:0:0:0:
157,89,8574,1,2,0:0:0:0:
60,201,8927,1,10,0:1:0:0:
250,87,9280,1,2,0:0:0:0:
340,113,9456,1,0,0:0:0:0:
274,180,9633,1,8,0:0:0:0:
368,34,9986,6,0,P|379:93|373:212,1,160,6|10,0:0|0:0,0:0:0:0:
311,292,10515,1,2,0:0:0:0:
226,216,10692,2,0,P|172:204|64:250,1,160,2|12,0:0|0:0,0:0:0:0:
133,89,11398,2,0,P|187:101|295:55,1,160,2|10,0:0|0:0,0:0:0:0:
381,98,11927,1,2,0:0:0:0:
373,0,12104,1,2,0:0:0:0:
304,172,12456,1,8,0:0:0:0:
502,318,12810,6,0,L|463:135,1,160,6|10,0:0|0:0,0:0:0:0:
376,257,13339,1,2,0:0:0:0:
304,172,13515,2,0,B|218:158|228:228|120:191,1,160,2|12,0:0|0:0,0:0:0:0:
52,93,14221,1,2,0:0:0:0:
65,263,14574,1,10,0:1:0:0:
215,145,14927,1,2,0:0:0:0:
120,166,15104,1,0,0:0:0:0:
184,240,15280,1,8,0:0:0:0:
287,76,15633,5,6,0:0:0:0:
410,231,15986,1,10,0:0:0:0:
306,193,16162,1,2,0:0:0:0:
391,138,16339,1,2,0:0:0:0:
268,280,16692,1,12,0:0:0:0:
156,140,17045,2,0,B|81:116|77:181|-24:141,1,160,2|10,0:0|0:0,0:0:0:0:
36,69,17574,1,2,0:0:0:0:
123,220,17751,1,2,0:0:0:0:
118,244,18104,1,8,0:0:0:0:
242,99,18457,6,0,P|301:89|401:160,1,160,6|10,0:0|0:0,0:0:0:0:
384,254,18986,1,2,0:0:0:0:
270,358,19162,2,0,P|255:280|288:209,1,160,2|12,0:0|0:0,0:0:0:0:
387,295,19868,1,2,0:0:0:0:
268,173,20221,1,10,0:1:0:0:
174,330,20574,1,2,0:0:0:0:
92,274,20751,1,0,0:0:0:0:
183,237,20927,1,8,0:0:0:0:
21,338,21280,6,0,P|-2:287|39:187,1,160,6|10,0:0|0:0,0:0:0:0:
134,175,21809,1,2,0:0:0:0:
174,71,21986,2,0,P|220:103|330:76,1,160,2|12,0:0|0:0,0:0:0:0:
498,0,22692,2,0,P|482:48|523:160,1,160,2|10,0:0|0:0,0:0:0:0:
448,233,23221,1,2,0:0:0:0:
403,150,23398,1,2,0:0:0:0:
330,291,23751,1,8,0:0:0:0:
210,191,24104,6,0,P|138:172|59:241,1,160,6|10,0:0|0:0,0:0:0:0:
154,273,24633,1,2,0:0:0:0:
233,168,24810,2,0,P|250:105|189:9,1,160,2|12,0:0|0:0,0:0:0:0:
130,112,25515,1,2,0:0:0:0:
223,206,25868,1,10,0:1:0:0:
316,78,26221,1,2,0:0:0:0:
376,139,26398,1,0,0:0:0:0:
292,157,26574,1,8,0:0:0:0:
454,38,26927,5,6,0:0:0:0:
381,203,27280,1,10,0:0:0:0:
476,185,27456,1,2,0:0:0:0:
409,112,27633,1,2,0:0:0:0:
316,291,27986,1,12,0:0:0:0:
198,165,28339,2,0,P|254:140|350:194,1,160,2|8,0:0|0:0,0:0:0:0:
264,236,28868,1,0,0:0:0:0:
168,151,29045,1,8,0:0:0:0:
169,127,29398,1,8,0:0:0:0:
43,243,29751,6,0,P|36:304|56:378,1,95.9999970703126,2|0,0:0|0:0,0:0:0:0:
179,293,30104,1,10,0:0:0:0:
118,184,30280,1,2,0:0:0:0:
293,246,30456,2,0,P|300:307|280:381,1,95.9999970703126,2|0,0:0|0:0,0:0:0:0:
208,199,30809,1,8,0:0:0:0:
362,166,30986,1,0,0:0:0:0:
212,100,31162,6,0,P|147:91|87:103,1,95.9999970703126,2|0,0:0|0:0,0:0:0:0:
202,255,31515,1,8,0:0:0:0:
77,194,31692,1,2,0:0:0:0:
274,181,31868,2,0,P|312:115|255:6,1,191.999994140625,2|8,0:0|0:0,0:0:0:0:
140,145,32574,6,0,P|77:158|23:149,1,95.9999970703126,2|0,0:0|0:0,0:0:0:0:
203,55,32927,1,10,0:0:0:0:
228,211,33104,1,2,0:0:0:0:
361,131,33280,2,0,P|426:133|469:163,1,95.9999970703126,2|0,0:0|0:0,0:0:0:0:
494,287,33633,1,8,0:0:0:0:
389,223,33809,1,0,0:0:0:0:
268,346,33986,6,0,P|262:294|280:246,1,95.9999970703126,2|0,0:0|0:0,0:0:0:0:
170,350,34339,1,8,0:0:0:0:
356,303,34515,1,2,0:0:0:0:
182,211,34692,2,0,B|99:197|92:259|-8:242,1,191.999994140625,2|8,0:0|0:0,0:0:0:0:
261,148,35398,6,0,P|283:220|277:254,1,95.9999970703126,2|0,0:0|0:0,0:0:0:0:
140,118,35751,1,10,0:0:0:0:
304,68,35927,1,2,0:0:0:0:
77,36,36104,2,0,P|39:85|28:149,1,95.9999970703126,2|0,0:0|0:0,0:0:0:0:
204,297,36456,2,0,P|187:252|156:216,1,95.9999970703126,8|0,0:0|0:0,0:0:0:0:
373,219,36809,6,0,P|396:150|434:115,1,95.9999970703126,2|0,0:0|0:0,0:0:0:0:
454,304,37162,1,8,0:0:0:0:
278,151,37339,1,2,0:0:0:0:
505,31,37515,2,0,L|490:232,1,191.999994140625,2|8,0:0|0:0,0:0:0:0:
372,298,38045,1,0,0:0:0:0:
372,298,38133,1,0,0:0:0:0:
372,298,38221,6,0,P|310:285|247:298,1,95.9999970703126,2|0,0:0|0:0,0:0:0:0:
125,368,38574,1,10,0:0:0:0:
164,221,38751,1,2,0:0:0:0:
372,298,38927,2,0,P|390:237|375:168,1,95.9999970703126,2|0,0:0|0:0,0:0:0:0:
287,101,39280,1,8,0:0:0:0:
440,106,39456,1,0,0:0:0:0:
372,298,39633,6,0,P|318:311|247:306,1,95.9999970703126,2|0,0:0|0:0,0:0:0:0:
164,221,39986,1,8,0:0:0:0:
294,192,40162,1,2,0:0:0:0:
176,330,40339,2,0,B|84:330|91:271|-5:278,1,191.999994140625,2|8,0:0|0:0,0:0:0:0:
184,72,41045,6,0,P|156:118|166:226,1,160,4|10,0:0|0:0,0:0:0:0:
269,190,41574,1,2,0:0:0:0:
352,278,41751,2,0,P|408:239|521:257,1,160,2|12,0:0|0:0,0:0:0:0:
355,319,42456,1,2,0:0:0:0:
237,224,42809,1,10,0:1:0:0:
142,368,43162,1,2,0:0:0:0:
249,327,43339,1,0,0:0:0:0:
157,263,43515,1,8,0:0:0:0:
355,258,43868,6,0,P|369:206|303:115,1,160,4|10,0:0|0:0,0:0:0:0:
228,188,44398,1,2,0:0:0:0:
149,110,44574,2,0,P|97:152|0:140,1,160,2|12,0:0|0:0,0:0:0:0:
120,278,45280,2,0,P|197:267|260:313,1,160,2|10,0:0|0:0,0:0:0:0:
174,368,45809,1,2,0:0:0:0:
99,305,45986,1,2,0:0:0:0:
229,148,46339,1,8,0:0:0:0:
346,279,46692,6,0,B|429:306|429:240|526:288,1,160,4|10,0:0|0:0,0:0:0:0:
469,361,47221,1,2,0:0:0:0:
383,197,47398,2,0,P|365:135|395:28,1,160,2|12,0:0|0:0,0:0:0:0:
253,0,48104,1,2,0:0:0:0:
131,109,48456,1,10,0:1:0:0:
269,220,48809,1,2,0:0:0:0:
247,126,48986,1,0,0:0:0:0:
175,188,49162,1,8,0:0:0:0:
302,307,49515,5,4,0:0:0:0:
396,105,49868,1,10,0:0:0:0:
301,136,50045,1,2,0:0:0:0:
369,211,50221,1,2,0:0:0:0:
211,101,50574,1,12,0:0:0:0:
391,28,50927,2,0,P|421:102|404:192,1,160,2|8,0:0|0:0,0:0:0:0:
321,213,51456,1,0,0:0:0:0:
449,275,51633,1,8,0:0:0:0:
454,299,51986,1,8,0:0:0:0:
319,279,52339,6,0,P|234:262|150:326,1,160,2|8,0:1|0:0,0:0:0:0:
107,362,52868,1,0,0:0:0:0:
50,229,53045,2,0,P|40:185|68:64,2,160,2|8|0,0:0|0:0|0:0,0:0:0:0:
194,133,54104,1,10,0:0:0:0:
285,259,54456,1,2,0:0:0:0:
362,115,54809,1,8,0:0:0:0:
290,172,54986,1,0,0:0:0:0:
375,211,55162,5,0,0:0:0:0:
454,155,55339,2,0,P|491:186|489:295,1,160,0|0,0:0|0:0,0:0:0:0:
396,329,55868,2,0,P|341:306|243:333,1,160,2|0,0:0|0:0,0:0:0:0:
54,317,56574,2,0,P|102:255|95:178,1,160,0|10,0:0|0:0,0:0:0:0:
19,110,57104,1,0,0:0:0:0:
120,66,57280,2,0,P|164:91|277:56,1,160,2|8,0:0|0:0,0:0:0:0:
443,46,57986,6,0,P|464:103|432:206,1,160,0|8,0:0|0:0,0:0:0:0:
332,187,58515,1,0,0:0:0:0:
282,287,58692,2,0,P|230:235|142:223,1,160,2|8,0:0|0:0,0:0:0:0:
71,308,59221,1,0,0:0:0:0:
162,367,59398,2,0,B|239:338|252:395|336:358,1,160,0|10,0:0|0:0,0:0:0:0:
401,277,59927,1,0,0:0:0:0:
266,193,60104,2,0,P|250:121|272:35,1,160,2|8,0:0|0:0,0:0:0:0:
381,108,60633,1,0,0:0:0:0:
496,40,60810,6,0,L|502:97,8,40,0|0|0|0|8|0|0|0|2,0:0|0:0|0:0|0:0|0:0|0:0|0:0|0:0|0:0,0:0:0:0:
399,69,61692,1,0,0:0:0:0:
429,176,61868,2,0,L|408:265,1,80,8|0,0:0|0:0,0:0:0:0:
300,194,62221,2,0,L|324:360,1,160,0|10,0:0|0:0,0:0:0:0:
178,264,62927,1,2,0:0:0:0:
190,243,63280,1,8,0:0:0:0:
264,172,63633,6,0,P|324:196|417:157,1,160,2|8,0:1|0:0,0:0:0:0:
445,48,64162,1,0,0:0:0:0:
331,91,64339,2,0,L|346:279,1,160,2|8,0:0|0:0,0:0:0:0:
256,311,64868,1,0,0:0:0:0:
130,235,65045,2,0,P|60:215|-22:258,1,160,0|10,0:0|0:0,0:0:0:0:
64,326,65574,1,0,0:0:0:0:
166,236,65751,2,0,P|149:169|187:77,1,160,2|8,0:0|0:0,0:0:0:0:
275,45,66280,1,0,0:0:0:0:
392,143,66456,5,2,0:1:0:0:
328,216,66633,2,0,P|282:196|178:240,1,160,0|0,0:0|0:0,0:0:0:0:
82,183,67162,2,0,P|71:232|132:339,1,160,2|8,0:0|0:0,0:0:0:0:
285,291,67868,2,0,P|341:259|455:297,1,160,0|10,0:0|0:0,0:0:0:0:
371,364,68398,1,0,0:0:0:0:
241,301,68574,2,0,P|228:244|239:201,1,80,2|0,0:0|0:0,0:0:0:0:
321,136,68927,2,0,P|313:72|286:35,1,80,8|0,0:0|0:0,0:0:0:0:
186,45,69280,6,0,P|140:70|28:59,1,160,2|8,0:1|0:0,0:0:0:0:
35,177,69809,1,0,0:0:0:0:
151,149,69986,1,2,0:0:0:0:
79,322,70339,1,8,0:0:0:0:
187,248,70515,1,0,0:0:0:0:
243,357,70692,5,0,0:0:0:0:
421,219,71045,1,10,0:0:0:0:
303,160,71221,1,0,0:0:0:0:
403,62,71398,2,0,P|419:106|417:164,1,80,2|0,0:0|0:0,0:0:0:0:
209,182,71751,2,0,P|212:142|226:105,1,80,8|0,0:0|0:0,0:0:0:0:
322,145,72104,6,0,L|323:187,8,40,2|0|0|0|8|0|0|0|2,0:1|0:0|0:0|0:0|0:0|0:0|0:0|0:0|0:0,0:0:0:0:
261,283,73162,1,8,0:0:0:0:
159,186,73515,2,0,P|113:188|56:206,1,80,0|0,0:0|0:0,0:0:0:0:
182,293,73868,2,0,P|228:291|285:273,1,80,2|0,0:0|0:0,0:0:0:0:
252,72,74221,2,0,P|244:119|312:199,1,160,2|8,0:0|0:0,0:0:0:0:
488,66,74927,6,0,L|509:241,1,160,2|8,0:1|0:0,0:0:0:0:
391,200,75456,1,0,0:0:0:0:
340,332,75633,2,0,P|292:344|244:332,1,80,2|0,0:0|0:0,0:0:0:0:
231,200,75986,2,0,P|276:227|299:273,1,80,8|0,0:0|0:0,0:0:0:0:
140,377,76339,2,0,P|154:294|110:202,1,160,0|10,0:0|0:0,0:0:0:0:
27,170,76868,1,0,0:0:0:0:
130,108,77045,1,2,0:0:0:0:
278,251,77398,1,8,0:0:0:0:
240,156,77574,1,0,0:0:0:0:
182,229,77751,5,2,0:1:0:0:
214,321,77928,2,0,P|289:296|366:315,1,160,0|0,0:0|0:0,0:0:0:0:
475,219,78456,2,0,P|487:153|478:125,1,80,2|0,0:0|0:0,0:0:0:0:
393,37,78809,2,0,P|381:103|390:131,1,80,8|0,0:0|0:0,0:0:0:0:
313,202,79163,2,0,P|236:218|152:192,1,160
27,255,79691,1,0,0:0:0:0:
70,344,79868,2,0,P|150:316|243:327,1,160,2|8,0:0|0:0,0:0:0:0:
296,211,80398,1,0,0:0:0:0:
381,273,80574,6,0,P|384:318|378:360,2,80,2|0|8,0:1|0:0|0:0,0:0:0:0:
291,301,81104,1,0,0:0:0:0:
431,194,81280,2,0,P|482:185|529:194,2,80,10|0|8,0:0|0:0|0:0,0:0:0:0:
475,284,81809,1,0,0:0:0:0:
336,212,81986,2,0,P|331:170|337:130,2,80,0|0|10,0:0|0:0|0:0,0:0:0:0:
240,166,82515,1,0,0:0:0:0:
288,62,82692,2,0,P|383:60|425:133,1,160,2|8,0:0|0:0,0:0:0:0:
352,198,83221,1,0,0:0:0:0:
254,132,83398,6,0,P|200:127|149:140,2,80,2|0|8,0:1|0:0|0:0,0:0:0:0:
52,251,84104,2,0,P|106:256|157:243,2,80,2|0|8,0:0|0:0|0:0,0:0:0:0:
317,148,84809,2,0,P|309:187|315:226,1,80,0|0,0:0|0:0,0:0:0:0:
477,182,85162,2,0,P|437:187|398:183,1,80,10|0,0:0|0:0,0:0:0:0:
432,96,85515,1,2,0:0:0:0:
431,72,85868,1,8,0:0:0:0:
272,96,86221,6,0,P|215:130|97:94,1,160,2|8,0:1|0:0,0:0:0:0:
194,29,86751,1,0,0:0:0:0:
42,60,86927,2,0,P|31:104|32:155,1,80,2|0,0:0|0:0,0:0:0:0:
118,288,87280,2,0,P|116:248|106:209,1,80,8|0,0:0|0:0,0:0:0:0:
44,350,87633,2,0,P|92:370|202:338,1,160,0|10,0:0|0:0,0:0:0:0:
254,251,88162,1,0,0:0:0:0:
299,356,88339,1,2,0:0:0:0:
394,189,88692,1,8,0:0:0:0:
361,270,88868,1,0,0:0:0:0:
306,198,89045,5,2,0:1:0:0:
354,118,89222,2,0,P|276:110|219:163,1,160,0|0,0:0|0:0,0:0:0:0:
306,198,89751,2,0,P|256:181|151:218,1,160,2|8,0:0|0:0,0:0:0:0:
240,297,90280,1,0,0:0:0:0:
75,346,90457,2,0,P|65:246|52:165,1,160,0|10,0:0|0:0,0:0:0:0:
9,89,90986,1,0,0:0:0:0:
132,110,91162,2,0,P|160:170|162:211,1,80,2|0,0:0|0:0,0:0:0:0:
238,58,91515,2,0,P|297:49|348:59,1,80,8|0,0:0|0:0,0:0:0:0:
398,145,91868,5,2,0:1:0:0:
465,303,92221,1,8,0:0:0:0:
489,209,92398,1,0,0:0:0:0:
369,343,92574,1,2,0:0:0:0:
203,264,92927,1,8,0:0:0:0:
293,214,93104,1,0,0:0:0:0:
119,200,93280,5,0,0:0:0:0:
184,367,93633,1,10,0:0:0:0:
203,264,93809,1,0,0:0:0:0:
29,222,93986,2,0,P|18:157|22:118,1,80,2|0,0:0|0:0,0:0:0:0:
197,24,94339,2,0,P|191:87|174:124,1,80,8|0,0:0|0:0,0:0:0:0:
293,203,94692,6,0,L|294:156,8,40,0|0|0|0|8|0|0|0|2,0:0|0:0|0:0|0:0|0:0|0:0|0:0|0:0|0:0,0:0:0:0:
430,131,95751,1,8,0:0:0:0:
467,294,96104,2,0,P|405:276|334:337,1,160,0|10,0:0|0:0,0:0:0:0:
415,369,96633,1,0,0:0:0:0:
250,310,96810,1,2,0:0:0:0:
225,315,97163,1,8,0:0:0:0:
119,109,97515,5,4,0:0:0:0:
210,189,97692,1,2,0:0:0:0:
210,189,97780,1,0,0:0:0:0:
210,189,97868,1,8,0:0:0:0:
301,123,98045,1,2,0:0:0:0:
362,211,98221,2,0,P|364:275|358:310,1,95.9999970703126,2|8,0:0|0:0,0:0:0:0:
350,318,98486,1,8,0:0:0:0:
339,331,98574,1,8,0:0:0:0:
262,269,98751,1,8,0:0:0:0:
88,343,98927,5,6,0:0:0:0:
149,251,99104,1,2,0:0:0:0:
149,251,99192,1,0,0:0:0:0:
149,251,99280,1,8,0:0:0:0:
40,202,99456,1,2,0:0:0:0:
127,128,99633,2,0,P|132:69|116:8,1,95.9999970703126,2|8,0:0|0:0,0:0:0:0:
118,19,99898,1,8,0:0:0:0:
108,4,99986,1,8,0:0:0:0:
222,63,100162,1,8,0:0:0:0:
362,13,100339,5,6,0:0:0:0:
450,98,100515,1,2,0:0:0:0:
450,98,100604,1,0,0:0:0:0:
450,98,100692,1,8,0:0:0:0:
328,188,100868,1,2,0:0:0:0:
439,330,101045,1,2,0:0:0:0:
448,228,101221,1,8,0:0:0:0:
448,228,101309,1,8,0:0:0:0:
448,228,101398,1,8,0:0:0:0:
302,308,101574,1,8,0:0:0:0:
320,149,101751,5,6,0:0:0:0:
325,111,102104,1,8,0:0:0:0:
330,73,102456,1,10,0:0:0:0:
275,53,102544,1,10,0:0:0:0:
223,81,102632,1,10,0:0:0:0:
209,137,102720,1,10,0:0:0:0:
241,185,102809,2,0,P|253:245|227:319,1,95.9999970703126,4|0,0:0|0:0,0:0:0:0:
31,294,103162,6,0,P|55:258|174:240,1,160,2|10,0:0|0:0,0:0:0:0:
222,321,103692,1,2,0:0:0:0:
318,224,103868,2,0,P|355:257|466:256,2,160,2|8|2,0:0|0:0|0:0,0:0:0:0:
411,150,104927,1,10,0:1:0:0:
200,107,105280,1,2,0:0:0:0:
283,48,105456,1,0,0:0:0:0:
288,145,105633,1,8,0:0:0:0:
110,198,105986,6,0,P|111:114|85:34,1,160,2|10,0:0|0:0,0:0:0:0:
16,117,106515,1,2,0:0:0:0:
200,58,106692,2,0,P|251:90|358:70,1,160,2|8,0:0|0:0,0:0:0:0:
267,229,107398,2,0,P|211:223|126:295,1,160,2|8,0:0|0:0,0:0:0:0:
225,328,107927,1,2,0:0:0:0:
144,380,108104,1,2,0:0:0:0:
328,314,108456,1,8,0:0:0:0:
460,378,108810,6,0,P|442:320|461:209,1,160,2|8,0:0|0:0,0:0:0:0:
366,143,109339,1,2,0:0:0:0:
269,235,109515,2,0,P|187:251|102:223,1,160,2|8,0:0|0:0,0:0:0:0:
67,115,110045,1,2,0:0:0:0:
67,115,110133,1,2,0:0:0:0:
67,115,110221,2,0,L|83:29,1,80,2|0,0:0|0:0,0:0:0:0:
191,140,110574,5,10,0:1:0:0:
10,205,110927,1,2,0:0:0:0:
95,275,111104,1,0,0:0:0:0:
105,166,111280,1,8,0:0:0:0:
10,321,111633,6,0,P|58:353|182:355,1,160,2|10,0:0|0:0,0:0:0:0:
249,295,112162,1,2,0:0:0:0:
349,353,112339,2,0,P|409:324|508:328,2,160,2|8|2,0:0|0:0|0:0,0:0:0:0:
269,151,113398,1,8,0:0:0:0:
385,203,113574,1,8,0:0:0:0:
280,276,113751,1,8,0:0:0:0:
279,301,114104,1,8,0:0:0:0:
160,217,114457,6,0,P|104:183|-7:231,1,160,2|8,0:0|0:0,0:0:0:0:
82,290,114986,1,2,0:0:0:0:
185,248,115162,1,2,0:0:0:0:
118,86,115515,1,8,0:0:0:0:
199,50,115692,1,0,0:0:0:0:
109,171,115868,1,0,0:0:0:0:
132,0,116045,1,0,0:0:0:0:
192,149,116221,1,10,0:1:0:0:
27,116,116398,1,2,0:0:0:0:
81,296,116574,2,0,P|95:220|88:194,1,80,2|0,0:0|0:0,0:0:0:0:
237,291,116927,2,0,P|240:336|258:373,1,80,8|0,0:0|0:0,0:0:0:0:
337,304,117280,5,2,0:0:0:0:
303,131,117633,1,10,0:0:0:0:
381,168,117809,1,2,0:0:0:0:
252,210,117986,1,2,0:0:0:0:
219,40,118339,1,10,0:0:0:0:
294,95,118515,1,0,0:0:0:0:
149,93,118692,1,2,0:0:0:0:
301,9,118868,1,0,0:0:0:0:
220,129,119045,1,8,0:0:0:0:
124,8,119221,1,0,0:0:0:0:
294,95,119398,1,2,0:0:0:0:
99,238,119751,1,8,0:0:0:0:
225,339,120104,5,2,0:0:0:0:
228,164,120456,1,10,0:0:0:0:
156,239,120633,1,2,0:0:0:0:
253,348,120810,2,0,P|314:323|426:341,1,160,2|8,0:0|0:0,0:0:0:0:
488,225,121339,1,2,0:0:0:0:
498,193,121427,1,2,0:0:0:0:
493,151,121515,2,0,P|420:143|391:156,1,80,2|0,0:0|0:0,0:0:0:0:
269,224,121868,2,0,P|214:225|163:201,1,80,10|2,0:1|0:0,0:0:0:0:
145,92,122221,1,2,0:0:0:0:
322,131,122398,1,0,0:0:0:0:
115,268,122574,1,8,0:0:0:0:
236,142,122751,1,0,0:0:0:0:
309,306,122927,5,2,0:0:0:0:
432,155,123280,1,10,0:0:0:0:
343,156,123456,1,2,0:0:0:0:
390,233,123633,1,2,0:0:0:0:
497,65,123986,1,8,0:0:0:0:
275,193,124339,2,0,P|227:205|184:199,1,80,2|0,0:0|0:0,0:0:0:0:
111,137,124692,2,0,P|89:193|90:246,1,80,8|8,0:0|0:0,0:0:0:0:
145,296,125045,1,8,0:0:0:0:
139,319,125398,1,8,0:0:0:0:
262,267,125751,6,0,P|325:252|383:270,1,95.9999970703126,2|0,0:0|0:0,0:0:0:0:
191,347,126104,1,10,0:0:0:0:
219,173,126280,1,2,0:0:0:0:
424,320,126456,2,0,P|446:266|442:219,1,95.9999970703126,2|0,0:0|0:0,0:0:0:0:
338,56,126809,2,0,P|338:103|358:146,1,95.9999970703126,8|0,0:0|0:0,0:0:0:0:
212,40,127162,6,0,P|165:40|110:63,1,95.9999970703126,2|0,0:0|0:0,0:0:0:0:
34,225,127515,1,8,0:0:0:0:
190,143,127692,1,2,0:0:0:0:
10,34,127868,2,0,P|22:91|33:241,1,191.999994140625,2|8,0:0|0:0,0:0:0:0:
183,346,128574,6,0,P|238:307|296:291,1,95.9999970703126,2|0,0:0|0:0,0:0:0:0:
104,268,128927,1,10,0:0:0:0:
273,192,129104,1,2,0:0:0:0:
141,73,129280,2,0,P|141:133|157:187,1,95.9999970703126,2|0,0:0|0:0,0:0:0:0:
225,33,129633,1,8,0:0:0:0:
58,15,129809,1,0,0:0:0:0:
238,122,129986,6,0,P|293:104|359:96,1,95.9999970703126,2|0,0:0|0:0,0:0:0:0:
461,156,130339,1,8,0:0:0:0:
398,6,130515,1,2,0:0:0:0:
265,202,130692,2,0,P|239:134|277:13,1,191.999994140625,2|8,0:0|0:0,0:0:0:0:
287,298,131398,6,0,P|215:306|155:299,1,95.9999970703126,2|0,0:0|0:0,0:0:0:0:
345,217,131751,1,10,0:0:0:0:
376,362,131927,1,2,0:0:0:0:
228,216,132104,2,0,P|217:139|229:84,1,95.9999970703126,2|0,0:0|0:0,0:0:0:0:
356,46,132456,1,8,0:0:0:0:
317,158,132633,1,0,0:0:0:0:
139,48,132809,6,0,P|78:36|14:46,1,95.9999970703126,2|0,0:0|0:0,0:0:0:0:
210,145,133162,1,8,0:0:0:0:
335,46,133339,1,2,0:0:0:0:
473,208,133515,2,0,P|490:274|376:336,1,191.999994140625,2|8,0:0|0:0,0:0:0:0:
250,280,134045,1,0,0:0:0:0:
250,280,134133,1,0,0:0:0:0:
250,280,134221,6,0,P|190:299|130:307,1,95.9999970703126,2|0,0:0|0:0,0:0:0:0:
32,197,134574,1,10,0:0:0:0:
38,340,134751,1,2,0:0:0:0:
181,204,134927,2,0,P|188:143|177:93,1,95.9999970703126,2|0,0:0|0:0,0:0:0:0:
1,0,135280,2,0,P|-6:61|5:111,1,95.9999970703126,8|0,0:0|0:0,0:0:0:0:
163,35,135633,5,2,0:0:0:0:
283,111,135809,1,0,0:0:0:0:
137,176,135986,2,0,P|125:231|136:296,1,95.9999970703126,8|2,0:0|0:0,0:0:0:0:
270,354,136339,2,0,P|340:323|461:347,1,191.999994140625,2|8,0:0|0:0,0:0:0:0:
250,208,137045,6,0,P|198:236|95:211,1,160,2|8,0:0|0:0,0:0:0:0:
175,143,137574,1,2,0:0:0:0:
281,217,137751,2,0,P|274:263|300:378,2,160,2|8|2,0:0|0:0|0:0,0:0:0:0:
379,111,138809,1,10,0:1:0:0:
456,235,139162,1,2,0:0:0:0:
370,196,139339,1,0,0:0:0:0:
382,289,139515,1,8,0:0:0:0:
449,133,139868,6,0,P|431:68|331:38,1,160,2|10,0:0|0:0,0:0:0:0:
275,112,140398,1,2,0:0:0:0:
209,28,140574,2,0,P|177:74|72:76,1,160,2|8,0:0|0:0,0:0:0:0:
158,194,141280,1,2,0:0:0:0:
56,318,141633,1,10,0:0:0:0:
68,227,141809,1,0,0:0:0:0:
147,290,141986,1,2,0:0:0:0:
263,206,142339,1,8,0:0:0:0:
399,328,142692,6,0,P|385:268|424:171,1,160,2|8,0:0|0:0,0:0:0:0:
333,97,143221,1,2,0:0:0:0:
244,175,143398,2,0,P|176:153|72:178,1,160,2|8,0:0|0:0,0:0:0:0:
34,261,143927,1,0,0:0:0:0:
34,261,144015,1,0,0:0:0:0:
34,261,144104,2,0,P|45:311|41:345,1,80,2|0,0:0|0:0,0:0:0:0:
184,257,144456,1,10,0:1:0:0:
328,343,144809,1,2,0:0:0:0:
298,260,144986,1,0,0:0:0:0:
235,330,145162,1,8,0:0:0:0:
83,284,145515,6,0,P|74:222|93:178,1,80,2|0,0:0|0:0,0:0:0:0:
244,78,145868,1,10,0:0:0:0:
325,170,146045,1,2,0:0:0:0:
140,135,146221,5,2,0:0:0:0:
330,82,146574,1,8,0:0:0:0:
237,214,146927,2,0,P|227:268|278:370,1,160,2|8,0:0|0:0,0:0:0:0:
341,264,147456,1,8,0:0:0:0:
416,348,147633,1,8,0:0:0:0:
426,326,147986,1,8,0:0:0:0:
