osu file format v14

[General]
AudioFilename: audio.mp3
AudioLeadIn: 0
PreviewTime: 0
Countdown: 0
SampleSet: Normal
StackLeniency: 0.7
Mode: 0
LetterboxInBreaks: 0
WidescreenStoryboard: 0

[Editor]
Bookmarks: 50909
DistanceSpacing: 1.6
BeatDivisor: 4
GridSize: 16
TimelineZoom: 1

[Metadata]
Title:Zero Punctuation Theme
TitleUnicode:Zero Punctuation Theme
Artist:Ian Dorsch
ArtistUnicode:Ian Dorsch
Creator:Mini Gaunt
Version:Monstrata Style
Source:Zero Punctuation
Tags:
BeatmapID:1748292
BeatmapSetID:834599

[Difficulty]
HPDrainRate:5
CircleSize:4
OverallDifficulty:8.5
ApproachRate:9
SliderMultiplier:1.4
SliderTickRate:1

[Events]
//Background and Video events
0,0,"bg.jpg",0,0
//Break Periods
//Storyboard Layer 0 (Background)
//Storyboard Layer 1 (Fail)
//Storyboard Layer 2 (Pass)
//Storyboard Layer 3 (Foreground)
//Storyboard Sound Samples

[TimingPoints]
0,363.636363636364,4,1,0,50,1,0
5818,-100,4,1,0,50,0,1
11090,-100,4,1,0,50,0,0
11454,-100,4,1,0,50,0,1
17272,-133.333333333333,4,1,0,40,0,0
40727,-100,4,1,0,40,0,1
46000,-100,4,1,0,40,0,0
46363,-100,4,1,0,40,0,1
50909,-100,4,1,0,40,0,0

[HitObjects]
38,227,0,6,0,P|62:212|103:215,1,70
456,294,363,1,0,0:0:0:0:
244,286,545,1,0,0:0:0:0:
460,174,727,2,0,P|399:167|374:177,1,70
47,156,1090,1,0,0:0:0:0:
265,161,1272,1,0,0:0:0:0:
21,57,1454,6,0,P|78:55|110:64,1,70
21,327,1818,2,0,P|78:329|110:320,1,70
283,235,2181,1,0,0:0:0:0:
149,192,2363,1,0,0:0:0:0:
252,97,2545,1,0,0:0:0:0:
184,310,2727,1,0,0:0:0:0:
444,185,2909,6,0,P|418:147|382:118,1,70
192,28,3272,1,0,0:0:0:0:
323,211,3454,1,0,0:0:0:0:
87,64,3636,2,0,P|87:119|102:158,1,70
178,308,4000,1,0,0:0:0:0:
190,127,4181,1,0,0:0:0:0:
311,275,4363,5,0,0:0:0:0:
342,290,4454,1,0,0:0:0:0:
376,287,4545,2,0,L|428:272,1,35
478,162,4727,1,0,0:0:0:0:
443,155,4818,1,0,0:0:0:0:
408,160,4909,2,0,L|350:172,1,35
250,182,5090,5,0,0:0:0:0:
215,186,5181,1,0,0:0:0:0:
180,182,5272,1,0,0:0:0:0:
151,162,5363,1,0,0:0:0:0:
125,137,5454,1,0,0:0:0:0:
118,102,5545,1,0,0:0:0:0:
122,67,5636,2,0,L|140:36,1,35
389,20,5818,6,0,P|365:77|330:116,1,105
252,177,6181,1,0,0:0:0:0:
250,37,6363,1,0,0:0:0:0:
17,188,6545,2,0,P|73:223|132:218,1,105
221,108,6909,5,0,0:0:0:0:
183,289,7090,1,0,0:0:0:0:
395,208,7272,1,0,0:0:0:0:
238,332,7454,1,0,0:0:0:0:
370,135,7636,1,0,0:0:0:0:
307,372,7818,1,0,0:0:0:0:
133,147,8000,5,0,0:0:0:0:
372,252,8181,1,0,0:0:0:0:
330,4,8363,1,0,0:0:0:0:
205,238,8545,1,0,0:0:0:0:
210,35,8727,6,0,P|241:68|255:142,1,105
259,302,9090,1,0,0:0:0:0:
354,138,9272,1,0,0:0:0:0:
119,250,9454,2,0,P|155:219|228:206,1,105
383,249,9818,5,0,0:0:0:0:
187,136,10000,1,0,0:0:0:0:
167,353,10181,1,0,0:0:0:0:
351,100,10363,1,0,0:0:0:0:
167,353,10545,1,0,0:0:0:0:
41,127,10727,1,0,0:0:0:0:
49,111,10818,1,0,0:0:0:0:
54,99,10909,2,0,L|84:72,1,35
378,42,11090,1,0,0:0:0:0:
378,42,11454,6,0,P|366:96|332:153,1,105
266,256,11818,1,0,0:0:0:0:
266,59,12000,1,0,0:0:0:0:
161,157,12181,1,0,0:0:0:0:
25,23,12363,2,0,P|19:72|21:140,1,105
43,296,12727,5,0,0:0:0:0:
209,236,12909,1,0,0:0:0:0:
87,132,13090,1,0,0:0:0:0:
166,352,13272,1,0,0:0:0:0:
87,132,13454,1,0,0:0:0:0:
166,352,13636,1,0,0:0:0:0:
264,86,13818,5,0,0:0:0:0:
400,357,14000,1,0,0:0:0:0:
108,258,14181,1,0,0:0:0:0:
421,266,14363,1,0,0:0:0:0:
141,116,14545,2,0,P|81:127|35:154,1,105
16,305,14909,5,0,0:0:0:0:
39,63,15090,1,0,0:0:0:0:
186,275,15272,2,0,P|214:227|219:163,1,105
263,35,15636,1,0,0:0:0:0:
279,41,15727,2,0,L|324:65,1,35
416,153,16000,5,0,0:0:0:0:
313,273,16181,1,0,0:0:0:0:
297,281,16272,1,0,0:0:0:0:
279,282,16363,1,0,0:0:0:0:
432,354,16545,1,0,0:0:0:0:
145,216,16727,5,0,0:0:0:0:
325,17,16909,1,0,0:0:0:0:
422,250,17090,1,0,0:0:0:0:
118,39,17272,6,0,P|82:68|49:132,1,105.000004005432
46,268,17818,1,0,0:0:0:0:
128,194,18000,1,0,0:0:0:0:
182,345,18181,2,0,P|214:347|236:327,1,52.5000020027161
316,227,18545,2,0,P|301:199|239:162,1,105.000004005432
111,105,19090,1,0,0:0:0:0:
249,33,19272,2,0,P|288:42|344:92,1,105.000004005432
411,199,19818,1,0,0:0:0:0:
262,280,20000,2,0,P|215:273|198:252,1,52.5000020027161
44,183,20363,6,0,P|32:211|30:254,1,52.5000020027161
169,53,20727,2,0,P|181:81|183:124,1,52.5000020027161
211,249,21090,2,0,P|232:308|286:311,1,105.000004005432
370,306,21636,1,0,0:0:0:0:
306,221,21818,1,0,0:0:0:0:
395,222,22000,1,0,0:0:0:0:
329,132,22181,1,0,0:0:0:0:
420,130,22363,1,0,0:0:0:0:
257,22,22545,6,0,P|199:47|196:88,1,105.000004005432
286,106,23090,1,0,0:0:0:0:
222,191,23272,1,0,0:0:0:0:
311,190,23454,1,0,0:0:0:0:
245,280,23635,1,0,0:0:0:0:
336,282,23817,1,0,0:0:0:0:
122,311,24000,6,0,P|81:282|86:232,1,105.000004005432
143,94,24545,1,0,0:0:0:0:
233,321,24727,2,0,P|274:292|269:242,1,105.000004005432
271,89,25272,1,0,0:0:0:0:
477,182,25454,6,0,L|448:182,1,26.2500010013581
370,330,25636,2,0,L|376:291,1,26.2500010013581
308,161,25818,2,0,L|361:200,1,52.5000020027161
279,279,26181,2,0,P|249:293|221:298,1,52.5000020027161
128,304,26545,1,0,0:0:0:0:
198,222,26727,1,0,0:0:0:0:
50,165,26909,6,0,L|117:150,1,52.5000020027161
242,32,27272,2,0,L|231:97,1,52.5000020027161
202,266,27636,1,0,0:0:0:0:
213,272,27727,1,0,0:0:0:0:
224,279,27818,2,0,L|267:302,1,26.2500010013581
392,313,28000,1,0,0:0:0:0:
398,302,28091,1,0,0:0:0:0:
405,291,28182,2,0,L|428:248,1,26.2500010013581
398,114,28363,5,0,0:0:0:0:
364,105,28454,1,0,0:0:0:0:
329,107,28545,1,0,0:0:0:0:
295,114,28636,1,0,0:0:0:0:
263,126,28727,1,0,0:0:0:0:
237,148,28818,1,0,0:0:0:0:
223,179,28909,2,0,L|212:215,1,26.2500010013581
394,345,29090,6,0,P|430:316|463:252,1,105.000004005432
466,116,29636,1,0,0:0:0:0:
384,190,29818,1,0,0:0:0:0:
366,60,29999,1,0,0:0:0:0:
196,157,30182,2,0,P|211:185|273:222,1,105.000004005432
401,279,30727,1,0,0:0:0:0:
263,351,30909,2,0,P|224:342|168:292,1,105.000004005432
101,185,31455,1,0,0:0:0:0:
250,104,31637,2,0,P|297:111|314:132,1,52.5000020027161
449,287,32000,6,0,P|461:259|455:181,1,105.000004005432
391,22,32545,1,0,0:0:0:0:
301,135,32727,2,0,P|280:76|226:73,1,105.000004005432
57,28,33272,2,0,P|74:49|94:93,1,52.5000020027161
117,162,33637,1,0,0:0:0:0:
183,252,33818,1,0,0:0:0:0:
92,254,34000,1,0,0:0:0:0:
255,362,34182,6,0,P|313:337|316:296,1,105.000004005432
151,314,34727,2,0,P|186:282|197:264,1,52.5000020027161
201,194,35091,1,0,0:0:0:0:
267,104,35272,1,0,0:0:0:0:
176,102,35454,1,0,0:0:0:0:
389,73,35637,6,0,P|422:92|429:110,1,52.5000020027161
292,328,36000,2,0,L|287:302,1,26.2500010013581
175,235,36181,2,0,L|205:233,1,26.2500010013581
367,296,36363,2,0,L|338:262,1,26.2500010013581
320,141,36545,2,0,L|296:177,1,26.2500010013581
212,317,36727,2,0,L|240:282,1,26.2500010013581
391,199,36909,2,0,L|354:208,1,26.2500010013581
216,138,37091,2,0,L|238:163,1,26.2500010013581
143,52,37273,6,0,P|133:88|148:173,1,105.000004005432
232,70,37818,2,0,P|262:56|290:51,1,52.5000020027161
385,69,38182,1,0,0:0:0:0:
323,164,38364,1,0,0:0:0:0:
462,219,38546,6,0,L|395:234,1,52.5000020027161
270,352,38909,2,0,L|281:287,1,52.5000020027161
310,118,39273,1,0,0:0:0:0:
299,112,39364,1,0,0:0:0:0:
288,105,39455,2,0,L|245:82,1,26.2500010013581
120,71,39637,1,0,0:0:0:0:
114,82,39728,1,0,0:0:0:0:
107,93,39819,2,0,L|84:136,1,26.2500010013581
114,270,40000,5,0,0:0:0:0:
148,279,40091,1,0,0:0:0:0:
183,277,40182,1,0,0:0:0:0:
217,270,40273,1,0,0:0:0:0:
249,258,40364,1,0,0:0:0:0:
275,236,40455,1,0,0:0:0:0:
289,205,40546,2,0,L|300:169,1,26.2500010013581
61,217,40727,6,0,P|85:160|120:121,1,105
198,60,41090,1,0,0:0:0:0:
200,200,41272,1,0,0:0:0:0:
433,49,41454,2,0,P|377:14|318:19,1,105
291,276,41818,5,0,0:0:0:0:
329,95,41999,1,0,0:0:0:0:
117,176,42181,1,0,0:0:0:0:
274,52,42363,1,0,0:0:0:0:
142,249,42545,1,0,0:0:0:0:
205,12,42727,1,0,0:0:0:0:
379,237,42909,5,0,0:0:0:0:
140,132,43090,1,0,0:0:0:0:
182,380,43272,1,0,0:0:0:0:
307,146,43454,1,0,0:0:0:0:
302,349,43636,6,0,P|271:316|257:242,1,105
253,82,43999,1,0,0:0:0:0:
158,246,44181,1,0,0:0:0:0:
393,134,44363,2,0,P|357:165|284:178,1,105
129,135,44727,5,0,0:0:0:0:
325,248,44909,1,0,0:0:0:0:
345,31,45090,1,0,0:0:0:0:
161,284,45272,1,0,0:0:0:0:
345,31,45454,1,0,0:0:0:0:
471,257,45636,1,0,0:0:0:0:
463,273,45727,1,0,0:0:0:0:
458,285,45818,2,0,L|428:312,1,35
134,342,45999,1,0,0:0:0:0:
134,342,46363,6,0,P|146:288|180:231,1,105
246,128,46727,1,0,0:0:0:0:
246,325,46909,1,0,0:0:0:0:
351,227,47090,1,0,0:0:0:0:
487,361,47272,2,0,P|493:312|491:244,1,105
469,88,47636,5,0,0:0:0:0:
303,148,47818,1,0,0:0:0:0:
425,252,47999,1,0,0:0:0:0:
346,32,48181,1,0,0:0:0:0:
425,252,48363,1,0,0:0:0:0:
346,32,48545,1,0,0:0:0:0:
248,298,48727,5,0,0:0:0:0:
112,27,48909,1,0,0:0:0:0:
404,126,49090,1,0,0:0:0:0:
91,118,49272,1,0,0:0:0:0:
371,268,49454,2,0,P|431:257|477:230,1,105
496,79,49818,5,0,0:0:0:0:
473,321,49999,1,0,0:0:0:0:
326,109,50181,2,0,P|298:157|293:221,1,105
249,349,50545,1,0,0:0:0:0:
233,343,50636,2,0,L|188:319,1,35
96,231,50909,5,0,0:0:0:0:
98,185,51000,1,0,0:0:0:0:
117,144,51090,1,0,0:0:0:0:
157,123,51181,1,0,0:0:0:0:
202,117,51272,1,0,0:0:0:0:
74,47,51454,1,0,0:0:0:0:
367,168,51636,5,0,0:0:0:0:
187,367,51818,1,0,0:0:0:0:
90,134,51999,1,0,0:0:0:0:
244,45,52181,2,0,P|245:124|221:183,1,140
71,298,52727,5,0,0:0:0:0:
319,283,52909,1,0,0:0:0:0:
97,172,53090,1,0,0:0:0:0:
246,270,53272,5,0,0:0:0:0:
231,22,53454,1,0,0:0:0:0:
120,244,53635,1,0,0:0:0:0:
310,105,53818,5,0,0:0:0:0:
325,353,54000,1,0,0:0:0:0:
436,131,54181,1,0,0:0:0:0:
237,286,54363,5,0,0:0:0:0:
485,271,54545,1,0,0:0:0:0:
263,160,54726,1,0,0:0:0:0:
136,337,54909,2,0,P|79:307|70:262,1,105
68,232,55272,1,0,0:0:0:0:
75,194,55363,1,0,0:0:0:0:
90,158,55454,1,0,0:0:0:0:
108,124,55545,1,0,0:0:0:0:
132,94,55636,1,0,0:0:0:0:
161,69,55727,1,0,0:0:0:0:
196,53,55818,1,0,0:0:0:0:
224,78,55909,5,0,0:0:0:0:
253,53,56000,1,0,0:0:0:0:
290,47,56090,1,0,0:0:0:0:
327,53,56181,1,0,0:0:0:0:
354,79,56272,1,0,0:0:0:0:
363,116,56363,1,0,0:0:0:0:
356,153,56454,1,0,0:0:0:0:
334,184,56545,1,0,0:0:0:0:
298,197,56636,1,0,0:0:0:0:
250,183,56727,5,0,0:0:0:0:
213,150,56818,1,0,0:0:0:0:
171,123,56909,1,0,0:0:0:0:
122,115,57000,1,0,0:0:0:0:
74,122,57090,1,0,0:0:0:0:
47,163,57181,1,0,0:0:0:0:
33,210,57272,1,0,0:0:0:0:
54,253,57363,1,0,0:0:0:0:
97,275,57454,1,0,0:0:0:0:
145,271,57545,5,0,0:0:0:0:
196,249,57636,1,0,0:0:0:0:
248,228,57727,1,0,0:0:0:0:
303,222,57818,1,0,0:0:0:0:
358,231,57909,1,0,0:0:0:0:
408,256,58000,1,0,0:0:0:0:
256,192,58090,12,0,58909,0:0:0:0:
