osu file format v14

[General]
AudioFilename: audio.mp3
AudioLeadIn: 0
PreviewTime: 102421
Countdown: 1
SampleSet: Normal
StackLeniency: 0.7
Mode: 0
LetterboxInBreaks: 0
WidescreenStoryboard: 0

[Editor]
DistanceSpacing: 1
BeatDivisor: 4
GridSize: 4
TimelineZoom: 1.6

[Metadata]
Title:RETURN
TitleUnicode:マRイ·EハTートUをR返Nす
Artist:Iacon
ArtistUnicode:Iacon
Creator:Raikozen
Version:Abandoned
Source:
Tags:vaporwave aesthetic
BeatmapID:1038908
BeatmapSetID:487288

[Difficulty]
HPDrainRate:5
CircleSize:5
OverallDifficulty:8
ApproachRate:8.5
SliderMultiplier:1.8
SliderTickRate:1

[Events]
//Background and Video events
0,0,"i will return.jpg",0,0
//Break Periods
//Storyboard Layer 0 (Background)
//Storyboard Layer 1 (Fail)
//Storyboard Layer 2 (Pass)
//Storyboard Layer 3 (Foreground)
//Storyboard Sound Samples

[TimingPoints]
121,400,4,1,1,100,1,0
121,-333,4,1,1,15,0,0
1321,-200,4,1,1,15,0,0
2521,-200,4,1,1,15,0,0
3321,-333,4,1,1,15,0,0
4121,-199.879951980792,4,1,1,15,0,0
6321,-333,4,1,1,15,0,0
7321,-199.879951980792,4,1,1,15,0,0
12921,-199.879951980792,4,1,1,15,0,0
13721,-199.879951980792,4,1,1,15,0,0
16121,-333,4,1,1,15,0,0
16921,-199.879951980792,4,1,1,15,0,0
23321,-133.333333333333,4,1,1,25,0,0
24121,-105.263157894737,4,1,1,35,0,0
24921,-105.263157894737,4,1,1,65,0,0
25721,-86.9565217391303,4,1,5,65,0,0
25821,-86.9565217391303,4,1,1,65,0,0
47321,-74.0740740740741,4,1,1,65,0,0
48121,-86.9565217391304,4,1,1,65,0,0
51321,-100,4,1,1,55,0,0
76921,-90.9090909090909,4,1,1,55,0,0
88921,-83.3333333333333,4,1,1,55,0,0
89921,-90.9090909090909,4,1,1,55,0,0
102521,-76.9230769230769,4,1,1,65,0,1
124921,-83.3333333333333,4,1,1,65,0,1
126521,-100,4,1,1,65,0,1
127321,-66.6666666666667,4,1,1,65,0,1
128121,-100,4,1,1,55,0,0
145321,-166.666666666667,4,1,1,35,0,0
145721,-100,4,1,1,55,0,0
153721,-90.9090909090909,4,1,1,55,0,0
172121,-111.111111111111,4,1,1,55,0,0
172521,-133.333333333333,4,1,1,55,0,0
172921,-100,4,1,1,55,0,0
179321,-71.4285714285714,4,1,1,65,0,1
204921,-83.3333333333333,4,1,1,55,0,0
256121,-95.2380952380952,4,1,1,55,0,0
280921,-74.0740740740741,4,1,1,55,0,0
281321,-60.6060606060606,4,1,1,55,0,0
281721,-66.6666666666667,4,1,1,65,0,1
286921,-83.3333333333333,4,1,1,65,0,1
287321,-66.6666666666667,4,1,1,65,0,1
348921,-83.3333333333333,4,1,1,55,0,0
368121,-90.9090909090909,4,1,1,50,0,0
374521,-100,4,1,1,45,0,0
387321,-111.111111111111,4,1,1,40,0,0
393721,-125,4,1,1,35,0,0
400121,-142.857142857143,4,1,1,35,0,0
406521,-166.666666666667,4,1,1,30,0,0
409721,-166.666666666667,4,1,1,25,0,0
412921,-200,4,1,1,20,0,0
419321,-333,4,1,1,15,0,0
420921,-333,4,1,1,12,0,0
422522,-333,4,1,1,9,0,0
424121,-333,4,1,1,6,0,0
425721,-333,4,1,1,5,0,0

[HitObjects]
68,233,121,6,0,P|128:251|165:229,1,108.108108108108,0|8,0:0|0:0,0:0:0:0:
164,231,1321,2,0,L|155:285,1,45
182,342,1721,5,0,0:0:0:0:
251,360,1921,1,0,0:0:0:0:
309,318,2121,2,0,L|314:262,1,45
387,205,2521,6,0,P|375:244|393:294,1,90,8|0,0:0|0:0,0:0:0:0:
440,346,3121,1,0,0:0:0:0:
440,346,3321,6,0,P|392:326|357:330,1,81.0810810810811
301,352,4121,6,0,L|202:332,1,90.0540508436575,8|0,0:0|0:0,0:0:0:0:
95,268,4921,6,0,L|89:211,1,45.0270254218287
154,176,5321,2,0,L|159:229,1,45.0270254218287
231,264,5721,6,0,L|225:214,1,45.0270254218287,8|0,0:0|0:0,0:0:0:0:
252,155,6121,1,0,0:0:0:0:
252,155,6321,1,0,0:0:0:0:
298,205,6521,6,0,P|273:223|225:219,1,81.0810810810811
193,291,7321,2,0,L|200:354,1,45.0270254218287,8|0,0:0|0:0,0:0:0:0:
259,373,7721,1,0,0:0:0:0:
330,365,7921,1,0,0:0:0:0:
363,301,8121,5,0,0:0:0:0:
357,229,8321,1,0,0:0:0:0:
297,187,8521,2,0,L|249:201,1,45.0270254218287
168,127,8921,6,0,P|204:138|256:116,2,90.0540508436575,8|0|0,0:0|0:0|0:0,0:0:0:0:
110,170,9921,1,0,0:0:0:0:
63,224,10121,2,0,L|73:279,1,45.0270254218287
108,330,10521,6,0,P|135:301|134:238,1,90.0540508436575,8|0,0:0|0:0,0:0:0:0:
26,264,11321,2,0,L|80:268,1,45.0270254218287
108,329,11721,2,0,L|161:319,1,45.0270254218287
198,265,12121,6,0,L|248:275,1,45.0270254218287,8|0,0:0|0:0,0:0:0:0:
295,323,12521,1,0,0:0:0:0:
365,306,12721,1,0,0:0:0:0:
405,239,12921,6,0,P|411:181|371:115,1,135.081076265486
329,174,13721,2,0,L|316:233,1,45.0270254218287,8|0,0:0|0:0,0:0:0:0:
264,265,14121,5,0,0:0:0:0:
191,263,14321,1,0,0:0:0:0:
141,211,14521,2,0,L|145:159,2,45.0270254218287
90,346,15321,6,0,P|53:348|14:314,1,90.0540508436575,8|0,0:0|0:0,0:0:0:0:
79,275,15921,1,0,0:0:0:0:
155,375,16121,6,0,L|247:364,1,81.0810810810811
293,321,16921,6,0,L|301:268,1,45.0270254218287,8|0,0:0|0:0,0:0:0:0:
314,205,17321,2,0,L|323:146,1,45.0270254218287
391,173,17721,6,0,L|383:226,1,45.0270254218287
245,199,18121,2,0,L|254:144,1,45.0270254218287
324,153,18521,6,0,L|308:260,1,90.0540508436575,8|0,0:0|0:0,0:0:0:0:
261,295,19121,1,0,0:0:0:0:
193,269,19321,6,0,L|188:218,1,45.0270254218287
204,153,19721,1,0,0:0:0:0:
261,109,19921,1,0,0:0:0:0:
325,141,20121,6,0,L|328:201,1,45.0270254218287,8|0,0:0|0:0,0:0:0:0:
300,253,20521,1,0,0:0:0:0:
227,251,20721,1,0,0:0:0:0:
186,191,20921,5,0,0:0:0:0:
257,184,21121,1,0,0:0:0:0:
155,255,21321,2,0,L|102:252,1,45.0270254218287
41,196,21721,6,0,P|63:179|134:191,1,90.0540508436575,8|0,0:0|0:0,0:0:0:0:
227,251,22321,1,0,0:0:0:0:
242,116,22521,6,0,L|225:267,1,135.081076265486
308,315,23321,6,0,L|318:235,1,67.5000025749208,8|0,0:0|0:0,0:0:0:0:
340,102,23721,2,0,L|329:190,1,67.5000025749208
397,249,24121,6,0,P|352:259|301:236,1,85.4999977169037
260,88,24521,2,0,P|308:84|344:106,1,85.4999977169037
477,253,24921,5,10,0:0:0:0:
260,88,25121,1,10,0:0:0:0:
428,21,25321,5,10,0:0:0:0:
397,249,25521,1,10,0:0:0:0:
202,35,25721,6,0,P|250:11|339:118,1,207.000003948212,4|0,0:0|0:0,0:0:0:0:
304,333,26321,1,0,0:0:0:0:
232,154,26521,2,0,L|352:190,1,103.500001974106,8|0,0:0|0:0,0:0:0:0:
459,233,26921,5,0,0:0:0:0:
231,155,27121,1,0,0:0:0:0:
451,150,27321,5,0,0:0:0:0:
227,236,27521,2,0,L|112:240,1,103.500001974106
42,109,27921,6,0,P|92:79|142:96,1,103.500001974106,0|8,0:0|0:0,0:0:0:0:
228,237,28321,2,0,P|181:288|59:258,1,207.000003948212
133,89,28921,6,0,L|140:218,1,103.500001974106
317,267,29321,2,0,L|306:138,1,103.500001974106
247,340,29721,1,8,0:0:0:0:
247,340,29921,2,0,P|302:372|406:279,1,207.000003948212
168,64,30721,6,0,L|150:186,1,103.500001974106
68,332,31121,1,0,0:0:0:0:
216,256,31321,2,0,P|172:273|97:225,1,103.500001974106,8|0,0:0|0:0,0:0:0:0:
92,151,31721,6,0,L|101:97,1,51.7500009870529,10|0,0:0|0:0,0:0:0:0:
108,138,31921,2,0,L|120:68,1,51.7500009870529,10|0,0:0|0:0,0:0:0:0:
66,35,32121,6,0,P|3:98|74:165,1,207.000003948212,4|0,0:0|0:0,0:0:0:0:
339,140,32721,1,0,0:0:0:0:
231,27,32921,1,8,0:0:0:0:
216,256,33121,2,0,L|207:386,1,103.500001974106
399,262,33521,6,2,P|359:239|302:253,1,103.500001974106,0|0,0:0|0:0,0:0:0:0:
301,356,33921,2,0,P|361:377|403:353,1,103.500001974106
484,246,34321,2,8,L|494:135,1,103.500001974106,0|8,0:0|0:0,0:0:0:0:
302,77,34721,2,0,P|260:132|319:257,1,207.000003948212
404,90,35321,6,0,L|287:75,1,103.500001974106
199,270,35721,2,0,L|313:250,1,103.500001974106
166,53,36121,1,8,0:0:0:0:
18,301,36321,2,0,L|128:285,1,103.500001974106
82,38,36721,6,0,P|39:81|39:157,1,103.500001974106
199,270,37121,2,0,L|184:168,1,103.500001974106
34,360,37521,2,0,L|145:344,1,103.500001974106,0|8,0:0|0:0,0:0:0:0:
186,167,37921,2,0,P|106:148|21:243,1,207.000003948212
216,332,38521,6,0,L|337:309,1,103.500001974106
386,168,38921,2,0,L|261:190,1,103.500001974106
437,295,39321,1,8,0:0:0:0:
496,150,39521,2,0,L|486:46,1,103.500001974106
284,185,39921,6,0,L|296:306,1,103.500001974106
392,64,40321,2,0,L|264:76,1,103.500001974106
385,228,40721,2,0,L|502:219,1,103.500001974106,0|8,0:0|0:0,0:0:0:0:
392,64,41121,2,0,P|346:29|207:80,1,207.000003948212
149,183,41721,5,0,0:0:0:0:
170,16,41921,1,0,0:0:0:0:
306,125,42121,2,0,L|207:168,1,103.500001974106
214,68,42521,1,8,0:0:0:0:
291,218,42721,6,0,L|403:168,1,103.500001974106
214,68,43121,2,0,L|102:116,1,103.500001974106
381,274,43521,6,0,L|482:221,1,103.500001974106
147,17,43921,1,0,0:0:0:0:
125,310,44121,6,0,L|139:239,1,51.7500009870529,10|0,0:0|0:0,0:0:0:0:
144,296,44321,2,0,L|155:240,1,51.7500009870529,10|0,0:0|0:0,0:0:0:0:
105,101,44521,6,0,L|92:165,1,51.7500009870529,10|0,0:0|0:0,0:0:0:0:
82,117,44721,2,0,L|68:188,1,51.7500009870529,10|0,0:0|0:0,0:0:0:0:
101,328,44921,6,0,P|155:353|146:239,1,207.000003948212,6|0,0:0|0:0,0:0:0:0:
88,246,45521,1,0,0:0:0:0:
253,368,45721,2,0,L|371:348,1,103.500001974106,8|0,0:0|0:0,0:0:0:0:
373,157,46121,2,0,L|241:175,1,103.500001974106
428,351,46521,6,0,B|432:289|432:289|461:258|461:258|468:150,1,207.000003948212
326,15,47121,1,0,0:0:0:0:
204,206,47321,6,0,P|200:279|234:337,1,121.500000463486,8|0,0:0|0:0,0:0:0:0:
467,155,47721,2,0,P|461:76|416:31,1,121.500000463486,8|0,0:0|0:0,0:0:0:0:
298,254,48121,6,0,L|511:219,1,207.000003948212
312,123,48721,1,0,0:0:0:0:
261,342,48921,2,0,B|208:360|208:360|141:328,1,103.500001974106,8|0,0:0|0:0,0:0:0:0:
85,182,49321,2,0,B|139:167|139:167|188:198,1,103.500001974106
264,242,49721,5,0,0:0:0:0:
166,275,49921,1,0,0:0:0:0:
83,180,50121,5,0,0:0:0:0:
192,147,50321,1,0,0:0:0:0:
59,307,50521,5,8,0:0:0:0:
114,68,50721,1,0,0:0:0:0:
264,242,50921,2,0,L|149:280,1,103.500001974106
37,172,51321,6,0,P|80:195|198:133,1,180
243,55,51921,1,0,0:0:0:0:
264,242,52121,2,0,L|238:340,1,90,8|0,0:0|0:0,0:0:0:0:
158,364,52521,1,0,0:0:0:0:
91,288,52721,6,0,P|136:268|244:342,1,180
373,287,53321,2,0,L|398:192,1,90
238,145,53721,5,8,0:0:0:0:
264,242,53921,1,0,0:0:0:0:
325,164,54121,2,0,L|227:142,1,90
180,241,54521,6,0,B|225:258|225:258|272:238,1,90
374,325,54921,2,0,P|318:305|213:373,2,180,0|8|0,0:0|0:0|0:0,0:0:0:0:
440,375,55921,1,0,0:0:0:0:
430,245,56121,6,0,L|423:138,1,90
418,65,56521,1,0,0:0:0:0:
272,164,56721,1,0,0:0:0:0:
424,155,56921,5,8,0:0:0:0:
344,113,57121,1,0,0:0:0:0:
352,209,57321,2,0,L|424:155,1,90
331,17,57721,5,0,0:0:0:0:
352,209,57921,1,0,0:0:0:0:
424,155,58121,1,0,0:0:0:0:
252,71,58321,1,0,0:0:0:0:
272,260,58521,6,0,L|288:374,1,90,8|0,0:0|0:0,0:0:0:0:
161,171,58921,2,0,L|151:66,1,90
95,222,59321,6,0,P|162:252|243:179,2,180,0|0|8,0:0|0:0|0:0,0:0:0:0:
60,322,60321,1,0,0:0:0:0:
161,171,60521,1,0,0:0:0:0:
1,266,60721,1,0,0:0:0:0:
134,366,60921,6,0,L|256:342,1,90
163,164,61321,1,0,0:0:0:0:
144,267,61521,1,0,0:0:0:0:
340,185,61721,6,0,L|252:114,1,90,8|0,0:0|0:0,0:0:0:0:
180,60,62121,1,0,0:0:0:0:
245,238,62321,1,0,0:0:0:0:
373,106,62521,5,0,0:0:0:0:
211,153,62721,1,0,0:0:0:0:
300,50,62921,1,0,0:0:0:0:
340,185,63121,1,0,0:0:0:0:
181,34,63321,5,8,0:0:0:0:
430,83,63521,1,0,0:0:0:0:
251,290,63721,1,0,0:0:0:0:
300,50,63921,1,0,0:0:0:0:
251,290,64121,6,0,B|210:291|181:269|181:269|142:276|142:276|122:259|68:249,1,180
184,174,64721,1,0,0:0:0:0:
213,354,64921,2,0,P|268:365|308:337,1,90,8|0,0:0|0:0,0:0:0:0:
416,190,65321,1,0,0:0:0:0:
389,367,65521,6,0,L|417:181,1,180
511,312,66121,1,0,0:0:0:0:
320,217,66321,1,0,0:0:0:0:
496,220,66521,5,8,0:0:0:0:
326,323,66721,1,0,0:0:0:0:
315,104,66921,2,0,L|406:160,1,90
326,323,67321,6,0,L|235:278,1,90
23,345,67721,2,0,P|72:316|189:356,1,180,0|8,0:0|0:0,0:0:0:0:
245,283,68321,2,0,L|272:162,1,90
182,103,68721,6,0,P|132:125|201:185,1,180
269,88,69321,1,0,0:0:0:0:
159,268,69521,1,0,0:0:0:0:
182,103,69721,5,8,0:0:0:0:
243,303,69921,1,0,0:0:0:0:
346,74,70121,1,0,0:0:0:0:
28,259,70521,6,0,L|46:367,1,90
194,192,70921,2,0,L|179:87,1,90
87,171,71321,5,8,0:0:0:0:
177,326,71521,1,0,0:0:0:0:
268,166,71721,1,0,0:0:0:0:
109,276,71921,1,0,0:0:0:0:
238,379,72121,6,0,L|356:359,1,90
345,232,72521,2,0,L|246:242,1,90
411,302,72921,2,0,P|443:239|382:148,1,180,8|0,0:0|0:0,0:0:0:0:
255,241,73521,6,0,L|373:228,1,90
296,133,73921,1,0,0:0:0:0:
211,349,74121,1,0,0:0:0:0:
417,336,74321,1,0,0:0:0:0:
255,241,74521,6,0,L|145:248,1,90,8|0,0:0|0:0,0:0:0:0:
99,349,74921,1,0,0:0:0:0:
316,343,75121,1,0,0:0:0:0:
200,139,75321,5,0,0:0:0:0:
211,349,75521,1,8,0:0:0:0:
401,240,75721,1,0,0:0:0:0:
201,250,75921,1,0,0:0:0:0:
454,338,76121,5,8,0:0:0:0:
197,38,76321,1,0,0:0:0:0:
211,349,76521,1,8,0:0:0:0:
481,167,76721,1,0,0:0:0:0:
200,139,76921,6,0,L|78:158,1,99.0000030212403
113,365,77321,2,0,L|224:346,1,99.0000030212403
197,38,77721,6,0,L|82:56,1,99.0000030212403,8|0,0:0|0:0,0:0:0:0:
268,258,78121,1,0,0:0:0:0:
340,18,78321,1,0,0:0:0:0:
185,159,78521,5,0,0:0:0:0:
348,142,78721,1,0,0:0:0:0:
250,10,78921,2,0,L|259:126,1,99.0000030212403
268,258,79321,6,0,P|361:297|452:231,1,198.000006042481,8|0,0:0|0:0,0:0:0:0:
348,142,79921,1,0,0:0:0:0:
233,361,80121,6,0,L|119:346,1,99.0000030212403
108,153,80521,2,0,L|226:169,1,99.0000030212403
439,252,80921,6,0,P|355:297|268:258,1,198.000006042481,8|0,0:0|0:0,0:0:0:0:
275,57,81521,2,0,P|356:22|465:101,1,198.000006042481
350,208,82121,6,0,L|359:93,1,99.0000030212403
182,14,82521,2,0,L|171:133,1,99.0000030212403,8|0,0:0|0:0,0:0:0:0:
264,155,82921,2,0,L|276:37,1,99.0000030212403
86,28,83321,6,0,L|69:248,1,198.000006042481
267,138,83921,1,0,0:0:0:0:
171,78,84121,2,0,L|163:192,1,99.0000030212403,8|0,0:0|0:0,0:0:0:0:
164,302,84521,1,0,0:0:0:0:
367,196,84721,1,0,0:0:0:0:
267,138,84921,6,0,L|262:251,1,99.0000030212403
451,342,85321,2,0,L|458:224,1,99.0000030212403
259,357,85721,1,8,0:0:0:0:
454,242,85921,1,0,0:0:0:0:
267,138,86121,1,0,0:0:0:0:
256,256,86321,6,0,L|467:241,1,198.000006042481
383,168,86921,1,0,0:0:0:0:
324,355,87121,1,0,0:0:0:0:
267,138,87321,2,0,L|287:30,1,99.0000030212403,8|0,0:0|0:0,0:0:0:0:
383,168,87721,1,0,0:0:0:0:
178,196,87921,1,0,0:0:0:0:
285,40,88121,5,0,0:0:0:0:
256,256,88321,1,0,0:0:0:0:
187,57,88521,2,0,L|285:40,1,99.0000030212403
383,168,88921,6,0,B|342:184|308:168|308:168|271:185|271:185|227:175|227:175|207:183|178:196,2,215.999993408203,10|2|0,0:0|0:0|0:0,0:0:0:0:
482,86,89921,1,0,0:0:0:0:
350,7,90121,2,0,L|343:123,1,99.0000030212403
386,300,90521,6,0,P|455:273|491:146,1,198.000006042481,8|0,0:0|0:0,0:0:0:0:
387,180,91121,1,0,0:0:0:0:
427,367,91321,6,0,L|530:347,1,99.0000030212403
387,180,91721,2,0,L|273:197,1,99.0000030212403,0|0,0:0|0:0,0:0:0:0:
222,329,92121,2,0,P|261:355|392:278,1,198.000006042481,8|0,0:0|0:0,0:0:0:0:
300,51,92921,6,0,P|259:29|178:58,1,99.0000030212403
151,160,93321,2,0,L|119:298,1,99.0000030212403
223,311,93721,6,0,L|249:184,1,99.0000030212403,8|0,0:0|0:0,0:0:0:0:
357,123,94121,2,0,L|334:232,1,99.0000030212403
300,350,94521,5,0,0:0:0:0:
250,159,94721,1,0,0:0:0:0:
431,230,94921,1,0,0:0:0:0:
269,265,95121,1,0,0:0:0:0:
357,123,95321,6,0,L|334:232,1,99.0000030212403,8|0,0:0|0:0,0:0:0:0:
179,302,95721,2,0,L|206:200,1,99.0000030212403
190,37,96121,6,0,P|135:34|68:157,1,198.000006042481
96,329,96721,1,0,0:0:0:0:
176,217,96921,6,0,L|160:99,1,99.0000030212403,8|0,0:0|0:0,0:0:0:0:
13,244,97321,2,0,L|28:380,1,99.0000030212403
179,302,97721,6,0,P|257:326|370:233,1,198.000006042481
412,346,98321,1,0,0:0:0:0:
477,231,98521,6,0,B|500:179|500:179|497:111,1,99.0000030212403,8|0,0:0|0:0,0:0:0:0:
359,39,98921,2,0,B|334:84|334:84|336:168,1,99.0000030212403
361,302,99321,5,8,0:0:0:0:
393,183,99521,1,0,0:0:0:0:
281,212,99721,1,0,0:0:0:0:
361,302,99921,1,0,0:0:0:0:
429,73,100121,5,8,0:0:0:0:
281,212,100321,1,0,0:0:0:0:
504,167,100521,1,0,0:0:0:0:
318,92,100721,1,0,0:0:0:0:
361,302,100921,5,8,0:0:0:0:
429,73,101121,1,0,0:0:0:0:
248,326,101321,1,0,0:0:0:0:
504,167,101521,1,0,0:0:0:0:
198,115,101721,6,8,L|94:138,1,99.0000030212403,8|0,0:0|0:0,0:0:0:0:
361,302,102121,1,8,0:0:0:0:
252,4,102321,1,8,0:0:0:0:
48,306,102521,6,0,P|151:368|270:287,1,233.999989288331,4|0,0:0|0:0,0:0:0:0:
371,123,103121,1,0,0:0:0:0:
463,259,103321,2,0,L|435:396,1,116.999994644165,8|0,0:0|0:0,0:0:0:0:
174,161,103721,2,0,L|213:20,1,116.999994644165
315,137,104121,5,0,0:0:0:0:
139,288,104321,1,0,0:0:0:0:
205,48,104521,1,0,0:0:0:0:
405,231,104721,1,0,0:0:0:0:
174,161,104921,5,8,0:0:0:0:
438,91,105121,1,0,0:0:0:0:
363,361,105321,2,0,L|245:327,1,116.999994644165
84,91,105721,6,0,P|181:56|280:167,1,233.999989288331
380,22,106321,1,0,0:0:0:0:
387,246,106521,2,0,L|358:383,1,116.999994644165,8|0,0:0|0:0,0:0:0:0:
147,274,106921,2,0,L|178:141,1,116.999994644165
279,245,107321,5,0,0:0:0:0:
146,273,107521,1,0,0:0:0:0:
202,20,107721,1,0,0:0:0:0:
303,112,107921,1,0,0:0:0:0:
48,186,108121,5,8,0:0:0:0:
78,65,108321,1,0,0:0:0:0:
279,245,108521,2,0,L|252:381,1,116.999994644165,8|8,0:0|0:0,0:0:0:0:
194,169,108921,6,0,P|248:139|398:243,1,233.999989288331
279,245,109521,1,0,0:0:0:0:
241,43,109721,1,8,0:0:0:0:
415,95,109921,2,0,L|384:228,1,116.999994644165
107,126,110321,6,0,L|146:2,1,116.999994644165
305,262,110721,2,0,L|267:386,1,116.999994644165
25,217,111121,6,0,L|163:197,1,116.999994644165,0|8,0:0|0:0,0:0:0:0:
151,359,111521,2,0,L|5:343,1,116.999994644165
257,184,111921,2,0,L|259:260,1,58.4999973220826
320,366,112121,6,0,L|353:239,1,116.999994644165
253,67,112521,2,0,L|258:222,1,116.999994644165
414,329,112921,6,0,P|479:337|382:260,1,350.999983932496,8|0,0:0|0:0,0:0:0:0:
320,366,113721,6,0,L|163:340,1,116.999994644165
172,220,114121,2,0,L|300:243,1,116.999994644165
75,329,114521,5,10,0:0:0:0:
256,97,114721,1,2,0:0:0:0:
320,366,114921,1,10,0:0:0:0:
27,191,115121,1,10,0:0:0:0:
399,137,115321,6,0,L|514:174,1,116.999994644165,4|0,0:0|0:0,0:0:0:0:
320,366,115721,2,0,L|201:334,1,116.999994644165
231,12,116121,2,0,L|366:50,1,116.999994644165,8|0,0:0|0:0,0:0:0:0:
244,127,116521,1,0,0:0:0:0:
232,11,116721,1,0,0:0:0:0:
463,87,116921,5,0,0:0:0:0:
271,251,117121,1,0,0:0:0:0:
342,39,117321,1,0,0:0:0:0:
385,297,117521,1,0,0:0:0:0:
156,204,117721,6,0,L|259:112,1,116.999994644165,8|0,0:0|0:0,0:0:0:0:
385,297,118121,1,0,0:0:0:0:
284,374,118321,1,0,0:0:0:0:
374,155,118521,6,0,L|491:212,1,116.999994644165
284,374,118921,2,0,L|146:311,1,116.999994644165
38,260,119321,1,8,0:0:0:0:
169,173,119521,1,0,0:0:0:0:
177,325,119721,5,0,0:0:0:0:
43,106,119921,1,0,0:0:0:0:
301,243,120121,1,0,0:0:0:0:
38,260,120321,1,0,0:0:0:0:
287,86,120521,5,0,0:0:0:0:
177,325,120721,1,0,0:0:0:0:
157,33,120921,5,8,0:0:0:0:
309,379,121121,1,0,0:0:0:0:
38,260,121321,2,0,L|172:237,1,116.999994644165,8|8,0:0|0:0,0:0:0:0:
385,146,121721,6,0,P|320:103|159:163,1,233.999989288331
294,276,122321,5,0,0:0:0:0:
294,276,122421,1,0,0:0:0:0:
294,276,122521,2,0,L|457:258,1,116.999994644165,8|0,0:0|0:0,0:0:0:0:
157,33,122921,2,0,L|10:43,1,116.999994644165
12,261,123321,6,0,P|100:300|221:183,1,233.999989288331
284,42,123921,2,0,L|286:137,1,58.4999973220826
293,275,124121,2,0,L|283:19,1,233.999989288331,8|0,0:0|0:0,0:0:0:0:
61,349,124921,6,0,P|123:364|174:333,1,107.999996704102,2|0,0:0|0:0,0:0:0:0:
191,129,125321,2,0,P|145:122|78:149,1,107.999996704102
294,276,125721,6,0,L|309:197,1,53.9999983520508,8|0,0:0|0:0,0:0:0:0:
317,259,125921,2,0,L|330:185,1,53.9999983520508,8|0,0:0|0:0,0:0:0:0:
337,245,126121,2,0,L|350:181,1,53.9999983520508,8|0,0:0|0:0,0:0:0:0:
361,231,126321,2,0,L|373:161,1,53.9999983520508,8|0,0:0|0:0,0:0:0:0:
284,96,126521,6,0,L|294:292,1,180,8|0,0:0|0:0,0:0:0:0:
376,362,127121,1,0,0:0:0:0:
376,362,127221,1,0,0:0:0:0:
376,362,127321,6,0,L|458:351,1,67.5000025749208,10|0,0:0|0:0,0:0:0:0:
486,237,127521,2,0,L|479:157,1,67.5000025749208,10|0,0:0|0:0,0:0:0:0:
338,123,127721,2,0,L|347:215,1,67.5000025749208,10|0,0:0|0:0,0:0:0:0:
469,11,127921,2,0,L|368:19,1,67.5000025749208,10|0,0:0|0:0,0:0:0:0:
256,81,128121,6,0,P|174:113|96:73,1,180,4|0,0:0|0:0,0:0:0:0:
29,168,128721,1,0,0:0:0:0:
106,273,128921,2,0,L|125:147,1,90,8|0,0:0|0:0,0:0:0:0:
28,307,129321,1,0,0:0:0:0:
168,330,129521,1,0,0:0:0:0:
119,184,129721,5,0,0:0:0:0:
88,366,129921,1,0,0:0:0:0:
230,203,130121,1,0,0:0:0:0:
14,173,130321,1,0,0:0:0:0:
168,330,130521,2,0,L|292:309,1,90,8|0,0:0|0:0,0:0:0:0:
318,187,130921,2,0,L|196:209,1,90
351,355,131321,6,0,L|378:249,1,90
354,37,131721,2,0,P|305:81|340:206,2,180,0|8|0,0:0|0:0|0:0,0:0:0:0:
480,117,132721,6,0,L|365:132,1,90
441,35,133121,1,0,0:0:0:0:
448,221,133321,1,0,0:0:0:0:
338,38,133521,1,0,0:0:0:0:
480,117,133721,5,8,0:0:0:0:
293,136,133921,1,0,0:0:0:0:
441,35,134121,2,0,L|487:132,1,90
372,236,134521,6,0,P|322:264|178:148,1,270
298,46,135321,2,0,L|291:166,1,90,8|0,0:0|0:0,0:0:0:0:
104,243,135721,2,0,L|115:120,1,90
190,208,136121,5,0,0:0:0:0:
101,243,136321,1,0,0:0:0:0:
126,47,136521,1,0,0:0:0:0:
276,156,136721,1,0,0:0:0:0:
112,153,136921,5,8,0:0:0:0:
199,97,137121,1,0,0:0:0:0:
101,243,137321,2,0,L|-8:230,1,90
199,97,137721,6,0,P|246:62|363:106,1,180
430,24,138321,1,0,0:0:0:0:
405,174,138521,2,0,L|386:293,1,90,8|0,0:0|0:0,0:0:0:0:
420,98,138921,5,0,0:0:0:0:
377,337,139121,1,0,0:0:0:0:
192,169,139321,5,0,0:0:0:0:
473,232,139521,1,0,0:0:0:0:
284,262,139721,1,0,0:0:0:0:
312,134,139921,1,0,0:0:0:0:
377,337,140121,5,8,0:0:0:0:
214,47,140321,1,0,0:0:0:0:
396,225,140521,1,8,0:0:0:0:
192,169,140721,1,0,0:0:0:0:
425,107,140921,6,0,L|521:130,1,90
252,251,141321,2,0,P|187:276|101:210,1,180,0|8,0:0|0:0,0:0:0:0:
353,90,142121,5,0,0:0:0:0:
312,295,142321,1,0,0:0:0:0:
327,206,142521,6,0,L|309:308,1,90
250,125,142921,1,0,0:0:0:0:
424,171,143121,1,0,0:0:0:0:
220,225,143321,5,8,0:0:0:0:
283,8,143521,1,8,0:0:0:0:
288,346,143721,5,0,0:0:0:0:
250,125,143921,1,8,0:0:0:0:
86,293,144121,6,0,L|190:323,1,90
402,249,144521,1,0,0:0:0:0:
250,125,144721,1,0,0:0:0:0:
288,346,144921,6,0,L|320:235,1,90,8|0,0:0|0:0,0:0:0:0:
325,293,145321,6,0,L|345:224,1,53.9999983520508,8|0,0:0|0:0,0:0:0:0:
250,125,145721,6,0,P|197:180|254:282,1,180
295,204,146321,1,0,0:0:0:0:
146,111,146521,2,0,L|44:127,1,90,8|0,0:0|0:0,0:0:0:0:
110,199,146921,1,0,0:0:0:0:
89,23,147121,1,0,0:0:0:0:
42,244,147321,6,0,P|87:282|189:226,1,180
145,116,147921,1,0,0:0:0:0:
57,124,148121,1,8,0:0:0:0:
110,199,148321,1,0,0:0:0:0:
87,39,148521,6,0,L|54:130,1,90
121,288,148921,2,0,L|108:184,1,90
13,350,149321,2,0,L|102:359,1,90
282,281,149721,6,0,P|202:250|114:295,1,180,8|0,0:0|0:0,0:0:0:0:
13,188,150321,2,0,L|219:164,1,180
291,91,150921,6,0,L|285:-12,1,90
8,98,151321,2,0,L|13:207,1,90,8|0,0:0|0:0,0:0:0:0:
121,346,151721,1,0,0:0:0:0:
111,233,151921,1,0,0:0:0:0:
121,346,152121,5,0,0:0:0:0:
101,111,152321,1,8,0:0:0:0:
20,307,152521,1,0,0:0:0:0:
202,176,152721,1,0,0:0:0:0:
12,187,152921,5,8,0:0:0:0:
208,290,153121,1,0,0:0:0:0:
98,21,153321,2,0,L|101:150,1,90,8|0,0:0|0:0,0:0:0:0:
121,346,153721,6,0,P|158:289|112:169,1,198.000006042481,4|0,0:0|0:0,0:0:0:0:
24,262,154321,1,0,0:0:0:0:
212,360,154521,2,0,L|316:342,1,99.0000030212403,8|0,0:0|0:0,0:0:0:0:
406,328,154921,1,0,0:0:0:0:
427,166,155121,6,0,P|370:234|442:344,1,198.000006042481
468,254,155721,1,0,0:0:0:0:
310,126,155921,1,0,0:0:0:0:
361,357,156121,5,8,0:0:0:0:
414,88,156321,1,0,0:0:0:0:
275,254,156521,2,0,L|383:278,1,99.0000030212403
310,126,156921,6,0,P|253:156|111:116,1,198.000006042481
28,245,157521,1,0,0:0:0:0:
28,245,157721,2,0,L|137:228,1,99.0000030212403,8|0,0:0|0:0,0:0:0:0:
185,40,158121,1,0,0:0:0:0:
185,40,158321,6,0,P|112:27|14:128,1,198.000006042481
78,311,158921,1,0,0:0:0:0:
101,115,159121,1,0,0:0:0:0:
11,249,159321,6,0,P|-7:307|17:372,1,99.0000030212403,8|0,0:0|0:0,0:0:0:0:
148,364,159721,2,0,P|170:302|151:254,1,99.0000030212403,8|0,0:0|0:0,0:0:0:0:
101,115,160121,6,0,L|74:346,1,198.000006042481
272,245,160721,1,0,0:0:0:0:
186,181,160921,2,0,L|172:296,1,99.0000030212403,8|0,0:0|0:0,0:0:0:0:
286,128,161321,1,0,0:0:0:0:
186,181,161521,1,0,0:0:0:0:
373,202,161721,6,0,L|496:215,1,99.0000030212403
488,86,162121,2,0,L|362:77,1,99.0000030212403
286,128,162521,2,0,P|245:195|299:300,1,198.000006042481,8|0,0:0|0:0,0:0:0:0:
373,202,163121,1,0,0:0:0:0:
157,115,163321,5,0,0:0:0:0:
162,338,163521,1,0,0:0:0:0:
291,295,163721,1,0,0:0:0:0:
182,188,163921,1,0,0:0:0:0:
250,372,164121,6,0,L|358:341,1,99.0000030212403,8|0,0:0|0:0,0:0:0:0:
276,159,164521,2,0,L|170:191,1,99.0000030212403
148,340,164921,5,0,0:0:0:0:
276,159,165121,1,0,0:0:0:0:
55,128,165321,1,0,0:0:0:0:
224,257,165521,5,0,0:0:0:0:
169,143,165721,1,8,0:0:0:0:
94,242,165921,1,0,0:0:0:0:
276,159,166121,2,0,L|289:44,1,99.0000030212403
470,221,166521,6,0,P|365:305|205:230,1,297.000009063721
132,130,167321,2,0,L|108:248,1,99.0000030212403,8|0,0:0|0:0,0:0:0:0:
89,358,167721,1,0,0:0:0:0:
297,275,167921,1,0,0:0:0:0:
130,128,168121,5,0,0:0:0:0:
193,322,168321,1,0,0:0:0:0:
212,206,168521,1,0,0:0:0:0:
104,244,168721,1,0,0:0:0:0:
297,275,168921,6,0,L|417:231,1,99.0000030212403,8|0,0:0|0:0,0:0:0:0:
341,63,169321,2,0,L|222:100,1,99.0000030212403
209,202,169721,6,0,L|317:167,1,99.0000030212403
216,22,170121,2,0,L|87:55,1,99.0000030212403
70,157,170521,6,0,B|60:206|75:241|75:241|95:257|95:257|108:277|91:358,1,198.000006042481,8|0,0:0|0:0,0:0:0:0:
10,288,171121,1,0,0:0:0:0:
209,202,171321,6,0,L|315:217,1,99.0000030212403
380,346,171721,2,0,L|497:321,1,99.0000030212403
446,239,172121,6,0,B|397:230|397:230|357:252,1,80.9999975280763,8|0,0:0|0:0,0:0:0:0:
260,315,172521,2,0,P|217:319|186:296,1,67.5000025749208
144,217,172921,6,0,L|163:100,1,90
333,114,173321,2,0,L|319:224,1,90
277,34,173721,2,0,P|323:13|430:100,1,180,8|0,0:0|0:0,0:0:0:0:
486,8,174321,1,0,0:0:0:0:
464,184,174521,2,0,L|446:289,1,90
193,317,174921,2,0,L|212:210,1,90
231,127,175321,5,8,0:0:0:0:
356,265,175521,1,0,0:0:0:0:
192,315,175721,1,0,0:0:0:0:
208,228,175921,1,0,0:0:0:0:
274,294,176121,5,8,0:0:0:0:
118,256,176321,1,0,0:0:0:0:
294,201,176521,1,0,0:0:0:0:
192,315,176721,1,0,0:0:0:0:
138,159,176921,5,8,0:0:0:0:
274,294,177121,1,0,0:0:0:0:
46,183,177321,1,0,0:0:0:0:
310,113,177521,1,0,0:0:0:0:
110,346,177721,5,8,0:0:0:0:
329,25,177921,1,0,0:0:0:0:
274,294,178121,5,8,0:0:0:0:
147,30,178321,1,0,0:0:0:0:
375,268,178521,5,8,0:0:0:0:
46,183,178721,1,8,0:0:0:0:
441,143,178921,5,8,0:0:0:0:
248,363,179121,1,8,0:0:0:0:
147,30,179321,6,0,B|186:18|236:46|236:46|272:18|272:18|341:18|389:69,1,251.999992309571,4|0,0:0|0:0,0:0:0:0:
271,294,179921,1,0,0:0:0:0:
137,149,180121,2,0,P|126:78|159:16,1,125.999996154785,8|0,0:0|0:0,0:0:0:0:
370,315,180521,1,0,0:0:0:0:
137,149,180721,1,0,0:0:0:0:
255,4,180921,5,0,0:0:0:0:
259,341,181121,1,0,0:0:0:0:
146,29,181321,1,0,0:0:0:0:
463,173,181521,1,0,0:0:0:0:
158,345,181721,6,0,L|153:212,1,125.999996154785,8|0,0:0|0:0,0:0:0:0:
458,48,182121,2,0,L|465:209,1,125.999996154785
78,119,182521,6,0,P|138:74|287:178,1,251.999992309571
290,351,183121,1,0,0:0:0:0:
325,50,183321,6,0,L|487:77,1,125.999996154785,8|0,0:0|0:0,0:0:0:0:
181,302,183721,2,0,L|20:275,1,125.999996154785
113,113,184121,6,0,P|103:49|153:-7,1,125.999996154785
403,229,184521,2,0,P|415:306|377:371,1,125.999996154785
285,71,184921,6,0,L|444:57,1,125.999996154785,8|0,0:0|0:0,0:0:0:0:
181,302,185321,1,8,0:0:0:0:
315,4,185521,1,8,0:0:0:0:
282,368,185721,5,0,0:0:0:0:
410,59,185921,2,0,L|413:160,1,62.9999980773926
420,281,186121,2,0,L|273:297,1,125.999996154785
154,125,186521,6,0,L|317:110,1,125.999996154785,8|0,0:0|0:0,0:0:0:0:
464,358,186921,1,0,0:0:0:0:
167,304,187121,1,0,0:0:0:0:
247,48,187321,5,0,0:0:0:0:
385,366,187521,1,0,0:0:0:0:
156,160,187721,1,0,0:0:0:0:
437,115,187921,1,0,0:0:0:0:
437,115,188021,1,0,0:0:0:0:
437,115,188121,6,0,L|409:258,1,125.999996154785,8|0,0:0|0:0,0:0:0:0:
176,340,188521,1,8,0:0:0:0:
156,165,188721,1,0,0:0:0:0:
156,165,188821,1,0,0:0:0:0:
156,165,188921,6,0,L|295:151,1,125.999996154785
394,358,189321,2,0,L|243:348,1,125.999996154785
228,33,189721,2,0,P|301:14|413:152,1,251.999992309571,8|0,0:0|0:0,0:0:0:0:
264,352,190321,1,0,0:0:0:0:
264,352,190421,1,0,0:0:0:0:
264,352,190521,6,0,L|242:189,1,125.999996154785
503,113,190921,2,0,L|482:260,1,125.999996154785
154,148,191321,6,0,P|228:110|353:239,1,251.999992309571,8|8,0:0|0:0,0:0:0:0:
147,362,191921,1,8,0:0:0:0:
8,135,192121,6,0,L|27:-5,1,125.999996154785,4|0,0:0|0:0,0:0:0:0:
352,200,192521,2,0,L|340:340,1,125.999996154785
111,61,192921,6,0,P|202:58|243:103,1,125.999996154785,8|0,0:0|0:0,0:0:0:0:
352,200,193321,1,0,0:0:0:0:
216,344,193521,1,0,0:0:0:0:
111,61,193721,5,0,0:0:0:0:
512,232,193921,1,0,0:0:0:0:
328,323,194121,2,0,L|354:188,1,125.999996154785
430,112,194521,6,0,P|333:77|224:185,1,251.999992309571,8|0,0:0|0:0,0:0:0:0:
351,199,195121,1,0,0:0:0:0:
206,42,195321,6,0,L|30:29,1,125.999996154785
26,324,195721,2,0,L|160:332,1,125.999996154785
347,202,196121,6,0,B|300:225|246:210|246:210|222:183|222:183|150:168|94:222,1,251.999992309571,8|0,0:0|0:0,0:0:0:0:
218,354,196721,1,0,0:0:0:0:
290,127,196921,6,0,L|281:-2,1,125.999996154785
173,296,197321,1,0,0:0:0:0:
423,74,197521,1,0,0:0:0:0:
86,223,197721,6,0,P|56:304|83:372,1,125.999996154785,8|0,0:0|0:0,0:0:0:0:
504,148,198121,2,0,P|528:82|504:11,1,125.999996154785,8|0,0:0|0:0,0:0:0:0:
165,40,198521,5,0,0:0:0:0:
134,62,198621,1,0,0:0:0:0:
114,94,198721,1,0,0:0:0:0:
101,129,198821,1,0,0:0:0:0:
99,166,198921,6,0,L|115:245,1,62.9999980773926
36,264,199121,2,0,L|14:333,1,62.9999980773926
128,342,199321,6,0,B|171:369|211:356|211:356|236:327|236:327|301:363|387:330,1,251.999992309571,8|0,0:0|0:0,0:0:0:0:
476,244,199921,1,0,0:0:0:0:
476,244,200021,1,0,0:0:0:0:
476,244,200121,6,0,L|497:113,1,125.999996154785
327,11,200521,2,0,L|338:154,1,125.999996154785
367,347,200921,5,8,0:0:0:0:
401,45,201121,2,0,L|456:9,2,62.9999980773926
110,191,201521,1,0,0:0:0:0:
110,191,201621,1,0,0:0:0:0:
110,191,201721,6,0,L|248:197,1,125.999996154785,8|0,0:0|0:0,0:0:0:0:
75,27,202121,1,0,0:0:0:0:
188,357,202321,1,0,0:0:0:0:
352,34,202521,6,0,L|208:31,1,125.999996154785,8|0,0:0|0:0,0:0:0:0:
110,191,202921,1,0,0:0:0:0:
432,128,203121,1,0,0:0:0:0:
75,27,203321,5,8,0:0:0:0:
257,358,203521,1,0,0:0:0:0:
352,34,203721,1,8,0:0:0:0:
132,311,203921,1,0,0:0:0:0:
459,282,204121,5,8,0:0:0:0:
130,10,204321,1,8,0:0:0:0:
257,358,204521,6,0,L|281:287,1,62.9999980773926,8|0,0:0|0:0,0:0:0:0:
171,66,204721,2,0,L|175:145,1,62.9999980773926,8|0,0:0|0:0,0:0:0:0:
185,219,204921,6,8,P|276:216|172:131,1,323.999990112305,4|0,0:0|0:0,0:0:0:0:
132,311,205721,2,0,L|262:299,1,107.999996704102,8|0,0:0|0:0,0:0:0:0:
437,279,206121,1,0,0:0:0:0:
468,176,206321,6,0,B|422:129|422:129|439:302,1,215.999993408203
492,80,206921,1,0,0:0:0:0:
317,275,207121,1,0,0:0:0:0:
511,350,207321,6,0,L|499:219,1,107.999996704102,8|0,0:0|0:0,0:0:0:0:
341,71,207721,2,0,L|351:200,1,107.999996704102
437,85,208121,5,0,0:0:0:0:
219,188,208321,1,0,0:0:0:0:
412,340,208521,2,0,L|426:204,1,107.999996704102
189,88,208921,6,0,P|141:113|178:280,1,215.999993408203,8|0,0:0|0:0,0:0:0:0:
233,333,209521,2,0,B|265:354|316:348|316:348|337:322|337:322|389:311|432:340,1,215.999993408203
233,333,210121,1,0,0:0:0:0:
304,91,210321,1,0,0:0:0:0:
397,221,210521,6,0,L|274:207,1,107.999996704102,8|0,0:0|0:0,0:0:0:0:
368,19,210921,2,0,L|510:32,1,107.999996704102
423,321,211321,6,0,P|368:362|223:321,1,215.999993408203
146,141,211921,1,0,0:0:0:0:
127,364,212121,6,0,L|143:222,1,107.999996704102,8|0,0:0|0:0,0:0:0:0:
39,28,212521,2,0,L|30:179,1,107.999996704102
213,313,212921,6,0,L|342:321,1,107.999996704102
253,150,213321,2,0,L|124:139,1,107.999996704102
58,243,213721,2,0,P|48:297|132:246,1,215.999993408203,8|0,0:0|0:0,0:0:0:0:
105,183,214321,1,0,0:0:0:0:
209,364,214521,6,0,L|353:352,1,107.999996704102
319,134,214921,2,0,L|195:142,1,107.999996704102
417,306,215321,2,0,P|456:260|451:186,1,107.999996704102,8|0,0:0|0:0,0:0:0:0:
124,32,215721,2,0,P|75:97|89:164,1,107.999996704102
209,364,216121,5,0,0:0:0:0:
222,118,216321,1,0,0:0:0:0:
52,257,216521,1,0,0:0:0:0:
359,211,216721,1,0,0:0:0:0:
111,154,216921,5,8,0:0:0:0:
209,364,217121,1,0,0:0:0:0:
373,112,217321,2,0,L|389:-6,1,107.999996704102
111,154,217721,6,0,P|81:102|204:148,1,323.999990112305
140,278,218521,2,0,L|19:262,1,107.999996704102,8|0,0:0|0:0,0:0:0:0:
222,118,218921,1,0,0:0:0:0:
177,362,219121,1,0,0:0:0:0:
111,154,219321,6,0,L|126:39,1,107.999996704102
339,222,219721,2,0,L|320:343,1,107.999996704102
222,118,220121,2,0,B|257:99|307:112|307:112|339:140|339:140|392:151|429:119,1,215.999993408203,8|0,0:0|0:0,0:0:0:0:
365,13,220721,1,0,0:0:0:0:
265,248,220921,6,0,L|281:385,1,107.999996704102
222,118,221321,2,8,P|161:165|28:85,1,215.999993408203,0|8,0:0|0:0,0:0:0:0:
134,56,221921,1,0,0:0:0:0:
175,308,222121,1,0,0:0:0:0:
225,26,222321,6,0,L|351:13,1,107.999996704102
372,254,222721,1,0,0:0:0:0:
372,254,222921,2,0,L|243:246,1,107.999996704102
325,138,223321,5,8,0:0:0:0:
430,358,223521,1,0,0:0:0:0:
264,247,223721,1,0,0:0:0:0:
482,254,223921,1,0,0:0:0:0:
312,356,224121,6,0,L|194:349,1,107.999996704102
125,26,224521,2,0,L|250:30,1,107.999996704102
264,247,224921,6,0,B|219:269|180:243|180:243|151:265|151:265|98:266|52:247,2,215.999993408203,8|0|0,0:0|0:0|0:0,0:0:0:0:
223,151,225921,1,0,0:0:0:0:
204,363,226121,2,0,L|348:353,1,107.999996704102
411,133,226521,2,0,P|326:97|209:174,1,215.999993408203,8|0,0:0|0:0,0:0:0:0:
290,27,227121,1,0,0:0:0:0:
226,280,227321,6,0,L|347:251,1,107.999996704102
122,58,227721,2,0,L|94:181,1,107.999996704102
392,118,228121,1,8,0:0:0:0:
290,27,228321,1,0,0:0:0:0:
248,174,228521,2,0,L|221:300,1,107.999996704102
307,300,228921,5,0,0:0:0:0:
155,269,229121,1,0,0:0:0:0:
377,237,229321,5,0,0:0:0:0:
90,340,229521,1,0,0:0:0:0:
394,339,229721,5,8,0:0:0:0:
68,240,229921,1,0,0:0:0:0:
461,265,230121,5,8,0:0:0:0:
2,299,230321,1,0,0:0:0:0:
461,265,230521,6,0,L|479:140,1,107.999996704102
172,9,230921,2,0,L|186:133,1,107.999996704102
250,335,231321,6,0,P|319:305|226:297,1,215.999993408203,8|0,0:0|0:0,0:0:0:0:
143,337,231921,1,0,0:0:0:0:
143,337,232021,1,0,0:0:0:0:
143,337,232121,6,0,L|11:315,1,107.999996704102
92,62,232521,2,0,L|235:86,1,107.999996704102
219,199,232921,2,0,B|184:184|154:178|154:178|115:196|115:196|66:166|-5:189,2,215.999993408203,8|0|0,0:0|0:0|0:0,0:0:0:0:
181,299,233921,1,0,0:0:0:0:
217,15,234121,6,0,L|233:150,1,107.999996704102
256,329,234521,2,0,P|322:320|240:275,1,215.999993408203,8|0,0:0|0:0,0:0:0:0:
181,299,235121,1,0,0:0:0:0:
303,172,235321,5,0,0:0:0:0:
335,358,235521,1,0,0:0:0:0:
237,234,235721,1,0,0:0:0:0:
417,309,235921,1,0,0:0:0:0:
256,329,236121,5,8,0:0:0:0:
368,115,236321,1,0,0:0:0:0:
335,358,236521,1,0,0:0:0:0:
290,78,236721,6,0,P|425:55|291:155,1,431.999986816407
212,33,237721,6,0,L|188:138,1,107.999996704102,8|0,0:0|0:0,0:0:0:0:
228,326,238121,2,0,L|255:213,1,107.999996704102
10,199,238521,6,0,P|38:244|178:208,1,215.999993408203
234,82,239121,1,0,0:0:0:0:
194,335,239321,1,8,0:0:0:0:
234,82,239521,1,0,0:0:0:0:
194,335,239721,2,0,L|212:215,1,107.999996704102
325,23,240121,6,0,P|383:38|394:55,1,53.9999983520508
430,132,240321,1,0,0:0:0:0:
430,164,240421,1,0,0:0:0:0:
414,192,240521,2,0,P|360:208|341:202,1,53.9999983520508
263,135,240721,1,0,0:0:0:0:
433,24,240921,6,0,L|428:162,1,107.999996704102,8|0,0:0|0:0,0:0:0:0:
394,316,241321,1,0,0:0:0:0:
352,112,241521,1,0,0:0:0:0:
494,284,241721,5,0,0:0:0:0:
295,339,241921,1,0,0:0:0:0:
424,193,242121,1,0,0:0:0:0:
394,316,242321,1,0,0:0:0:0:
352,112,242521,2,0,L|366:-3,1,107.999996704102,8|0,0:0|0:0,0:0:0:0:
424,193,242921,1,0,0:0:0:0:
378,210,243021,1,0,0:0:0:0:
329,208,243121,1,0,0:0:0:0:
284,188,243221,1,0,0:0:0:0:
252,150,243321,6,0,P|159:135|215:296,1,323.999990112305
289,262,244121,1,8,0:0:0:0:
289,262,244221,1,0,0:0:0:0:
289,262,244321,1,0,0:0:0:0:
247,48,244521,1,0,0:0:0:0:
234,347,244721,6,0,P|293:360|375:238,1,215.999993408203
405,57,245321,1,0,0:0:0:0:
422,84,245421,1,0,0:0:0:0:
439,111,245521,1,0,0:0:0:0:
453,139,245621,1,0,0:0:0:0:
466,168,245721,6,0,L|451:289,1,107.999996704102,8|0,0:0|0:0,0:0:0:0:
213,161,246121,2,0,L|239:20,1,107.999996704102
332,121,246521,5,0,0:0:0:0:
332,121,246621,1,0,0:0:0:0:
69,255,246821,1,0,0:0:0:0:
69,255,246921,1,0,0:0:0:0:
128,23,247121,1,0,0:0:0:0:
123,334,247321,2,0,P|181:361|235:344,1,107.999996704102,8|0,0:0|0:0,0:0:0:0:
371,219,247721,1,0,0:0:0:0:
427,363,247921,5,0,0:0:0:0:
427,363,248021,1,0,0:0:0:0:
427,363,248121,2,0,L|440:244,1,107.999996704102
277,64,248521,1,0,0:0:0:0:
256,301,248721,1,0,0:0:0:0:
256,301,248821,1,0,0:0:0:0:
256,301,248921,2,0,L|370:282,1,107.999996704102,8|0,0:0|0:0,0:0:0:0:
177,72,249321,2,0,L|44:95,1,107.999996704102
10,188,249721,6,0,P|51:264|195:148,1,323.999990112305
96,59,250521,2,0,L|109:199,1,107.999996704102,8|0,0:0|0:0,0:0:0:0:
264,354,250921,2,0,L|291:240,1,107.999996704102
421,61,251321,6,0,P|459:111|351:115,1,215.999993408203
336,48,251921,1,0,0:0:0:0:
494,208,252121,2,0,L|484:336,1,107.999996704102,8|0,0:0|0:0,0:0:0:0:
236,142,252521,1,0,0:0:0:0:
426,44,252721,5,0,0:0:0:0:
426,44,252821,1,0,0:0:0:0:
426,44,252921,2,0,L|433:113,3,53.9999983520508
403,197,253321,1,0,0:0:0:0:
378,218,253421,1,0,0:0:0:0:
346,223,253521,1,0,0:0:0:0:
313,219,253621,1,0,0:0:0:0:
286,200,253721,6,0,L|276:82,1,107.999996704102,8|0,0:0|0:0,0:0:0:0:
454,135,254121,1,0,0:0:0:0:
246,288,254321,6,0,P|179:324|43:246,1,215.999993408203
127,51,254921,2,0,P|184:36|236:67,1,107.999996704102
159,234,255321,2,0,L|175:102,1,107.999996704102,8|0,0:0|0:0,0:0:0:0:
336,249,255721,1,0,0:0:0:0:
50,317,255921,1,0,0:0:0:0:
50,317,256021,1,0,0:0:0:0:
50,317,256121,6,0,P|24:262|43:204,1,94.499997116089,4|0,0:0|0:0,0:0:0:0:
249,146,256521,2,0,P|266:210|243:261,1,94.499997116089
62,62,256921,2,0,L|288:48,1,188.999994232178,8|0,0:0|0:0,0:0:0:0:
443,241,257521,1,0,0:0:0:0:
443,241,257721,6,0,L|308:250,1,94.499997116089
249,146,258121,2,0,L|361:142,1,94.499997116089
254,297,258521,2,0,P|212:331|68:280,1,188.999994232178,8|0,0:0|0:0,0:0:0:0:
166,226,259121,1,0,0:0:0:0:
306,368,259321,6,0,L|421:351,1,94.499997116089
413,141,259721,2,0,L|292:155,1,94.499997116089
139,310,260121,2,0,B|194:311|218:290|218:290|234:268|234:268|276:258|329:291,1,188.999994232178,8|0,0:0|0:0,0:0:0:0:
306,368,260721,1,0,0:0:0:0:
166,226,260921,6,0,L|181:109,1,94.499997116089
186,23,261321,1,0,0:0:0:0:
55,205,261521,1,0,0:0:0:0:
262,259,261721,6,0,L|272:208,1,47.2499985580445,8|0,0:0|0:0,0:0:0:0:
282,249,261921,2,0,L|294:196,1,47.2499985580445,8|0,0:0|0:0,0:0:0:0:
303,242,262121,2,0,L|317:188,1,47.2499985580445,8|0,0:0|0:0,0:0:0:0:
326,231,262321,2,0,L|341:178,1,47.2499985580445,8|0,0:0|0:0,0:0:0:0:
357,94,262521,6,0,P|327:87|370:167,1,188.999994232178,4|0,0:0|0:0,0:0:0:0:
437,155,263121,1,0,0:0:0:0:
257,37,263321,2,0,L|146:46,1,94.499997116089,8|0,0:0|0:0,0:0:0:0:
51,282,263721,2,0,L|170:273,1,94.499997116089
208,158,264121,6,0,B|163:146|163:146|103:168,1,94.499997116089
208,330,264521,2,0,B|308:351|308:351|401:309,1,188.999994232178,0|8,0:0|0:0,0:0:0:0:
432,156,265121,1,0,0:0:0:0:
283,173,265321,2,0,L|294:283,1,94.499997116089
432,156,265721,6,0,L|421:44,1,94.499997116089
323,78,266121,1,0,0:0:0:0:
506,173,266321,1,0,0:0:0:0:
321,259,266521,2,0,B|280:262|259:244|259:244|216:257|216:257|186:239|115:235,1,188.999994232178,8|0,0:0|0:0,0:0:0:0:
217,165,267121,1,0,0:0:0:0:
283,339,267321,6,0,P|354:342|405:242,1,188.999994232178
352,82,267921,1,0,0:0:0:0:
324,261,268121,1,8,0:0:0:0:
488,189,268321,2,0,P|442:112|339:82,1,188.999994232178
149,253,268921,6,0,B|200:242|224:255|224:255|249:279|249:279|310:280|340:246,1,188.999994232178
230,125,269521,1,0,0:0:0:0:
191,329,269721,2,0,B|234:356|234:356|288:350,1,94.499997116089,8|0,0:0|0:0,0:0:0:0:
294,57,270121,6,0,B|187:32|134:102|134:102|174:154|246:117,1,283.499991348267
153,0,270921,6,0,P|96:27|61:78,1,94.499997116089
387,175,271321,2,0,P|378:113|345:69,1,94.499997116089,8|0,0:0|0:0,0:0:0:0:
96,265,271721,2,0,P|131:294|187:300,1,94.499997116089
407,263,272121,5,0,0:0:0:0:
252,182,272321,1,0,0:0:0:0:
257,357,272521,1,0,0:0:0:0:
507,227,272721,1,0,0:0:0:0:
252,87,272921,2,0,L|251:202,1,94.499997116089,8|0,0:0|0:0,0:0:0:0:
406,357,273321,2,0,L|407:257,1,94.499997116089
405,57,273721,5,0,0:0:0:0:
314,302,273921,1,0,0:0:0:0:
499,216,274121,1,0,0:0:0:0:
334,94,274321,1,0,0:0:0:0:
406,262,274521,5,8,0:0:0:0:
297,18,274721,1,0,0:0:0:0:
216,282,274921,2,0,L|233:396,1,94.499997116089
277,195,275321,6,0,P|210:180|107:259,1,188.999994232178
37,134,275921,1,0,0:0:0:0:
125,31,276121,2,0,L|244:39,1,94.499997116089,8|0,0:0|0:0,0:0:0:0:
302,258,276521,1,0,0:0:0:0:
302,258,276721,6,0,L|71:239,1,188.999994232178
126,369,277321,1,0,0:0:0:0:
199,143,277521,1,0,0:0:0:0:
305,324,277721,5,8,0:0:0:0:
17,209,277921,1,0,0:0:0:0:
199,143,278121,2,0,L|166:255,1,94.499997116089
130,353,278521,5,8,0:0:0:0:
75,155,278721,1,0,0:0:0:0:
292,116,278921,1,0,0:0:0:0:
331,328,279121,1,0,0:0:0:0:
98,259,279321,5,8,0:0:0:0:
292,116,279521,1,0,0:0:0:0:
221,341,279721,1,0,0:0:0:0:
75,155,279921,1,0,0:0:0:0:
311,230,280121,5,8,0:0:0:0:
29,360,280321,1,0,0:0:0:0:
188,30,280521,1,8,0:0:0:0:
221,341,280721,1,0,0:0:0:0:
67,52,280921,6,0,L|85:140,1,60.7500002317429,8|0,0:0|0:0,0:0:0:0:
430,317,281121,1,8,0:0:0:0:
29,360,281321,2,0,B|15:319|15:319|16:264,1,74.2500007081032,8|0,0:0|0:0,0:0:0:0:
302,27,281521,2,0,B|317:68|317:68|312:106,1,74.2500007081032,8|0,0:0|0:0,0:0:0:0:
241,280,281721,6,0,P|175:298|54:144,1,270.000010299683,4|0,0:0|0:0,0:0:0:0:
223,29,282321,1,0,0:0:0:0:
315,358,282521,2,0,L|463:331,1,135.000005149842,8|0,0:0|0:0,0:0:0:0:
347,37,282921,1,0,0:0:0:0:
230,360,283121,1,0,0:0:0:0:
503,155,283321,5,0,0:0:0:0:
109,76,283521,1,0,0:0:0:0:
315,358,283721,1,0,0:0:0:0:
150,4,283921,1,0,0:0:0:0:
103,362,284121,5,8,0:0:0:0:
479,227,284321,1,0,0:0:0:0:
109,76,284521,2,0,P|72:142|77:230,1,135.000005149842
219,362,284921,6,0,B|234:288|234:288|273:252|273:252|300:98,1,270.000010299683
69,200,285521,1,0,0:0:0:0:
344,359,285721,2,0,L|493:333,1,135.000005149842,8|0,0:0|0:0,0:0:0:0:
194,35,286121,2,0,L|43:52,1,135.000005149842
406,195,286521,6,0,P|426:120|390:52,1,135.000005149842
193,178,286921,6,0,B|184:215|184:215|195:237|195:237|178:266|178:266|202:304|182:346,1,161.999995056153
168,340,287321,2,0,P|100:350|46:298,1,135.000005149842,8|0,0:0|0:0,0:0:0:0:
215,36,287721,1,8,0:0:0:0:
235,366,287921,1,0,0:0:0:0:
419,240,288121,5,0,0:0:0:0:
450,213,288221,1,0,0:0:0:0:
466,176,288321,1,0,0:0:0:0:
469,135,288421,1,0,0:0:0:0:
459,95,288521,1,0,0:0:0:0:
435,62,288621,1,0,0:0:0:0:
398,45,288721,1,0,0:0:0:0:
357,44,288821,1,0,0:0:0:0:
323,66,288921,6,0,B|308:97|308:97|309:137,3,67.5000025749208,8|0|0|0,0:0|0:0|0:0|0:0,0:0:0:0:
213,186,289321,2,0,B|225:146|225:146|218:100,3,67.5000025749208
170,31,289721,5,0,0:0:0:0:
132,16,289821,1,0,0:0:0:0:
91,17,289921,1,0,0:0:0:0:
54,34,290021,1,0,0:0:0:0:
34,69,290121,1,0,0:0:0:0:
25,108,290221,1,0,0:0:0:0:
35,147,290321,1,0,0:0:0:0:
66,172,290421,1,0,0:0:0:0:
104,186,290521,6,0,B|142:186|142:186|177:163,3,67.5000025749208,8|0|0|0,0:0|0:0|0:0|0:0,0:0:0:0:
251,133,290921,1,0,0:0:0:0:
288,148,291021,1,0,0:0:0:0:
314,178,291121,1,0,0:0:0:0:
328,215,291221,1,0,0:0:0:0:
330,255,291321,6,0,P|317:310|245:355,1,135.000005149842
120,38,291721,2,0,P|204:17|283:69,1,135.000005149842
14,348,292121,2,0,B|20:273|20:273|52:239|52:239|67:70,1,270.000010299683,8|0,0:0|0:0,0:0:0:0:
342,325,292721,1,0,0:0:0:0:
219,84,292921,6,0,P|295:40|474:116,1,270.000010299683,8|0,0:0|0:0,0:0:0:0:
340,343,293521,1,0,0:0:0:0:
220,60,293721,6,0,P|296:16|475:92,1,270.000010299683,8|0,0:0|0:0,0:0:0:0:
338,362,294321,1,0,0:0:0:0:
459,69,294521,6,0,B|475:143|475:143|454:209,1,135.000005149842,4|0,0:0|0:0,0:0:0:0:
134,287,294921,2,0,B|117:217|117:217|135:150,1,135.000005149842
472,351,295321,2,0,L|318:363,1,135.000005149842,8|0,0:0|0:0,0:0:0:0:
133,156,295721,1,0,0:0:0:0:
457,199,295921,1,0,0:0:0:0:
216,367,296121,5,0,0:0:0:0:
226,22,296321,1,0,0:0:0:0:
457,199,296521,1,0,0:0:0:0:
133,156,296721,1,0,0:0:0:0:
367,27,296921,6,0,L|501:44,1,135.000005149842,8|0,0:0|0:0,0:0:0:0:
267,304,297321,2,0,L|133:286,1,135.000005149842
32,69,297721,6,0,P|94:26|254:131,1,270.000010299683
257,345,298321,1,0,0:0:0:0:
351,35,298521,2,0,L|323:186,1,135.000005149842,8|0,0:0|0:0,0:0:0:0:
481,349,298921,2,0,L|464:188,1,135.000005149842
128,125,299321,5,0,0:0:0:0:
375,328,299521,1,0,0:0:0:0:
444,13,299721,1,0,0:0:0:0:
243,247,299921,1,0,0:0:0:0:
506,177,300121,5,8,0:0:0:0:
157,37,300321,1,0,0:0:0:0:
257,345,300521,1,8,0:0:0:0:
460,88,300721,1,0,0:0:0:0:
70,68,300921,6,0,P|32:158|55:240,1,135.000005149842
55,228,301221,1,0,0:0:0:0:
90,247,301321,6,0,L|181:229,1,67.5000025749208
320,196,301521,2,0,L|231:213,1,67.5000025749208
176,88,301721,6,0,L|190:175,1,67.5000025749208,8|0,0:0|0:0,0:0:0:0:
232,353,301921,2,0,L|215:264,1,67.5000025749208
259,25,302121,6,0,L|272:106,1,67.5000025749208
323,356,302321,2,0,L|308:277,1,67.5000025749208
176,88,302521,5,0,0:0:0:0:
136,80,302621,1,0,0:0:0:0:
96,88,302721,1,0,0:0:0:0:
64,113,302821,1,0,0:0:0:0:
46,149,302921,1,0,0:0:0:0:
44,189,303021,1,0,0:0:0:0:
61,225,303121,1,0,0:0:0:0:
92,250,303221,1,0,0:0:0:0:
133,261,303321,6,0,B|169:259|169:259|196:236,3,67.5000025749208,8|0|0|0,0:0|0:0|0:0|0:0,0:0:0:0:
268,186,303721,1,0,0:0:0:0:
308,181,303821,1,0,0:0:0:0:
346,192,303921,1,0,0:0:0:0:
379,214,304021,1,0,0:0:0:0:
401,247,304121,6,0,P|407:309|351:373,1,135.000005149842,8|0,0:0|0:0,0:0:0:0:
119,112,304521,1,0,0:0:0:0:
408,30,304721,1,0,0:0:0:0:
153,377,304921,6,0,L|136:229,1,135.000005149842,8|0,0:0|0:0,0:0:0:0:
255,11,305321,1,0,0:0:0:0:
364,365,305521,1,0,0:0:0:0:
36,152,305721,6,0,P|114:115|249:233,1,270.000010299683,8|0,0:0|0:0,0:0:0:0:
153,377,306321,1,0,0:0:0:0:
280,112,306521,6,0,P|351:183|523:102,1,270.000010299683,8|0,0:0|0:0,0:0:0:0:
404,24,307121,1,0,0:0:0:0:
364,365,307321,6,0,L|216:352,1,135.000005149842,4|0,0:0|0:0,0:0:0:0:
36,64,307721,2,0,L|200:72,1,135.000005149842
76,344,308121,2,0,B|52:276|52:276|76:208,1,135.000005149842,8|0,0:0|0:0,0:0:0:0:
176,0,308521,1,0,0:0:0:0:
184,324,308721,1,0,0:0:0:0:
36,64,308921,5,0,0:0:0:0:
392,252,309121,1,0,0:0:0:0:
24,360,309321,1,0,0:0:0:0:
236,16,309521,1,0,0:0:0:0:
244,360,309721,5,8,0:0:0:0:
76,160,309921,1,0,0:0:0:0:
324,232,310121,1,0,0:0:0:0:
36,308,310321,1,0,0:0:0:0:
372,364,310521,6,0,L|548:344,1,135.000005149842
328,116,310921,2,0,P|252:144|220:208,1,135.000005149842
144,360,311321,2,0,L|120:208,1,135.000005149842,8|0,0:0|0:0,0:0:0:0:
428,40,311721,2,0,L|404:196,1,135.000005149842
84,64,312121,6,0,P|160:48|224:84,1,135.000005149842
176,344,312521,2,0,P|88:340|36:276,1,135.000005149842
276,140,312921,1,8,0:0:0:0:
54,312,313121,1,0,0:0:0:0:
368,288,313321,1,8,0:0:0:0:
152,20,313521,1,8,0:0:0:0:
176,344,313721,6,0,P|264:356|328:308,1,135.000005149842
336,312,314021,1,0,0:0:0:0:
368,288,314121,2,0,L|356:208,1,67.5000025749208
432,160,314321,2,0,L|368:132,1,67.5000025749208
396,40,314521,5,8,0:0:0:0:
360,20,314621,1,0,0:0:0:0:
320,16,314721,1,0,0:0:0:0:
280,28,314821,1,0,0:0:0:0:
248,52,314921,6,0,L|232:136,1,67.5000025749208
164,152,315121,2,0,L|204:224,1,67.5000025749208
166,288,315321,6,0,L|246:300,3,67.5000025749208
344,205,315721,2,0,L|260:193,3,67.5000025749208
392,352,316121,5,8,0:0:0:0:
424,328,316221,1,0,0:0:0:0:
440,292,316321,1,0,0:0:0:0:
440,252,316421,1,0,0:0:0:0:
428,212,316521,1,0,0:0:0:0:
404,180,316621,1,0,0:0:0:0:
384,144,316721,1,0,0:0:0:0:
380,104,316821,1,0,0:0:0:0:
388,64,316921,6,0,B|388:8|480:8|496:152|284:164|296:20,1,270.000010299683
119,316,317521,1,0,0:0:0:0:
207,19,317721,2,0,L|167:167,1,135.000005149842,8|0,0:0|0:0,0:0:0:0:
326,356,318121,1,0,0:0:0:0:
414,243,318321,6,0,P|319:214|187:325,1,270.000010299683
52,134,318921,1,0,0:0:0:0:
207,19,319121,1,0,0:0:0:0:
191,309,319321,6,0,L|27:293,1,135.000005149842,8|0,0:0|0:0,0:0:0:0:
284,13,319721,2,0,L|455:29,1,135.000005149842,8|8,0:0|0:0,0:0:0:0:
486,217,320121,6,0,B|447:243|406:240|406:240|364:221|364:221|302:244|302:244|229:223,1,270.000010299683,4|0,0:0|0:0,0:0:0:0:
418,25,320721,1,0,0:0:0:0:
499,299,320921,2,0,P|425:320|361:302,1,135.000005149842,8|0,0:0|0:0,0:0:0:0:
94,52,321321,1,0,0:0:0:0:
486,217,321521,1,0,0:0:0:0:
112,307,321721,5,0,0:0:0:0:
305,5,321921,1,0,0:0:0:0:
370,306,322121,1,0,0:0:0:0:
72,134,322321,1,0,0:0:0:0:
414,89,322521,5,8,0:0:0:0:
233,359,322721,1,0,0:0:0:0:
94,52,322921,2,0,L|235:66,1,135.000005149842
439,206,323321,6,0,P|382:248|191:167,1,270.000010299683
81,304,323921,1,0,0:0:0:0:
303,365,324121,6,0,L|473:346,1,135.000005149842,8|0,0:0|0:0,0:0:0:0:
246,83,324521,2,0,L|78:100,1,135.000005149842
81,304,324921,5,0,0:0:0:0:
395,111,325121,1,0,0:0:0:0:
112,13,325321,1,0,0:0:0:0:
230,328,325521,1,0,0:0:0:0:
265,11,325721,5,8,0:0:0:0:
19,228,325921,1,0,0:0:0:0:
387,216,326121,6,0,B|398:190|398:190|392:144,1,67.5000025749208,8|0,0:0|0:0,0:0:0:0:
112,13,326321,2,0,B|98:38|98:38|103:93,1,67.5000025749208,8|0,0:0|0:0,0:0:0:0:
230,219,326521,6,0,L|247:147,3,67.5000025749208
110,160,326921,2,0,L|118:233,3,67.5000025749208
14,246,327321,5,8,0:0:0:0:
7,285,327421,1,0,0:0:0:0:
29,318,327521,1,0,0:0:0:0:
66,334,327621,1,0,0:0:0:0:
106,336,327721,1,0,0:0:0:0:
141,315,327821,1,0,0:0:0:0:
180,305,327921,1,0,0:0:0:0:
220,310,328021,1,0,0:0:0:0:
255,329,328121,6,0,L|282:258,3,67.5000025749208
209,158,328521,2,0,L|209:248,3,67.5000025749208
341,324,328921,5,8,0:0:0:0:
381,330,329021,1,0,0:0:0:0:
419,318,329121,1,0,0:0:0:0:
449,291,329221,1,0,0:0:0:0:
466,254,329321,1,0,0:0:0:0:
467,213,329421,1,0,0:0:0:0:
453,174,329521,1,0,0:0:0:0:
424,144,329621,1,0,0:0:0:0:
386,128,329721,6,0,P|314:142|276:202,1,135.000005149842,8|0,0:0|0:0,0:0:0:0:
258,353,330121,1,0,0:0:0:0:
306,24,330321,1,0,0:0:0:0:
505,246,330521,6,0,L|337:227,1,135.000005149842,8|0,0:0|0:0,0:0:0:0:
167,18,330921,1,0,0:0:0:0:
506,247,331121,1,0,0:0:0:0:
85,360,331321,6,0,L|61:211,1,135.000005149842,8|0,0:0|0:0,0:0:0:0:
464,51,331721,1,0,0:0:0:0:
238,373,331921,1,0,0:0:0:0:
126,26,332121,6,0,L|101:101,1,67.5000025749208,8|0,0:0|0:0,0:0:0:0:
238,373,332321,2,0,L|224:297,1,67.5000025749208,8|0,0:0|0:0,0:0:0:0:
365,101,332521,2,0,L|348:186,1,67.5000025749208,8|0,0:0|0:0,0:0:0:0:
465,305,332721,2,0,L|478:207,1,67.5000025749208,8|0,0:0|0:0,0:0:0:0:
464,51,332921,6,0,P|344:1|239:76,1,270.000010299683,4|0,0:0|0:0,0:0:0:0:
181,361,333521,1,0,0:0:0:0:
11,157,333721,2,0,L|49:2,1,135.000005149842,8|0,0:0|0:0,0:0:0:0:
378,284,334121,1,0,0:0:0:0:
20,266,334321,1,0,0:0:0:0:
199,12,334521,5,0,0:0:0:0:
280,334,334721,1,0,0:0:0:0:
111,33,334921,1,0,0:0:0:0:
424,211,335121,1,0,0:0:0:0:
37,350,335321,5,8,0:0:0:0:
349,56,335521,1,0,0:0:0:0:
181,361,335721,1,0,0:0:0:0:
12,80,335921,1,0,0:0:0:0:
426,83,336121,6,0,P|443:155|406:232,1,135.000005149842
77,191,336521,2,0,P|72:117|113:60,1,135.000005149842
315,370,336921,2,0,L|162:359,1,135.000005149842,8|0,0:0|0:0,0:0:0:0:
181,13,337321,2,0,L|348:27,1,135.000005149842
317,222,337721,6,0,B|254:191|215:193|215:193|185:226|185:226|125:242|35:155,1,270.000010299683
315,24,338321,1,0,0:0:0:0:
415,355,338521,2,0,B|446:290|446:290|438:195,1,135.000005149842,8|0,0:0|0:0,0:0:0:0:
154,16,338921,6,0,P|134:76|137:104,1,67.5000025749208,8|0,0:0|0:0,0:0:0:0:
288,346,339121,2,0,P|308:266|305:246,1,67.5000025749208
292,95,339321,5,0,0:0:0:0:
268,81,339421,1,0,0:0:0:0:
242,72,339521,1,0,0:0:0:0:
215,68,339621,1,0,0:0:0:0:
188,67,339721,1,0,0:0:0:0:
161,70,339821,1,0,0:0:0:0:
135,79,339921,1,0,0:0:0:0:
111,92,340021,1,0,0:0:0:0:
91,111,340121,6,0,L|77:187,3,67.5000025749208,8|0|0|0,0:0|0:0|0:0|0:0,0:0:0:0:
184,246,340521,2,0,L|174:171,1,67.5000025749208
65,258,340721,2,0,L|49:353,1,67.5000025749208
184,344,340921,6,0,L|283:326,3,67.5000025749208
327,160,341321,2,0,L|236:173,3,67.5000025749208
65,258,341721,6,0,L|146:247,1,67.5000025749208,8|0,0:0|0:0,0:0:0:0:
334,220,341921,2,0,L|239:233,1,67.5000025749208
187,87,342121,2,0,L|196:179,1,67.5000025749208
221,377,342321,2,0,L|213:293,1,67.5000025749208
187,87,342521,6,0,P|109:88|198:149,1,270.000010299683
268,111,343121,1,0,0:0:0:0:
46,37,343321,6,0,P|13:104|119:266,1,270.000010299683,8|0,0:0|0:0,0:0:0:0:
468,279,343921,1,0,0:0:0:0:
187,87,344121,6,0,L|146:247,1,135.000005149842,8|0,0:0|0:0,0:0:0:0:
468,279,344521,2,8,L|444:145,1,135.000005149842,8|0,0:0|0:0,0:0:0:0:
119,336,344921,6,0,B|183:366|183:366|253:342,1,135.000005149842,8|0,0:0|0:0,0:0:0:0:
406,20,345321,2,0,B|335:-1|335:-1|268:22,1,135.000005149842,8|0,0:0|0:0,0:0:0:0:
132,204,345721,6,0,B|221:294|391:236|391:236|330:179|217:161,1,405.000015449525,2|0,0:0|0:0,0:0:0:0:
66,258,346521,6,0,P|238:344|479:252,1,405.000015449525,2|0,0:0|0:0,0:0:0:0:
275,28,347321,6,0,P|187:75|185:258,1,270.000010299683,2|0,0:0|0:0,0:0:0:0:
448,343,347921,2,0,P|505:289|488:89,1,270.000010299683,2|0,0:0|0:0,0:0:0:0:
285,158,348521,6,0,L|428:210,1,135.000005149842,2|0,0:0|0:0,0:0:0:0:
503,108,348921,6,0,P|428:44|296:58,1,215.999993408203,4|0,0:0|0:0,0:0:0:0:
128,201,349521,1,0,0:0:0:0:
225,19,349721,2,0,B|245:75|245:75|237:134,1,107.999996704102,8|0,0:0|0:0,0:0:0:0:
187,306,350121,1,0,0:0:0:0:
128,201,350321,1,0,0:0:0:0:
241,202,350521,5,0,0:0:0:0:
72,304,350721,1,0,0:0:0:0:
105,95,350921,2,0,L|133:228,1,107.999996704102
320,294,351321,2,0,P|353:234|273:92,1,215.999993408203,8|0,0:0|0:0,0:0:0:0:
241,202,351921,1,0,0:0:0:0:
403,317,352121,6,0,B|462:329|462:329|517:309,1,107.999996704102
377,108,352521,2,0,B|318:93|318:93|263:104,1,107.999996704102
320,294,352921,6,0,P|350:238|332:157,1,107.999996704102,8|0,0:0|0:0,0:0:0:0:
175,40,353321,2,0,P|158:112|182:169,1,107.999996704102
377,108,353721,6,0,L|242:96,1,107.999996704102
146,240,354121,2,0,L|269:233,1,107.999996704102
211,118,354521,6,0,P|140:92|20:192,1,215.999993408203,8|0,0:0|0:0,0:0:0:0:
146,240,355121,1,0,0:0:0:0:
263,29,355321,6,0,L|116:16,1,107.999996704102
253,233,355721,2,0,L|368:213,1,107.999996704102
441,69,356121,2,0,L|304:91,1,107.999996704102,8|0,0:0|0:0,0:0:0:0:
295,319,356521,6,0,P|361:342|474:241,1,215.999993408203
483,368,357121,1,0,0:0:0:0:
466,129,357321,1,0,0:0:0:0:
483,368,357521,1,0,0:0:0:0:
466,129,357721,6,0,L|455:2,1,107.999996704102,8|0,0:0|0:0,0:0:0:0:
200,209,358121,2,0,L|206:335,1,107.999996704102
283,119,358521,6,0,P|194:90|89:171,1,215.999993408203
90,26,359121,1,0,0:0:0:0:
200,209,359321,2,0,L|341:216,1,107.999996704102,8|0,0:0|0:0,0:0:0:0:
360,22,359721,2,0,L|249:16,1,107.999996704102
368,304,360121,6,0,P|412:252|352:110,1,215.999993408203
200,209,360721,1,0,0:0:0:0:
200,209,360921,2,0,L|215:336,1,107.999996704102,8|0,0:0|0:0,0:0:0:0:
234,104,361321,1,0,0:0:0:0:
110,277,361521,1,0,0:0:0:0:
368,304,361721,6,0,L|494:281,1,107.999996704102
359,151,362121,2,0,L|228:173,1,107.999996704102
164,370,362521,2,0,L|278:351,1,107.999996704102,8|0,0:0|0:0,0:0:0:0:
231,103,362921,6,0,P|142:69|27:163,1,215.999993408203
148,221,363521,1,0,0:0:0:0:
252,11,363721,1,0,0:0:0:0:
244,299,363921,1,0,0:0:0:0:
44,126,364121,6,0,L|180:116,1,107.999996704102,8|0,0:0|0:0,0:0:0:0:
244,299,364521,2,0,L|109:313,1,107.999996704102
29,215,364921,6,0,B|82:225|108:204|108:204|145:223|145:223|186:195|275:223,1,215.999993408203
251,349,365521,1,0,0:0:0:0:
251,349,365721,6,0,P|197:362|143:336,1,107.999996704102,8|0,0:0|0:0,0:0:0:0:
177,127,366121,2,0,P|252:120|316:163,1,107.999996704102
383,248,366521,6,0,L|370:366,1,107.999996704102
94,148,366921,2,0,L|108:27,1,107.999996704102
182,213,367321,6,0,P|123:238|-13:155,1,215.999993408203,8|0,0:0|0:0,0:0:0:0:
94,148,367921,1,0,0:0:0:0:
175,305,368121,6,0,L|288:295,1,99.0000030212403
324,125,368521,2,0,L|209:132,1,99.0000030212403
408,334,368921,2,0,B|459:345|459:345|508:331,1,99.0000030212403
428,214,369321,6,0,P|372:207|271:310,1,198.000006042481
157,173,369921,1,0,0:0:0:0:
245,53,370121,2,0,L|235:186,1,99.0000030212403
58,224,370521,2,0,L|68:97,1,99.0000030212403,8|0,0:0|0:0,0:0:0:0:
157,173,370921,1,0,0:0:0:0:
58,224,371121,1,0,0:0:0:0:
0,56,371321,6,0,P|57:26|152:108,1,198.000006042481
172,266,371921,1,0,0:0:0:0:
242,144,372121,2,0,L|229:35,1,99.0000030212403,8|0,0:0|0:0,0:0:0:0:
58,224,372521,2,0,L|65:335,1,99.0000030212403
112,149,372921,6,0,P|60:132|0:163,1,99.0000030212403
172,266,373321,2,0,P|241:271|279:227,1,99.0000030212403
354,114,373721,2,0,P|294:108|248:140,1,99.0000030212403,8|0,0:0|0:0,0:0:0:0:
368,275,374121,1,0,0:0:0:0:
465,263,374321,1,0,0:0:0:0:
456,83,374521,6,0,L|466:284,1,180
321,189,375121,1,0,0:0:0:0:
366,72,375321,2,0,L|473:84,1,90
279,254,375721,6,0,P|222:277|108:202,1,180
210,182,376321,1,0,0:0:0:0:
4,335,376521,2,0,L|-2:233,1,90
50,98,376921,2,0,L|54:206,1,90,8|0,0:0|0:0,0:0:0:0:
123,318,377321,2,0,L|119:195,1,90
160,99,377721,6,0,P|216:80|309:156,1,180
366,60,378321,1,0,0:0:0:0:
210,182,378521,2,0,L|97:165,1,90,8|0,0:0|0:0,0:0:0:0:
366,60,378921,2,0,L|476:84,1,90
460,170,379321,6,0,P|399:197|297:121,1,180
279,268,379921,1,0,0:0:0:0:
288,64,380121,2,0,P|306:8|343:-19,1,90,8|0,0:0|0:0,0:0:0:0:
391,107,380521,1,0,0:0:0:0:
204,50,380721,1,0,0:0:0:0:
397,17,380921,6,0,L|390:114,1,90
267,281,381321,2,0,L|274:166,1,90
459,249,381721,2,0,L|352:246,1,90,8|0,0:0|0:0,0:0:0:0:
220,115,382121,6,0,P|277:98|367:189,1,180
272,191,382721,1,0,0:0:0:0:
374,78,382921,2,0,L|361:190,1,90
258,280,383321,2,0,L|273:179,1,90,8|0,0:0|0:0,0:0:0:0:
390,332,383721,2,0,P|344:345|288:307,1,90
99,196,384121,6,0,B|185:167|185:167|279:193,1,180
190,271,384721,1,0,0:0:0:0:
183,79,384921,2,0,L|188:204,1,90
276,280,385321,2,0,L|270:169,1,90
216,341,385721,6,0,P|265:361|361:280,1,180
415,170,386321,1,0,0:0:0:0:
425,350,386521,2,0,L|414:144,1,180,8|0,0:0|0:0,0:0:0:0:
501,259,387121,1,0,0:0:0:0:
297,349,387321,6,0,L|200:340,1,80.9999975280763
227,148,387721,2,0,L|341:155,1,80.9999975280763
159,285,388121,2,0,L|167:175,1,80.9999975280763,8|0,0:0|0:0,0:0:0:0:
372,214,388521,6,0,L|365:307,2,80.9999975280763
387,86,389121,1,0,0:0:0:0:
470,271,389321,1,0,0:0:0:0:
272,253,389521,1,0,0:0:0:0:
468,179,389721,5,8,0:0:0:0:
365,294,389921,1,0,0:0:0:0:
277,155,390121,2,0,L|370:165,1,80.9999975280763
272,253,390521,6,0,P|206:273|127:213,1,161.999995056153
94,324,391121,1,0,0:0:0:0:
212,179,391321,2,0,L|206:71,1,80.9999975280763,8|0,0:0|0:0,0:0:0:0:
287,26,391721,2,0,L|294:122,1,80.9999975280763
313,241,392121,6,0,P|360:264|476:197,1,161.999995056153
377,162,392721,1,0,0:0:0:0:
277,323,392921,2,0,L|175:311,1,80.9999975280763,8|0,0:0|0:0,0:0:0:0:
246,227,393321,1,0,0:0:0:0:
276,323,393521,1,0,0:0:0:0:
149,238,393721,6,0,P|160:179|237:127,1,144
246,227,394321,1,0,0:0:0:0:
113,112,394521,2,0,L|128:30,1,72,8|0,0:0|0:0,0:0:0:0:
223,129,394921,1,0,0:0:0:0:
125,41,395121,1,0,0:0:0:0:
259,17,395321,6,0,L|339:29,1,72
385,136,395721,2,0,L|294:126,1,72
444,82,396121,2,0,P|471:129|419:217,1,144,8|0,0:0|0:0,0:0:0:0:
192,170,396921,6,0,P|176:113|232:38,1,144
314,348,397721,2,0,L|230:364,1,72,8|0,0:0|0:0,0:0:0:0:
185,281,398121,2,0,L|265:293,1,72
316,201,398521,6,0,L|218:224,1,72
175,127,398921,2,0,L|260:147,1,72
319,41,399321,2,0,L|161:54,1,144,8|0,0:0|0:0,0:0:0:0:
175,52,399921,1,0,0:0:0:0:
99,123,400121,6,0,P|79:166|112:255,1,125.999996154785
179,298,400721,1,0,0:0:0:0:
228,228,400921,2,0,P|188:214|148:218,1,62.9999980773926,8|0,0:0|0:0,0:0:0:0:
179,298,401321,1,0,0:0:0:0:
250,337,401521,1,0,0:0:0:0:
331,329,401721,6,0,L|356:250,1,62.9999980773926
411,215,402121,2,0,P|431:273|383:346,2,125.999996154785,0|8|0,0:0|0:0|0:0,0:0:0:0:
347,162,403121,1,0,0:0:0:0:
347,162,403321,6,0,L|151:173,1,188.999994232178
106,264,404121,2,0,L|185:260,1,62.9999980773926,8|0,0:0|0:0,0:0:0:0:
223,355,404521,2,0,L|160:357,1,62.9999980773926
263,258,404921,6,0,L|325:254,1,62.9999980773926
385,351,405321,2,0,L|322:353,1,62.9999980773926
463,209,405721,2,0,L|469:364,1,125.999996154785,8|0,0:0|0:0,0:0:0:0:
374,255,406321,1,0,0:0:0:0:
423,144,406521,6,0,P|462:132|497:141,1,53.9999983520508
374,255,406921,2,0,P|333:257|311:244,1,53.9999983520508
232,182,407321,2,0,L|244:311,2,107.999996704102,8|0|0,0:0|0:0|0:0,0:0:0:0:
198,120,408321,5,0,0:0:0:0:
131,98,408521,1,0,0:0:0:0:
62,112,408721,1,0,0:0:0:0:
10,159,408921,2,0,L|15:225,1,53.9999983520508,8|0,0:0|0:0,0:0:0:0:
96,241,409321,2,0,L|90:178,1,53.9999983520508
44,307,409721,6,0,P|102:324|181:261,1,161.999995056153
228,170,410521,2,0,L|236:248,1,53.9999983520508,8|0,0:0|0:0,0:0:0:0:
290,302,410921,2,0,L|299:241,1,53.9999983520508
351,160,411321,6,0,L|364:229,1,53.9999983520508
412,311,411721,2,0,L|424:244,1,53.9999983520508
502,182,412121,2,0,L|482:299,1,107.999996704102,8|0,0:0|0:0,0:0:0:0:
412,311,412721,1,0,0:0:0:0:
350,261,412921,6,0,L|294:250,1,45
271,333,413321,2,0,L|212:320,1,45
203,229,413721,1,8,0:0:0:0:
128,293,414121,6,0,P|90:297|139:230,1,180
267,329,415321,2,0,L|375:320,1,90,8|0,0:0|0:0,0:0:0:0:
449,288,416121,5,0,0:0:0:0:
477,252,416321,1,0,0:0:0:0:
485,207,416521,1,0,0:0:0:0:
475,163,416721,1,0,0:0:0:0:
445,128,416921,2,0,L|346:124,1,90,8|0,0:0|0:0,0:0:0:0:
316,147,417521,1,0,0:0:0:0:
277,169,417721,6,0,L|170:160,2,90,0|0|8,0:0|0:0|0:0,0:0:0:0:
399,209,418921,2,0,L|394:267,1,45
377,335,419321,6,0,B|345:347|314:331|314:331|299:309|299:309|261:293|231:306,1,162.162162162162
161,340,420721,1,0,0:0:0:0:
161,340,420921,6,0,P|108:315|172:276,1,162.162162162162
246,325,422321,1,0,0:0:0:0:
246,325,422521,6,0,L|414:313,1,162.162162162162
468,229,424121,6,0,L|477:173,3,54.0540540540541
459,101,425521,1,0,0:0:0:0:
459,101,425721,5,0,0:0:0:0:
256,192,425821,12,0,438521,0:0:0:0:
