osu file format v14

[General]
AudioFilename: audio.mp3
AudioLeadIn: 0
PreviewTime: 59525
Countdown: 0
SampleSet: Soft
StackLeniency: 0.7
Mode: 0
LetterboxInBreaks: 0
WidescreenStoryboard: 1

[Editor]
Bookmarks: 9960,10481,18829,27177,35525,43873,48047,52220,54307,56394,57438,57960,60568,68916,77264,81438,93960,101786,110655,119003,121090,123177,123960,124742,126307,127351,135699,144047,152394,154481,156568,158655,160742,161786,162829,171177,179525,187873,196220
DistanceSpacing: 1.2
BeatDivisor: 4
GridSize: 32
TimelineZoom: 2.1

[Metadata]
Title:Violeta
TitleUnicode:비올레타
Artist:IZ*ONE
ArtistUnicode:아이즈원
Creator:Everything Dust
Version:Hard
Source:
Tags:Kwon Eun-bi 권은비 Choi Ye-na 최예나 Jo Yu-ri 조유리 Sakura Miyawaki 宮脇咲良 미야와키 사쿠라 Kang Hye-won 강혜원 Ahn Yu-jin 안유진 Kim Min-ju 김민주 Nako Yabuki 矢吹奈子 야부키 나코 Hitomi Honda 本田仁美 혼다 히토미 Lee Chae-yeon 이채연 Jang Won-young 장원영 Kim Chae-won 김채원 Heart*Iz izone iz one iz-one
BeatmapID:2024430
BeatmapSetID:949790

[Difficulty]
HPDrainRate:4
CircleSize:3.5
OverallDifficulty:7
ApproachRate:8
SliderMultiplier:2.69999990463257
SliderTickRate:1

[Events]
//Background and Video events
Video,0,"violeta conv.mp4"
0,0,"VioletaSMUSH.jpg",0,0
//Break Periods
//Storyboard Layer 0 (Background)
//Storyboard Layer 1 (Fail)
//Storyboard Layer 2 (Pass)
//Storyboard Layer 3 (Foreground)
//Storyboard Layer 4 (Overlay)
//Storyboard Sound Samples

[TimingPoints]
2134,521.739130434783,4,2,1,50,1,0
10481,-133.333333333333,4,2,1,50,0,0
10742,-133.333333333333,4,2,1,5,0,0
10873,-133.333333333333,4,2,1,50,0,0
11134,-133.333333333333,4,2,1,5,0,0
11264,-133.333333333333,4,2,1,50,0,0
11916,-133.333333333333,4,2,1,5,0,0
12047,-133.333333333333,4,2,1,50,0,0
12307,-133.333333333333,4,2,1,5,0,0
12438,-133.333333333333,4,2,1,50,0,0
13873,-133.333333333333,4,2,1,5,0,0
14134,-133.333333333333,4,2,1,50,0,0
18047,-133.333333333333,4,2,1,5,0,0
18307,-133.333333333333,4,2,1,50,0,0
20003,-133.333333333333,4,2,1,5,0,0
20134,-133.333333333333,4,2,1,50,0,0
21047,-133.333333333333,4,2,1,5,0,0
21177,-133.333333333333,4,2,1,50,0,0
21960,-133.333333333333,4,2,1,5,0,0
22220,-133.333333333333,4,2,1,50,0,0
23003,-133.333333333333,4,2,1,50,0,0
23264,-133.333333333333,4,2,1,5,0,0
23394,-133.333333333333,4,2,1,50,0,0
23655,-133.333333333333,4,2,1,5,0,0
23785,-133.333333333333,4,2,1,50,0,0
24307,-133.333333333333,4,2,1,5,0,0
24437,-133.333333333333,4,2,1,50,0,0
24699,-133.333333333333,4,2,1,5,0,0
24829,-133.333333333333,4,2,1,50,0,0
25351,-133.333333333333,4,2,1,5,0,0
26655,-100,4,2,1,60,0,0
26916,-100,4,2,1,5,0,0
27047,-100,4,2,1,60,0,0
27307,-100,4,2,1,5,0,0
27438,-100,4,2,1,60,0,0
29003,-100,4,2,1,5,0,0
29134,-100,4,2,1,60,0,0
29394,-100,4,2,1,5,0,0
29525,-100,4,2,1,60,0,0
31481,-100,4,2,1,5,0,0
31612,-100,4,2,1,60,0,0
31742,-100,4,2,1,5,0,0
31873,-100,4,2,1,60,0,0
32134,-133.333333333333,4,2,1,60,0,0
32916,-100,4,2,1,60,0,0
33568,-100,4,2,1,5,0,0
33699,-100,4,2,1,60,0,0
33829,-100,4,2,1,5,0,0
33960,-100,4,2,1,60,0,0
34220,-133.333333333333,4,2,1,60,0,0
35003,-100,4,2,1,60,0,0
35264,-100,4,2,1,5,0,0
35394,-100,4,2,1,60,0,0
35655,-100,4,2,1,5,0,0
35786,-100,4,2,1,60,0,0
35916,-100,4,2,1,5,0,0
36047,-100,4,2,1,60,0,0
36177,-100,4,2,1,5,0,0
36307,-100,4,2,1,60,0,0
36438,-100,4,2,1,5,0,0
36568,-100,4,2,1,60,0,0
36960,-100,4,2,1,5,0,0
37090,-100,4,2,1,60,0,0
37351,-100,4,2,1,5,0,0
37481,-100,4,2,1,60,0,0
37742,-100,4,2,1,5,0,0
37873,-100,4,2,1,60,0,0
38003,-100,4,2,1,5,0,0
38134,-100,4,2,1,60,0,0
38264,-100,4,2,1,5,0,0
38394,-100,4,2,1,60,0,0
38525,-100,4,2,1,5,0,0
38655,-100,4,2,1,60,0,0
39047,-100,4,2,1,5,0,0
39177,-100,4,2,1,60,0,0
40742,-133.333333333333,4,2,1,60,0,0
41134,-133.333333333333,4,2,1,60,0,0
41394,-133.333333333333,4,2,1,5,0,0
41525,-133.333333333333,4,2,1,60,0,0
41786,-100,4,2,1,60,0,0
42568,-133.333333333333,4,2,1,40,0,0
42699,-133.333333333333,4,2,1,5,0,0
42829,-125,4,2,1,40,0,0
43090,-117.647058823529,4,2,1,50,0,0
43351,-111.111111111111,4,2,1,60,0,0
43612,-100,4,2,1,60,0,0
43742,-100,4,2,1,70,0,0
44134,-100,4,2,1,5,0,0
44394,-100,4,2,1,70,0,0
45699,-100,4,2,1,5,0,0
45829,-133.333333333333,4,2,1,70,0,0
46220,-133.333333333333,4,2,1,5,0,0
46481,-100,4,2,1,70,0,0
47786,-100,4,2,1,5,0,0
47916,-100,4,2,1,70,0,0
48177,-100,4,2,1,5,0,0
48307,-100,4,2,1,70,0,0
49220,-100,4,2,1,5,0,0
49351,-100,4,2,1,70,0,0
49742,-100,4,2,1,5,0,0
49873,-100,4,2,1,70,0,0
50525,-100,4,2,1,5,0,0
50655,-100,4,2,1,70,0,0
50786,-100,4,2,1,5,0,0
50916,-100,4,2,1,70,0,0
51047,-100,4,2,1,5,0,0
51177,-100,4,2,1,70,0,0
51438,-100,4,2,1,5,0,0
51568,-100,4,2,1,70,0,0
51829,-100,4,2,1,5,0,0
51959,-100,4,2,1,70,0,0
52351,-100,4,2,1,5,0,0
52481,-100,4,2,1,70,0,0
53394,-133.333333333333,4,2,1,70,0,0
53655,-133.333333333333,4,2,1,5,0,0
53786,-133.333333333333,4,2,1,70,0,0
54568,-100,4,2,1,70,0,0
54699,-100,4,2,1,5,0,0
54830,-100,4,2,1,70,0,0
54960,-100,4,2,1,5,0,0
55091,-100,4,2,1,70,0,0
58351,-100,4,2,1,5,0,0
59525,-100,4,2,1,70,0,0
60568,-100,4,2,1,80,0,1
67090,-200,4,2,1,80,0,1
67873,-100,4,2,1,70,0,1
68916,-100,4,2,1,80,0,1
75438,-200,4,2,1,80,0,1
76220,-100,4,2,1,80,0,1
77264,-200,4,2,1,60,0,0
77394,-200,4,2,1,5,0,0
77786,-200,4,2,1,55,0,0
77916,-200,4,2,1,5,0,0
78307,-200,4,2,1,50,0,0
78438,-200,4,2,1,5,0,0
78829,-200,4,2,1,50,0,0
79351,-200,4,2,1,50,0,0
79481,-200,4,2,1,5,0,0
79612,-200,4,2,1,50,0,0
80003,-200,4,2,1,5,0,0
80134,-200,4,2,1,50,0,0
80264,-200,4,2,1,5,0,0
80394,-200,4,2,1,50,0,0
80786,-200,4,2,1,5,0,0
80916,-200,4,2,1,50,0,0
81438,-200,4,2,1,50,0,0
81568,-200,4,2,1,5,0,0
81960,-200,4,2,1,50,0,0
82090,-200,4,2,1,5,0,0
82481,-200,4,2,1,50,0,0
82612,-200,4,2,1,5,0,0
82873,-200,4,2,1,50,0,0
83525,-200,4,2,1,50,0,0
83655,-200,4,2,1,5,0,0
83786,-200,4,2,1,50,0,0
84177,-200,4,2,1,5,0,0
84308,-200,4,2,1,50,0,0
84438,-200,4,2,1,5,0,0
84568,-200,4,2,1,50,0,0
84829,-133.333333333333,4,2,1,50,0,0
91090,-133.333333333333,4,2,1,5,0,0
91351,-133.333333333333,4,2,1,50,0,0
93177,-133.333333333333,4,2,1,5,0,0
93438,-100,4,2,1,60,0,0
93699,-100,4,2,1,5,0,0
93829,-100,4,2,1,60,0,0
94090,-100,4,2,1,5,0,0
94220,-100,4,2,1,60,0,0
95394,-100,4,2,1,5,0,0
95525,-100,4,2,1,60,0,0
96177,-100,4,2,1,5,0,0
96307,-100,4,2,1,60,0,0
96960,-100,4,2,1,5,0,0
97090,-100,4,2,1,60,0,0
97481,-100,4,2,1,5,0,0
97611,-100,4,2,1,60,0,0
98003,-100,4,2,1,5,0,0
98133,-100,4,2,1,60,0,0
98264,-100,4,2,1,5,0,0
98394,-100,4,2,1,60,0,0
98525,-100,4,2,1,5,0,0
98655,-100,4,2,1,60,0,0
98786,-100,4,2,1,5,0,0
98916,-100,4,2,1,60,0,0
99307,-100,4,2,1,5,0,0
99699,-100,4,2,1,60,0,0
100090,-100,4,2,1,5,0,0
100220,-100,4,2,1,60,0,0
100351,-100,4,2,1,5,0,0
100481,-100,4,2,1,60,0,0
100612,-100,4,2,1,5,0,0
100742,-100,4,2,1,60,0,0
100873,-100,4,2,1,5,0,0
101003,-100,4,2,1,60,0,0
101394,-100,4,2,1,5,0,0
101786,-100,4,2,1,60,0,0
102047,-100,4,2,1,5,0,0
102177,-100,4,2,1,60,0,0
102438,-100,4,2,1,5,0,0
102568,-100,4,2,1,60,0,0
102699,-100,4,2,1,5,0,0
102829,-100,4,2,1,60,0,0
102960,-100,4,2,1,5,0,0
103090,-100,4,2,1,60,0,0
103220,-100,4,2,1,5,0,0
103350,-100,4,2,1,60,0,0
103742,-100,4,2,1,5,0,0
103872,-100,4,2,1,60,0,0
104264,-100,4,2,1,60,0,0
104525,-100,4,2,1,5,0,0
104655,-100,4,2,1,60,0,0
104786,-100,4,2,1,5,0,0
104916,-100,4,2,1,60,0,0
105047,-100,4,2,1,5,0,0
105177,-100,4,2,1,60,0,0
105307,-100,4,2,1,5,0,0
105437,-100,4,2,1,60,0,0
105829,-100,4,2,1,5,0,0
105959,-100,4,2,1,60,0,0
108177,-100,4,2,1,5,0,0
108307,-100,4,2,1,60,0,0
108438,-100,4,2,1,5,0,0
108568,-100,4,2,1,60,0,0
108829,-100,4,2,1,5,0,0
109351,-133.333333333333,4,2,1,40,0,0
109482,-133.333333333333,4,2,1,5,0,0
109612,-125,4,2,1,40,0,0
109873,-117.647058823529,4,2,1,50,0,0
110134,-111.111111111111,4,2,1,60,0,0
110395,-100,4,2,1,60,0,0
110525,-100,4,2,1,70,0,0
110917,-100,4,2,1,5,0,0
111177,-100,4,2,1,70,0,0
112482,-100,4,2,1,5,0,0
112612,-133.333333333333,4,2,1,70,0,0
113003,-133.333333333333,4,2,1,5,0,0
113264,-100,4,2,1,70,0,0
114569,-100,4,2,1,5,0,0
114699,-133.333333333333,4,2,1,70,0,0
114960,-100,4,2,1,5,0,0
115090,-100,4,2,1,70,0,0
116003,-100,4,2,1,5,0,0
116134,-100,4,2,1,70,0,0
116525,-100,4,2,1,5,0,0
116656,-100,4,2,1,70,0,0
117308,-100,4,2,1,5,0,0
117438,-100,4,2,1,70,0,0
117569,-100,4,2,1,5,0,0
117699,-100,4,2,1,70,0,0
117830,-100,4,2,1,5,0,0
117960,-100,4,2,1,70,0,0
118221,-100,4,2,1,5,0,0
118351,-100,4,2,1,70,0,0
118612,-100,4,2,1,5,0,0
118742,-100,4,2,1,70,0,0
119134,-100,4,2,1,5,0,0
119264,-100,4,2,1,70,0,0
120177,-133.333333333333,4,2,1,70,0,0
120438,-133.333333333333,4,2,1,5,0,0
120569,-133.333333333333,4,2,1,70,0,0
121351,-100,4,2,1,70,0,0
121481,-100,4,2,1,5,0,0
121612,-100,4,2,1,70,0,0
121742,-100,4,2,1,5,0,0
121873,-100,4,2,1,70,0,0
125134,-100,4,2,1,5,0,0
126307,-100,4,2,1,70,0,0
127351,-100,4,2,1,80,0,1
133873,-200,4,2,1,80,0,1
134655,-100,4,2,1,70,0,1
135699,-100,4,2,1,80,0,1
142220,-200,4,2,1,80,0,1
143003,-200,4,2,1,80,0,1
143525,-133.333333333333,4,2,1,80,0,1
144047,-133.333333333333,4,2,1,50,0,0
144307,-133.333333333333,4,2,1,5,0,0
144437,-133.333333333333,4,2,1,50,0,0
144699,-133.333333333333,4,2,1,5,0,0
144829,-133.333333333333,4,2,1,50,0,0
145351,-133.333333333333,4,2,1,5,0,0
145481,-133.333333333333,4,2,1,50,0,0
145742,-133.333333333333,4,2,1,5,0,0
145872,-133.333333333333,4,2,1,50,0,0
146134,-133.333333333333,4,2,1,40,0,0
146655,-133.333333333333,4,2,1,5,0,0
146916,-200,4,2,1,40,0,0
147438,-133.333333333333,4,2,1,5,0,0
147699,-133.333333333333,4,2,1,50,0,0
148481,-133.333333333333,4,2,1,5,0,0
148611,-133.333333333333,4,2,1,50,0,0
148873,-133.333333333333,4,2,1,5,0,0
149003,-133.333333333333,4,2,1,50,0,0
149525,-133.333333333333,4,2,1,5,0,0
149655,-133.333333333333,4,2,1,50,0,0
149916,-133.333333333333,4,2,1,5,0,0
150046,-133.333333333333,4,2,1,50,0,0
150699,-111.111111111111,4,2,1,50,0,0
151612,-133.333333333333,4,2,1,50,0,0
152394,-133.333333333333,4,2,1,60,0,0
152525,-133.333333333333,4,2,1,5,0,0
152655,-133.333333333333,4,2,1,50,0,0
152786,-133.333333333333,4,2,1,5,0,0
152916,-133.333333333333,4,2,1,50,0,0
154220,-133.333333333333,4,2,1,5,0,0
154350,-133.333333333333,4,2,1,50,0,0
154481,-133.333333333333,4,2,1,70,0,0
154612,-133.333333333333,4,2,1,5,0,0
154742,-133.333333333333,4,2,1,50,0,0
156047,-100,4,2,1,50,0,0
158655,-100,4,2,1,50,0,0
158916,-133.333333333333,4,2,1,5,0,0
159047,-133.333333333333,4,2,1,70,0,0
162829,-80,4,2,1,80,0,1
164786,-80,4,2,1,5,0,1
164916,-80,4,2,1,80,0,1
165960,-80,4,2,1,5,0,1
166220,-80,4,2,1,80,0,1
169351,-200,4,2,1,80,0,1
170134,-133.333333333333,4,2,1,70,0,1
171177,-80,4,2,1,80,0,1
173134,-80,4,2,1,5,0,1
173264,-80,4,2,1,80,0,1
174307,-80,4,2,1,5,0,1
174568,-80,4,2,1,80,0,1
183177,-80,4,2,1,5,0,1
183438,-80,4,2,1,80,0,1
185786,-80,4,2,1,5,0,1
186047,-80,4,2,1,80,0,1
186177,-80,4,2,1,5,0,1
186307,-80,4,2,1,80,0,1
195177,-133.333333333333,4,2,1,80,0,1
196090,-133.333333333333,4,2,1,5,0,1
196220,-100,4,2,1,60,0,0

[Colours]
Combo1 : 133,233,255
Combo2 : 132,125,159
SliderBorder : 94,151,138
SliderTrackOverride : 20,5,10

[HitObjects]
281,191,9960,5,0,0:0:0:0:
345,110,10220,1,0,0:0:0:0:
448,79,10481,2,0,P|449:141|403:197,1,101.250000286102,2|2,0:0|0:0,0:0:0:0:
338,178,10873,2,0,P|363:234|428:265,1,101.250000286102
479,242,11264,1,2,0:0:0:0:
371,384,11525,6,0,P|464:330|475:272,1,151.875000429154
432,141,12047,2,0,P|408:202|427:254,1,101.250000286102
497,202,12438,5,0,0:0:0:0:
497,202,12568,1,2,0:0:0:0:
497,202,12699,1,0,0:0:0:0:
256,331,13090,1,0,0:0:0:0:
257,222,13351,6,0,P|350:270|356:376,1,202.500000572205,2|0,0:0|0:0,0:0:0:0:
148,384,14134,6,0,P|125:326|149:257,1,101.250000286102
263,217,14655,2,0,P|247:277|188:319,1,101.250000286102,2|0,0:0|0:0,0:0:0:0:
37,248,15177,2,0,P|83:207|156:206,1,101.250000286102,0|2,0:0|0:0,0:0:0:0:
220,304,15699,2,0,P|247:248|229:178,1,101.250000286102
202,118,16220,1,0,0:0:0:0:
118,61,16481,1,0,0:0:0:0:
48,141,16742,2,0,P|103:168|173:150,1,101.250000286102,2|0,0:0|0:0,0:0:0:0:
243,47,17264,2,0,P|182:56|135:111,1,101.250000286102,0|2,0:0|0:0,0:0:0:0:
293,231,18307,6,0,P|233:215|192:156,1,101.250000286102
243,47,18829,2,0,P|282:93|282:165,1,101.250000286102,2|0,0:0|0:0,0:0:0:0:
163,322,19351,1,0,0:0:0:0:
163,322,19612,2,0,P|157:261|219:181,1,151.875000429154,2|0,0:0|0:0,0:0:0:0:
240,188,20134,6,0,L|330:199,1,50.6250001430512
370,235,20394,1,0,0:0:0:0:
370,235,20525,1,0,0:0:0:0:
370,235,20655,1,0,0:0:0:0:
370,235,20786,2,0,P|376:174|334:115,1,101.250000286102,2|0,0:0|0:0,0:0:0:0:
216,119,21177,1,0,0:0:0:0:
216,119,21438,2,0,P|248:173|316:197,1,101.250000286102,0|2,0:0|0:0,0:0:0:0:
356,212,22220,5,0,0:0:0:0:
356,212,22481,1,0,0:0:0:0:
356,212,22742,1,0,0:0:0:0:
438,61,23003,2,0,P|378:77|336:136,1,101.250000286102,2|0,0:0|0:0,0:0:0:0:
400,297,23394,2,0,P|439:249|439:176,1,101.250000286102
431,145,23786,5,2,0:0:0:0:
307,280,24047,2,0,P|247:263|205:204,1,101.250000286102
229,68,24438,2,0,P|268:115|268:188,1,101.250000286102
148,290,24829,1,0,0:0:0:0:
52,322,25090,2,0,P|56:259|108:209,1,101.250000286102,2|0,0:0|0:0,0:0:0:0:
60,222,26655,5,0,0:0:0:0:
60,222,26786,2,0,P|93:255|129:270,1,67.4999976158142,0|0,0:0|1:0,0:0:0:0:
151,355,27047,2,0,P|246:352|290:318,1,134.999995231628,4|0,0:0|1:0,0:0:0:0:
310,237,27438,2,0,P|296:281|320:368,1,134.999995231628,4|8,0:0|0:2,0:0:0:0:
414,186,27960,5,4,0:0:0:0:
344,374,28220,1,2,3:2:0:0:
414,186,28742,5,8,0:2:0:0:
414,186,28873,2,0,P|379:218|342:232,1,67.4999976158142,0|0,0:0|1:0,0:0:0:0:
314,316,29134,2,0,P|218:310|175:274,1,134.999995231628,4|0,0:0|1:0,0:0:0:0:
160,195,29525,2,0,P|172:241|145:325,1,134.999995231628,4|8,0:0|0:2,0:0:0:0:
46,186,30047,5,4,0:0:0:0:
109,378,30307,1,2,3:2:0:0:
46,186,30829,6,0,P|50:152|69:113,1,67.4999976158142,8|0,0:2|0:0,0:0:0:0:
18,61,31090,2,0,P|49:47|92:44,1,67.4999976158142,4|0,1:2|0:0,0:0:0:0:
159,154,31351,2,0,P|192:149|231:130,1,67.4999976158142,0|0,3:0|0:0,0:0:0:0:
279,53,31612,2,0,P|252:75|232:113,1,67.4999976158142,4|0,0:0|0:0,0:0:0:0:
233,204,31873,1,8,0:2:0:0:
414,130,32134,2,0,P|370:117|234:192,1,202.500000572205,6|4,0:2|0:0,0:0:0:0:
118,337,32916,6,0,P|92:314|71:276,1,67.4999976158142,8|0,0:2|0:0,0:0:0:0:
4,260,33177,2,0,P|10:226|32:189,1,67.4999976158142,4|0,1:2|0:0,0:0:0:0:
146,198,33438,2,0,P|161:167|168:124,1,67.4999976158142,0|0,3:0|0:0,0:0:0:0:
132,41,33699,2,0,P|135:74|154:113,1,67.4999976158142,4|0,0:0|0:0,0:0:0:0:
217,181,33960,1,8,0:2:0:0:
415,190,34221,2,0,P|381:159|225:169,1,202.500000572205,6|4,0:2|1:2,0:0:0:0:
160,291,35003,5,8,0:0:0:0:
160,291,35134,2,0,P|145:258|143:214,1,67.4999976158142,0|0,0:0|1:0,0:0:0:0:
213,155,35394,2,0,P|205:188|106:281,1,134.999995231628,4|0,0:0|0:0,0:0:0:0:
51,225,35786,6,0,P|77:203|118:189,1,67.4999976158142,4|0,0:0|0:0,0:0:0:0:
120,117,36047,2,0,P|151:129|184:157,1,67.4999976158142,8|0,0:0|0:0,0:0:0:0:
272,112,36307,2,0,P|277:144|269:186,1,67.4999976158142,4|0,0:0|0:0,0:0:0:0:
197,290,36568,2,0,P|211:258|365:176,1,202.499992847443,2|0,0:0|0:0,0:0:0:0:
447,173,37090,5,8,0:0:0:0:
447,173,37221,2,0,P|434:141|405:108,1,67.4999976158142,0|4,0:0|1:2,0:0:0:0:
313,115,37481,2,0,P|342:135|478:129,1,134.999995231628,4|0,0:0|0:0,0:0:0:0:
477,50,37873,6,0,P|443:54|404:73,1,67.4999976158142,4|0,0:0|1:0,0:0:0:0:
352,22,38134,2,0,P|338:53|335:96,1,67.4999976158142,8|0,0:0|0:0,0:0:0:0:
241,126,38394,2,0,P|260:154|296:178,1,67.4999976158142,4|0,0:0|0:0,0:0:0:0:
420,199,38655,2,0,P|389:186|218:221,1,202.499992847443,2|0,0:0|0:0,0:0:0:0:
152,279,39177,6,0,P|105:230|86:166,1,134.999995231628,8|4,0:0|0:0,0:0:0:0:
207,3,39699,2,0,P|217:69|196:133,1,134.999995231628,0|4,0:0|0:0,0:0:0:0:
22,236,40220,2,0,P|28:269|99:355,1,134.999995231628,10|4,0:0|0:0,0:0:0:0:
339,222,40742,6,0,P|305:231|226:309,1,101.250000286102,2|4,3:0|1:2,0:0:0:0:
150,353,41134,2,0,P|183:358|279:305,1,101.250000286102,8|0,0:0|1:0,0:0:0:0:
326,314,41525,5,4,3:2:0:0:
78,357,41785,1,0,1:0:0:0:
78,357,42568,6,0,P|109:333|120:317,1,50.6250001430512,0|0,0:0|1:0,0:0:0:0:
222,340,42829,2,0,P|236:303|238:284,1,53.9999980926514,0|0,0:0|1:0,0:0:0:0:
353,290,43090,2,0,P|347:251|339:233,1,57.3749990677834,0|0,0:0|1:0,0:0:0:0:
454,191,43351,2,0,P|430:160|321:136,1,121.49999200058,0|0,0:0|3:0,0:0:0:0:
214,225,43742,2,0,P|177:209|124:42,1,202.499992847443,2|0,0:1|1:0,0:0:0:0:
14,155,44394,6,0,P|48:151|87:132,1,67.4999976158142,2|0,0:0|0:0,0:0:0:0:
171,178,44655,2,0,P|185:147|188:104,1,67.4999976158142,0|0,3:0|0:0,0:0:0:0:
372,26,44916,2,0,P|353:20|232:69,1,134.999995231628,8|0,0:0|0:0,0:0:0:0:
273,252,45438,1,2,0:0:0:0:
273,252,45568,2,0,P|300:232|324:196,1,67.4999976158142,0|0,0:0|1:0,0:0:0:0:
420,225,45829,2,0,P|433:193|413:62,1,151.875000429154,2|0,0:1|1:0,0:0:0:0:
498,155,46481,6,0,P|464:151|425:132,1,67.4999976158142,2|0,0:0|0:0,0:0:0:0:
341,178,46742,2,0,P|327:147|324:104,1,67.4999976158142,0|0,3:0|0:0,0:0:0:0:
140,26,47003,2,0,P|159:20|280:69,1,134.999995231628,8|0,0:0|0:0,0:0:0:0:
239,252,47525,1,2,0:0:0:0:
239,252,47655,2,0,P|211:232|187:196,1,67.4999976158142,0|0,0:0|0:0,0:0:0:0:
92,225,47916,2,0,P|78:193|98:71,1,134.999995231628,2|0,0:1|1:0,0:0:0:0:
65,19,48307,6,0,P|99:19|139:35,1,67.4999976158142,0|0,0:0|0:0,0:0:0:0:
209,79,48568,2,0,P|202:113|115:201,1,134.999995231628,2|0,0:0|3:0,0:0:0:0:
53,242,48960,1,0,0:0:0:0:
53,242,49090,2,0,P|84:227|127:224,1,67.4999976158142,8|0,0:0|1:0,0:0:0:0:
193,291,49351,1,0,0:0:0:0:
193,291,49481,2,0,P|159:284|72:193,1,134.999995231628,2|0,0:0|1:0,0:0:0:0:
82,119,49873,2,0,P|106:143|124:268,1,134.999995231628,2|0,0:0|3:0,0:0:0:0:
0,384,50394,6,0,P|31:369|74:366,1,67.4999976158142,0|0,0:0|1:0,0:0:0:0:
118,279,50655,2,0,P|146:298|170:334,1,67.4999976158142,2|0,0:0|1:0,0:0:0:0:
256,278,50916,2,0,P|253:312|234:351,1,67.4999976158142,0|0,3:0|1:0,0:0:0:0:
146,379,51177,6,0,P|167:352|302:315,1,134.999995231628,8|0,0:0|1:0,0:0:0:0:
389,340,51568,2,0,P|401:307|366:172,1,134.999995231628,2|0,0:0|1:0,0:0:0:0:
506,83,51960,2,0,P|477:62|299:90,1,202.499992847443,2|0,0:1|0:0,0:0:0:0:
198,141,52481,6,0,P|169:121|145:85,1,67.4999976158142,2|0,0:0|0:0,0:0:0:0:
77,24,52742,2,0,P|89:56|88:99,1,67.4999976158142,0|0,3:2|1:0,0:0:0:0:
8,149,53003,1,0,0:0:0:0:
8,149,53134,2,0,P|16:115|41:80,1,67.4999976158142,2|0,0:0|3:0,0:0:0:0:
160,173,53394,2,0,P|125:179|34:140,1,101.250000286102,0|0,0:0|1:0,0:0:0:0:
33,207,53786,6,0,L|6:110,2,101.250000286102,8|0|0,3:1|3:0|3:0,0:0:0:0:
158,366,54568,6,0,P|183:342|201:302,1,67.4999976158142,2|0,0:0|1:0,0:0:0:0:
189,212,54829,2,0,P|181:246|189:288,1,67.4999976158142,0|0,0:0|1:0,0:0:0:0:
258,349,55090,1,0,0:0:0:0:
258,349,55220,2,0,P|283:325|301:285,1,67.4999976158142,0|0,0:0|1:0,0:0:0:0:
327,198,55481,2,0,P|319:232|443:391,1,202.499992847443,0|0,0:0|0:2,0:0:0:0:
507,205,56134,5,0,0:0:0:0:
337,314,56394,2,0,P|306:297|255:201,1,134.999995231628,10|0,3:1|1:0,0:0:0:0:
216,119,56786,2,0,P|231:150|218:258,1,134.999995231628,0|0,0:0|0:0,0:0:0:0:
108,316,57177,2,0,P|113:281|186:200,1,134.999995231628,10|0,3:1|1:0,0:0:0:0:
305,170,57568,2,0,P|281:195|174:219,1,134.999995231628,0|0,0:0|0:0,0:0:0:0:
16,236,57960,2,0,P|5:202|99:40,1,202.499992847443,14|0,3:1|1:0,0:0:0:0:
125,30,59525,5,0,0:0:0:0:
125,30,59655,2,0,L|103:110,1,67.4999976158142,2|0,1:0|1:0,0:0:0:0:
148,188,59916,1,2,0:0:0:0:
148,188,60307,2,0,L|126:268,1,67.4999976158142,0|0,1:0|0:0,0:0:0:0:
181,378,60568,6,0,P|239:349|282:258,1,134.999995231628,6|4,3:3|1:2,0:0:0:0:
388,371,60960,2,0,P|359:312|268:269,1,134.999995231628,2|0,3:2|1:0,0:0:0:0:
387,169,61351,2,0,P|328:197|285:288,1,134.999995231628,6|2,3:2|3:2,0:0:0:0:
338,343,61742,5,0,0:0:0:0:
338,343,61873,1,4,0:2:0:0:
338,343,62003,2,0,L|355:277,1,67.4999976158142,0|8,0:0|1:2,0:0:0:0:
448,236,62264,1,0,0:0:0:0:
448,236,62394,2,0,L|466:171,1,67.4999976158142,4|0,0:0|1:0,0:0:0:0:
394,34,62655,6,0,P|330:47|265:123,1,134.999995231628,2|4,3:2|1:2,0:0:0:0:
153,38,63047,2,0,P|132:99|165:194,1,134.999995231628,2|0,3:2|1:0,0:0:0:0:
36,249,63438,2,0,P|78:297|219:315,1,202.499992847443,6|0,3:2|0:0,0:0:0:0:
302,276,63960,6,0,L|237:294,1,67.4999976158142,4|0,0:0|3:0,0:0:0:0:
313,360,64220,1,8,0:2:0:0:
313,360,64350,2,0,L|378:342,1,67.4999976158142,0|4,0:0|1:2,0:0:0:0:
510,294,64612,2,0,P|481:237|390:194,1,134.999995231628,2|0,3:2|0:0,0:0:0:0:
289,208,65003,6,0,P|318:224|367:225,1,67.4999976158142,4|0,0:0|1:0,0:0:0:0:
455,140,65264,2,0,P|423:144|382:171,1,67.4999976158142,8|0,0:2|0:0,0:0:0:0:
372,295,65525,2,0,P|397:274|397:90,1,202.499992847443,6|0,0:0|1:0,0:0:0:0:
298,183,66047,5,4,0:0:0:0:
348,379,66307,2,0,P|364:354|368:297,1,67.4999976158142,8|0,0:2|0:0,0:0:0:0:
473,308,66568,2,0,P|460:282|412:250,1,67.4999976158142,6|0,0:0|0:0,0:0:0:0:
506,188,66829,5,0,3:2:0:0:
372,227,67090,2,0,L|311:193,2,67.4999976158142,4|8|4,0:2|0:0|0:2,0:0:0:0:
335,352,67873,5,0,0:0:0:0:
335,352,68003,2,0,L|357:272,1,67.4999976158142,2|0,1:1|1:0,0:0:0:0:
312,194,68264,1,2,0:0:0:0:
312,194,68655,2,0,L|334:114,1,67.4999976158142,0|0,1:0|0:0,0:0:0:0:
473,0,68916,6,0,P|508:54|500:154,1,134.999995231628,6|4,3:3|0:0,0:0:0:0:
389,180,69307,2,0,P|385:244|442:327,1,134.999995231628,2|0,3:2|0:0,0:0:0:0:
512,326,69699,2,0,P|461:285|360:285,1,134.999995231628,6|0,3:2|3:0,0:0:0:0:
307,330,70090,5,0,0:0:0:0:
307,330,70221,1,4,0:2:0:0:
307,330,70351,2,0,L|290:264,1,67.4999976158142,0|8,0:0|1:2,0:0:0:0:
196,222,70612,1,0,0:0:0:0:
196,222,70742,2,0,L|214:287,1,67.4999976158142,4|0,0:0|1:0,0:0:0:0:
150,366,71003,6,0,P|114:311|122:211,1,134.999995231628,2|4,3:2|0:0,0:0:0:0:
18,201,71394,2,0,P|73:164|140:161,1,134.999995231628,2|0,3:0|0:0,0:0:0:0:
233,206,71786,2,0,P|205:110|124:52,1,202.499992847443,6|0,3:2|0:0,0:0:0:0:
73,108,72308,6,0,L|138:90,1,67.4999976158142,4|0,0:0|3:0,0:0:0:0:
183,0,72568,1,8,0:2:0:0:
183,0,72698,2,0,L|118:18,1,67.4999976158142,0|4,0:0|1:2,0:0:0:0:
2,90,72960,2,0,P|31:147|122:190,1,134.999995231628,2|0,3:2|0:0,0:0:0:0:
223,176,73351,6,0,P|194:160|145:159,1,67.4999976158142,4|0,0:0|1:0,0:0:0:0:
57,244,73612,2,0,P|89:240|130:213,1,67.4999976158142,8|0,0:2|0:0,0:0:0:0:
140,89,73873,2,0,P|115:110|115:294,1,202.499992847443,6|0,0:0|1:0,0:0:0:0:
174,342,74395,5,6,0:0:0:0:
301,168,74655,2,0,P|294:196|257:240,1,67.4999976158142,8|0,0:2|0:0,0:0:0:0:
340,306,74916,2,0,P|312:315|255:303,1,67.4999976158142,6|0,0:0|0:0,0:0:0:0:
174,342,75177,1,0,3:0:0:0:
71,309,75438,6,0,L|115:231,2,67.4999976158142,4|8|4,0:0|0:0|0:0,0:0:0:0:
6,196,76220,5,0,0:0:0:0:
6,196,76350,2,0,P|37:178|62:142,1,67.4999976158142,2|0,0:1|1:0,0:0:0:0:
125,36,76611,1,2,0:0:0:0:
125,36,77003,2,0,L|110:105,1,67.4999976158142,0|0,0:0|0:0,0:0:0:0:
88,201,77264,6,0,L|117:181,1,33.7499988079071,2|0,0:0|0:0,0:0:0:0:
215,199,77786,2,0,L|200:231,1,33.7499988079071,2|0,0:0|0:0,0:0:0:0:
130,302,78307,2,0,L|123:268,1,33.7499988079071,2|0,0:0|0:0,0:0:0:0:
43,331,78829,5,0,0:0:0:0:
51,298,78959,1,0,0:0:0:0:
60,266,79089,1,0,0:0:0:0:
70,233,79220,1,0,0:0:0:0:
78,189,79351,6,0,L|65:94,2,67.4999976158142,2|0|0,0:0|0:0|0:0,0:0:0:0:
94,254,80134,5,2,0:0:0:0:
170,255,80395,2,0,P|201:223|219:158,1,101.249996423721,0|0,0:0|1:0,0:0:0:0:
179,115,80916,6,0,L|232:122,1,33.7499988079071,0|0,0:0|0:0,0:0:0:0:
283,166,81177,2,0,L|325:133,1,33.7499988079071,0|0,0:0|0:0,0:0:0:0:
393,161,81438,6,0,L|368:135,1,33.7499988079071,2|0,0:0|0:0,0:0:0:0:
266,136,81960,2,0,L|273:170,1,33.7499988079071,2|0,0:0|0:0,0:0:0:0:
328,253,82481,2,0,L|340:221,1,33.7499988079071,2|0,0:0|0:0,0:0:0:0:
420,159,82873,5,0,0:0:0:0:
413,192,83004,1,0,0:0:0:0:
406,226,83134,1,0,0:0:0:0:
401,258,83264,1,0,0:0:0:0:
396,293,83395,1,0,0:0:0:0:
385,335,83525,6,0,L|308:291,2,67.4999976158142,2|0|0,0:0|0:0|0:0,0:0:0:0:
470,374,84307,1,2,0:1:0:0:
269,348,84829,5,0,0:0:0:0:
269,348,84960,1,0,0:0:0:0:
269,348,85090,1,0,0:0:0:0:
360,304,85351,6,0,L|381:243,2,50.6250001430512,0|0|0,0:0|0:0|0:0,0:0:0:0:
267,263,85873,5,0,0:0:0:0:
267,263,86004,1,0,0:0:0:0:
267,263,86134,1,8,0:0:0:0:
182,317,86394,2,0,P|155:304|115:219,1,101.250000286102,0|0,0:0|3:0,0:0:0:0:
229,143,86916,6,0,P|249:165|264:221,1,50.6250001430512,0|0,0:0|0:0,0:0:0:0:
320,216,87177,2,0,P|310:244|269:285,1,50.6250001430512,8|0,0:0|0:0,0:0:0:0:
303,332,87438,2,0,P|273:338|217:323,1,50.6250001430512,0|0,0:0|0:0,0:0:0:0:
168,314,87699,1,0,3:0:0:0:
76,358,87960,5,0,0:0:0:0:
76,358,88090,1,0,0:0:0:0:
76,358,88220,1,8,0:0:0:0:
168,314,88481,2,0,P|171:284|117:206,1,101.250000286102,0|0,0:0|3:0,0:0:0:0:
65,178,89003,5,0,0:0:0:0:
87,288,89264,1,8,0:0:0:0:
87,288,89394,1,0,0:0:0:0:
87,288,89525,1,0,0:0:0:0:
65,178,89786,6,0,P|81:152|131:124,1,50.6250001430512,0|0,3:0|1:0,0:0:0:0:
130,47,90047,1,0,0:0:0:0:
130,47,90177,2,0,P|159:43|213:63,1,50.6250001430512,0|8,0:0|1:2,0:0:0:0:
270,1,90438,1,0,0:0:0:0:
269,0,90568,2,0,P|292:18|317:71,1,50.6250001430512,0|0,0:0|1:0,0:0:0:0:
400,76,90829,2,0,P|402:105|348:183,1,101.250000286102,0|0,3:0|1:0,0:0:0:0:
275,203,91351,5,8,0:0:0:0:
275,203,91481,1,0,0:0:0:0:
275,203,91612,1,0,0:0:0:0:
168,174,91873,6,0,P|184:199|234:227,1,50.6250001430512,2|0,3:0|1:0,0:0:0:0:
233,305,92134,1,0,0:0:0:0:
233,305,92264,2,0,P|262:308|316:288,1,50.6250001430512,0|0,0:0|1:0,0:0:0:0:
373,351,92525,1,0,0:0:0:0:
372,351,92655,2,0,P|395:332|420:280,1,50.6250001430512,4|0,0:0|1:0,0:0:0:0:
503,276,92916,2,0,P|505:247|451:169,1,101.250000286102,0|0,0:0|1:0,0:0:0:0:
271,204,93438,5,0,0:0:0:0:
271,204,93569,2,0,P|317:206|355:193,1,67.4999976158142,0|0,0:0|1:0,0:0:0:0:
421,144,93830,2,0,P|351:209|341:264,1,134.999995231628,4|0,0:2|1:0,0:0:0:0:
291,331,94220,6,0,P|273:301|239:274,1,67.4999976158142,4|0,0:0|1:0,0:0:0:0:
254,178,94481,2,0,P|219:178|179:193,1,67.4999976158142,8|0,0:2|0:0,0:0:0:0:
116,115,94742,2,0,P|98:144|92:186,1,67.4999976158142,4|0,0:0|1:0,0:0:0:0:
168,284,95003,2,0,P|165:249|62:110,1,202.499992847443,2|0,3:2|0:0,0:0:0:0:
0,89,95525,5,8,0:2:0:0:
0,89,95656,2,0,P|21:48|51:21,1,67.4999976158142,0|0,0:0|1:0,0:0:0:0:
174,7,95917,2,0,P|115:82|61:97,1,134.999995231628,4|0,0:0|1:0,0:0:0:0:
0,89,96307,6,0,P|8:122|34:157,1,67.4999976158142,4|0,0:0|1:0,0:0:0:0:
7,249,96568,2,0,P|39:257|82:253,1,67.4999976158142,8|0,0:2|0:0,0:0:0:0:
133,337,96829,2,0,P|156:313|173:274,1,67.4999976158142,4|0,0:0|1:0,0:0:0:0:
209,236,97089,2,0,P|233:259|406:284,1,202.499992847443,2|0,3:2|1:0,0:0:0:0:
445,240,97612,6,0,P|416:223|374:217,1,67.4999976158142,8|0,0:2|0:0,0:0:0:0:
375,353,97873,2,0,P|390:323|392:281,1,67.4999976158142,4|0,1:2|1:0,0:0:0:0:
308,235,98134,2,0,P|279:252|257:278,1,67.4999976158142,0|0,3:0|1:0,0:0:0:0:
186,350,98394,2,0,P|201:320|204:287,1,67.4999976158142,4|0,0:0|1:0,0:0:0:0:
119,232,98655,2,0,P|90:249|69:275,1,67.4999976158142,8|0,0:2|1:0,0:0:0:0:
38,384,98916,2,0,P|73:382|222:228,1,202.499992847443,6|0,0:2|1:0,0:0:0:0:
92,237,99699,6,0,P|121:220|163:214,1,67.4999976158142,8|0,0:2|0:0,0:0:0:0:
162,350,99960,2,0,P|147:320|145:278,1,67.4999976158142,4|0,1:2|1:0,0:0:0:0:
229,232,100221,2,0,P|258:249|280:275,1,67.4999976158142,0|0,3:0|1:0,0:0:0:0:
351,347,100481,2,0,P|336:317|333:284,1,67.4999976158142,4|0,0:0|1:0,0:0:0:0:
418,229,100742,2,0,P|447:246|468:272,1,67.4999976158142,8|0,0:2|1:0,0:0:0:0:
499,381,101003,2,0,P|464:379|315:225,1,202.499992847443,6|0,0:2|1:0,0:0:0:0:
450,258,101786,5,8,0:0:0:0:
450,258,101917,2,0,P|421:222|386:200,1,67.4999976158142,0|0,0:0|1:0,0:0:0:0:
309,181,102178,2,0,P|403:193|451:165,1,134.999995231628,4|0,0:0|0:0,0:0:0:0:
503,99,102568,2,0,P|458:113|426:138,1,67.4999976158142,4|0,0:0|0:0,0:0:0:0:
410,21,102829,2,0,P|399:66|405:105,1,67.4999976158142,8|0,0:0|0:0,0:0:0:0:
299,0,103090,2,0,P|332:31|369:45,1,67.4999976158142,4|0,0:0|0:0,0:0:0:0:
471,16,103351,2,0,P|476:61|389:188,1,202.499992847443,2|0,0:0|0:0,0:0:0:0:
314,124,103873,5,8,0:0:0:0:
314,124,104004,2,0,P|301:167|303:208,1,67.4999976158142,0|4,0:0|1:2,0:0:0:0:
333,281,104265,2,0,P|289:195|239:171,1,134.999995231628,0|0,0:0|0:0,0:0:0:0:
159,200,104655,2,0,P|166:153|184:118,1,67.4999976158142,4|0,0:0|1:0,0:0:0:0:
67,124,104916,2,0,P|109:106|150:105,1,67.4999976158142,8|0,0:0|0:0,0:0:0:0:
28,17,105177,2,0,P|65:44|86:79,1,67.4999976158142,4|0,0:0|0:0,0:0:0:0:
27,187,105438,2,0,P|63:214|224:186,1,202.499992847443,2|0,0:0|0:0,0:0:0:0:
278,273,105960,6,0,P|308:182|289:129,1,134.999995231628,8|4,0:0|0:2,0:0:0:0:
111,71,106481,2,0,P|139:162|185:194,1,134.999995231628,0|4,3:0|0:0,0:0:0:0:
312,42,107003,2,0,P|356:126|346:181,1,134.999995231628,10|4,0:0|0:0,0:0:0:0:
249,337,107525,6,0,P|153:341|107:310,1,134.999995231628,2|4,3:0|1:2,0:0:0:0:
66,238,107916,2,0,P|147:288|166:341,1,134.999995231628,8|0,0:0|1:0,0:0:0:0:
80,382,108307,2,0,P|87:343|105:313,1,67.4999976158142,4|0,3:2|1:0,0:0:0:0:
220,383,108568,2,0,P|313:363|349:320,1,134.999995231628,12|0,1:2|1:0,0:0:0:0:
434,357,109351,6,0,P|403:333|392:317,1,50.6250001430512,0|0,0:0|1:0,0:0:0:0:
290,340,109612,2,0,P|276:303|274:284,1,53.9999980926514,0|0,0:0|0:0,0:0:0:0:
159,290,109873,2,0,P|165:251|173:233,1,57.3749990677834,0|0,0:0|0:0,0:0:0:0:
58,191,110134,2,0,P|82:160|191:136,1,121.49999200058,0|0,0:0|3:0,0:0:0:0:
298,225,110525,2,0,P|335:209|388:42,1,202.499992847443,2|0,0:1|1:0,0:0:0:0:
471,16,111177,6,0,P|467:50|448:89,1,67.4999976158142,2|0,0:0|0:0,0:0:0:0:
494,173,111438,2,0,P|463:187|420:190,1,67.4999976158142,0|0,3:0|0:0,0:0:0:0:
338,333,111699,2,0,P|332:314|381:193,1,134.999995231628,8|0,0:0|0:0,0:0:0:0:
289,18,112221,1,2,0:0:0:0:
289,18,112351,2,0,P|293:51|285:93,1,67.4999976158142,0|0,0:0|1:0,0:0:0:0:
209,183,112612,2,0,P|183:160|147:27,1,151.875000429154,2|0,0:1|1:0,0:0:0:0:
41,16,113264,6,0,P|45:50|64:89,1,67.4999976158142,2|0,0:0|0:0,0:0:0:0:
18,173,113525,2,0,P|49:187|92:190,1,67.4999976158142,0|0,3:0|0:0,0:0:0:0:
174,333,113786,2,0,P|180:314|131:193,1,134.999995231628,8|0,0:0|0:0,0:0:0:0:
223,18,114308,1,2,0:0:0:0:
223,18,114438,2,0,P|218:51|226:93,1,67.4999976158142,0|0,0:0|1:0,0:0:0:0:
303,183,114699,2,0,P|328:160|361:59,1,101.250000286102,2|0,0:1|1:0,0:0:0:0:
440,30,115090,5,0,0:0:0:0:
440,30,115351,2,0,P|479:116|476:183,1,134.999995231628,2|0,0:0|3:0,0:0:0:0:
431,244,115742,1,0,0:0:0:0:
431,244,115872,2,0,P|402:248|344:228,1,67.4999976158142,0|0,0:0|1:0,0:0:0:0:
270,201,116133,1,0,0:0:0:0:
270,201,116264,2,0,P|295:214|350:331,1,134.999995231628,2|0,0:0|1:0,0:0:0:0:
287,384,116655,2,0,P|273:357|295:230,1,134.999995231628,2|0,0:0|3:0,0:0:0:0:
512,384,117177,6,0,P|481:369|438:366,1,67.4999976158142,0|0,0:0|1:0,0:0:0:0:
394,279,117438,2,0,P|366:298|342:334,1,67.4999976158142,2|0,0:0|1:0,0:0:0:0:
256,278,117699,2,0,P|259:312|278:351,1,67.4999976158142,0|0,3:0|1:0,0:0:0:0:
366,379,117960,6,0,P|345:352|210:315,1,134.999995231628,8|0,0:0|1:0,0:0:0:0:
123,340,118351,2,0,P|111:307|146:172,1,134.999995231628,2|0,0:0|1:0,0:0:0:0:
1,87,118743,2,0,P|35:92|141:238,1,202.499992847443,2|0,0:1|1:0,0:0:0:0:
151,311,119264,6,0,P|153:275|172:237,1,67.4999976158142,2|0,0:0|0:0,0:0:0:0:
248,186,119525,2,0,P|226:212|188:233,1,67.4999976158142,0|0,3:2|1:0,0:0:0:0:
96,227,119786,1,0,0:0:0:0:
96,227,119917,2,0,P|129:216|172:221,1,67.4999976158142,2|0,0:0|3:0,0:0:0:0:
249,268,120177,2,0,P|271:240|283:142,1,101.250000286102,0|0,0:0|0:0,0:0:0:0:
341,175,120568,6,0,L|278:88,2,101.250000286102,8|0|0,3:1|3:0|3:0,0:0:0:0:
468,220,121351,6,0,P|444:245|404:263,1,67.4999976158142,2|0,0:0|1:0,0:0:0:0:
324,288,121612,2,0,P|358:280|400:288,1,67.4999976158142,0|0,0:0|1:0,0:0:0:0:
322,360,121873,1,0,0:0:0:0:
322,360,122003,2,0,P|289:348|259:317,1,67.4999976158142,0|0,0:0|1:0,0:0:0:0:
265,251,122264,2,0,P|254:284|68:360,1,202.499992847443,0|0,0:0|0:2,0:0:0:0:
0,207,122917,5,0,0:0:0:0:
120,370,123177,2,0,P|151:353|202:257,1,134.999995231628,10|0,3:1|1:0,0:0:0:0:
256,144,123569,2,0,P|241:175|254:283,1,134.999995231628,0|0,0:0|0:0,0:0:0:0:
412,336,123960,2,0,P|407:301|334:220,1,134.999995231628,10|0,3:1|1:0,0:0:0:0:
177,240,124351,2,0,P|201:265|308:289,1,134.999995231628,0|0,0:0|0:0,0:0:0:0:
498,261,124743,2,0,P|509:227|415:65,1,202.499992847443,14|0,3:1|1:0,0:0:0:0:
368,197,126307,5,0,0:0:0:0:
368,197,126437,2,0,P|388:168|394:124,1,67.4999976158142,2|0,1:1|1:0,0:0:0:0:
407,1,126698,1,2,0:0:0:0:
407,1,127090,2,0,L|421:69,1,67.4999976158142,0|0,1:0|0:0,0:0:0:0:
276,207,127351,6,0,P|305:149|396:106,1,134.999995231628,6|4,3:3|1:2,0:0:0:0:
283,0,127743,2,0,P|342:29|385:120,1,134.999995231628,2|0,3:2|1:0,0:0:0:0:
485,1,128134,2,0,P|457:60|366:103,1,134.999995231628,6|2,3:2|3:2,0:0:0:0:
298,98,128525,5,0,0:0:0:0:
298,98,128656,1,4,0:0:0:0:
298,98,128786,2,0,L|315:164,1,67.4999976158142,0|8,0:0|1:2,0:0:0:0:
409,199,129047,1,0,0:0:0:0:
409,199,129177,2,0,L|426:265,1,67.4999976158142,4|0,0:0|1:0,0:0:0:0:
383,344,129438,6,0,P|319:331|254:255,1,134.999995231628,2|4,3:2|1:2,0:0:0:0:
199,183,129830,2,0,P|220:244|187:339,1,134.999995231628,2|0,3:2|1:0,0:0:0:0:
86,337,130221,2,0,P|128:289|259:273,1,202.499992847443,6|0,3:2|1:0,0:0:0:0:
310,360,130742,6,0,L|292:294,1,67.4999976158142,4|0,0:0|3:0,0:0:0:0:
193,316,131002,1,8,0:2:0:0:
193,316,131134,2,0,L|175:251,1,67.4999976158142,0|4,0:0|1:2,0:0:0:0:
86,202,131394,2,0,P|128:154|227:136,1,134.999995231628,2|0,3:2|1:0,0:0:0:0:
275,194,131786,2,0,P|244:207|195:204,1,67.4999976158142,4|0,0:0|1:0,0:0:0:0:
153,291,132047,2,0,P|121:285|83:254,1,67.4999976158142,8|0,0:2|0:0,0:0:0:0:
8,321,132307,2,0,P|2:288|120:147,1,202.499992847443,6|0,0:0|1:0,0:0:0:0:
187,136,132829,5,4,0:0:0:0:
58,77,133090,2,0,P|84:62|142:63,1,67.4999976158142,8|0,0:2|0:0,0:0:0:0:
187,136,133351,2,0,P|215:132|261:99,1,67.4999976158142,6|0,0:0|0:0,0:0:0:0:
308,31,133612,1,0,3:2:0:0:
384,95,133873,6,0,L|399:30,2,67.4999976158142,4|8|4,0:0|0:0|0:0,0:0:0:0:
388,298,134655,5,0,0:0:0:0:
387,298,134785,2,0,P|408:270|414:226,1,67.4999976158142,0|0,0:0|0:0,0:0:0:0:
335,129,135046,1,2,0:0:0:0:
335,129,135438,2,0,L|320:198,1,67.4999976158142,0|0,1:0|0:0,0:0:0:0:
404,380,135699,6,0,P|402:315|337:237,1,134.999995231628,6|4,3:3|1:2,0:0:0:0:
250,328,136090,2,0,P|188:302|148:249,1,134.999995231628,2|0,3:2|1:0,0:0:0:0:
228,139,136481,2,0,P|170:108|71:125,1,134.999995231628,6|0,3:2|3:0,0:0:0:0:
7,149,136873,5,0,0:0:0:0:
7,149,137004,1,4,0:0:0:0:
7,149,137134,2,0,L|41:207,1,67.4999976158142,0|8,0:0|1:2,0:0:0:0:
139,232,137395,1,0,0:0:0:0:
139,232,137525,2,0,L|103:172,1,67.4999976158142,4|0,0:0|1:0,0:0:0:0:
54,85,137786,6,0,P|116:103|174:184,1,134.999995231628,2|4,3:2|1:2,0:0:0:0:
223,261,138177,2,0,P|207:198|248:106,1,134.999995231628,2|0,3:0|1:0,0:0:0:0:
349,117,138568,2,0,P|302:161|171:165,1,202.499992847443,6|0,3:2|1:0,0:0:0:0:
105,87,139090,6,0,L|162:53,1,67.4999976158142,4|0,0:0|3:0,0:0:0:0:
261,72,139350,1,8,0:2:0:0:
261,72,139481,2,0,L|318:38,1,67.4999976158142,0|4,0:0|1:2,0:0:0:0:
455,41,139742,2,0,P|452:104|388:182,1,134.999995231628,2|0,3:0|1:0,0:0:0:0:
290,206,140134,2,0,P|320:192|369:195,1,67.4999976158142,4|0,0:0|1:0,0:0:0:0:
415,272,140395,2,0,P|382:265|344:234,1,67.4999976158142,8|0,0:2|0:0,0:0:0:0:
450,215,140655,2,0,P|435:244|258:291,1,202.499992847443,6|0,0:0|0:0,0:0:0:0:
189,274,141177,5,6,0:0:0:0:
316,117,141438,2,0,P|322:146|307:201,1,67.4999976158142,8|0,0:2|0:0,0:0:0:0:
217,204,141699,2,0,P|229:175|273:139,1,67.4999976158142,6|0,0:0|0:0,0:0:0:0:
316,117,141960,5,0,0:0:0:0:
314,271,142220,1,4,0:0:0:0:
316,117,142612,6,0,L|315:172,1,33.7499988079071,0|4,0:0|0:0,0:0:0:0:
314,271,143003,6,0,L|359:240,2,44.9999984105428,2|2|2,3:1|3:1|3:1,0:0:0:0:
420,194,143525,5,4,0:0:0:0:
420,194,143786,1,0,0:0:0:0:
420,194,144047,2,0,P|370:191|306:221,1,101.250000286102,2|0,0:0|1:0,0:0:0:0:
271,265,144438,2,0,P|313:238|348:177,1,101.250000286102,2|0,0:0|1:0,0:0:0:0:
355,122,144829,5,0,0:0:0:0:
219,189,145090,2,0,P|182:155|158:89,1,101.250000286102,2|0,0:0|1:0,0:0:0:0:
164,34,145481,2,0,P|176:82|158:150,1,101.250000286102,2|0,0:0|1:0,0:0:0:0:
130,199,145873,1,0,0:0:0:0:
40,76,146134,6,0,P|4:145|20:271,1,202.500000572205,0|0,0:0|1:0,0:0:0:0:
202,340,146916,2,0,P|194:285|134:219,1,134.999995231628,0|0,0:0|1:0,0:0:0:0:
92,194,147699,5,0,0:0:0:0:
92,194,147960,1,0,0:0:0:0:
92,194,148221,2,0,P|142:191|206:221,1,101.250000286102,0|0,0:0|1:0,0:0:0:0:
241,265,148612,2,0,P|198:239|163:178,1,101.250000286102,0|0,0:0|1:0,0:0:0:0:
157,122,149003,5,0,0:0:0:0:
295,183,149264,2,0,P|333:150|357:84,1,101.250000286102,0|0,0:0|1:0,0:0:0:0:
350,28,149655,2,0,P|339:77|357:145,1,101.250000286102,0|0,0:0|1:0,0:0:0:0:
384,193,150047,1,0,0:0:0:0:
468,158,150307,6,0,B|485:208|448:274,1,101.250000286102,0|0,0:0|0:0,0:0:0:0:
344,290,150699,2,0,P|391:228|529:199,1,182.24998800087
512,114,151612,6,0,B|492:64|421:37,1,101.250000286102,0|0,0:0|0:0,0:0:0:0:
364,37,152003,1,4,0:0:0:0:
218,81,152264,6,0,B|262:110|335:91,1,101.250000286102,2|0,1:2|1:0,0:0:0:0:
387,120,152655,2,0,B|358:125|335:149,1,50.6250001430512,0|0,0:0|1:0,0:0:0:0:
299,262,152916,2,0,B|319:241|324:208,1,50.6250001430512,2|0,3:0|1:0,0:0:0:0:
243,118,153177,2,0,B|237:146|252:176,1,50.6250001430512,0|0,0:0|0:0,0:0:0:0:
299,262,153438,1,2,3:2:0:0:
97,240,153960,5,2,3:0:0:0:
97,240,154090,2,0,B|103:217|127:200,1,50.6250001430512,0|0,0:0|1:0,0:0:0:0:
252,214,154351,2,0,B|210:247|135:235,1,101.250000286102,6|0,0:0|1:0,0:0:0:0:
61,152,154742,2,0,B|84:150|108:167,1,50.6250001430512,0|0,3:0|0:0,0:0:0:0:
124,293,155003,2,0,B|104:280|94:253,1,50.6250001430512,0|0,3:0|1:0,0:0:0:0:
30,211,155264,2,0,B|30:187|49:165,1,50.6250001430512,0|0,3:0|1:0,0:0:0:0:
31,91,155525,1,4,1:2:0:0:
0,176,156047,6,0,P|33:207|70:221,1,67.4999976158142,0|0,0:0|1:0,0:0:0:0:
108,299,156307,2,0,P|151:285|181:260,1,67.4999976158142,0|0,0:0|1:0,0:0:0:0:
228,83,156568,2,0,P|186:168|198:223,1,134.999995231628,2|0,3:1|1:0,0:0:0:0:
317,351,156960,2,0,P|301:256|260:218,1,134.999995231628,2|0,3:1|1:0,0:0:0:0:
103,136,157351,5,0,0:0:0:0:
247,75,157612,2,0,P|269:167|246:218,1,134.999995231628,2|0,3:1|1:0,0:0:0:0:
122,280,158003,2,0,P|156:191|204:162,1,134.999995231628,2|0,3:1|1:0,0:0:0:0:
374,121,158395,5,0,0:0:0:0:
289,378,158655,2,0,P|250:290|264:236,1,134.999995231628,8|0,3:3|1:0,0:0:0:0:
256,192,159047,12,0,160742,1:0:0:0:
330,50,161786,5,0,0:0:0:0:
330,50,161916,2,0,P|349:84|352:138,1,50.6250001430512,2|0,1:1|0:0,0:0:0:0:
393,240,162177,2,0,P|397:201|445:135,1,101.250000286102,2|0,0:0|1:0,0:0:0:0:
512,126,162568,2,0,L|490:203,1,50.6250001430512,0|0,1:0|0:0,0:0:0:0:
407,365,162829,6,0,P|372:310|386:197,1,168.749994039536,6|4,3:3|1:2,0:0:0:0:
252,206,163220,2,0,P|307:170|420:184,1,168.749994039536,2|0,3:2|1:0,0:0:0:0:
392,50,163612,2,0,P|428:104|414:217,1,168.749994039536,6|2,3:2|3:2,0:0:0:0:
304,255,164004,5,0,0:0:0:0:
304,255,164134,1,4,0:0:0:0:
304,255,164264,2,0,P|335:211|391:191,1,84.3749970197678,0|8,0:0|1:2,0:0:0:0:
473,258,164525,1,0,0:0:0:0:
473,258,164655,2,0,P|423:275|366:260,1,84.3749970197678,4|0,0:0|1:0,0:0:0:0:
311,368,164916,6,0,P|272:333|256:276,1,84.3749970197678,2|0,3:2|1:0,0:0:0:0:
134,327,165177,2,0,P|145:275|186:233,1,84.3749970197678,4|2,0:2|3:2,0:0:0:0:
60,175,165438,2,0,P|110:158|167:172,1,84.3749970197678,8|0,0:2|1:0,0:0:0:0:
236,245,165699,2,0,P|186:230|109:98,1,168.749994039536,6|0,3:2|1:0,0:0:0:0:
331,272,166220,6,0,P|329:219|296:171,1,84.3749970197678,4|0,0:0|3:0,0:0:0:0:
208,124,166481,1,8,0:2:0:0:
208,124,166612,2,0,P|239:167|294:187,1,84.3749970197678,0|4,0:0|1:2,0:0:0:0:
271,332,166873,2,0,P|323:326|410:233,1,168.749994039536,2|0,3:2|0:0,0:0:0:0:
410,123,167264,2,0,P|369:158|354:215,1,84.3749970197678,4|0,0:0|1:0,0:0:0:0:
441,281,167525,2,0,P|454:230|434:174,1,84.3749970197678,8|0,0:2|1:0,0:0:0:0:
465,73,167786,2,0,P|411:75|303:186,1,168.749994039536,6|0,0:0|3:2,0:0:0:0:
272,258,168177,1,0,0:0:0:0:
272,258,168568,5,8,0:2:0:0:
264,224,168698,1,0,0:0:0:0:
259,191,168828,1,6,0:0:0:0:
254,158,168959,1,0,0:0:0:0:
248,124,169090,1,0,3:2:0:0:
349,119,169351,6,0,L|433:115,2,67.4999976158142,4|8|4,0:0|0:0|0:0,0:0:0:0:
206,106,170134,5,0,0:0:0:0:
206,106,170264,2,0,P|217:69|253:28,1,50.6250001430512,2|0,0:1|1:0,0:0:0:0:
375,66,170525,2,0,P|345:90|264:103,1,101.250000286102,2|0,0:0|1:0,0:0:0:0:
245,198,170916,2,0,P|213:175|187:128,1,50.6250001430512,0|0,1:0|0:0,0:0:0:0:
92,40,171177,6,0,P|139:84|156:197,1,168.749994039536,6|4,3:3|0:0,0:0:0:0:
54,254,171568,2,0,P|98:206|211:189,1,168.749994039536,2|0,3:2|0:0,0:0:0:0:
224,311,171960,2,0,P|176:266|159:153,1,168.749994039536,6|0,3:2|3:0,0:0:0:0:
285,147,172351,5,0,0:0:0:0:
285,147,172481,1,4,0:0:0:0:
285,147,172611,2,0,P|236:170|177:159,1,84.3749970197678,0|8,1:0|1:2,0:0:0:0:
140,60,172872,1,0,0:0:0:0:
140,60,173003,2,0,P|191:71|233:112,1,84.3749970197678,4|0,0:0|1:0,0:0:0:0:
188,254,173264,6,0,P|124:239|54:150,1,168.749994039536,2|4,3:2|0:2,0:0:0:0:
31,39,173655,2,0,P|74:88|81:202,1,168.749994039536,2|0,3:2|1:0,0:0:0:0:
1,285,174047,2,0,P|-7:220|52:124,1,168.749994039536,6|0,3:2|1:0,0:0:0:0:
110,208,174568,6,0,P|162:217|216:192,1,84.3749970197678,4|0,0:0|3:0,0:0:0:0:
278,115,174829,1,8,0:2:0:0:
278,115,174960,2,0,P|231:139|201:190,1,84.3749970197678,0|4,0:0|1:2,0:0:0:0:
120,156,175220,2,0,P|116:210|193:311,1,168.749994039536,2|0,3:0|0:0,0:0:0:0:
301,329,175612,2,0,P|274:283|220:259,1,84.3749970197678,4|0,0:0|1:0,0:0:0:0:
140,333,175872,2,0,P|188:355|247:345,1,84.3749970197678,8|0,0:2|0:0,0:0:0:0:
344,370,176133,2,0,P|374:325|348:172,1,168.749994039536,6|0,0:0|3:0,0:0:0:0:
252,180,176524,1,0,0:0:0:0:
252,180,176916,5,8,0:2:0:0:
283,189,177047,1,0,0:0:0:0:
317,199,177178,1,6,0:0:0:0:
349,208,177308,1,0,0:0:0:0:
381,217,177438,1,0,3:0:0:0:
495,130,177699,6,0,P|489:172|460:216,1,84.3749970197678,6|0,0:0|1:0,0:0:0:0:
298,214,177960,2,0,P|327:184|375:164,1,84.3749970197678,8|0,0:2|0:0,0:0:0:0:
442,266,178220,2,0,P|400:275|349:263,1,84.3749970197678,6|0,0:2|1:0,0:0:0:0:
249,139,178481,2,0,P|288:156|323:196,1,84.3749970197678,8|0,0:2|1:0,0:0:0:0:
224,307,178742,1,2,3:2:0:0:
224,307,178873,2,0,P|201:271|195:219,1,84.3749970197678,8|0,0:2|1:0,0:0:0:0:
389,75,179134,2,0,P|371:115|235:205,1,168.749994039536,2|0,0:1|1:0,0:0:0:0:
179,37,179525,6,0,P|166:77|174:128,1,84.3749970197678,4|0,3:3|0:0,0:0:0:0:
318,268,179786,1,4,0:0:0:0:
318,268,179916,2,0,P|306:227|270:188,1,84.3749970197678,0|0,3:0|0:0,0:0:0:0:
57,115,180177,1,4,0:0:0:0:
57,115,180307,2,0,P|70:155|188:239,1,168.749994039536,0|10,3:2|0:2,0:0:0:0:
312,23,180829,6,0,P|326:62|288:202,1,168.749994039536,2|0,3:1|1:0,0:0:0:0:
109,348,181220,2,0,P|153:259|251:204,1,168.749994039536,2|0,3:1|1:0,0:0:0:0:
318,268,181612,6,0,P|331:227|323:176,1,84.3749970197678,4|0,3:2|0:0,0:0:0:0:
189,103,181873,1,4,0:0:0:0:
189,103,182003,2,0,P|201:142|238:182,1,84.3749970197678,0|0,3:0|0:0,0:0:0:0:
392,106,182264,1,4,0:0:0:0:
392,106,182394,2,0,P|418:141|420:285,1,168.749994039536,0|10,3:0|0:2,0:0:0:0:
225,265,182916,6,0,P|262:339|332:384,1,168.749994039536,2|0,3:1|1:0,0:0:0:0:
487,268,183438,5,0,1:0:0:0:
487,268,183568,1,0,3:0:0:0:
487,268,183699,2,0,P|465:232|421:204,1,84.3749970197678,0|0,3:2|0:0,0:0:0:0:
252,260,183960,2,0,P|291:277|343:275,1,84.3749970197678,4|0,0:0|3:0,0:0:0:0:
506,146,184220,2,0,P|463:155|422:186,1,84.3749970197678,0|4,0:0|0:0,0:0:0:0:
363,384,184481,2,0,P|391:354|408:304,1,84.3749970197678,0|0,3:0|1:0,0:0:0:0:
346,81,184742,6,0,P|312:106|284:271,1,168.749994039536,10|0,0:1|1:0,0:0:0:0:
363,384,185134,2,0,P|376:344|304:192,1,168.749994039536,2|0,3:1|1:0,0:0:0:0:
207,293,185525,2,0,P|169:274|112:116,1,168.749994039536,2|0,3:1|1:0,0:0:0:0:
215,27,186047,6,0,P|209:60|170:115,1,84.3749970197678,4|0,3:2|1:0,0:0:0:0:
41,176,186307,2,0,P|50:158|193:88,1,168.749994039536,2|4,0:2|0:0,0:0:0:0:
248,128,186829,5,8,0:2:0:0:
248,128,186959,2,0,P|236:91|196:48,1,84.3749970197678,2|0,1:1|0:0,0:0:0:0:
22,43,187220,2,0,P|52:67|185:76,1,168.749994039536,10|0,0:2|3:0,0:0:0:0:
257,32,187612,1,10,1:2:0:0:
463,47,187873,6,0,P|441:83|396:110,1,84.3749970197678,4|0,3:3|0:0,0:0:0:0:
380,226,188134,1,4,0:0:0:0:
380,226,188264,2,0,P|344:203|315:158,1,84.3749970197678,0|0,3:2|0:0,0:0:0:0:
219,246,188525,1,4,0:0:0:0:
219,246,188655,2,0,P|222:203|315:94,1,168.749994039536,0|10,3:0|0:2,0:0:0:0:
450,67,189177,6,0,P|435:108|319:192,1,168.749994039536,2|0,3:1|0:0,0:0:0:0:
156,18,189568,2,0,P|141:58|180:197,1,168.749994039536,2|0,3:1|0:0,0:0:0:0:
242,266,189960,6,0,P|235:223|206:179,1,84.3749970197678,0|0,3:0|0:0,0:0:0:0:
100,129,190221,1,4,0:0:0:0:
100,129,190351,2,0,P|126:159|176:180,1,84.3749970197678,0|0,3:0|0:0,0:0:0:0:
292,173,190612,1,4,0:0:0:0:
292,173,190742,2,0,P|248:164|116:223,1,168.749994039536,0|10,3:0|0:2,0:0:0:0:
0,229,191264,6,0,P|29:258|81:274,1,84.3749970197678,4|0,3:2|0:0,0:0:0:0:
139,378,191525,2,0,P|178:367|217:331,1,84.3749970197678,2|0,0:0|1:0,0:0:0:0:
338,335,191786,2,0,P|347:295|336:243,1,84.3749970197678,4|0,3:2|0:0,0:0:0:0:
270,127,192047,6,0,P|252:164|300:317,1,168.749994039536,2|0,3:1|1:2,0:0:0:0:
496,364,192438,2,0,P|488:323|360:226,1,168.749994039536,2|0,3:1|0:0,0:0:0:0:
270,285,192829,6,0,P|243:254|231:201,1,84.3749970197678,4|0,3:2|0:0,0:0:0:0:
282,94,193090,1,10,0:2:0:0:
282,94,193220,2,0,P|284:135|263:184,1,84.3749970197678,0|0,0:0|3:2,0:0:0:0:
145,203,193481,6,0,P|165:168|210:140,1,84.3749970197678,4|0,1:2|1:0,0:0:0:0:
371,180,193742,2,0,P|378:139|361:88,1,84.3749970197678,8|0,0:2|0:0,0:0:0:0:
214,26,194003,6,0,P|218:109|268:175,1,168.749994039536,2|0,3:1|1:2,0:0:0:0:
501,270,194394,2,0,P|449:204|370:179,1,168.749994039536,2|4,3:1|0:1,0:0:0:0:
199,224,195177,5,0,0:0:0:0:
199,224,195307,2,0,P|180:189|176:134,1,50.6250001430512,2|0,1:1|1:0,0:0:0:0:
293,66,195568,2,0,P|288:103|240:170,1,101.250000286102,2|0,0:0|1:0,0:0:0:0:
97,146,195959,2,0,P|93:183|113:234,1,50.6250001430512,0|0,0:0|1:0,0:0:0:0:
