osu file format v14

[General]
AudioFilename: audio.mp3
AudioLeadIn: 0
PreviewTime: 59525
Countdown: 0
SampleSet: Soft
StackLeniency: 0.7
Mode: 0
LetterboxInBreaks: 0
WidescreenStoryboard: 1

[Editor]
Bookmarks: 9960,10481,18829,27177,35525,43873,48047,52220,54307,56394,57438,57960,60568,68916,77264,81438,93960,110655,119003,121090,123177,123960,124742,126307,127351,135699,144047,152394,154481,156568,158655,160742,161786,162829,171177,179525,183699,187873,192047,196220
DistanceSpacing: 3.2
BeatDivisor: 4
GridSize: 32
TimelineZoom: 2.799999

[Metadata]
Title:Violeta
TitleUnicode:비올레타
Artist:IZ*ONE
ArtistUnicode:아이즈원
Creator:Everything Dust
Version:Eunbi
Source:
Tags:Kwon Eun-bi 권은비 Choi Ye-na 최예나 Jo Yu-ri 조유리 Sakura Miyawaki 宮脇咲良 미야와키 사쿠라 Kang Hye-won 강혜원 Ahn Yu-jin 안유진 Kim Min-ju 김민주 Nako Yabuki 矢吹奈子 야부키 나코 Hitomi Honda 本田仁美 혼다 히토미 Lee Chae-yeon 이채연 Jang Won-young 장원영 Kim Chae-won 김채원 Heart*Iz izone iz one iz-one
BeatmapID:1983244
BeatmapSetID:949790

[Difficulty]
HPDrainRate:5
CircleSize:3.5
OverallDifficulty:8
ApproachRate:9
SliderMultiplier:3.59999990463257
SliderTickRate:1

[Events]
//Background and Video events
0,0,"VioletaSMUSH.jpg",0,0
Video,0,"violeta conv.mp4"
//Break Periods
//Storyboard Layer 0 (Background)
//Storyboard Layer 1 (Fail)
//Storyboard Layer 2 (Pass)
//Storyboard Layer 3 (Foreground)
//Storyboard Layer 4 (Overlay)
//Storyboard Sound Samples

[TimingPoints]
2134,521.739130434783,4,2,1,50,1,0
9960,-133.333333333333,4,2,1,50,0,0
10090,-133.333333333333,4,2,1,5,0,0
10220,-133.333333333333,4,2,1,50,0,0
10351,-133.333333333333,4,2,1,5,0,0
10481,-100,4,2,1,50,0,0
10742,-100,4,2,1,5,0,0
10873,-400,4,2,1,50,0,0
11134,-100,4,2,1,5,0,0
11264,-100,4,2,1,50,0,0
11916,-100,4,2,1,5,0,0
12047,-400,4,2,1,50,0,0
12307,-100,4,2,1,5,0,0
12438,-100,4,2,1,40,0,0
12568,-100,4,2,1,50,0,0
13090,-100,4,2,1,50,0,0
13351,-133.333333333333,4,2,1,50,0,0
13873,-133.333333333333,4,2,1,5,0,0
14134,-133.333333333333,4,2,1,50,0,0
14264,-133.333333333333,4,2,1,5,0,0
14394,-133.333333333333,4,2,1,50,0,0
14525,-133.333333333333,4,2,1,5,0,0
14655,-100,4,2,1,50,0,0
14786,-100,4,2,1,5,0,0
14916,-100,4,2,1,50,0,0
15047,-100,4,2,1,5,0,0
15177,-100,4,2,1,50,0,0
15307,-100,4,2,1,5,0,0
15438,-100,4,2,1,50,0,0
15568,-100,4,2,1,5,0,0
15699,-400,4,2,1,50,0,0
15960,-400,4,2,1,40,0,0
16220,-100,4,2,1,50,0,0
16612,-100,4,2,1,5,0,0
16742,-100,4,2,1,50,0,0
16873,-100,4,2,1,5,0,0
17003,-100,4,2,1,50,0,0
17134,-100,4,2,1,5,0,0
17264,-400,4,2,1,50,0,0
17394,-100,4,2,1,50,0,0
17525,-400,4,2,1,40,0,0
17786,-400,4,2,1,50,0,0
18307,-133.333333333333,4,2,1,50,0,0
18438,-133.333333333333,4,2,1,5,0,0
18568,-133.333333333333,4,2,1,50,0,0
18699,-133.333333333333,4,2,1,5,0,0
18829,-100,4,2,1,50,0,0
18960,-100,4,2,1,5,0,0
19090,-100,4,2,1,50,0,0
19220,-100,4,2,1,5,0,0
19351,-100,4,2,1,50,0,0
19481,-100,4,2,1,5,0,0
19612,-400,4,2,1,50,0,0
20003,-400,4,2,1,5,0,0
20134,-100,4,2,1,50,0,0
20264,-100,4,2,1,5,0,0
20394,-100,4,2,1,40,0,0
20525,-100,4,2,1,50,0,0
21047,-100,4,2,1,5,0,0
21177,-100,4,2,1,50,0,0
22220,-100,4,2,1,50,0,0
22350,-100,4,2,1,5,0,0
22481,-100,4,2,1,50,0,0
22611,-100,4,2,1,5,0,0
22742,-100,4,2,1,50,0,0
22872,-100,4,2,1,5,0,0
23003,-100,4,2,1,50,0,0
23655,-100,4,2,1,5,0,0
23786,-100,4,2,1,50,0,0
23916,-100,4,2,1,5,0,0
24047,-100,4,2,1,50,0,0
24307,-100,4,2,1,5,0,0
24438,-100,4,2,1,50,0,0
24699,-100,4,2,1,5,0,0
24830,-100,4,2,1,50,0,0
24960,-100,4,2,1,5,0,0
25090,-100,4,2,1,50,0,0
25351,-100,4,2,1,5,0,0
25481,-133.333333333333,4,2,1,50,0,0
25742,-133.333333333333,4,2,1,5,0,0
25873,-263.157894736842,4,2,1,50,0,0
26134,-133.333333333333,4,2,1,5,0,0
26655,-100,4,2,1,60,0,0
26916,-100,4,2,1,5,0,0
27047,-100,4,2,1,60,0,0
27177,-100,4,2,1,60,0,0
27307,-100,4,2,1,5,0,0
27438,-100,4,2,1,60,0,0
27568,-100,4,2,1,5,0,0
27699,-100,4,2,1,60,0,0
29394,-100,4,2,1,5,0,0
29525,-100,4,2,1,60,0,0
29655,-100,4,2,1,5,0,0
29786,-100,4,2,1,60,0,0
33699,-133.333333333333,4,2,1,60,0,0
33829,-133.333333333333,4,2,1,5,0,0
33960,-133.333333333333,4,2,1,60,0,0
34090,-133.333333333333,4,2,1,5,0,0
34220,-100,4,2,1,60,0,0
35003,-100,4,2,1,60,0,0
35655,-100,4,2,1,5,0,0
35786,-100,4,2,1,60,0,0
35916,-100,4,2,1,5,0,0
36047,-100,4,2,1,60,0,0
38003,-100,4,2,1,5,0,0
38134,-100,4,2,1,60,0,0
38655,-90.9090909090909,4,2,1,60,0,0
39177,-100,4,2,1,60,0,0
42047,-100,4,2,1,50,0,0
42307,-100,4,2,1,5,0,0
42438,-100,4,2,1,40,0,0
42568,-100,4,2,1,50,0,0
42699,-100,4,2,1,5,0,0
42829,-100,4,2,1,50,0,0
43090,-100,4,2,1,60,0,0
43351,-90.9090909090909,4,2,1,60,0,0
43481,-100,4,2,1,5,0,0
43612,-100,4,2,1,70,0,0
43742,-100,4,2,1,70,0,0
43873,-100,4,2,1,70,0,0
44134,-100,4,2,1,5,0,0
44394,-100,4,2,1,70,0,0
44525,-100,4,2,1,5,0,0
44655,-100,4,2,1,70,0,0
44786,-100,4,2,1,5,0,0
44916,-100,4,2,1,70,0,0
45047,-100,4,2,1,5,0,0
45177,-100,4,2,1,70,0,0
45307,-100,4,2,1,5,0,0
45437,-100,4,2,1,70,0,0
45699,-100,4,2,1,5,0,0
45829,-100,4,2,1,70,0,0
46612,-100,4,2,1,5,0,0
46742,-100,4,2,1,70,0,0
46873,-100,4,2,1,5,0,0
47003,-100,4,2,1,70,0,0
47134,-100,4,2,1,5,0,0
47264,-100,4,2,1,70,0,0
47394,-100,4,2,1,5,0,0
47524,-100,4,2,1,70,0,0
47786,-100,4,2,1,5,0,0
47916,-100,4,2,1,70,0,0
48177,-100,4,2,1,5,0,0
48307,-100,4,2,1,70,0,0
49220,-100,4,2,1,5,0,0
49351,-100,4,2,1,70,0,0
49742,-100,4,2,1,5,0,0
49873,-100,4,2,1,70,0,0
50003,-100,4,2,1,5,0,0
50133,-100,4,2,1,70,0,0
50264,-100,4,2,1,5,0,0
50394,-100,4,2,1,70,0,0
50525,-100,4,2,1,5,0,0
50655,-100,4,2,1,70,0,0
50786,-100,4,2,1,5,0,0
50916,-100,4,2,1,70,0,0
51177,-90.9090909090909,4,2,1,70,0,0
51438,-100,4,2,1,5,0,0
51568,-100,4,2,1,70,0,0
51829,-100,4,2,1,5,0,0
51959,-100,4,2,1,70,0,0
52220,-100,4,2,1,70,0,0
54699,-100,4,2,1,5,0,0
54829,-100,4,2,1,70,0,0
54960,-100,4,2,1,5,0,0
55090,-100,4,2,1,70,0,0
55742,-100,4,2,1,5,0,0
55872,-100,4,2,1,70,0,0
56394,-90.9090909090909,4,2,1,70,0,0
57568,-80,4,2,1,70,0,0
57959,-66.6666666666667,4,2,1,70,0,0
57960,-66.6666666666667,4,2,1,70,0,0
58220,-66.6666666666667,4,2,1,5,0,0
58742,-400,4,2,1,70,0,0
59525,-100,4,2,1,70,0,0
59786,-100,4,2,1,5,0,0
59916,-100,4,2,1,70,0,0
60177,-100,4,2,1,5,0,0
60307,-100,4,2,1,70,0,0
60438,-100,4,2,1,70,0,0
60568,-100,4,2,1,80,0,1
63960,-100,4,2,1,80,0,1
67220,-100,4,2,1,5,0,1
67351,-100,4,2,1,80,0,1
67873,-100,4,2,1,60,0,1
68134,-100,4,2,1,30,0,1
68264,-100,4,2,1,60,0,1
68525,-100,4,2,1,5,0,1
68655,-100,4,2,1,60,0,1
68916,-100,4,2,1,80,0,1
75829,-100,4,2,1,5,0,1
75960,-100,4,2,1,80,0,1
76220,-133.333333333333,4,2,1,60,0,1
76481,-133.333333333333,4,2,1,5,0,1
76612,-133.333333333333,4,2,1,60,0,1
76873,-133.333333333333,4,2,1,5,0,1
77003,-133.333333333333,4,2,1,60,0,1
77134,-133.333333333333,4,2,1,5,0,1
77264,-400,4,2,1,60,0,0
77525,-400,4,2,1,5,0,0
77786,-400,4,2,1,55,0,0
78047,-400,4,2,1,5,0,0
78308,-400,4,2,1,50,0,0
78568,-400,4,2,1,5,0,0
78829,-133.333333333333,4,2,1,40,0,0
79351,-133.333333333333,4,2,1,40,0,0
79481,-133.333333333333,4,2,1,5,0,0
79612,-133.333333333333,4,2,1,40,0,0
80003,-133.333333333333,4,2,1,5,0,0
80134,-133.333333333333,4,2,1,40,0,0
80264,-133.333333333333,4,2,1,5,0,0
80395,-133.333333333333,4,2,1,40,0,0
80786,-133.333333333333,4,2,1,5,0,0
80917,-133.333333333333,4,2,1,40,0,0
81438,-400,4,2,1,50,0,0
81699,-400,4,2,1,5,0,0
81960,-400,4,2,1,50,0,0
82220,-400,4,2,1,5,0,0
82481,-400,4,2,1,50,0,0
82742,-400,4,2,1,5,0,0
82873,-133.333333333333,4,2,1,40,0,0
83655,-133.333333333333,4,2,1,5,0,0
83786,-133.333333333333,4,2,1,40,0,0
84177,-133.333333333333,4,2,1,5,0,0
84308,-133.333333333333,4,2,1,40,0,0
84829,-133.333333333333,4,2,1,50,0,0
85612,-133.333333333333,4,2,1,60,0,0
92916,-133.333333333333,4,2,1,60,0,0
93438,-100,4,2,1,60,0,0
93699,-100,4,2,1,5,0,0
93830,-100,4,2,1,60,0,0
93960,-100,4,2,1,60,0,0
94090,-100,4,2,1,5,0,0
94221,-100,4,2,1,60,0,0
94351,-100,4,2,1,5,0,0
94482,-100,4,2,1,60,0,0
94873,-100,4,2,1,5,0,0
95003,-100,4,2,1,60,0,0
95264,-100,4,2,1,60,0,0
95525,-100,4,2,1,60,0,0
95916,-100,4,2,1,60,0,0
96177,-100,4,2,1,5,0,0
96308,-100,4,2,1,60,0,0
96438,-100,4,2,1,5,0,0
96569,-100,4,2,1,60,0,0
96960,-100,4,2,1,5,0,0
97090,-100,4,2,1,60,0,0
97351,-100,4,2,1,60,0,0
97612,-100,4,2,1,60,0,0
98134,-133.333333333333,4,2,1,60,0,0
98264,-133.333333333333,4,2,1,5,0,0
98394,-133.333333333333,4,2,1,60,0,0
98655,-100,4,2,1,60,0,0
98786,-100,4,2,1,5,0,0
98916,-100,4,2,1,60,0,0
99307,-400,4,2,1,60,0,0
99699,-100,4,2,1,60,0,0
100220,-133.333333333333,4,2,1,60,0,0
100482,-133.333333333333,4,2,1,60,0,0
100612,-133.333333333333,4,2,1,5,0,0
100742,-100,4,2,1,60,0,0
100743,-133.333333333333,4,2,1,60,0,0
100873,-133.333333333333,4,2,1,5,0,0
101003,-100,4,2,1,60,0,0
101394,-400,4,2,1,60,0,0
101786,-100,4,2,1,60,0,0
102438,-100,4,2,1,5,0,0
102569,-100,4,2,1,60,0,0
102699,-100,4,2,1,5,0,0
102829,-90.9090909090909,4,2,1,60,0,0
102830,-100,4,2,1,60,0,0
103090,-100,4,2,1,60,0,0
103351,-90.9090909090909,4,2,1,60,0,0
103873,-100,4,2,1,60,0,0
104786,-100,4,2,1,5,0,0
104916,-100,4,2,1,60,0,0
104917,-100,4,2,1,60,0,0
105047,-100,4,2,1,60,0,0
105177,-100,4,2,1,60,0,0
105438,-100,4,2,1,60,0,0
105960,-100,4,2,1,60,0,0
108568,-100,4,2,1,60,0,0
108699,-100,4,2,1,60,0,0
108830,-100,4,2,1,50,0,0
109090,-100,4,2,1,5,0,0
109221,-100,4,2,1,40,0,0
109351,-100,4,2,1,50,0,0
109482,-100,4,2,1,5,0,0
109612,-100,4,2,1,50,0,0
109873,-100,4,2,1,60,0,0
110134,-90.9090909090909,4,2,1,60,0,0
110264,-100,4,2,1,5,0,0
110395,-100,4,2,1,70,0,0
110525,-100,4,2,1,70,0,0
110655,-100,4,2,1,60,0,0
110656,-100,4,2,1,70,0,0
110917,-100,4,2,1,5,0,0
111177,-100,4,2,1,70,0,0
111308,-100,4,2,1,5,0,0
111438,-100,4,2,1,70,0,0
111569,-100,4,2,1,5,0,0
111699,-100,4,2,1,70,0,0
111830,-100,4,2,1,5,0,0
111960,-100,4,2,1,70,0,0
112090,-100,4,2,1,5,0,0
112220,-100,4,2,1,70,0,0
112482,-100,4,2,1,5,0,0
112612,-100,4,2,1,70,0,0
113395,-100,4,2,1,5,0,0
113525,-100,4,2,1,70,0,0
113656,-100,4,2,1,5,0,0
113786,-100,4,2,1,70,0,0
113917,-100,4,2,1,5,0,0
114047,-100,4,2,1,70,0,0
114177,-100,4,2,1,5,0,0
114307,-100,4,2,1,70,0,0
114569,-100,4,2,1,5,0,0
114699,-100,4,2,1,70,0,0
114960,-100,4,2,1,5,0,0
115090,-100,4,2,1,70,0,0
116003,-100,4,2,1,5,0,0
116134,-100,4,2,1,70,0,0
116525,-100,4,2,1,5,0,0
116656,-100,4,2,1,70,0,0
116786,-100,4,2,1,5,0,0
116916,-100,4,2,1,70,0,0
117047,-100,4,2,1,5,0,0
117177,-100,4,2,1,70,0,0
117308,-100,4,2,1,5,0,0
117438,-100,4,2,1,70,0,0
117569,-100,4,2,1,5,0,0
117699,-100,4,2,1,70,0,0
117829,-100,4,2,1,5,0,0
117960,-90.9090909090909,4,2,1,70,0,0
118221,-100,4,2,1,5,0,0
118351,-90.9090909090909,4,2,1,70,0,0
118612,-100,4,2,1,5,0,0
118742,-100,4,2,1,70,0,0
119003,-100,4,2,1,70,0,0
121482,-100,4,2,1,5,0,0
121612,-100,4,2,1,70,0,0
121743,-100,4,2,1,5,0,0
121873,-100,4,2,1,70,0,0
122525,-100,4,2,1,5,0,0
122655,-100,4,2,1,70,0,0
123047,-100,4,2,1,5,0,0
123177,-90.9090909090909,4,2,1,70,0,0
123829,-90.9090909090909,4,2,1,5,0,0
123960,-90.9090909090909,4,2,1,60,0,0
124351,-80,4,2,1,70,0,0
124742,-66.6666666666667,4,2,1,70,0,0
125003,-66.6666666666667,4,2,1,5,0,0
125525,-400,4,2,1,70,0,0
126307,-100,4,2,1,60,0,0
126308,-100,4,2,1,60,0,0
126568,-100,4,2,1,5,0,0
126698,-100,4,2,1,60,0,0
126959,-100,4,2,1,5,0,0
127089,-100,4,2,1,60,0,0
127220,-100,4,2,1,60,0,0
127351,-100,4,2,1,80,0,1
130220,-90.9090909090909,4,2,1,80,0,1
130742,-100,4,2,1,80,0,1
134003,-100,4,2,1,5,0,1
134134,-100,4,2,1,80,0,1
134264,-100,4,2,1,80,0,1
134394,-100,4,2,1,80,0,1
134655,-100,4,2,1,60,0,1
134916,-100,4,2,1,30,0,1
135046,-100,4,2,1,60,0,1
135307,-100,4,2,1,5,0,1
135437,-100,4,2,1,60,0,1
135699,-100,4,2,1,80,0,1
142220,-400,4,2,1,80,0,1
142612,-100,4,2,1,80,0,1
142873,-100,4,2,1,80,0,1
143003,-100,4,2,1,80,0,1
143525,-133.333333333333,4,2,1,70,0,1
143655,-133.333333333333,4,2,1,5,0,1
143786,-133.333333333333,4,2,1,60,0,1
143916,-133.333333333333,4,2,1,5,0,1
144047,-133.333333333333,4,2,1,50,0,0
144307,-133.333333333333,4,2,1,5,0,0
144438,-400,4,2,1,50,0,0
144699,-133.333333333333,4,2,1,5,0,0
144829,-100,4,2,1,50,0,0
145090,-133.333333333333,4,2,1,50,0,0
145351,-133.333333333333,4,2,1,5,0,0
145481,-400,4,2,1,50,0,0
145742,-133.333333333333,4,2,1,5,0,0
145872,-133.333333333333,4,2,1,40,0,0
146134,-200,4,2,1,40,0,0
146655,-133.333333333333,4,2,1,5,0,0
146916,-133.333333333333,4,2,1,50,0,0
147438,-133.333333333333,4,2,1,5,0,0
147699,-133.333333333333,4,2,1,5,0,0
147829,-133.333333333333,4,2,1,5,0,0
147960,-133.333333333333,4,2,1,55,0,0
148090,-133.333333333333,4,2,1,5,0,0
148220,-133.333333333333,4,2,1,55,0,0
148481,-133.333333333333,4,2,1,5,0,0
148611,-133.333333333333,4,2,1,55,0,0
148873,-133.333333333333,4,2,1,5,0,0
149002,-100,4,2,1,55,0,0
149134,-100,4,2,1,5,0,0
149264,-133.333333333333,4,2,1,60,0,0
149525,-133.333333333333,4,2,1,5,0,0
149655,-133.333333333333,4,2,1,60,0,0
149916,-133.333333333333,4,2,1,5,0,0
150046,-100,4,2,1,60,0,0
150307,-100,4,2,1,60,0,0
150438,-100,4,2,1,5,0,0
150568,-100,4,2,1,60,0,0
150699,-200,4,2,1,60,0,0
150960,-133.333333333333,4,2,1,5,0,0
151090,-400,4,2,1,60,0,0
151481,-133.333333333333,4,2,1,5,0,0
151612,-133.333333333333,4,2,1,60,0,0
151742,-133.333333333333,4,2,1,5,0,0
151873,-133.333333333333,4,2,1,60,0,0
152134,-133.333333333333,4,2,1,5,0,0
152264,-100,4,2,1,70,0,0
152525,-133.333333333333,4,2,1,5,0,0
152655,-100,4,2,1,70,0,0
152786,-133.333333333333,4,2,1,5,0,0
152916,-133.333333333333,4,2,1,70,0,0
153047,-133.333333333333,4,2,1,5,0,0
153177,-100,4,2,1,70,0,0
153307,-133.333333333333,4,2,1,5,0,0
153438,-90.9090909090909,4,2,1,70,0,0
153699,-133.333333333333,4,2,1,5,0,0
153960,-100,4,2,1,70,0,0
154220,-100,4,2,1,5,0,0
154351,-100,4,2,1,70,0,0
154481,-100,4,2,1,70,0,0
154612,-133.333333333333,4,2,1,5,0,0
154742,-100,4,2,1,70,0,0
154873,-100,4,2,1,70,0,0
155003,-100,4,2,1,70,0,0
155655,-100,4,2,1,5,0,0
155786,-100,4,2,1,70,0,0
156047,-100,4,2,1,70,0,0
156568,-100,4,2,1,70,0,0
157612,-100,4,2,1,70,0,0
158003,-100,4,2,1,70,0,0
158394,-100,4,2,1,70,0,0
158655,-100,4,2,1,70,0,0
158916,-100,4,2,1,5,0,0
159047,-100,4,2,1,70,0,0
160742,-100,4,2,1,5,0,0
161003,-400,4,2,1,70,0,0
161786,-100,4,2,1,70,0,0
162046,-100,4,2,1,5,0,0
162176,-100,4,2,1,70,0,0
162437,-100,4,2,1,70,0,0
162567,-100,4,2,1,70,0,0
162698,-100,4,2,1,70,0,0
162829,-80,4,2,1,80,0,1
169481,-80,4,2,1,5,0,1
169612,-80,4,2,1,80,0,1
170134,-100,4,2,1,60,0,1
170394,-100,4,2,1,5,0,1
170524,-100,4,2,1,60,0,1
170785,-100,4,2,1,5,0,1
170915,-100,4,2,1,60,0,1
171046,-100,4,2,1,60,0,1
171177,-80,4,2,1,80,0,1
178481,-80,4,2,1,60,0,1
178612,-80,4,2,1,80,0,1
178873,-80,4,2,1,60,0,1
179003,-80,4,2,1,80,0,1
179134,-80,4,2,1,90,0,1
179525,-80,4,2,1,80,0,1
182916,-80,4,2,1,80,0,1
187873,-80,4,2,1,80,0,1
191264,-80,4,2,1,80,0,1
194655,-80,4,2,1,30,0,1
195177,-133.333333333333,4,2,1,80,0,1
195438,-133.333333333333,4,2,1,5,0,1
195568,-133.333333333333,4,2,1,80,0,1
196090,-133.333333333333,4,2,1,30,0,1
196220,-100,4,2,1,60,0,0

[Colours]
Combo1 : 133,233,255
Combo2 : 132,125,159
SliderBorder : 94,151,138
SliderTrackOverride : 20,5,10

[HitObjects]
318,300,9960,6,0,P|283:289|228:230,1,67.5000007867814,0|0,0:0|0:0,0:0:0:0:
278,150,10220,2,0,P|300:177|311:257,1,67.5000007867814,0|0,0:0|0:0,0:0:0:0:
92,305,10481,2,0,P|117:208|190:151,1,179.999995231629,2|0,0:2|0:0,0:0:0:0:
385,248,10873,2,0,L|328:223,1,44.9999988079071,0|0,0:2|0:0,0:0:0:0:
256,320,11264,5,2,0:2:0:0:
428,371,11525,2,0,P|464:265|382:116,1,269.999992847443,0|0,0:2|0:0,0:0:0:0:
326,343,12047,2,0,L|344:288,1,44.9999988079071,0|0,0:2|0:0,0:0:0:0:
374,277,12438,5,0,0:0:0:0:
374,220,12568,1,2,0:2:0:0:
374,162,12699,1,0,0:0:0:0:
470,363,13090,5,0,0:0:0:0:
426,2,13351,2,0,P|369:92|467:260,1,270.000003147125,2|0,0:2|0:0,0:0:0:0:
506,131,14134,6,0,P|472:120|393:137,1,67.5000007867814,0|0,0:0|0:0,0:0:0:0:
288,241,14394,2,0,P|322:230|377:171,1,67.5000007867814,0|0,0:0|0:0,0:0:0:0:
359,59,14655,2,0,P|334:84|317:163,1,89.9999976158143,2|0,0:2|0:0,0:0:0:0:
420,261,14916,6,0,P|440:231|444:151,1,89.9999976158143,0|0,0:0|0:0,0:0:0:0:
237,5,15177,2,0,P|217:34|213:115,1,89.9999976158143,0|0,0:0|0:0,0:0:0:0:
321,228,15438,2,0,P|319:192|276:123,1,89.9999976158143,2|0,0:2|0:0,0:0:0:0:
180,215,15699,2,0,L|226:206,1,44.9999988079071,0|0,0:2|0:0,0:0:0:0:
90,297,16481,6,0,P|72:265|73:185,1,89.9999976158143,0|0,0:0|0:0,0:0:0:0:
274,100,16743,2,0,P|291:130|290:211,1,89.9999976158143,2|0,0:2|0:0,0:0:0:0:
193,288,17004,2,0,P|197:252|245:186,1,89.9999976158143,0|0,0:0|0:0,0:0:0:0:
326,281,17264,2,0,L|275:269,1,44.9999988079071,0|2,0:2|0:2,0:0:0:0:
244,81,18307,6,0,P|236:103|240:151,1,67.5000007867814,0|0,0:0|0:0,0:0:0:0:
403,171,18568,2,0,P|394:149|364:110,1,67.5000007867814,0|0,0:0|0:0,0:0:0:0:
284,271,18829,2,0,P|287:235|334:170,1,89.9999976158143,2|0,0:2|0:0,0:0:0:0:
429,257,19091,2,0,P|406:284|330:310,1,89.9999976158143,0|0,0:0|0:0,0:0:0:0:
225,190,19351,2,0,P|258:180|336:202,1,89.9999976158143,0|0,0:0|0:0,0:0:0:0:
269,330,19612,2,0,L|268:260,1,67.4999982118607,2|0,0:2|0:0,0:0:0:0:
62,118,20134,6,0,P|65:166|103:206,1,89.9999976158143,0|0,0:0|0:0,0:0:0:0:
218,277,20394,1,0,0:0:0:0:
243,234,20525,2,0,P|211:196|157:185,1,89.9999976158143,0|0,0:0|0:0,0:0:0:0:
0,311,20786,6,0,P|88:314|186:230,1,179.999995231629,2|0,0:2|0:0,0:0:0:0:
121,119,21177,2,0,P|92:159|95:214,1,89.9999976158143,0|0,0:0|0:0,0:0:0:0:
243,234,21438,2,0,P|275:152|230:31,1,179.999995231629,0|2,0:0|0:2,0:0:0:0:
67,186,22220,6,0,P|77:152|139:101,1,89.9999976158143,0|0,0:0|0:0,0:0:0:0:
271,170,22481,2,0,P|242:191|163:197,1,89.9999976158143
255,64,22742,2,0,P|290:62|359:103,1,89.9999976158143
443,185,23003,5,2,0:2:0:0:
463,62,23394,6,0,P|398:66|318:195,1,179.999995231629,4|0,0:0|0:0,0:0:0:0:
325,279,23786,2,0,P|316:214|277:176,1,89.9999976158143,2|0,0:0|0:0,0:0:0:0:
122,61,24047,2,0,P|92:119|164:253,1,179.999995231629,0|0,0:2|0:0,0:0:0:0:
400,175,24438,6,0,P|379:237|233:281,1,179.999995231629,4|0,0:0|0:0,0:0:0:0:
220,145,24830,2,0,P|280:171|306:219,1,89.9999976158143,0|0,0:0|0:0,0:0:0:0:
125,339,25090,2,0,P|181:290|320:312,1,179.999995231629,2|0,0:2|0:0,0:0:0:0:
409,334,25481,6,0,P|442:289|417:187,1,135.000001573563,0|0,0:0|1:0,0:0:0:0:
124,233,25873,2,0,P|162:193|267:201,1,136.799994706116
265,264,26655,5,0,0:0:0:0:
297,269,26786,2,0,P|337:217|319:125,1,89.9999976158143,0|0,0:0|1:0,0:0:0:0:
90,133,27047,2,0,P|181:199|267:163,1,179.999995231629,4|0,0:0|1:0,0:0:0:0:
336,23,27438,6,0,L|300:133,1,89.9999976158143,4|0,0:0|1:0,0:0:0:0:
237,323,27699,1,8,0:2:0:0:
175,31,27960,5,4,0:0:0:0:
337,262,28220,2,0,P|385:148|331:43,1,179.999995231629,2|4,3:2|0:0,0:0:0:0:
491,359,28742,5,8,0:2:0:0:
496,326,28873,2,0,P|444:285|352:303,1,89.9999976158143,0|0,0:0|1:0,0:0:0:0:
117,370,29134,2,0,P|228:352|263:266,1,179.999995231629,4|0,0:0|1:0,0:0:0:0:
222,56,29525,6,0,L|258:166,1,89.9999976158143,4|0,0:0|1:0,0:0:0:0:
321,356,29786,1,8,0:2:0:0:
368,64,30047,5,4,0:0:0:0:
178,359,30307,2,0,P|114:275|136:172,1,179.999995231629,2|4,3:2|0:2,0:0:0:0:
228,131,30829,5,8,0:2:0:0:
191,156,30960,1,0,0:0:0:0:
154,182,31089,1,4,1:2:0:0:
118,205,31220,1,0,0:0:0:0:
118,205,31351,5,0,3:0:0:0:
358,328,31612,1,4,0:0:0:0:
345,59,31873,1,8,0:2:0:0:
178,359,32134,2,0,P|114:275|136:172,1,179.999995231629,6|0,0:2|0:0,0:0:0:0:
262,106,32655,1,4,0:0:0:0:
284,253,32916,5,8,0:2:0:0:
321,228,33047,1,0,0:0:0:0:
358,202,33176,1,4,1:2:0:0:
394,179,33307,1,0,0:0:0:0:
394,179,33438,5,0,3:0:0:0:
154,56,33699,1,4,0:0:0:0:
167,325,33960,1,8,0:2:0:0:
334,25,34221,2,0,P|398:109|376:212,1,179.999995231629,6|0,0:2|0:0,0:0:0:0:
250,278,34742,1,4,1:2:0:0:
337,343,35003,5,8,0:0:0:0:
367,328,35134,2,0,P|371:262|303:197,1,89.9999976158143,0|0,0:0|1:0,0:0:0:0:
154,22,35394,2,0,P|172:133|258:168,1,179.999995231629,4|0,0:0|0:0,0:0:0:0:
315,35,35786,6,0,L|212:87,1,89.9999976158143,4|0,0:0|0:0,0:0:0:0:
32,176,36047,1,8,0:0:0:0:
37,13,36307,5,4,0:0:0:0:
213,260,36568,2,0,P|219:133|161:62,1,179.999995231629,2|4,0:0|0:0,0:0:0:0:
64,280,37090,5,8,0:0:0:0:
84,253,37221,2,0,P|59:191|-29:161,1,89.9999976158143,0|4,0:0|1:2,0:0:0:0:
0,381,37481,2,0,P|111:363|145:277,1,179.999995231629,0|0,0:0|0:0,0:0:0:0:
128,38,37873,6,0,L|151:151,1,89.9999976158143,4|0,0:0|1:0,0:0:0:0:
190,347,38134,1,8,0:0:0:0:
396,127,38394,5,4,0:0:0:0:
95,182,38655,2,0,P|195:69|346:78,1,297.000001195908,2|0,0:0|0:0,0:0:0:0:
333,325,39177,2,0,P|297:217|359:122,1,179.999995231629,8|4,0:0|0:0,0:0:0:0:
413,237,39699,5,0,0:0:0:0:
343,31,39960,1,4,0:0:0:0:
328,382,40220,5,10,0:0:0:0:
413,56,40481,1,4,0:0:0:0:
89,278,40742,6,0,P|175:193|282:200,1,179.999995231629,2|4,3:0|1:2,0:0:0:0:
485,216,41134,2,0,P|365:236|282:169,1,179.999995231629,8|0,0:0|1:0,0:0:0:0:
366,35,41525,1,4,3:2:0:0:
277,359,41786,1,0,1:0:0:0:
197,312,42047,5,0,0:0:0:0:
209,280,42178,2,0,P|274:270|345:332,1,89.9999976158143,0|0,0:0|0:0,0:0:0:0:
379,338,42438,1,0,0:0:0:0:
350,357,42568,6,0,P|290:327|268:236,1,89.9999976158143,0|0,0:0|0:0,0:0:0:0:
344,169,42829,2,0,P|375:227|341:314,1,89.9999976158143,0|0,0:0|0:0,0:0:0:0:
168,384,43090,2,0,P|175:318|253:265,1,89.9999976158143,0|0,0:0|0:0,0:0:0:0:
451,222,43351,6,0,P|423:256|308:269,1,99.0000003986359,0|0,0:0|0:0,0:0:0:0:
277,260,43612,1,0,3:0:0:0:
11,101,43742,2,0,P|173:115|262:224,1,269.999992847443,2|0,0:1|0:0,0:0:0:0:
4,365,44394,6,0,P|11:285|59:249,1,89.9999976158143,2|0,0:0|0:0,0:0:0:0:
189,217,44655,2,0,P|137:278|77:280,1,89.9999976158143,0|0,3:0|0:0,0:0:0:0:
288,55,44916,6,0,P|281:135|233:171,1,89.9999976158143,8|0,0:0|0:0,0:0:0:0:
103,202,45177,2,0,P|154:140|214:138,1,89.9999976158143,0|0,0:0|0:0,0:0:0:0:
375,140,45438,5,2,0:0:0:0:
363,172,45569,2,0,P|298:182|227:120,1,89.9999976158143,0|0,0:0|1:0,0:0:0:0:
15,153,45829,2,0,P|116:100|322:133,1,269.999992847443,2|0,0:1|0:0,0:0:0:0:
508,365,46481,6,0,P|501:285|453:249,1,89.9999976158143,2|0,0:0|0:0,0:0:0:0:
323,217,46742,2,0,P|374:278|434:280,1,89.9999976158143,0|0,3:0|0:0,0:0:0:0:
224,55,47003,6,0,P|231:135|279:171,1,89.9999976158143,8|0,0:0|0:0,0:0:0:0:
409,202,47264,2,0,P|357:140|297:138,1,89.9999976158143,0|0,0:0|0:0,0:0:0:0:
137,140,47525,5,2,0:0:0:0:
149,172,47656,2,0,P|214:182|285:120,1,89.9999976158143,0|0,0:0|0:0,0:0:0:0:
497,153,47916,2,0,P|421:113|266:138,1,179.999995231629,2|0,0:1|0:0,0:0:0:0:
158,162,48307,5,0,0:0:0:0:
156,365,48568,2,0,P|193:256|148:114,1,179.999995231629,2|0,0:0|3:0,0:0:0:0:
6,155,48960,5,0,0:0:0:0:
0,188,49091,2,0,P|51:229|143:210,1,89.9999976158143,8|0,0:0|0:0,0:0:0:0:
361,199,49351,5,0,0:0:0:0:
346,168,49482,2,0,P|280:163|167:258,1,179.999995231629,2|0,0:0|0:0,0:0:0:0:
302,358,49873,2,0,P|291:304|219:240,1,89.9999976158143,2|0,0:0|0:0,0:0:0:0:
82,276,50134,6,0,P|93:222|165:158,1,89.9999976158143,0|0,3:0|0:0,0:0:0:0:
368,212,50394,6,0,P|328:249|232:261,1,89.9999976158143,0|0,0:0|0:0,0:0:0:0:
239,19,50655,2,0,P|266:68|252:163,1,89.9999976158143,2|0,0:0|0:0,0:0:0:0:
68,144,50916,1,0,3:0:0:0:
394,150,51177,6,0,P|280:107|170:150,1,198.000000797272,8|0,0:0|0:0,0:0:0:0:
272,384,51568,2,0,P|304:266|252:160,1,179.999995231629,2|0,0:0|0:0,0:0:0:0:
89,257,51960,5,0,0:0:0:0:
426,183,52220,1,4,3:2:0:0:
355,44,52481,6,0,P|339:83|351:161,1,89.9999976158143,2|0,0:0|0:0,0:0:0:0:
445,337,52742,2,0,P|435:295|381:238,1,89.9999976158143,2|0,3:1|1:0,0:0:0:0:
147,283,53003,1,0,0:0:0:0:
175,302,53134,2,0,P|233:272|256:181,1,89.9999976158143,2|0,0:0|3:0,0:0:0:0:
381,18,53394,2,0,P|335:110|344:227,1,179.999995231629,0|0,0:0|0:0,0:0:0:0:
448,305,53786,6,0,P|435:240|352:194,1,89.9999976158143,8|0,3:1|0:0,0:0:0:0:
143,384,54047,2,0,P|207:371|253:288,1,89.9999976158143,0|0,3:0|1:0,0:0:0:0:
53,91,54307,2,0,P|65:155|148:201,1,89.9999976158143,0|0,3:0|0:0,0:0:0:0:
346,1,54568,6,0,P|374:60|334:146,1,89.9999976158143,2|0,0:0|1:0,0:0:0:0:
210,285,54829,2,0,P|220:220|302:172,1,89.9999976158143,0|0,0:0|1:0,0:0:0:0:
463,94,55090,1,0,0:0:0:0:
478,123,55221,2,0,P|435:171|341:171,1,89.9999976158143,0|0,0:0|1:0,0:0:0:0:
165,120,55481,2,0,P|229:106|344:182,1,179.999995231629,0|0,0:0|0:0,0:0:0:0:
410,292,55873,5,0,0:2:0:0:
71,46,56134,6,0,P|97:124|147:153,1,89.9999976158143,0|0,0:0|1:0,0:0:0:0:
427,124,56394,2,0,P|378:80|239:89,1,198.000000797272,10|0,3:1|1:0,0:0:0:0:
19,251,56786,2,0,P|83:260|196:176,1,198.000000797272,0|0,0:0|0:0,0:0:0:0:
478,364,57177,2,0,P|415:344|351:219,1,198.000000797272,10|0,3:1|1:0,0:0:0:0:
298,0,57568,2,0,P|337:51|311:207,1,224.999994039536,0|0,0:0|0:0,0:0:0:0:
34,370,57960,2,0,P|30:304|260:241,1,270.000003147125,14|0,3:1|0:0,0:0:0:0:
208,219,58742,6,0,L|222:163,2,44.9999988079071,0|0|0,1:0|1:0|1:0,0:0:0:0:
101,319,59525,1,0,0:0:0:0:
121,346,59656,2,0,P|184:332|230:250,1,89.9999976158143,2|0,1:0|1:0,0:0:0:0:
197,81,59916,2,0,P|153:128|171:265,1,179.999995231629,2|0,0:0|1:0,0:0:0:0:
354,371,60307,2,0,P|362:307|301:236,1,89.9999976158143,0|0,1:0|0:0,0:0:0:0:
87,169,60568,6,0,P|226:178|268:120,1,179.999995231629,6|4,3:3|1:2,0:0:0:0:
290,42,60960,2,0,P|281:180|340:222,1,179.999995231629,2|0,3:2|1:0,0:0:0:0:
398,273,61351,2,0,P|260:264|218:322,1,179.999995231629,6|2,3:2|3:2,0:0:0:0:
176,338,61742,5,0,0:0:0:0:
212,349,61873,1,4,0:2:0:0:
255,334,62003,2,0,P|263:281|239:214,1,89.9999976158143,0|8,0:0|1:2,0:0:0:0:
73,44,62264,1,0,0:0:0:0:
46,80,62394,2,0,P|69:128|127:169,1,89.9999976158143,4|0,0:0|1:0,0:0:0:0:
287,52,62655,6,0,P|329:105|304:261,1,179.999995231629,2|4,3:2|1:2,0:0:0:0:
131,338,63047,2,0,P|126:269|232:154,1,179.999995231629,2|0,3:2|1:0,0:0:0:0:
512,235,63438,2,0,P|458:192|264:241,1,269.999992847443,6|0,3:2|1:0,0:0:0:0:
131,338,63960,6,0,P|91:290|86:228,1,89.9999976158143,4|0,0:0|3:0,0:0:0:0:
194,65,64221,1,8,0:2:0:0:
217,103,64351,2,0,P|189:148|128:184,1,89.9999976158143,0|4,0:0|1:2,0:0:0:0:
0,384,64612,2,0,P|2:314|142:208,1,179.999995231629,2|0,3:2|0:0,0:0:0:0:
218,238,65003,2,0,P|225:185|201:118,1,89.9999976158143,4|0,0:0|1:0,0:0:0:0:
34,72,65264,2,0,P|58:119|115:161,1,89.9999976158143,8|0,0:2|0:0,0:0:0:0:
289,68,65525,2,0,P|240:43|169:43,1,89.9999976158143,6|0,0:0|0:0,0:0:0:0:
45,262,65786,5,0,3:2:0:0:
11,233,65917,1,0,0:0:0:0:
8,189,66047,2,0,P|50:155|120:142,1,89.9999976158143,4|0,0:0|1:0,0:0:0:0:
248,270,66307,2,0,P|213:228|200:158,1,89.9999976158143,8|0,0:2|0:0,0:0:0:0:
366,36,66568,2,0,P|369:89|339:154,1,89.9999976158143,6|0,0:0|0:0,0:0:0:0:
297,185,66829,5,0,3:2:0:0:
129,54,67090,2,0,P|129:107|165:169,1,89.9999976158143,6|0,0:0|1:0,0:0:0:0:
303,329,67351,2,0,P|301:274|266:213,1,89.9999976158143,8|0,0:2|0:0,0:0:0:0:
214,192,67612,1,6,0:0:0:0:
214,192,67873,5,0,0:0:0:0:
223,159,68004,2,0,P|287:150|358:211,1,89.9999976158143,2|0,1:1|1:0,0:0:0:0:
386,382,68264,2,0,P|329:351|299:216,1,179.999995231629,2|0,0:0|1:0,0:0:0:0:
434,56,68655,2,0,P|464:113|430:200,1,89.9999976158143,0|0,1:0|0:0,0:0:0:0:
264,332,68916,6,0,P|384:279|439:318,1,179.999995231629,6|4,3:3|0:0,0:0:0:0:
484,379,69308,2,0,P|431:260|470:205,1,179.999995231629,2|0,3:2|0:0,0:0:0:0:
505,140,69699,2,0,P|387:192|330:153,1,179.999995231629,6|0,3:2|3:0,0:0:0:0:
194,41,70090,5,0,0:0:0:0:
228,26,70221,1,4,0:2:0:0:
273,38,70351,2,0,P|285:90|267:158,1,89.9999976158143,0|8,0:0|1:2,0:0:0:0:
175,350,70612,1,0,0:0:0:0:
144,317,70742,2,0,P|162:267|216:221,1,89.9999976158143,4|0,0:0|1:0,0:0:0:0:
392,272,71003,6,0,P|402:204|303:82,1,179.999995231629,2|4,3:2|0:0,0:0:0:0:
103,152,71394,2,0,P|144:97|300:80,1,179.999995231629,2|0,3:0|0:0,0:0:0:0:
280,299,71786,2,0,P|214:320|42:223,1,269.999992847443,6|0,3:2|0:0,0:0:0:0:
11,70,72307,6,0,P|0:130|27:187,1,89.9999976158143,4|0,0:0|3:0,0:0:0:0:
178,264,72567,1,8,0:2:0:0:
186,219,72698,2,0,P|144:185|74:172,1,89.9999976158143,0|4,0:0|1:2,0:0:0:0:
4,384,72960,2,0,P|72:388|190:256,1,179.999995231629,2|0,3:2|0:0,0:0:0:0:
285,41,73351,2,0,P|251:82|238:152,1,89.9999976158143,4|0,0:0|1:0,0:0:0:0:
442,302,73612,2,0,P|446:248|416:184,1,89.9999976158143,8|0,0:2|0:0,0:0:0:0:
155,135,73873,2,0,P|181:180|243:217,1,89.9999976158143,6|0,0:0|0:0,0:0:0:0:
473,111,74134,5,0,3:0:0:0:
463,74,74264,1,0,0:0:0:0:
429,44,74395,2,0,P|378:63|332:117,1,89.9999976158143,6|0,0:0|1:0,0:0:0:0:
407,384,74655,2,0,P|437:339|444:268,1,89.9999976158143,8|0,0:2|0:0,0:0:0:0:
312,159,74916,2,0,P|312:213|347:275,1,89.9999976158143,6|0,0:0|0:0,0:0:0:0:
397,187,75177,1,0,3:0:0:0:
283,78,75438,5,6,0:0:0:0:
452,243,75699,2,0,P|465:190|446:122,1,89.9999976158143,8|0,0:2|1:0,0:0:0:0:
196,65,75960,2,0,P|215:115|269:160,1,89.9999976158143,6|0,0:0|0:0,0:0:0:0:
334,215,76220,5,0,0:0:0:0:
336,253,76351,2,0,P|302:287|263:297,1,67.5000007867814,2|0,0:1|0:0,0:0:0:0:
118,182,76612,2,0,P|165:180|236:236,1,135.000001573563,2|0,0:0|0:0,0:0:0:0:
231,362,77003,2,0,P|190:335|175:297,1,67.5000007867814,0|0,0:0|0:0,0:0:0:0:
156,270,77264,6,0,L|198:225,1,44.9999988079071,2|0,0:0|1:0,0:0:0:0:
344,224,77786,2,0,L|284:210,1,44.9999988079071,2|0,0:0|1:0,0:0:0:0:
210,84,78307,2,0,L|227:142,1,44.9999988079071,2|0,0:0|1:0,0:0:0:0:
247,209,78829,5,0,0:0:0:0:
295,225,78959,1,0,0:0:0:0:
345,221,79089,1,0,0:0:0:0:
390,198,79220,1,0,0:0:0:0:
458,139,79351,6,0,P|394:115|347:119,1,67.5000007867814,2|0,0:0|1:0,0:0:0:0:
306,20,79612,2,0,P|281:84|364:219,1,202.500002360344,0|0,0:0|1:0,0:0:0:0:
469,211,80134,6,0,P|466:244|456:276,1,67.5000007867814,2|0,0:0|1:0,0:0:0:0:
354,384,80395,2,0,P|314:328|358:175,1,202.500002360344,0|0,0:0|1:0,0:0:0:0:
435,184,80916,5,0,0:0:0:0:
397,218,81047,1,0,0:0:0:0:
350,235,81177,1,0,0:0:0:0:
301,232,81307,1,0,0:0:0:0:
251,203,81438,6,0,L|296:161,1,44.9999988079071,2|0,0:0|1:0,0:0:0:0:
437,149,81960,2,0,L|378:131,1,44.9999988079071,2|0,0:0|1:0,0:0:0:0:
297,15,82481,2,0,L|310:74,1,44.9999988079071,2|0,0:0|1:0,0:0:0:0:
251,203,82873,5,0,0:0:0:0:
209,229,83003,1,0,0:0:0:0:
160,238,83133,1,0,0:0:0:0:
110,228,83264,1,0,0:0:0:0:
67,200,83394,1,0,0:0:0:0:
44,114,83525,6,0,P|111:125|150:152,1,67.5000007867814,2|0,0:0|1:0,0:0:0:0:
163,362,83786,2,0,P|105:323|92:166,1,202.500002360344,0|0,0:0|1:0,0:0:0:0:
109,124,84307,5,2,0:1:0:0:
111,13,84829,5,0,0:0:0:0:
79,33,84960,1,0,0:0:0:0:
63,76,85090,2,0,P|98:116|165:141,1,67.5000007867814,0|0,0:0|1:0,0:0:0:0:
256,197,85351,1,0,0:0:0:0:
269,162,85482,1,0,0:0:0:0:
258,117,85612,2,0,P|205:104|136:122,1,67.5000007867814,0|0,3:0|1:0,0:0:0:0:
48,163,85873,1,0,0:0:0:0:
56,199,86004,1,0,0:0:0:0:
90,229,86134,2,0,P|140:210|186:156,1,67.5000007867814,8|0,0:0|1:0,0:0:0:0:
184,79,86394,6,0,P|235:97|282:150,1,67.5000007867814,0|0,0:0|1:0,0:0:0:0:
281,261,86655,2,0,P|249:217|241:146,1,67.5000007867814,0|0,3:0|0:0,0:0:0:0:
246,105,86916,5,0,0:0:0:0:
280,87,87047,1,0,0:0:0:0:
325,95,87177,2,0,P|343:145|331:216,1,67.5000007867814,8|0,0:0|0:0,0:0:0:0:
300,298,87438,2,0,P|315:246|366:195,1,67.5000007867814,0|0,0:0|0:0,0:0:0:0:
413,201,87699,1,0,3:0:0:0:
320,94,87960,5,0,0:0:0:0:
280,87,88091,1,0,0:0:0:0:
241,107,88221,2,0,P|237:159|270:224,1,67.5000007867814,8|0,0:0|1:0,0:0:0:0:
323,292,88482,2,0,P|293:246|229:212,1,67.5000007867814,0|0,0:0|1:0,0:0:0:0:
186,232,88743,1,0,3:0:0:0:
65,265,89003,6,0,P|83:215|136:167,1,67.5000007867814,0|0,0:0|0:0,0:0:0:0:
201,83,89264,1,8,0:0:0:0:
226,111,89395,1,0,0:0:0:0:
232,157,89525,2,0,P|187:188|116:196,1,67.5000007867814,0|0,0:0|1:0,0:0:0:0:
60,123,89786,6,0,P|112:123|175:159,1,67.5000007867814,0|0,3:0|1:0,0:0:0:0:
224,259,90047,1,0,0:0:0:0:
183,280,90177,2,0,P|138:248|107:183,1,67.5000007867814,0|8,0:0|1:2,0:0:0:0:
185,110,90438,1,0,0:0:0:0:
227,117,90568,2,0,P|243:167|230:238,1,67.5000007867814,0|0,0:0|1:0,0:0:0:0:
122,369,90829,2,0,P|108:317|175:179,1,202.500002360344,0|0,3:0|0:0,0:0:0:0:
316,236,91351,5,8,0:0:0:0:
348,215,91482,1,0,0:0:0:0:
364,172,91612,2,0,P|329:131|262:106,1,67.5000007867814,0|0,0:0|1:0,0:0:0:0:
184,159,91873,2,0,P|236:171|305:151,1,67.5000007867814,2|0,3:0|1:0,0:0:0:0:
365,64,92134,1,0,0:0:0:0:
330,34,92264,2,0,P|279:52|233:107,1,67.5000007867814,0|0,0:0|1:0,0:0:0:0:
167,227,92525,1,0,0:0:0:0:
212,231,92655,2,0,P|242:186|249:115,1,67.5000007867814,6|0,0:2|1:0,0:0:0:0:
68,150,92916,2,0,P|87:247|164:309,1,202.500002360344,0|0,0:0|1:0,0:0:0:0:
243,277,93438,5,0,0:0:0:0:
263,303,93569,2,0,P|238:365|150:395,1,89.9999976158143,0|0,0:0|1:0,0:0:0:0:
0,290,93829,2,0,P|63:270|181:330,1,179.999995231629,4|0,0:2|1:0,0:0:0:0:
224,380,94220,6,0,P|234:336|262:302,1,89.9999976158143,4|0,0:0|1:0,0:0:0:0:
421,250,94481,2,0,P|387:279|344:291,1,89.9999976158143,8|0,0:2|0:0,0:0:0:0:
226,130,94742,2,0,P|203:168|201:213,1,89.9999976158143,4|0,0:0|1:0,0:0:0:0:
365,384,95003,2,0,P|387:280|324:196,1,179.999995231629,2|4,3:2|0:0,0:0:0:0:
216,183,95525,5,8,0:2:0:0:
188,164,95656,2,0,P|192:97|267:41,1,89.9999976158143,0|0,0:0|1:0,0:0:0:0:
442,95,95916,2,0,P|388:133|257:112,1,179.999995231629,4|0,0:0|1:0,0:0:0:0:
122,34,96307,6,0,P|114:77|127:120,1,89.9999976158143,4|0,0:0|1:0,0:0:0:0:
269,248,96568,2,0,P|249:207|214:180,1,89.9999976158143,8|0,0:2|0:0,0:0:0:0:
68,246,96829,2,0,P|106:268|151:270,1,89.9999976158143,4|0,0:0|1:0,0:0:0:0:
293,106,97090,2,0,P|189:85|106:150,1,179.999995231629,2|4,3:2|0:2,0:0:0:0:
59,146,97612,6,0,P|119:172|149:261,1,89.9999976158143,8|0,0:2|0:0,0:0:0:0:
100,342,97873,2,0,P|64:287|91:197,1,89.9999976158143,4|0,1:2|1:0,0:0:0:0:
293,138,98134,6,0,P|292:175|244:225,1,67.5000007867814,0|0,3:0|1:0,0:0:0:0:
153,267,98394,2,0,P|175:238|243:224,1,67.5000007867814,4|0,0:0|1:0,0:0:0:0:
335,329,98655,2,0,P|367:309|390:236,1,89.9999976158143,8|0,0:2|0:0,0:0:0:0:
349,102,98916,2,0,P|339:178|459:291,1,179.999995231629,6|0,0:2|3:0,0:0:0:0:
495,264,99307,6,0,L|431:264,1,44.9999988079071,0|0,1:0|1:0,0:0:0:0:
453,146,99699,6,0,P|393:172|363:261,1,89.9999976158143,8|0,0:2|0:0,0:0:0:0:
412,342,99960,2,0,P|448:287|421:197,1,89.9999976158143,4|0,1:2|0:0,0:0:0:0:
219,138,100221,6,0,P|220:175|268:225,1,67.5000007867814,0|0,3:0|0:0,0:0:0:0:
359,267,100481,2,0,P|337:238|269:224,1,67.5000007867814,4|0,0:0|0:0,0:0:0:0:
177,329,100742,2,0,P|144:309|121:236,1,89.9999976158143,8|0,0:2|0:0,0:0:0:0:
163,102,101003,2,0,P|172:178|52:291,1,179.999995231629,6|0,0:2|3:0,0:0:0:0:
17,264,101394,6,0,L|81:264,1,44.9999988079071,0|0,1:0|0:0,0:0:0:0:
168,301,101786,5,8,0:0:0:0:
199,282,101916,2,0,P|207:216|145:146,1,89.9999976158143,0|0,0:0|1:0,0:0:0:0:
65,82,102177,2,0,P|62:148|145:245,1,179.999995231629,4|0,0:0|0:0,0:0:0:0:
374,203,102568,2,0,P|308:211|257:289,1,89.9999976158143,4|0,0:0|0:0,0:0:0:0:
292,378,102829,2,0,P|340:333|342:238,1,99.0000003986359,8|0,0:0|0:0,0:0:0:0:
209,155,103090,2,0,P|194:219|250:294,1,89.9999976158143,4|0,0:0|0:0,0:0:0:0:
444,360,103351,2,0,P|447:294|351:192,1,198.000000797272,2|4,0:0|0:0,0:0:0:0:
184,108,103873,5,8,0:0:0:0:
205,77,104003,2,0,P|271:61|345:116,1,89.9999976158143,0|4,0:0|1:2,0:0:0:0:
436,275,104264,2,0,P|370:282|266:209,1,179.999995231629,0|0,0:0|0:0,0:0:0:0:
355,7,104655,2,0,P|382:67|340:150,1,89.9999976158143,4|0,0:0|1:0,0:0:0:0:
227,287,104916,2,0,P|239:221|321:177,1,89.9999976158143,8|0,0:0|0:0,0:0:0:0:
461,134,105177,2,0,P|413:180|320:169,1,89.9999976158143,4|0,0:0|0:0,0:0:0:0:
89,179,105438,2,0,P|152:159|274:242,1,179.999995231629,2|4,0:0|0:0,0:0:0:0:
167,262,105960,6,0,P|195:296|235:314,1,89.9999976158143,8|0,0:0|0:0,0:0:0:0:
339,194,106221,2,0,P|272:194|211:265,1,89.9999976158143,4|0,0:0|0:0,0:0:0:0:
319,355,106481,6,0,P|318:289|248:226,1,89.9999976158143,0|0,3:0|0:0,0:0:0:0:
194,106,106742,2,0,P|169:167|211:251,1,89.9999976158143,4|0,0:0|0:0,0:0:0:0:
469,215,107003,6,0,P|433:159|340:145,1,89.9999976158143,10|0,0:0|0:0,0:0:0:0:
249,169,107264,2,8,P|310:192|394:151,1,89.9999976158143,4|0,0:0|0:0,0:0:0:0:
486,14,107525,2,0,P|421:28|367:147,1,179.999995231629,2|4,3:0|1:2,0:0:0:0:
185,383,107916,2,0,P|229:333|206:205,1,179.999995231629,8|0,0:0|1:0,0:0:0:0:
0,0,108307,5,4,3:2:0:0:
512,384,108568,2,0,P|525:319|480:245,1,89.9999976158143,12|0,1:2|0:0,0:0:0:0:
332,275,108829,5,0,0:0:0:0:
313,247,108960,2,0,P|342:188|433:165,1,89.9999976158143,0|0,0:0|0:0,0:0:0:0:
458,141,109220,1,0,0:0:0:0:
457,176,109350,6,0,P|398:207|310:173,1,89.9999976158143,0|0,0:0|0:0,0:0:0:0:
299,73,109611,2,0,P|364:80|416:158,1,89.9999976158143,0|0,0:0|0:0,0:0:0:0:
350,304,109873,2,0,P|299:261|300:166,1,89.9999976158143,0|0,0:0|0:0,0:0:0:0:
451,162,110134,6,0,P|423:128|308:115,1,99.0000003986359,0|0,0:0|0:0,0:0:0:0:
277,124,110394,1,0,3:0:0:0:
11,283,110524,2,0,P|173:269|262:160,1,269.999992847443,2|0,0:1|0:0,0:0:0:0:
79,20,111177,6,0,P|85:86|163:139,1,89.9999976158143,2|0,0:0|0:0,0:0:0:0:
414,158,111438,2,0,P|371:107|276:108,1,89.9999976158143,0|0,3:0|0:0,0:0:0:0:
44,186,111699,2,0,P|108:202|184:147,1,89.9999976158143,8|0,0:0|0:0,0:0:0:0:
357,9,111960,2,0,P|294:31|263:120,1,89.9999976158143,0|0,0:0|0:0,0:0:0:0:
285,293,112220,5,2,0:0:0:0:
316,282,112351,2,0,P|330:216|275:141,1,89.9999976158143,0|0,0:0|1:0,0:0:0:0:
2,136,112612,2,0,P|27:197|241:294,1,269.999992847443,2|0,0:1|0:0,0:0:0:0:
433,20,113264,6,0,P|427:86|349:139,1,89.9999976158143,2|0,0:0|0:0,0:0:0:0:
98,158,113525,2,0,P|141:107|236:108,1,89.9999976158143,0|0,3:0|0:0,0:0:0:0:
468,186,113786,2,0,P|404:202|328:147,1,89.9999976158143,8|0,0:0|0:0,0:0:0:0:
155,9,114047,2,0,P|218:31|249:120,1,89.9999976158143,0|0,0:0|0:0,0:0:0:0:
227,293,114307,5,2,0:0:0:0:
196,282,114438,2,0,P|182:216|237:141,1,89.9999976158143,0|0,0:0|0:0,0:0:0:0:
510,136,114699,2,0,P|484:197|332:294,1,179.999995231629,2|0,0:1|0:0,0:0:0:0:
141,71,115090,6,0,P|128:101|151:189,1,89.9999976158143,0|0,0:0|0:0,0:0:0:0:
332,339,115351,2,0,P|322:306|187:230,1,179.999995231629,2|0,0:0|3:0,0:0:0:0:
64,281,115743,5,0,0:0:0:0:
84,309,115874,2,0,P|149:301|199:221,1,89.9999976158143,8|0,0:0|0:0,0:0:0:0:
25,57,116134,1,0,0:0:0:0:
0,85,116265,2,0,P|17:147|144:222,1,179.999995231629,2|0,0:0|0:0,0:0:0:0:
307,177,116655,2,0,P|323:218|324:263,1,89.9999976158143,2|0,0:0|0:0,0:0:0:0:
256,384,116916,5,0,3:0:0:0:
509,271,117176,6,0,P|479:224|390:188,1,89.9999976158143,0|0,0:0|0:0,0:0:0:0:
410,51,117438,2,0,P|363:80|326:170,1,89.9999976158143,2|0,0:0|0:0,0:0:0:0:
393,382,117699,2,0,P|414:330|392:236,1,89.9999976158143,0|0,3:0|1:0,0:0:0:0:
128,326,117960,6,0,P|247:346|347:282,1,198.000000797272,8|0,0:0|0:0,0:0:0:0:
205,62,118351,2,0,P|184:181|248:281,1,198.000000797272,2|0,0:0|0:0,0:0:0:0:
423,109,118742,5,0,0:0:0:0:
86,183,119003,1,4,3:2:0:0:
157,44,119264,6,0,P|173:83|161:161,1,89.9999976158143,2|0,0:0|0:0,0:0:0:0:
66,338,119525,2,0,P|76:296|130:239,1,89.9999976158143,2|0,3:1|1:0,0:0:0:0:
365,283,119786,1,0,0:0:0:0:
337,302,119917,2,0,P|279:272|256:181,1,89.9999976158143,2|0,0:0|3:0,0:0:0:0:
131,18,120177,2,0,P|177:110|168:227,1,179.999995231629,0|0,0:0|0:0,0:0:0:0:
64,305,120568,6,0,P|77:240|160:194,1,89.9999976158143,8|0,3:1|0:0,0:0:0:0:
369,384,120829,2,0,P|305:371|259:288,1,89.9999976158143,0|0,3:0|1:0,0:0:0:0:
459,91,121089,2,0,P|447:155|364:201,1,89.9999976158143,0|0,3:0|0:0,0:0:0:0:
166,1,121350,6,0,P|138:60|178:146,1,89.9999976158143,2|0,0:0|1:0,0:0:0:0:
302,285,121611,2,0,P|292:220|210:172,1,89.9999976158143,0|0,0:0|1:0,0:0:0:0:
49,94,121872,1,0,0:0:0:0:
34,123,122003,2,0,P|77:171|171:171,1,89.9999976158143,0|0,0:0|1:0,0:0:0:0:
347,120,122264,2,0,P|283:106|168:182,1,179.999995231629,0|0,0:0|0:0,0:0:0:0:
104,285,122656,5,0,0:2:0:0:
383,171,122917,6,0,P|321:225|263:225,1,89.9999976158143,0|0,0:0|1:0,0:0:0:0:
158,4,123177,2,0,P|220:25|285:149,1,198.000000797272,10|0,3:1|1:0,0:0:0:0:
174,379,123569,2,0,P|134:329|152:190,1,198.000000797272,0|0,0:0|0:0,0:0:0:0:
473,259,123960,2,0,P|453:196|326:132,1,198.000000797272,10|0,3:1|1:0,0:0:0:0:
59,258,124352,2,0,P|112:292|284:258,1,224.999994039536
461,0,124742,2,0,P|398:25|435:251,1,270.000003147125,14|0,3:1|0:0,0:0:0:0:
427,212,125525,6,0,L|413:156,2,44.9999988079071,0|0|0,1:0|1:0|1:0,0:0:0:0:
233,271,126308,1,0,0:0:0:0:
205,250,126438,2,0,P|218:186|300:140,1,89.9999976158143,2|0,1:1|1:0,0:0:0:0:
471,174,126699,2,0,P|424:217|286:199,1,179.999995231629,2|0,0:0|1:0,0:0:0:0:
194,90,127090,2,0,P|257:81|328:142,1,89.9999976158143,0|0,1:0|0:0,0:0:0:0:
275,343,127351,6,0,P|230:210|274:154,1,179.999995231629,6|4,3:3|1:2,0:0:0:0:
344,111,127743,2,0,P|212:154|157:108,1,179.999995231629,2|0,3:2|1:0,0:0:0:0:
94,67,128134,2,0,P|138:197|93:252,1,179.999995231629,6|2,3:2|3:2,0:0:0:0:
53,275,128525,5,0,0:0:0:0:
53,234,128656,1,4,0:0:0:0:
77,195,128786,2,0,P|130:199|189:241,1,89.9999976158143,0|8,0:0|1:2,0:0:0:0:
374,363,129047,1,0,0:0:0:0:
330,380,129177,2,0,P|288:345|264:277,1,89.9999976158143,4|0,0:0|1:0,0:0:0:0:
496,154,129438,6,0,P|454:99|297:84,1,179.999995231629,2|4,3:2|1:2,0:0:0:0:
78,254,129829,2,0,P|36:199|64:44,1,179.999995231629,2|0,3:2|1:0,0:0:0:0:
390,169,130220,2,0,P|334:205|124:137,1,297.000001195908,6|0,3:2|0:0,0:0:0:0:
111,61,130743,6,0,P|115:122|157:169,1,89.9999976158143,4|0,0:0|3:0,0:0:0:0:
364,288,131003,1,8,0:2:0:0:
360,242,131134,2,0,P|311:220|240:225,1,89.9999976158143,0|4,0:0|1:2,0:0:0:0:
119,352,131394,2,0,P|188:356|307:225,1,179.999995231629,2|0,3:2|0:0,0:0:0:0:
246,80,131786,2,0,P|213:121|200:191,1,89.9999976158143,4|0,0:0|1:0,0:0:0:0:
374,324,132047,2,0,P|363:271|318:216,1,89.9999976158143,8|0,0:2|0:0,0:0:0:0:
140,242,132307,2,0,P|115:193|115:122,1,89.9999976158143,6|0,0:0|0:0,0:0:0:0:
277,28,132568,5,0,3:2:0:0:
313,33,132700,1,0,0:0:0:0:
343,67,132830,2,0,P|327:118|275:167,1,89.9999976158143,4|0,0:0|1:0,0:0:0:0:
110,158,133090,2,0,P|121:210|168:264,1,89.9999976158143,8|0,0:2|0:0,0:0:0:0:
417,296,133351,2,0,P|377:259|308:242,1,89.9999976158143,6|0,0:0|0:0,0:0:0:0:
214,284,133612,5,0,3:2:0:0:
305,42,133873,2,0,P|305:95|269:157,1,89.9999976158143,6|0,0:0|1:0,0:0:0:0:
131,317,134134,2,0,P|133:262|168:201,1,89.9999976158143,8|0,0:2|0:0,0:0:0:0:
220,180,134395,1,6,0:2:0:0:
115,128,134655,5,0,0:0:0:0:
96,85,134787,2,0,P|125:27|216:3,1,89.9999976158143,2|0,1:1|1:0,0:0:0:0:
384,223,135047,2,0,P|320:235|210:151,1,179.999995231629,2|0,0:0|1:0,0:0:0:0:
193,91,135438,2,0,P|257:98|309:176,1,89.9999976158143,0|0,1:0|0:0,0:0:0:0:
479,258,135699,6,0,P|406:149|435:88,1,179.999995231629,6|4,3:3|0:0,0:0:0:0:
487,33,136091,2,0,P|379:105|318:76,1,179.999995231629,2|0,3:2|0:0,0:0:0:0:
248,54,136482,2,0,P|320:161|292:223,1,179.999995231629,6|0,3:2|3:0,0:0:0:0:
179,198,136872,5,0,0:0:0:0:
149,221,137003,1,4,0:0:0:0:
132,263,137133,2,0,P|168:301|236:324,1,89.9999976158143,0|8,0:0|1:2,0:0:0:0:
357,311,137394,1,0,0:0:0:0:
346,266,137524,2,0,P|293:255|225:275,1,89.9999976158143,4|0,0:0|1:0,0:0:0:0:
108,384,137786,6,0,P|59:336|62:179,1,179.999995231629,2|4,3:2|0:0,0:0:0:0:
221,91,138177,2,0,P|233:158|141:284,1,179.999995231629,2|0,3:0|0:0,0:0:0:0:
4,102,138569,2,0,P|20:168|202:253,1,269.999992847443,6|0,3:2|0:0,0:0:0:0:
374,147,139090,6,0,P|317:167|280:218,1,89.9999976158143,4|0,0:0|3:0,0:0:0:0:
259,354,139350,1,8,0:2:0:0:
303,360,139481,2,0,P|334:315|343:245,1,89.9999976158143,0|4,0:0|1:2,0:0:0:0:
226,33,139743,2,0,P|229:102|374:205,1,179.999995231629,2|0,3:0|0:0,0:0:0:0:
508,147,140134,6,0,P|459:127|388:135,1,89.9999976158143,4|0,0:0|1:0,0:0:0:0:
343,281,140394,2,0,P|394:268|447:221,1,89.9999976158143,8|0,0:2|0:0,0:0:0:0:
389,45,140655,2,0,P|353:84|337:153,1,89.9999976158143,6|0,0:0|0:0,0:0:0:0:
286,360,140917,5,0,3:0:0:0:
252,379,141047,1,0,0:0:0:0:
207,376,141178,2,0,P|184:326|190:255,1,89.9999976158143,6|0,0:0|1:0,0:0:0:0:
399,114,141438,2,0,P|388:167|343:222,1,89.9999976158143,8|0,0:2|0:0,0:0:0:0:
97,250,141699,2,0,P|135:211|203:192,1,89.9999976158143,6|0,0:0|0:0,0:0:0:0:
454,269,141960,5,0,3:0:0:0:
217,164,142220,2,0,L|235:211,1,44.9999988079071,4|0,0:0|1:0,0:0:0:0:
256,288,142612,5,0,0:0:0:0:
352,128,142742,1,4,3:2:0:0:
160,237,143003,5,2,3:1:0:0:
351,237,143177,5,2,3:1:0:0:
256,71,143351,5,2,3:1:0:0:
157,98,143525,6,0,P|161:21|190:-11,1,67.5000007867814,2|0,3:1|1:0,0:0:0:0:
355,31,143786,2,0,P|350:107|321:140,1,67.5000007867814,0|0,0:0|1:0,0:0:0:0:
255,288,144047,2,0,P|237:226|263:152,1,135.000001573563,2|0,0:0|1:0,0:0:0:0:
373,219,144438,2,0,L|321:191,1,44.9999988079071,2|0,0:0|1:0,0:0:0:0:
256,160,144829,1,0,0:0:0:0:
256,288,145090,6,0,P|275:226|249:152,1,135.000001573563,2|0,0:0|1:0,0:0:0:0:
139,219,145481,2,0,L|191:191,1,44.9999988079071,2|0,0:0|1:0,0:0:0:0:
256,160,145872,1,0,0:0:0:0:
112,54,146134,2,0,P|96:141|138:218,1,179.999995231629,2|0,1:2|1:0,0:0:0:0:
280,189,147699,6,0,P|295:265|274:304,1,67.5000007867814,0|0,0:0|1:0,0:0:0:0:
392,286,147960,2,0,P|333:336|289:338,1,67.5000007867814,0|0,0:0|1:0,0:0:0:0:
232,381,148220,2,0,P|193:314|215:229,1,135.000001573563,0|0,0:0|1:0,0:0:0:0:
338,133,148612,2,0,P|332:210|264:268,1,135.000001573563,0|0,0:0|1:0,0:0:0:0:
119,104,149003,2,0,P|119:148|137:189,1,89.9999976158143,0|0,0:0|1:0,0:0:0:0:
338,133,149264,6,0,P|264:112|187:156,1,135.000001573563,0|0,0:0|1:0,0:0:0:0:
124,284,149656,2,0,P|197:260|235:179,1,135.000001573563,0|0,0:0|1:0,0:0:0:0:
211,131,150047,2,0,P|201:87|211:43,1,89.9999976158143,0|0,0:0|1:0,0:0:0:0:
351,29,150307,6,0,P|333:70|300:100,1,89.9999976158143,0|0,0:0|0:0,0:0:0:0:
211,131,150568,1,0,0:0:0:0:
122,103,150699,2,0,P|120:147|137:189,1,89.9999976158143,0|0,0:0|1:0,0:0:0:0:
256,259,151090,6,0,L|256:192,1,67.4999982118607,0|0,0:0|1:0,0:0:0:0:
355,256,151612,6,0,P|369:225|356:149,1,67.5000007867814,0|0,0:0|1:0,0:0:0:0:
256,192,151873,1,0,0:0:0:0:
140,192,152003,2,0,P|152:160|214:115,1,67.5000007867814,4|0,0:0|1:0,0:0:0:0:
401,29,152264,6,0,P|435:140|393:227,1,179.999995231629,2|0,1:2|1:0,0:0:0:0:
209,306,152655,2,0,P|226:250|259:217,1,89.9999976158143,0|0,0:0|1:0,0:0:0:0:
466,269,152916,2,0,P|411:290|365:287,1,67.5000007867814,2|0,3:0|1:0,0:0:0:0:
239,139,153177,2,0,P|295:152|337:189,1,89.9999976158143,0|0,0:0|0:0,0:0:0:0:
222,384,153438,2,0,P|172:352|128:204,1,198.000000797272,2|0,3:2|1:2,0:0:0:0:
51,355,153960,5,2,3:0:0:0:
91,360,154090,2,0,P|121:327|136:271,1,89.9999976158143,0|0,0:0|1:0,0:0:0:0:
43,20,154351,2,0,P|36:63|106:195,1,179.999995231629,6|0,0:0|1:0,0:0:0:0:
376,266,154742,2,0,P|354:239|300:212,1,89.9999976158143,0|0,3:0|0:0,0:0:0:0:
135,284,155003,2,0,P|198:303|254:290,1,89.9999976158143,0|0,3:0|1:0,0:0:0:0:
294,124,155264,2,0,P|261:135|218:176,1,89.9999976158143,0|0,3:0|1:0,0:0:0:0:
425,338,155525,2,0,P|444:310|456:251,1,89.9999976158143,4|0,1:2|1:0,0:0:0:0:
346,83,155786,5,0,3:0:0:0:
407,16,156047,6,0,P|431:56|433:110,1,89.9999976158143,0|0,1:0|1:0,0:0:0:0:
215,265,156307,2,0,P|218:218|247:173,1,89.9999976158143,0|0,0:0|1:0,0:0:0:0:
512,171,156568,2,0,P|482:207|346:240,1,179.999995231629,2|0,3:1|1:0,0:0:0:0:
16,62,156960,2,0,P|61:49|191:101,1,179.999995231629,2|0,3:1|1:0,0:0:0:0:
260,332,157351,1,0,0:0:0:0:
512,213,157612,6,0,P|482:176|346:144,1,179.999995231629,2|0,3:1|1:0,0:0:0:0:
18,325,158004,2,0,P|63:338|193:286,1,179.999995231629,2|0,0:1|1:0,0:0:0:0:
214,15,158394,2,0,P|186:34|158:89,1,89.9999976158143,4|0,1:2|1:0,0:0:0:0:
260,332,158655,2,0,P|267:301|253:146,1,179.999995231629,8|0,3:3|1:0,0:0:0:0:
256,192,159047,12,0,160742,1:0:0:0:
189,241,161003,6,0,L|168:192,2,44.9999988079071,0|0|0,1:0|1:0|1:0,0:0:0:0:
150,346,161786,1,0,0:0:0:0:
123,326,161917,2,0,P|137:263|219:217,1,89.9999976158143,2|0,1:1|0:0,0:0:0:0:
388,250,162177,2,0,P|341:294|204:276,1,179.999995231629,2|0,0:0|1:0,0:0:0:0:
60,55,162568,2,0,P|118:85|141:175,1,89.9999976158143,0|0,1:0|0:0,0:0:0:0:
279,360,162829,6,0,P|269:201|335:153,1,224.999994039536,6|4,3:3|1:2,0:0:0:0:
407,157,163221,2,0,P|199:170|136:81,1,224.999994039536,2|0,3:2|1:0,0:0:0:0:
175,49,163612,2,0,P|188:234|110:290,1,224.999994039536,6|2,3:2|3:2,0:0:0:0:
80,332,164003,5,0,0:0:0:0:
69,296,164134,1,4,0:0:0:0:
84,253,164264,2,0,P|137:244|204:269,1,112.499997019768,0|8,0:0|0:2,0:0:0:0:
433,344,164525,1,0,0:0:0:0:
397,370,164655,2,0,P|349:346|308:288,1,112.499997019768,4|0,0:0|0:0,0:0:0:0:
391,25,164916,2,0,P|417:72|418:143,1,112.499997019768,2|0,3:2|1:0,0:0:0:0:
217,270,165177,2,0,P|223:216|264:158,1,112.499997019768,4|2,0:2|3:2,0:0:0:0:
502,217,165438,2,0,P|467:257|400:281,1,112.499997019768,8|0,0:2|1:0,0:0:0:0:
40,195,165699,2,0,P|93:182|295:354,1,337.499991059303,6|0,3:2|1:0,0:0:0:0:
418,384,166220,6,0,P|386:340|321:310,1,112.499997019768,4|0,0:0|3:0,0:0:0:0:
91,276,166481,1,8,0:2:0:0:
98,319,166611,2,0,P|148:336|218:324,1,112.499997019768,0|4,0:0|1:2,0:0:0:0:
512,63,166873,2,0,P|464:37|292:79,1,224.999994039536,2|0,3:2|0:0,0:0:0:0:
125,287,167264,2,0,P|178:281|236:240,1,112.499997019768,4|0,0:0|0:0,0:0:0:0:
373,85,167525,2,0,P|332:120|308:187,1,112.499997019768,8|0,0:2|0:0,0:0:0:0:
379,384,167786,2,0,P|391:331|373:263,1,112.499997019768,6|0,0:0|1:0,0:0:0:0:
116,88,168046,5,0,3:2:0:0:
105,124,168177,1,0,0:0:0:0:
120,167,168307,2,0,P|173:175|240:151,1,112.499997019768,4|0,0:0|1:0,0:0:0:0:
462,0,168568,2,0,P|413:23|372:81,1,112.499997019768,8|0,0:2|0:0,0:0:0:0:
368,295,168829,2,0,P|393:247|394:176,1,112.499997019768,6|0,0:0|0:0,0:0:0:0:
208,266,169090,2,0,P|261:260|319:219,1,112.499997019768,0|0,3:2|0:0,0:0:0:0:
40,74,169351,6,0,P|45:127|86:185,1,112.499997019768,6|0,0:0|1:0,0:0:0:0:
310,228,169612,2,0,P|274:187|92:168,1,224.999994039536,8|6,0:2|0:0,0:0:0:0:
176,60,170134,5,0,0:0:0:0:
203,80,170265,2,0,P|189:143|107:189,1,89.9999976158143,2|0,0:1|1:0,0:0:0:0:
0,282,170525,2,0,P|47:238|184:256,1,179.999995231629,2|0,0:0|1:0,0:0:0:0:
288,381,170916,2,0,P|230:351|207:261,1,89.9999976158143,0|0,1:0|0:0,0:0:0:0:
151,10,171177,6,0,P|162:169|95:217,1,224.999994039536,6|4,3:3|0:0,0:0:0:0:
24,213,171569,2,0,P|232:200|295:289,1,224.999994039536,2|0,3:2|0:0,0:0:0:0:
256,321,171960,2,0,P|243:136|321:80,1,224.999994039536,6|0,3:2|3:0,0:0:0:0:
474,93,172351,5,0,0:0:0:0:
475,131,172482,1,4,0:0:0:0:
449,169,172612,2,0,P|395:164|337:123,1,112.499997019768,0|8,1:0|0:2,0:0:0:0:
134,45,172873,1,0,0:0:0:0:
175,29,173003,2,0,P|215:65|240:132,1,112.499997019768,4|0,0:0|0:0,0:0:0:0:
24,379,173264,6,0,P|25:325|173:201,1,224.999994039536,2|4,3:2|0:2,0:0:0:0:
366,384,173655,2,0,P|410:351|426:160,1,224.999994039536,2|0,3:2|1:0,0:0:0:0:
331,0,174047,2,0,P|295:39|361:281,1,337.499991059303,6|0,3:2|0:0,0:0:0:0:
472,336,174568,6,0,P|462:284|416:229,1,112.499997019768,4|0,0:0|3:0,0:0:0:0:
212,122,174829,1,8,0:2:0:0:
200,164,174959,2,0,P|239:202|307:220,1,112.499997019768,0|4,0:0|1:2,0:0:0:0:
512,0,175220,2,0,P|460:-8|321:102,1,224.999994039536,2|0,3:0|0:0,0:0:0:0:
219,327,175612,2,0,P|267:304|310:163,1,112.499997019768,4|0,0:0|1:0,0:0:0:0:
167,33,175873,2,0,P|141:80|187:220,1,112.499997019768,8|0,0:2|0:0,0:0:0:0:
386,222,176134,2,0,P|381:170|264:81,1,112.499997019768,6|0,0:0|0:0,0:0:0:0:
99,47,176394,5,0,3:0:0:0:
88,84,176525,1,0,0:0:0:0:
103,127,176655,2,0,P|156:136|223:111,1,112.499997019768,6|0,0:0|1:0,0:0:0:0:
452,37,176916,1,8,0:2:0:0:
416,10,177046,2,0,P|368:35|327:93,1,112.499997019768,0|6,0:0|0:0,0:0:0:0:
249,255,177307,1,0,0:0:0:0:
294,257,177437,2,0,P|320:210|320:139,1,112.499997019768,0|0,3:0|0:0,0:0:0:0:
429,182,177699,6,0,P|381:156|310:156,1,112.499997019768,6|0,0:0|1:0,0:0:0:0:
78,342,177960,2,0,P|131:335|189:295,1,112.499997019768,8|0,0:2|0:0,0:0:0:0:
319,26,178220,2,0,P|278:61|254:128,1,112.499997019768,6|0,0:2|0:0,0:0:0:0:
468,316,178481,6,0,P|480:263|462:195,1,112.499997019768,8|0,0:2|1:0,0:0:0:0:
345,106,178742,1,2,3:2:0:0:
1,167,178873,2,0,P|20:216|74:262,1,112.499997019768,8|0,0:2|1:0,0:0:0:0:
364,257,179134,2,0,P|319:227|132:261,1,224.999994039536,2|0,0:1|1:0,0:0:0:0:
458,384,179525,6,0,P|479:335|473:265,1,112.499997019768,4|0,3:3|0:0,0:0:0:0:
247,33,179786,1,4,0:0:0:0:
208,70,179916,2,0,P|218:121|263:176,1,112.499997019768,0|0,3:0|0:0,0:0:0:0:
490,163,180177,1,4,0:0:0:0:
500,110,180307,2,0,P|462:73|393:54,1,112.499997019768,0|0,3:2|0:0,0:0:0:0:
84,291,180568,1,10,0:2:0:0:
488,185,180829,6,0,P|461:234|253:292,1,224.999994039536,2|0,3:1|1:0,0:0:0:0:
0,166,181220,2,0,P|43:142|247:213,1,224.999994039536,2|0,3:1|1:0,0:0:0:0:
246,371,181612,6,0,P|225:322|231:252,1,112.499997019768,4|0,3:2|0:0,0:0:0:0:
339,16,181873,1,4,0:0:0:0:
378,53,182003,2,0,P|368:104|323:159,1,112.499997019768,0|0,3:0|0:0,0:0:0:0:
81,251,182264,1,4,0:0:0:0:
71,198,182394,2,0,P|109:161|178:142,1,112.499997019768,0|0,3:0|0:0,0:0:0:0:
481,191,182655,1,10,0:2:0:0:
54,384,182916,6,0,P|-23:241|50:66,1,337.499991059303,2|0,3:1|0:0,0:0:0:0:
252,33,183438,5,0,1:0:0:0:
285,51,183569,1,0,3:0:0:0:
305,92,183699,2,0,P|273:135|208:165,1,112.499997019768,0|0,3:2|0:0,0:0:0:0:
0,40,183960,2,0,P|50:23|121:35,1,112.499997019768,4|0,0:0|3:0,0:0:0:0:
109,282,184220,2,0,P|57:266|7:215,1,112.499997019768,0|4,0:0|0:0,0:0:0:0:
167,13,184481,2,0,P|200:55|212:125,1,112.499997019768,0|0,3:0|1:0,0:0:0:0:
143,384,184742,6,0,P|139:330|282:195,1,224.999994039536,10|0,0:1|1:0,0:0:0:0:
491,314,185134,2,0,P|437:317|302:175,1,224.999994039536,2|0,3:1|1:0,0:0:0:0:
470,0,185525,2,0,P|473:53|256:195,1,337.499991059303,2|0,3:1|1:0,0:0:0:0:
161,30,186047,6,0,P|121:65|97:132,1,112.499997019768,4|0,3:2|0:0,0:0:0:0:
218,377,186307,2,0,P|231:324|212:255,1,112.499997019768,2|0,0:2|1:0,0:0:0:0:
2,107,186568,2,0,P|22:156|77:202,1,112.499997019768,4|0,0:0|0:0,0:0:0:0:
317,247,186829,5,8,0:2:0:0:
309,194,186960,2,0,P|265:165|194:159,1,112.499997019768,2|0,1:1|0:0,0:0:0:0:
30,374,187220,2,0,P|85:370|209:184,1,224.999994039536,10|0,0:2|3:0,0:0:0:0:
126,95,187612,2,0,P|112:146|130:215,1,112.499997019768,10|0,1:2|0:0,0:0:0:0:
453,384,187873,6,0,P|474:335|468:265,1,112.499997019768,4|0,3:3|0:0,0:0:0:0:
256,66,188134,1,4,0:0:0:0:
228,112,188264,2,0,P|251:159|309:201,1,112.499997019768,0|0,3:2|0:0,0:0:0:0:
512,82,188525,1,4,0:0:0:0:
507,29,188655,2,0,P|461:4|390:3,1,112.499997019768,0|0,3:0|0:0,0:0:0:0:
207,65,188916,1,10,0:2:0:0:
433,334,189177,6,0,P|379:349|191:243,1,224.999994039536,2|0,3:1|0:0,0:0:0:0:
57,28,189568,2,0,P|104:41|198:235,1,224.999994039536,2|0,3:1|0:0,0:0:0:0:
146,376,189960,6,0,P|125:327|131:257,1,112.499997019768,0|0,3:0|0:0,0:0:0:0:
366,2,190221,1,4,0:0:0:0:
405,39,190351,2,0,P|395:90|350:145,1,112.499997019768,0|0,3:0|0:0,0:0:0:0:
81,251,190612,1,4,0:0:0:0:
71,198,190742,2,0,P|109:161|178:142,1,112.499997019768,0|0,3:0|0:0,0:0:0:0:
499,206,191003,1,10,0:2:0:0:
169,29,191264,6,0,P|156:81|174:150,1,112.499997019768,4|0,3:2|0:0,0:0:0:0:
404,300,191525,2,0,P|386:251|331:205,1,112.499997019768,2|0,0:0|1:0,0:0:0:0:
72,248,191786,2,0,P|116:278|188:285,1,112.499997019768,4|0,3:2|0:0,0:0:0:0:
480,72,192047,6,0,P|427:73|290:189,1,224.999994039536,0|0,3:1|1:2,0:0:0:0:
292,384,192438,2,0,P|318:338|286:161,1,224.999994039536,0|0,3:1|0:0,0:0:0:0:
62,330,192829,6,0,P|72:279|117:224,1,112.499997019768,4|0,3:2|0:0,0:0:0:0:
395,154,193090,2,0,P|358:190|290:209,1,112.499997019768,10|0,0:2|0:0,0:0:0:0:
54,156,193351,1,0,3:2:0:0:
76,108,193481,2,0,P|128:99|196:123,1,112.499997019768,4|0,1:2|1:0,0:0:0:0:
400,367,193742,2,0,P|353:343|311:285,1,112.499997019768,8|0,0:2|0:0,0:0:0:0:
189,11,194003,6,0,P|233:41|278:215,1,224.999994039536,0|0,3:1|1:0,0:0:0:0:
166,373,194394,2,0,P|172:320|300:193,1,224.999994039536,0|4,3:1|0:1,0:0:0:0:
340,252,195177,5,0,0:0:0:0:
355,214,195308,2,0,P|332:174|275:130,1,67.5000007867814,2|0,1:1|1:0,0:0:0:0:
138,204,195568,2,0,P|194:235|284:216,1,135.000001573563,2|0,0:0|1:0,0:0:0:0:
291,78,195959,2,0,P|257:108|246:182,1,67.5000007867814,0|0,0:0|1:0,0:0:0:0:
