osu file format v14

[General]
AudioFilename: audio.mp3
AudioLeadIn: 0
PreviewTime: 59525
Countdown: 0
SampleSet: Soft
StackLeniency: 0.7
Mode: 0
LetterboxInBreaks: 0
WidescreenStoryboard: 1

[Editor]
Bookmarks: 9960,10481,18829,27177,35525,43873,48047,52220,54307,56394,57438,57960,60568,68916,77264,81438,93960,110655,119003,121090,123177,123960,124742,126307,127351,135699,144047,152394,154481,156568,158655,160742,161786,162829,171177,179525,187873,196220
DistanceSpacing: 1.2
BeatDivisor: 4
GridSize: 32
TimelineZoom: 1.4

[Metadata]
Title:Violeta
TitleUnicode:비올레타
Artist:IZ*ONE
ArtistUnicode:아이즈원
Creator:Everything Dust
Version:Easy
Source:
Tags:Kwon Eun-bi 권은비 Choi Ye-na 최예나 Jo Yu-ri 조유리 Sakura Miyawaki 宮脇咲良 미야와키 사쿠라 Kang Hye-won 강혜원 Ahn Yu-jin 안유진 Kim Min-ju 김민주 Nako Yabuki 矢吹奈子 야부키 나코 Hitomi Honda 本田仁美 혼다 히토미 Lee Chae-yeon 이채연 Jang Won-young 장원영 Kim Chae-won 김채원 Heart*Iz izone iz one iz-one
BeatmapID:2041830
BeatmapSetID:949790

[Difficulty]
HPDrainRate:3
CircleSize:2.5
OverallDifficulty:3
ApproachRate:5
SliderMultiplier:1.19999990463257
SliderTickRate:1

[Events]
//Background and Video events
Video,0,"violeta conv.mp4"
0,0,"VioletaSMUSH.jpg",0,0
//Break Periods
2,25290,25977
2,41986,42673
2,58160,59368
2,67029,67716
2,75377,76064
2,92073,92760
2,108768,109455
2,124942,126151
2,142160,151194
2,160942,161629
2,169290,169977
2,177638,178325
//Storyboard Layer 0 (Background)
//Storyboard Layer 1 (Fail)
//Storyboard Layer 2 (Pass)
//Storyboard Layer 3 (Foreground)
//Storyboard Layer 4 (Overlay)
//Storyboard Sound Samples

[TimingPoints]
2134,521.739130434783,4,2,1,50,1,0
10481,-100,4,2,1,50,0,0
11786,-100,4,2,1,5,0,0
12047,-100,4,2,1,50,0,0
13873,-100,4,2,1,5,0,0
14134,-100,4,2,1,50,0,0
15960,-100,4,2,1,5,0,0
16220,-100,4,2,1,50,0,0
20134,-100,4,2,1,5,0,0
20394,-100,4,2,1,50,0,0
22220,-100,4,2,1,5,0,0
22480,-100,4,2,1,50,0,0
27177,-100,4,2,1,60,0,0
43873,-100,4,2,1,70,0,0
56916,-100,4,2,1,5,0,0
57177,-100,4,2,1,70,0,0
57699,-100,4,2,1,5,0,0
57960,-100,4,2,1,70,0,0
60568,-100,4,2,1,80,0,1
77264,-100,4,2,1,40,0,0
85612,-100,4,2,1,50,0,0
93960,-100,4,2,1,60,0,0
110655,-100,4,2,1,70,0,0
123699,-100,4,2,1,5,0,0
123960,-100,4,2,1,70,0,0
124481,-100,4,2,1,5,0,0
124742,-100,4,2,1,70,0,0
127351,-100,4,2,1,80,0,1
144047,-100,4,2,1,50,0,0
152394,-100,4,2,1,60,0,0
156568,-100,4,2,1,70,0,0
162829,-100,4,2,1,80,0,1
192047,-100,4,2,1,80,0,1
194916,-100,4,2,1,40,0,1
195177,-100,4,2,1,70,0,1
196220,-100,4,2,1,60,0,0

[Colours]
Combo1 : 133,233,255
Combo2 : 132,125,159
SliderBorder : 94,151,138
SliderTrackOverride : 20,5,10

[HitObjects]
47,254,9960,5,0,0:0:0:0:
139,365,10481,2,0,P|198:349|259:291,1,119.999990463257,2|0,0:2|0:0,0:0:0:0:
261,236,11264,2,0,P|311:203|369:192,1,119.999990463257,2|0,0:2|1:0,0:0:0:0:
445,211,12047,1,0,0:2:0:0:
445,354,12568,6,0,P|386:338|325:280,1,119.999990463257,2|0,0:2|0:0,0:0:0:0:
336,227,13351,2,0,P|285:194|227:183,1,119.999990463257,2|0,0:2|1:0,0:0:0:0:
156,207,14134,1,0,0:0:0:0:
99,339,14655,6,0,L|221:296,1,119.999990463257,2|0,0:2|0:0,0:0:0:0:
281,277,15438,1,2,0:2:0:0:
461,232,16742,6,0,L|339:189,1,119.999990463257,2|0,0:2|0:0,0:0:0:0:
279,170,17525,1,2,0:2:0:0:
373,19,18829,6,0,P|314:35|253:93,1,119.999990463257,2|0,0:2|0:0,0:0:0:0:
251,148,19612,2,0,P|200:180|142:191,1,119.999990463257,2|0,0:2|1:0,0:0:0:0:
67,173,20395,1,0,0:0:0:0:
67,30,20916,6,0,P|126:46|187:104,1,119.999990463257,2|0,0:0|0:0,0:0:0:0:
176,157,21699,2,0,P|226:189|284:200,1,119.999990463257,2|0,0:2|0:0,0:0:0:0:
356,177,22482,1,0,0:0:0:0:
484,242,23003,2,0,P|426:308|339:320,2,179.999985694886,2|2|0,0:2|0:0|0:0,0:0:0:0:
356,177,25090,1,2,0:2:0:0:
338,358,27177,5,0,3:0:0:0:
456,276,27699,2,0,L|426:129,1,119.999990463257,8|2,1:2|3:2,0:0:0:0:
255,33,29264,5,0,3:0:0:0:
137,115,29786,2,0,L|167:262,1,119.999990463257,8|2,1:2|3:2,0:0:0:0:
433,326,31351,5,0,3:0:0:0:
472,187,31873,2,0,P|449:155|347:108,1,119.999990463257,8|2,1:2|3:2,0:0:0:0:
98,56,33438,5,0,3:0:0:0:
59,195,33960,2,0,P|82:227|184:274,1,119.999990463257,8|2,1:2|3:2,0:0:0:0:
435,230,35525,5,0,3:0:0:0:
353,348,36047,2,0,L|206:318,1,119.999990463257,8|2,1:2|3:2,0:0:0:0:
110,147,37612,5,0,3:0:0:0:
192,29,38134,2,0,L|339:59,1,119.999990463257,8|2,1:2|3:2,0:0:0:0:
484,35,39699,6,0,P|468:94|410:155,1,119.999990463257,0|10,3:0|1:2,0:0:0:0:
288,125,40742,2,0,P|255:176|244:234,1,119.999990463257,2|0,3:0|1:0,0:0:0:0:
328,350,41786,1,4,1:2:0:0:
512,323,43873,6,0,P|424:343|287:238,1,239.999980926514,0|8,3:0|1:2,0:0:0:0:
155,22,45960,2,0,P|238:56|290:220,1,239.999980926514,0|8,3:0|1:2,0:0:0:0:
57,349,48047,2,0,P|8:273|59:108,1,239.999980926514,0|8,3:0|1:2,0:0:0:0:
302,23,50134,2,0,P|285:76|231:120,1,119.999990463257,0|2,3:0|1:2,0:0:0:0:
165,144,50916,2,0,P|182:197|235:241,1,119.999990463257,0|0,3:0|1:0,0:0:0:0:
302,209,51699,6,0,L|302:132,2,59.9999952316285,0|0|4,3:0|3:0|3:2,0:0:0:0:
302,354,52742,1,0,3:1:0:0:
447,354,53265,1,0,3:0:0:0:
447,211,53786,6,0,L|489:256,2,59.9999952316285,8|0|0,3:1|3:0|3:0,0:0:0:0:
346,109,54829,1,0,3:0:0:0:
245,211,55351,1,0,3:0:0:0:
143,110,55873,1,0,3:2:0:0:
54,222,56395,6,0,P|121:213|188:172,1,119.999990463257,10|0,3:1|0:0,0:0:0:0:
223,134,57178,2,0,P|280:154|327:191,1,119.999990463257,10|0,3:1|0:0,0:0:0:0:
365,259,57960,1,14,3:1:0:0:
469,192,60568,6,0,L|469:282,2,89.9999928474428,6|2|6,3:3|3:2|3:2,0:0:0:0:
469,119,61612,1,2,3:2:0:0:
325,119,62133,1,8,1:2:0:0:
322,263,62655,6,0,L|258:326,2,89.9999928474428,2|2|6,3:3|3:2|3:2,0:0:0:0:
373,212,63699,1,2,3:2:0:0:
271,110,64220,1,8,1:2:0:0:
169,212,64742,6,0,L|79:212,2,89.9999928474428,2|2|6,3:3|3:2|3:2,0:0:0:0:
241,212,65786,1,2,3:2:0:0:
241,68,66307,1,8,1:2:0:0:
97,68,66829,1,0,3:2:0:0:
43,192,68916,6,0,L|43:102,2,89.9999928474428,6|2|6,3:3|3:2|3:2,0:0:0:0:
43,265,69960,1,2,3:2:0:0:
187,265,70481,1,8,1:2:0:0:
190,121,71003,6,0,L|253:57,2,89.9999928474428,2|2|6,3:3|3:2|3:2,0:0:0:0:
139,172,72047,1,2,3:2:0:0:
241,274,72568,1,8,1:2:0:0:
343,172,73090,6,0,L|433:171,2,89.9999928474428,2|2|6,3:3|3:2|3:2,0:0:0:0:
271,172,74134,1,2,3:2:0:0:
271,316,74655,1,8,1:2:0:0:
415,316,75177,1,0,3:2:0:0:
256,352,77264,5,2,0:0:0:0:
256,353,77786,1,2,0:0:0:0:
256,352,78307,1,2,0:0:0:0:
118,321,79351,6,0,L|37:160,2,179.999985694886,2|2|0,0:0|0:0|0:0,0:0:0:0:
256,352,81438,5,2,0:0:0:0:
256,352,81960,1,2,0:0:0:0:
256,352,82481,1,2,0:0:0:0:
394,321,83525,6,0,L|475:160,2,179.999985694886,2|2|0,0:0|0:1|0:0,0:0:0:0:
256,352,85612,6,0,L|163:266,1,119.999990463257,0|8,3:0|1:2,0:0:0:0:
302,221,86655,2,0,L|395:135,1,119.999990463257,0|8,3:0|1:2,0:0:0:0:
291,35,87699,6,0,L|198:121,1,119.999990463257,0|8,3:0|1:2,0:0:0:0:
67,165,88742,2,0,L|156:247,1,119.999990463257,0|8,3:0|1:2,0:0:0:0:
267,337,89786,2,0,L|411:182,2,179.999985694886,2|2|10,3:2|3:2|3:2,0:0:0:0:
122,337,91873,1,6,3:2:0:0:
256,370,93960,5,0,3:0:0:0:
122,337,94482,2,0,L|169:195,1,119.999990463257,8|2,1:2|3:2,0:0:0:0:
358,14,96047,5,0,3:0:0:0:
492,47,96569,2,0,L|445:189,1,119.999990463257,8|2,1:2|3:2,0:0:0:0:
209,312,98133,5,0,3:0:0:0:
136,189,98655,2,0,P|150:153|236:81,1,119.999990463257,8|2,1:2|3:2,0:0:0:0:
493,87,100220,5,0,3:0:0:0:
483,229,100742,2,0,P|452:251|340:261,1,119.999990463257,8|2,1:2|3:2,0:0:0:0:
131,109,102307,5,0,3:0:0:0:
73,241,102829,2,0,L|217:310,1,119.999990463257,8|2,1:2|3:2,0:0:0:0:
422,135,104394,5,0,3:0:0:0:
480,267,104916,2,0,L|336:336,1,119.999990463257,8|2,1:2|3:2,0:0:0:0:
87,366,106481,6,0,P|43:322|20:241,1,119.999990463257,0|10,3:0|1:2,0:0:0:0:
141,186,107525,2,0,P|113:131|68:93,2,119.999990463257,2|8|4,3:0|1:2|3:2,0:0:0:0:
0,61,110655,6,0,P|88:41|225:146,1,239.999980926514,0|8,3:0|1:2,0:0:0:0:
357,362,112742,2,0,P|274:328|222:164,1,239.999980926514,0|8,3:0|1:2,0:0:0:0:
455,35,114829,2,0,P|504:111|453:276,1,239.999980926514,0|8,3:0|1:2,0:0:0:0:
210,361,116916,2,0,P|227:308|281:264,1,119.999990463257,0|2,3:0|1:2,0:0:0:0:
347,240,117698,2,0,P|330:187|277:143,1,119.999990463257,0|0,3:0|1:0,0:0:0:0:
210,175,118481,6,0,L|210:252,2,59.9999952316285,0|0|4,3:0|3:0|3:2,0:0:0:0:
210,30,119524,1,0,3:1:0:0:
65,30,120047,1,0,3:0:0:0:
65,173,120568,6,0,L|23:128,2,59.9999952316285,8|0|0,3:1|3:0|3:0,0:0:0:0:
166,275,121611,1,0,3:0:0:0:
267,173,122133,1,0,3:0:0:0:
369,274,122655,1,0,3:2:0:0:
458,162,123177,6,0,P|391:171|324:212,1,119.999990463257,10|0,3:1|1:0,0:0:0:0:
289,250,123960,2,0,P|232:230|185:193,1,119.999990463257,10|0,3:1|1:0,0:0:0:0:
147,125,124742,1,14,3:1:0:0:
77,312,127351,6,0,L|13:248,2,89.9999928474428,6|2|6,3:3|3:2|3:2,0:0:0:0:
127,362,128395,1,2,3:2:0:0:
229,261,128917,1,8,1:2:0:0:
330,159,129438,6,0,L|420:159,2,89.9999928474428,2|2|6,3:2|3:2|3:2,0:0:0:0:
257,158,130481,1,2,3:2:0:0:
257,301,131003,1,8,1:2:0:0:
134,230,131525,6,0,L|60:178,2,89.9999928474428,2|2|2,3:2|3:2|3:2,0:0:0:0:
194,267,132568,1,2,3:2:0:0:
274,149,133090,1,8,1:2:0:0:
392,229,133612,1,0,3:2:0:0:
435,72,135699,6,0,L|498:135,2,89.9999928474428,6|2|6,3:2|3:2|3:2,0:0:0:0:
385,22,136743,1,2,3:2:0:0:
283,123,137265,1,8,1:2:0:0:
182,225,137786,6,0,L|91:224,2,89.9999928474428,2|2|6,3:2|3:2|3:2,0:0:0:0:
255,226,138829,1,2,3:2:0:0:
255,83,139351,1,8,1:2:0:0:
378,154,139873,6,0,L|451:205,2,89.9999928474428,2|2|6,3:2|3:2|3:2,0:0:0:0:
318,117,140917,1,2,3:2:0:0:
248,237,141438,1,8,1:2:0:0:
128,167,141960,1,0,3:0:0:0:
158,300,152394,6,0,P|257:317|312:297,1,119.999990463257,0|2,3:0|3:2,0:0:0:0:
350,190,153438,2,0,P|253:215|211:256,1,119.999990463257,0|2,3:2|3:2,0:0:0:0:
229,370,154481,2,0,P|305:304|324:249,1,119.999990463257,6|2,3:2|3:0,0:0:0:0:
264,152,155525,2,0,P|221:243|226:300,1,119.999990463257,2|2,3:2|3:2,0:0:0:0:
365,261,156568,6,0,L|365:151,2,89.9999928474428,10|2|0,3:1|3:1|3:0,0:0:0:0:
293,261,157612,2,0,L|183:261,2,89.9999928474428,10|2|4,3:1|3:1|3:2,0:0:0:0:
365,261,158655,1,8,3:3:0:0:
256,192,158786,12,0,160742,1:0:0:0:
172,295,162829,6,0,L|109:358,2,89.9999928474428,6|2|6,3:3|3:2|3:2,0:0:0:0:
221,245,163873,1,2,3:2:0:0:
323,345,164394,1,8,1:2:0:0:
428,246,164916,6,0,L|491:183,2,89.9999928474428,2|2|6,3:2|3:2|3:2,0:0:0:0:
379,296,165960,1,2,3:2:0:0:
277,196,166481,1,8,1:2:0:0:
172,295,167003,6,0,L|109:358,2,89.9999928474428,2|2|6,3:2|3:2|3:2,0:0:0:0:
222,246,168047,1,2,3:2:0:0:
122,144,168568,1,8,1:2:0:0:
224,44,169090,1,0,3:2:0:0:
340,89,171177,6,0,L|403:26,2,89.9999928474428,6|2|6,3:3|3:2|3:2,0:0:0:0:
291,139,172221,1,2,3:0:0:0:
189,39,172742,1,8,1:2:0:0:
84,138,173264,6,0,L|21:201,2,89.9999928474428,2|2|6,3:2|3:2|3:2,0:0:0:0:
133,88,174308,1,2,3:2:0:0:
235,188,174829,1,8,1:2:0:0:
340,89,175351,6,0,L|403:26,2,89.9999928474428,2|2|6,3:2|3:2|3:2,0:0:0:0:
290,138,176395,1,2,3:2:0:0:
390,240,176916,1,8,1:2:0:0:
492,141,177438,1,0,3:0:0:0:
433,39,179525,6,0,P|448:105|369:207,1,179.999985694886,4|2,3:3|3:2,0:0:0:0:
322,210,180568,1,8,1:0:0:0:
35,234,181612,6,0,P|60:171|184:132,1,179.999985694886,2|2,3:2|3:0,0:0:0:0:
224,158,182655,1,8,1:0:0:0:
461,323,183699,6,0,P|404:359|280:320,1,179.999985694886,2|2,3:2|3:2,0:0:0:0:
263,277,184742,1,8,1:0:0:0:
93,43,185786,6,0,P|160:45|239:148,1,179.999985694886,2|2,3:2|3:2,0:0:0:0:
229,195,186829,1,8,1:0:0:0:
433,345,187873,6,0,P|448:279|369:176,1,179.999985694886,4|2,3:3|3:2,0:0:0:0:
322,174,188916,1,8,1:0:0:0:
35,150,189960,6,0,P|60:212|184:251,1,179.999985694886,2|2,3:2|3:2,0:0:0:0:
224,226,191003,1,8,1:0:0:0:
461,61,192047,6,0,P|404:24|280:63,1,179.999985694886,2|2,3:2|3:2,0:0:0:0:
263,107,193090,1,8,1:0:0:0:
93,341,194134,6,0,P|160:338|239:235,1,179.999985694886,2|6,3:2|3:2,0:0:0:0:
227,182,195177,2,0,L|320:112,2,89.9999928474428,2|2|2,3:2|3:2|3:2,0:0:0:0:
