osu file format v14

[General]
AudioFilename: audio.mp3
AudioLeadIn: 0
PreviewTime: 139616
Countdown: 0
SampleSet: Soft
StackLeniency: 0.7
Mode: 3
LetterboxInBreaks: 0
SpecialStyle: 0
WidescreenStoryboard: 1

[Editor]
DistanceSpacing: 2.1
BeatDivisor: 4
GridSize: 32
TimelineZoom: 1

[Metadata]
Title:Panorama
TitleUnicode:Panorama
Artist:IZ*ONE
ArtistUnicode:아이즈원
Creator:Ilham
Version:7K Hard
Source:
Tags:IZONE One-reeler / Act IV 파노라마 OFF THE RECORD SWING Entertainment 웅킴 제인스 지예준 비오 KZ B.O. FAB Nthonius Jayins Ji Ye Joon Ung Kim Korean Pop K-Pop KPop Syadow- Hytex Tigerinity Indoroid Ucitysm Gahyeonln fvrex xtrippin
BeatmapID:3833839
BeatmapSetID:1864149

[Difficulty]
HPDrainRate:7.5
CircleSize:7
OverallDifficulty:7.5
ApproachRate:5
SliderMultiplier:1.4
SliderTickRate:1

[Events]
//Background and Video events
0,0,"BG - Wony.jpg",0,0
Video,-5515,"video.mp4"
//Break Periods
//Storyboard Layer 0 (Background)
//Storyboard Layer 1 (Fail)
//Storyboard Layer 2 (Pass)
//Storyboard Layer 3 (Foreground)
//Storyboard Layer 4 (Overlay)
//Storyboard Sound Samples

[TimingPoints]
2355,476.190476190476,4,2,1,100,1,0
63307,-100.0,4,2,1,100,0,1
93307,-100.0,4,2,1,100,0,0
141402,-100.0,4,2,1,100,0,1
171402,-100.0,4,2,1,100,0,0
189021,-100.0,4,2,1,100,0,1
204259,-100.0,4,2,1,100,0,0
211878,-100.0,4,2,1,100,0,1
219259,-100.0,4,2,1,100,0,0

[HitObjects]
182,192,2355,1,0,0:0:0:0:
329,192,2474,1,0,0:0:0:0:
475,192,2593,1,0,0:0:0:0:
36,192,2712,1,0,0:0:0:0:
256,192,2712,1,0,0:0:0:0:
109,192,3307,1,0,0:0:0:0:
36,192,3426,1,0,0:0:0:0:
256,192,3545,1,0,0:0:0:0:
182,192,3664,1,0,0:0:0:0:
402,192,3664,1,0,0:0:0:0:
109,192,4259,1,0,0:0:0:0:
256,192,4378,1,0,0:0:0:0:
402,192,4497,1,0,0:0:0:0:
36,192,4616,1,0,0:0:0:0:
182,192,4616,1,0,0:0:0:0:
402,192,5212,1,0,0:0:0:0:
475,192,5331,1,0,0:0:0:0:
256,192,5450,1,0,0:0:0:0:
109,192,5569,1,0,0:0:0:0:
329,192,5569,1,0,0:0:0:0:
36,192,6164,1,2,0:0:0:0:
109,192,6164,1,0,0:0:0:0:
402,192,6164,1,0,0:0:0:0:
329,192,6283,1,0,0:0:0:0:
256,192,6402,1,0,0:0:0:0:
182,192,6521,1,0,0:0:0:0:
475,192,6521,1,0,0:0:0:0:
475,192,6878,1,0,0:0:0:0:
182,192,7116,1,0,0:0:0:0:
329,192,7116,1,0,0:0:0:0:
256,192,7354,1,0,0:0:0:0:
36,192,7474,1,0,0:0:0:0:
109,192,7474,1,0,0:0:0:0:
36,192,7831,1,0,0:0:0:0:
182,192,8069,1,0,0:0:0:0:
329,192,8069,1,0,0:0:0:0:
475,192,8307,1,0,0:0:0:0:
256,192,8426,1,0,0:0:0:0:
329,192,8545,1,0,0:0:0:0:
182,192,8783,1,0,0:0:0:0:
36,192,9021,1,0,0:0:0:0:
109,192,9021,1,0,0:0:0:0:
402,192,9140,1,0,0:0:0:0:
475,192,9140,1,0,0:0:0:0:
109,192,9259,128,0,9497:0:0:0:0:
329,192,9497,128,0,9616:0:0:0:0:
402,192,9497,1,0,0:0:0:0:
109,192,9616,1,0,0:0:0:0:
182,192,9616,128,0,9735:0:0:0:0:
256,192,9735,128,0,9974:0:0:0:0:
36,192,9974,128,2,10331:0:0:0:0:
402,192,9974,1,0,0:0:0:0:
475,192,9974,1,0,0:0:0:0:
329,192,10212,1,0,0:0:0:0:
182,192,10331,128,0,10688:0:0:0:0:
109,192,10450,1,0,0:0:0:50:soft-hitclap.wav
402,192,10450,1,0,0:0:0:0:
256,192,10569,1,0,0:0:0:0:
329,192,10688,128,0,10926:0:0:0:70:tom02.wav
36,192,10926,1,2,0:0:0:0:
182,192,10926,128,0,11164:0:0:0:0:
402,192,10926,1,0,0:0:0:0:
475,192,11164,128,0,11402:0:0:0:0:
402,192,11283,1,0,0:0:0:70:tom02.wav
182,192,11402,1,0,0:0:0:50:soft-hitclap.wav
329,192,11402,1,0,0:0:0:0:
109,192,11521,128,0,11759:0:0:0:0:
182,192,11759,1,0,0:0:0:0:
36,192,11878,1,2,0:0:0:0:
256,192,11878,1,0,0:0:0:0:
475,192,11878,128,0,12235:0:0:0:0:
182,192,12235,128,0,12593:0:0:0:70:tom02.wav
36,192,12354,1,0,0:0:0:50:soft-hitclap.wav
329,192,12354,1,0,0:0:0:0:
402,192,12474,1,0,0:0:0:0:
109,192,12593,1,0,0:0:0:0:
256,192,12593,1,0,0:0:0:0:
475,192,12593,128,0,12831:0:0:0:0:
182,192,12831,128,2,13069:0:0:0:0:
402,192,12831,1,0,0:0:0:0:
329,192,13069,128,0,13307:0:0:0:0:
36,192,13307,128,0,13545:0:0:0:50:soft-hitclap.wav
256,192,13307,1,0,0:0:0:0:
182,192,13545,128,0,13783:0:0:0:0:
109,192,13783,1,2,0:0:0:0:
402,192,13783,128,0,14140:0:0:0:0:
475,192,13783,1,0,0:0:0:0:
36,192,14140,128,0,14497:0:0:0:0:
182,192,14259,1,0,0:0:0:50:soft-hitclap.wav
329,192,14259,1,0,0:0:0:0:
475,192,14378,1,0,0:0:0:0:
402,192,14497,128,0,14735:0:0:0:70:tom02.wav
36,192,14735,1,2,0:0:0:0:
182,192,14735,128,0,14974:0:0:0:0:
329,192,14735,1,0,0:0:0:0:
475,192,14974,128,0,15212:0:0:0:0:
109,192,15212,1,0,0:0:0:50:soft-hitclap.wav
402,192,15212,1,0,0:0:0:0:
329,192,15331,128,0,15688:0:0:0:0:
256,192,15450,1,0,0:0:0:70:tom02.wav
182,192,15569,1,0,0:0:0:0:
36,192,15688,1,2,0:0:0:0:
109,192,15688,1,0,0:0:0:0:
475,192,15688,1,0,0:0:0:0:
256,192,15807,1,0,0:0:0:0:
402,192,15926,1,0,0:0:0:0:
182,192,16045,1,0,0:0:0:70:tom02.wav
36,192,16164,1,0,0:0:0:50:soft-hitclap.wav
329,192,16164,1,0,0:0:0:0:
475,192,16164,1,0,0:0:0:0:
109,192,16283,1,0,0:0:0:0:
182,192,16402,1,0,0:0:0:0:
402,192,16402,1,0,0:0:0:0:
109,192,16521,1,0,0:0:0:0:
329,192,16521,1,0,0:0:0:0:
402,192,16640,1,0,0:0:0:0:
36,192,16759,1,0,0:0:0:0:
256,192,16759,1,0,0:0:0:0:
182,192,16997,1,0,0:0:0:0:
329,192,16997,1,0,0:0:0:0:
36,192,17116,1,0,0:0:0:0:
475,192,17116,1,0,0:0:0:0:
109,192,17593,1,2,0:0:0:0:
402,192,17593,1,0,0:0:0:0:
182,192,17831,1,2,0:0:0:0:
329,192,17831,1,0,0:0:0:0:
475,192,17950,1,0,0:0:0:0:
36,192,18069,1,0,0:0:0:100:clap03.wav
109,192,18069,1,0,0:0:0:0:
402,192,18069,1,0,0:0:0:0:
329,192,18307,1,0,0:0:0:0:
36,192,18783,1,2,0:0:0:0:
256,192,18783,1,0,0:0:0:0:
329,192,18902,1,0,0:0:0:0:
109,192,19021,1,0,0:0:0:100:clap03.wav
402,192,19021,1,0,0:0:0:0:
475,192,19021,1,0,0:0:0:0:
182,192,19140,1,0,0:0:0:0:
256,192,19259,1,0,0:0:0:0:
329,192,19259,1,0,0:0:0:0:
109,192,19735,1,2,0:0:0:0:
402,192,19735,1,0,0:0:0:0:
36,192,19974,1,0,0:0:0:100:clap03.wav
329,192,19974,1,0,0:0:0:0:
475,192,19974,1,0,0:0:0:0:
256,192,20212,1,0,0:0:0:0:
182,192,20450,1,0,0:0:0:0:
402,192,20688,1,2,0:0:0:0:
475,192,20688,1,0,0:0:0:0:
329,192,20807,1,0,0:0:0:0:
36,192,20926,1,0,0:0:0:100:clap03.wav
109,192,20926,1,0,0:0:0:0:
256,192,20926,1,0,0:0:0:0:
329,192,21164,1,0,0:0:0:0:
182,192,21402,1,2,0:0:0:0:
475,192,21402,1,0,0:0:0:0:
109,192,21640,1,2,0:0:0:0:
402,192,21640,1,0,0:0:0:0:
182,192,21759,1,0,0:0:0:0:
256,192,21878,1,0,0:0:0:100:clap03.wav
329,192,21878,1,0,0:0:0:0:
475,192,21878,1,0,0:0:0:0:
36,192,22116,1,0,0:0:0:0:
109,192,22354,1,0,0:0:0:0:
182,192,22593,1,2,0:0:0:0:
402,192,22593,1,0,0:0:0:0:
256,192,22831,1,0,0:0:0:100:clap03.wav
329,192,22831,1,0,0:0:0:0:
475,192,22831,1,0,0:0:0:0:
182,192,22950,1,0,0:0:0:0:
109,192,23069,1,2,0:0:0:0:
402,192,23069,1,0,0:0:0:0:
36,192,23307,1,2,0:0:0:0:
329,192,23307,1,0,0:0:0:0:
182,192,23664,1,2,0:0:0:0:
475,192,23664,1,0,0:0:0:0:
36,192,23783,1,0,0:0:0:100:clap03.wav
256,192,23783,1,0,0:0:0:0:
402,192,23783,1,0,0:0:0:0:
109,192,24021,1,2,0:0:0:0:
475,192,24021,1,0,0:0:0:0:
109,192,24497,1,2,0:0:0:0:
402,192,24497,1,0,0:0:0:0:
182,192,24616,1,0,0:0:0:0:
36,192,24735,1,0,0:0:0:100:clap03.wav
256,192,24735,1,0,0:0:0:0:
329,192,24735,1,0,0:0:0:0:
109,192,24974,1,2,0:0:0:0:
182,192,24974,1,0,0:0:0:0:
256,192,25093,1,2,0:0:0:0:
329,192,25093,1,0,0:0:0:0:
36,192,25212,1,2,0:0:0:0:
402,192,25212,1,0,0:0:0:0:
475,192,25212,1,0,0:0:0:0:
109,192,25331,1,0,0:0:0:0:
182,192,25450,1,0,0:0:0:0:
256,192,25688,1,0,0:0:0:100:clap03.wav
329,192,25688,1,0,0:0:0:0:
475,192,25688,1,0,0:0:0:0:
182,192,25807,1,0,0:0:0:0:
402,192,25926,1,0,0:0:0:0:
256,192,26045,1,0,0:0:0:0:
36,192,26164,1,2,0:0:0:0:
109,192,26164,1,0,0:0:0:0:
329,192,26402,1,0,0:0:0:0:
182,192,26640,1,0,0:0:0:100:clap03.wav
256,192,26640,1,0,0:0:0:0:
475,192,26640,1,0,0:0:0:0:
36,192,26878,1,2,0:0:0:0:
402,192,26878,1,0,0:0:0:0:
109,192,27116,1,2,0:0:0:0:
329,192,27116,1,0,0:0:0:0:
182,192,27354,1,0,0:0:0:0:
109,192,27593,1,0,0:0:0:100:clap03.wav
256,192,27593,1,0,0:0:0:0:
475,192,27593,1,0,0:0:0:0:
402,192,27712,1,0,0:0:0:0:
329,192,27831,1,0,0:0:0:0:
182,192,28069,1,2,0:0:0:0:
475,192,28069,1,0,0:0:0:0:
36,192,28307,1,0,0:0:0:0:
36,192,28545,1,0,0:0:0:100:clap03.wav
256,192,28545,1,0,0:0:0:0:
329,192,28545,1,0,0:0:0:0:
182,192,28783,1,2,0:0:0:0:
475,192,28783,1,0,0:0:0:0:
109,192,29021,1,2,0:0:0:0:
402,192,29021,1,0,0:0:0:0:
256,192,29259,1,0,0:0:0:0:
36,192,29497,1,0,0:0:0:100:clap03.wav
182,192,29497,1,0,0:0:0:0:
329,192,29497,1,0,0:0:0:0:
402,192,29616,1,0,0:0:0:0:
109,192,29854,1,0,0:0:0:0:
182,192,29974,1,2,0:0:0:0:
475,192,29974,1,0,0:0:0:0:
256,192,30093,1,0,0:0:0:0:
329,192,30212,1,2,0:0:0:0:
402,192,30212,1,0,0:0:0:0:
109,192,30331,1,2,0:0:0:0:
36,192,30450,1,2,0:0:0:0:
256,192,30450,1,0,0:0:0:100:clap03.wav
475,192,30450,1,0,0:0:0:0:
182,192,30688,1,2,0:0:0:0:
329,192,30688,1,0,0:0:0:0:
256,192,30926,1,0,0:0:0:0:
182,192,31045,1,0,0:0:0:0:
475,192,31164,128,0,31402:0:0:0:0:
256,192,31402,128,0,31640:0:0:0:0:
36,192,31640,128,0,31878:0:0:0:0:
329,192,31878,128,0,32354:0:0:0:0:
402,192,31878,128,0,32354:0:0:0:0:
109,192,32116,128,0,32354:0:0:0:0:
182,192,32116,128,0,32354:0:0:0:0:
256,192,32354,128,0,32831:0:0:0:0:
36,192,32831,1,2,0:0:0:0:
402,192,32831,1,0,0:0:0:0:
475,192,32831,1,0,0:0:0:0:
109,192,33069,1,0,0:0:0:100:tick.wav
182,192,33188,1,0,0:0:0:0:
256,192,33188,1,0,0:0:0:0:
402,192,33307,1,2,0:0:0:0:
475,192,33307,1,0,0:0:0:100:clap03.wav
402,192,33545,1,0,0:0:0:100:tick.wav
256,192,33664,1,0,0:0:0:0:
36,192,33783,1,2,0:0:0:0:
109,192,33783,1,0,0:0:0:0:
182,192,34021,1,0,0:0:0:100:tick.wav
329,192,34140,1,0,0:0:0:0:
402,192,34140,1,0,0:0:0:0:
36,192,34259,1,2,0:0:0:0:
109,192,34259,1,0,0:0:0:100:clap03.wav
109,192,34497,1,0,0:0:0:100:tick.wav
256,192,34616,1,0,0:0:0:0:
329,192,34735,1,2,0:0:0:0:
475,192,34735,1,0,0:0:0:0:
36,192,34974,1,0,0:0:0:100:tick.wav
109,192,35093,1,0,0:0:0:0:
182,192,35093,1,0,0:0:0:0:
329,192,35212,1,2,0:0:0:0:
475,192,35212,1,0,0:0:0:100:clap03.wav
329,192,35450,1,0,0:0:0:100:tick.wav
256,192,35569,1,0,0:0:0:0:
182,192,35688,1,2,0:0:0:0:
475,192,35688,1,0,0:0:0:0:
402,192,35926,1,0,0:0:0:100:tick.wav
36,192,36045,1,0,0:0:0:0:
329,192,36045,1,0,0:0:0:0:
182,192,36164,1,2,0:0:0:0:
475,192,36164,1,0,0:0:0:100:clap03.wav
109,192,36402,1,0,0:0:0:100:tick.wav
402,192,36402,1,0,0:0:0:0:
329,192,36521,1,0,0:0:0:0:
36,192,36640,1,2,0:0:0:0:
256,192,36640,1,0,0:0:0:0:
109,192,36878,1,0,0:0:0:100:tick.wav
182,192,36997,1,0,0:0:0:0:
402,192,36997,1,0,0:0:0:0:
256,192,37116,1,2,0:0:0:0:
475,192,37116,1,0,0:0:0:100:clap03.wav
256,192,37354,1,0,0:0:0:100:tick.wav
329,192,37474,1,0,0:0:0:0:
109,192,37593,1,2,0:0:0:0:
402,192,37593,1,0,0:0:0:0:
36,192,37831,1,0,0:0:0:100:tick.wav
182,192,37950,1,0,0:0:0:0:
329,192,37950,1,0,0:0:0:0:
109,192,38069,1,2,0:0:0:0:
402,192,38069,1,0,0:0:0:100:clap03.wav
402,192,38307,1,0,0:0:0:100:tick.wav
329,192,38426,1,0,0:0:0:0:
109,192,38545,1,2,0:0:0:0:
256,192,38545,1,0,0:0:0:0:
475,192,38783,1,0,0:0:0:100:tick.wav
182,192,38902,1,0,0:0:0:0:
402,192,38902,1,0,0:0:0:0:
36,192,39021,1,2,0:0:0:0:
329,192,39021,1,0,0:0:0:100:clap03.wav
109,192,39259,1,0,0:0:0:100:tick.wav
475,192,39259,1,0,0:0:0:0:
256,192,39378,1,0,0:0:0:0:
36,192,39497,1,2,0:0:0:0:
402,192,39497,1,0,0:0:0:0:
475,192,39735,1,0,0:0:0:100:tick.wav
182,192,39854,1,2,0:0:0:0:
329,192,39854,1,0,0:0:0:0:
36,192,39974,1,0,0:0:0:100:clap03.wav
256,192,39974,1,0,0:0:0:0:
109,192,40212,1,2,0:0:0:0:
329,192,40212,1,0,0:0:0:0:
182,192,40450,1,2,0:0:0:0:
402,192,40450,1,0,0:0:0:0:
256,192,40688,1,0,0:0:0:0:
109,192,40807,1,0,0:0:0:0:
329,192,40807,1,0,0:0:0:0:
36,192,40926,1,2,0:0:0:0:
402,192,40926,1,0,0:0:0:100:clap03.wav
402,192,41164,1,0,0:0:0:100:tick.wav
329,192,41283,1,0,0:0:0:0:
109,192,41402,1,2,0:0:0:0:
256,192,41402,1,0,0:0:0:0:
36,192,41640,1,0,0:0:0:100:tick.wav
182,192,41759,1,0,0:0:0:0:
402,192,41759,1,0,0:0:0:0:
109,192,41878,1,2,0:0:0:0:
329,192,41878,1,0,0:0:0:100:clap03.wav
329,192,42116,1,0,0:0:0:100:tick.wav
182,192,42235,1,0,0:0:0:0:
256,192,42354,1,2,0:0:0:0:
475,192,42354,1,0,0:0:0:0:
329,192,42593,1,0,0:0:0:100:tick.wav
109,192,42712,1,0,0:0:0:0:
256,192,42712,1,0,0:0:0:0:
36,192,42831,1,2,0:0:0:0:
402,192,42831,1,0,0:0:0:100:clap03.wav
402,192,43069,1,0,0:0:0:100:tick.wav
109,192,43188,1,0,0:0:0:0:
256,192,43307,1,2,0:0:0:0:
329,192,43307,1,0,0:0:0:0:
182,192,43545,1,0,0:0:0:100:tick.wav
329,192,43664,1,0,0:0:0:0:
402,192,43664,1,0,0:0:0:0:
109,192,43783,1,2,0:0:0:0:
475,192,43783,1,0,0:0:0:100:clap03.wav
182,192,44021,1,0,0:0:0:100:tick.wav
402,192,44021,1,0,0:0:0:0:
182,192,44259,1,2,0:0:0:0:
329,192,44259,1,0,0:0:0:0:
36,192,44497,1,0,0:0:0:100:tick.wav
109,192,44616,1,0,0:0:0:0:
256,192,44735,1,2,0:0:0:0:
402,192,44735,1,0,0:0:0:100:clap03.wav
182,192,44854,1,0,0:0:0:0:
329,192,44974,1,0,0:0:0:100:tick.wav
182,192,45093,1,0,0:0:0:0:
36,192,45212,1,2,0:0:0:0:
402,192,45212,1,0,0:0:0:0:
182,192,45450,1,0,0:0:0:100:tick.wav
329,192,45569,1,0,0:0:0:0:
36,192,45688,1,2,0:0:0:0:
402,192,45688,1,0,0:0:0:100:clap03.wav
402,192,45926,1,0,0:0:0:100:tick.wav
36,192,46164,1,2,0:0:0:0:
109,192,46164,1,0,0:0:0:0:
329,192,46164,1,0,0:0:0:0:
109,192,46402,1,0,0:0:0:0:
182,192,46521,1,2,0:0:0:0:
402,192,46521,1,0,0:0:0:0:
475,192,46521,1,0,0:0:0:0:
402,192,46759,1,0,0:0:0:0:
36,192,46878,1,2,0:0:0:0:
182,192,46878,1,0,0:0:0:0:
329,192,46878,1,0,0:0:0:0:
36,192,47116,1,2,0:0:0:0:
329,192,47116,1,0,0:0:0:0:
475,192,47116,1,0,0:0:0:0:
182,192,47354,1,0,0:0:0:0:
109,192,47593,1,2,0:0:0:0:
329,192,47593,1,0,0:0:0:20:kick02.wav
402,192,47593,1,0,0:0:0:0:
256,192,47712,1,0,0:0:0:20:kick02.wav
109,192,47831,1,2,0:0:0:0:
329,192,47831,1,0,0:0:0:0:
402,192,47831,1,0,0:0:0:0:
36,192,48069,1,2,0:0:0:0:
182,192,48069,1,0,0:0:0:0:
475,192,48069,1,0,0:0:0:0:
402,192,48307,1,0,0:0:0:0:
109,192,48545,1,0,0:0:0:0:
256,192,48545,1,0,0:0:0:0:
402,192,48783,1,0,0:0:0:0:
109,192,49021,1,0,0:0:0:0:
256,192,49021,1,0,0:0:0:0:
182,192,49259,1,2,0:0:0:0:
329,192,49259,1,0,0:0:0:0:
475,192,49259,1,0,0:0:0:0:
36,192,49497,1,0,0:0:0:0:
256,192,49497,1,0,0:0:0:0:
402,192,49735,1,0,0:0:0:0:
109,192,49974,1,2,0:0:0:0:
329,192,49974,1,0,0:0:0:0:
475,192,49974,1,0,0:0:0:0:
182,192,50212,1,0,0:0:0:0:
329,192,50331,1,0,0:0:0:0:
256,192,50450,1,0,0:0:0:0:
475,192,50450,1,0,0:0:0:0:
109,192,50688,1,0,0:0:0:0:
182,192,50807,1,0,0:0:0:0:
256,192,50926,1,0,0:0:0:0:
402,192,50926,1,0,0:0:0:0:
36,192,51164,1,2,0:0:0:0:
182,192,51164,1,0,0:0:0:0:
329,192,51164,1,0,0:0:0:0:
256,192,51402,1,0,0:0:0:0:
475,192,51402,1,0,0:0:0:0:
182,192,51640,1,0,0:0:0:0:
36,192,51878,1,2,0:0:0:0:
329,192,51878,1,0,0:0:0:0:
475,192,51878,1,0,0:0:0:0:
109,192,52116,1,0,0:0:0:0:
256,192,52235,1,0,0:0:0:0:
182,192,52354,1,0,0:0:0:0:
402,192,52354,1,0,0:0:0:0:
475,192,52593,1,0,0:0:0:0:
329,192,52712,1,0,0:0:0:0:
36,192,52831,1,0,0:0:0:0:
182,192,52831,1,0,0:0:0:0:
109,192,53069,1,2,0:0:0:0:
329,192,53069,1,0,0:0:0:0:
402,192,53069,1,0,0:0:0:0:
182,192,53307,1,0,0:0:0:0:
475,192,53307,1,0,0:0:0:0:
256,192,53426,1,0,0:0:0:0:
402,192,53545,1,0,0:0:0:0:
36,192,53783,1,0,0:0:0:50:soft-hitclap.wav
329,192,53783,1,0,0:0:0:70:Cymatics - House Kick 1 - D#.wav
182,192,53902,1,0,0:0:0:0:
256,192,54021,1,0,0:0:0:0:
402,192,54140,1,0,0:0:0:70:Cymatics - House Kick 1 - D#.wav
475,192,54140,1,0,0:0:0:0:
109,192,54259,1,0,0:0:0:0:
182,192,54378,1,0,0:0:0:0:
329,192,54497,1,0,0:0:0:70:Cymatics - House Kick 1 - D#.wav
475,192,54497,1,0,0:0:0:0:
36,192,54616,1,0,0:0:0:0:
109,192,54735,1,2,0:0:0:0:
402,192,54735,1,0,0:0:0:0:
182,192,54854,1,0,0:0:0:50:soft-hitclap.wav
329,192,54854,1,0,0:0:0:0:
109,192,54974,1,2,0:0:0:0:
402,192,54974,1,0,0:0:0:0:
256,192,55093,1,0,0:0:0:0:
36,192,55212,1,2,0:0:0:0:
329,192,55212,1,0,0:0:0:0:
475,192,55212,128,0,55688:0:0:0:0:
256,192,55450,1,0,0:0:0:0:
36,192,55688,128,2,56402:0:0:0:0:
109,192,55688,1,0,0:0:0:0:
402,192,55688,1,0,0:0:0:0:
256,192,55926,1,0,0:0:0:0:
182,192,56164,1,2,0:0:0:0:
475,192,56164,1,0,0:0:0:0:
329,192,56283,1,0,0:0:0:0:
109,192,56402,1,0,0:0:0:0:
402,192,56402,128,0,57116:0:0:0:0:
256,192,56640,1,2,0:0:0:0:
329,192,56640,1,0,0:0:0:0:
182,192,56759,1,0,0:0:0:0:
109,192,56878,1,0,0:0:0:0:
36,192,56997,1,0,0:0:0:0:
182,192,57116,1,2,0:0:0:0:
329,192,57116,1,0,0:0:0:0:
256,192,57354,1,0,0:0:0:0:
109,192,57593,1,2,0:0:0:0:
402,192,57593,1,0,0:0:0:0:
475,192,57593,128,0,58307:0:0:0:0:
256,192,57831,1,0,0:0:0:0:
109,192,58069,1,2,0:0:0:0:
182,192,58069,1,0,0:0:0:100:clap03.wav
402,192,58069,1,0,0:0:0:0:
256,192,58188,1,0,0:0:0:0:
36,192,58307,128,0,59021:0:0:0:0:
329,192,58307,1,0,0:0:0:0:
402,192,58545,1,2,0:0:0:0:
475,192,58545,1,0,0:0:0:0:
329,192,58783,1,0,0:0:0:0:
256,192,58902,1,0,0:0:0:0:
182,192,59021,1,2,0:0:0:0:
475,192,59021,1,0,0:0:0:0:
402,192,59140,1,0,0:0:0:0:
329,192,59259,1,0,0:0:0:0:
36,192,59497,1,2,0:0:0:0:
256,192,59497,128,0,60450:0:0:0:0:
402,192,59497,1,0,0:0:0:0:
36,192,59735,1,2,0:0:0:0:
109,192,59735,1,0,0:0:0:0:
329,192,59854,1,0,0:0:0:0:
182,192,59974,1,2,0:0:0:0:
475,192,59974,1,0,0:0:0:0:
402,192,60212,1,2,0:0:0:0:
475,192,60212,1,0,0:0:0:0:
182,192,60331,1,0,0:0:0:50:soft-hitclap.wav
36,192,60450,1,2,0:0:0:0:
109,192,60450,1,0,0:0:0:0:
329,192,60450,1,0,0:0:0:0:
402,192,60569,1,2,0:0:0:0:
36,192,60688,1,2,0:0:0:0:
256,192,60688,1,0,0:0:0:0:
329,192,60807,1,2,0:0:0:0:
182,192,60926,1,2,0:0:0:0:
475,192,60926,1,0,0:0:0:0:
256,192,61045,1,2,0:0:0:0:
109,192,61164,1,2,0:0:0:0:
402,192,61164,1,0,0:0:0:0:
182,192,61283,1,2,0:0:0:0:
36,192,61402,1,0,0:0:0:0:
256,192,61640,128,0,61878:0:0:0:0:
182,192,61878,1,0,0:0:0:0:
329,192,62116,1,0,0:0:0:0:
109,192,62354,1,0,0:0:0:0:
402,192,62474,1,0,0:0:0:0:
402,192,62831,1,0,0:0:0:0:
109,192,62950,128,0,63307:0:0:0:0:
182,192,63307,1,2,0:0:0:0:
256,192,63307,1,0,0:0:0:0:
475,192,63307,1,0,0:0:0:0:
36,192,63545,1,0,0:0:0:100:tick.wav
329,192,63545,1,0,0:0:0:0:
109,192,63783,1,0,0:0:0:50:soft-hitclap.wav
402,192,63783,1,0,0:0:0:0:
475,192,63783,1,0,0:0:0:0:
182,192,63902,1,0,0:0:0:0:
256,192,64021,1,0,0:0:0:100:tick.wav
329,192,64259,1,2,0:0:0:0:
475,192,64259,1,0,0:0:0:0:
256,192,64497,1,0,0:0:0:100:tick.wav
182,192,64616,1,0,0:0:0:0:
36,192,64735,1,0,0:0:0:50:soft-hitclap.wav
109,192,64735,1,0,0:0:0:0:
402,192,64735,1,0,0:0:0:0:
329,192,64854,1,0,0:0:0:0:
182,192,64974,1,0,0:0:0:100:tick.wav
256,192,65212,1,2,0:0:0:0:
475,192,65212,1,0,0:0:0:0:
36,192,65450,1,0,0:0:0:100:tick.wav
109,192,65569,1,0,0:0:0:0:
182,192,65688,1,0,0:0:0:50:soft-hitclap.wav
329,192,65688,1,0,0:0:0:0:
402,192,65688,1,0,0:0:0:0:
36,192,65807,1,0,0:0:0:0:
475,192,65926,1,0,0:0:0:100:tick.wav
329,192,66045,1,0,0:0:0:0:
109,192,66164,1,2,0:0:0:0:
256,192,66164,1,0,0:0:0:0:
36,192,66402,1,0,0:0:0:100:tick.wav
402,192,66402,1,0,0:0:0:0:
36,192,66640,1,0,0:0:0:50:soft-hitclap.wav
329,192,66640,1,0,0:0:0:0:
475,192,66640,1,0,0:0:0:0:
182,192,66878,1,0,0:0:0:100:tick.wav
256,192,67116,1,2,0:0:0:0:
402,192,67116,1,0,0:0:0:0:
329,192,67354,1,0,0:0:0:100:tick.wav
36,192,67593,1,0,0:0:0:50:soft-hitclap.wav
182,192,67593,1,0,0:0:0:0:
475,192,67593,1,0,0:0:0:0:
256,192,67712,1,0,0:0:0:0:
109,192,67831,1,0,0:0:0:100:tick.wav
182,192,68069,1,2,0:0:0:0:
402,192,68069,1,0,0:0:0:0:
256,192,68188,1,0,0:0:0:0:
329,192,68307,1,0,0:0:0:100:tick.wav
109,192,68426,1,0,0:0:0:0:
36,192,68545,1,0,0:0:0:50:soft-hitclap.wav
256,192,68545,1,0,0:0:0:0:
402,192,68545,1,0,0:0:0:0:
182,192,68664,1,0,0:0:0:0:
109,192,68783,1,0,0:0:0:100:tick.wav
182,192,69021,1,2,0:0:0:0:
329,192,69021,1,0,0:0:0:0:
402,192,69259,1,0,0:0:0:100:tick.wav
475,192,69259,1,0,0:0:0:0:
256,192,69378,1,0,0:0:0:0:
36,192,69497,1,0,0:0:0:50:soft-hitclap.wav
182,192,69497,1,0,0:0:0:0:
475,192,69497,1,0,0:0:0:0:
329,192,69735,1,0,0:0:0:100:tick.wav
36,192,69974,1,2,0:0:0:0:
256,192,69974,1,0,0:0:0:0:
109,192,70212,1,0,0:0:0:100:tick.wav
256,192,70331,1,0,0:0:0:0:
182,192,70450,1,0,0:0:0:50:soft-hitclap.wav
402,192,70450,1,0,0:0:0:50:Cymatics - Future Bass Ride 3.wav
475,192,70450,1,0,0:0:0:0:
329,192,70569,1,0,0:0:0:50:Cymatics - Future Bass Ride 3.wav
36,192,70688,1,0,0:0:0:50:Cymatics - Future Bass Ride 3.wav
256,192,70688,1,0,0:0:0:100:tom02.wav
109,192,70807,1,0,0:0:0:50:Cymatics - Future Bass Ride 3.wav
182,192,70926,1,2,0:0:0:0:
402,192,70926,1,0,0:0:0:0:
475,192,70926,1,0,0:0:0:0:
109,192,71164,1,0,0:0:0:100:tick.wav
182,192,71283,1,0,0:0:0:0:
256,192,71402,1,0,0:0:0:50:soft-hitclap.wav
329,192,71402,1,0,0:0:0:0:
475,192,71402,1,0,0:0:0:0:
36,192,71640,1,0,0:0:0:100:tick.wav
109,192,71878,1,2,0:0:0:0:
402,192,71878,1,0,0:0:0:0:
475,192,72116,1,0,0:0:0:100:tick.wav
329,192,72235,1,0,0:0:0:0:
402,192,72235,1,0,0:0:0:0:
36,192,72354,1,0,0:0:0:50:soft-hitclap.wav
182,192,72354,1,0,0:0:0:0:
256,192,72354,1,0,0:0:0:0:
109,192,72593,128,0,72831:0:0:0:100:tick.wav
182,192,72831,1,2,0:0:0:0:
402,192,72831,1,0,0:0:0:0:
475,192,73069,128,0,73307:0:0:0:100:tick.wav
36,192,73307,1,0,0:0:0:50:soft-hitclap.wav
256,192,73307,1,0,0:0:0:0:
329,192,73426,1,0,0:0:0:0:
402,192,73545,1,0,0:0:0:100:tick.wav
182,192,73664,1,0,0:0:0:0:
256,192,73783,1,2,0:0:0:0:
475,192,73783,1,0,0:0:0:0:
109,192,73902,1,0,0:0:0:0:
36,192,74021,128,0,74259:0:0:0:100:tick.wav
109,192,74259,1,0,0:0:0:50:soft-hitclap.wav
402,192,74259,1,0,0:0:0:0:
329,192,74378,128,0,74735:0:0:0:0:
182,192,74497,1,0,0:0:0:100:tick.wav
256,192,74616,1,0,0:0:0:0:
36,192,74735,128,2,75212:0:0:0:0:
475,192,74735,1,0,0:0:0:0:
109,192,74974,1,0,0:0:0:100:tick.wav
256,192,75093,1,2,0:0:0:0:
402,192,75212,1,0,0:0:0:50:soft-hitclap.wav
475,192,75212,1,0,0:0:0:0:
182,192,75450,1,2,0:0:0:0:
329,192,75450,128,0,75688:0:0:0:0:
109,192,75688,1,0,0:0:0:0:
182,192,75807,1,0,0:0:0:0:
256,192,75926,128,2,76164:0:0:0:0:
402,192,75926,1,0,0:0:0:0:
475,192,75926,1,0,0:0:0:0:
36,192,76164,1,0,0:0:0:50:soft-hitclap.wav
109,192,76164,1,0,0:0:0:0:
402,192,76164,1,0,0:0:0:0:
329,192,76283,1,0,0:0:0:0:
182,192,76402,128,0,76640:0:0:0:100:tick.wav
109,192,76640,1,2,0:0:0:0:
402,192,76640,1,0,0:0:0:0:
329,192,76878,1,0,0:0:0:100:tick.wav
36,192,76997,1,2,0:0:0:0:
256,192,76997,1,0,0:0:0:0:
329,192,77116,1,0,0:0:0:0:
109,192,77354,1,2,0:0:0:0:
182,192,77354,1,0,0:0:0:0:
475,192,77354,1,0,0:0:0:0:
256,192,77593,1,0,0:0:0:0:
329,192,77712,1,0,0:0:0:0:
36,192,77831,128,0,78069:0:0:0:0:
475,192,78069,128,0,78188:0:0:0:0:
329,192,78188,128,0,78545:0:0:0:0:
182,192,78307,128,0,78545:0:0:0:0:
36,192,78545,128,2,79021:0:0:0:0:
256,192,78545,1,0,0:0:0:0:
402,192,78545,1,0,0:0:0:0:
182,192,78783,1,0,0:0:0:100:tick.wav
329,192,78902,1,0,0:0:0:0:
109,192,79021,1,0,0:0:0:50:soft-hitclap.wav
256,192,79021,1,0,0:0:0:0:
475,192,79021,1,0,0:0:0:0:
402,192,79140,1,0,0:0:0:0:
329,192,79259,128,0,79497:0:0:0:100:tick.wav
36,192,79497,1,2,0:0:0:0:
182,192,79497,1,0,0:0:0:0:
256,192,79735,1,0,0:0:0:100:tick.wav
329,192,79854,1,0,0:0:0:0:
36,192,79974,1,0,0:0:0:50:soft-hitclap.wav
109,192,79974,1,0,0:0:0:0:
402,192,79974,1,0,0:0:0:0:
182,192,80093,1,0,0:0:0:0:
475,192,80212,1,0,0:0:0:100:tick.wav
402,192,80331,1,0,0:0:0:0:
36,192,80450,1,2,0:0:0:0:
329,192,80450,128,0,80926:0:0:0:0:
109,192,80569,1,0,0:0:0:0:
182,192,80688,1,0,0:0:0:100:tick.wav
109,192,80807,1,0,0:0:0:0:
36,192,80926,1,0,0:0:0:50:soft-hitclap.wav
256,192,80926,1,0,0:0:0:0:
475,192,80926,1,0,0:0:0:0:
402,192,81045,1,0,0:0:0:0:
182,192,81164,128,0,81402:0:0:0:100:tick.wav
36,192,81402,1,2,0:0:0:0:
329,192,81402,1,0,0:0:0:0:
256,192,81521,1,0,0:0:0:0:
402,192,81640,1,0,0:0:0:100:tick.wav
109,192,81878,1,0,0:0:0:50:soft-hitclap.wav
329,192,81878,1,0,0:0:0:0:
475,192,81878,1,0,0:0:0:0:
182,192,82116,1,0,0:0:0:100:tick.wav
36,192,82354,1,2,0:0:0:0:
109,192,82354,1,0,0:0:0:0:
402,192,82354,128,0,82831:0:0:0:0:
329,192,82593,1,0,0:0:0:100:tick.wav
182,192,82712,1,0,0:0:0:0:
36,192,82831,1,0,0:0:0:50:soft-hitclap.wav
109,192,82831,1,0,0:0:0:0:
475,192,82831,1,0,0:0:0:0:
329,192,82950,1,0,0:0:0:0:
256,192,83069,128,0,83307:0:0:0:100:tick.wav
109,192,83307,1,2,0:0:0:0:
182,192,83307,1,0,0:0:0:0:
402,192,83545,1,0,0:0:0:100:tick.wav
329,192,83664,1,0,0:0:0:0:
36,192,83783,1,0,0:0:0:50:soft-hitclap.wav
182,192,83783,1,0,0:0:0:0:
256,192,83783,1,0,0:0:0:0:
329,192,83902,1,0,0:0:0:0:
402,192,84021,1,0,0:0:0:100:tick.wav
109,192,84140,1,0,0:0:0:0:
182,192,84259,1,2,0:0:0:0:
475,192,84259,128,0,84735:0:0:0:0:
329,192,84378,128,0,84735:0:0:0:0:
36,192,84735,1,0,0:0:0:50:soft-hitclap.wav
109,192,84735,1,0,0:0:0:0:
402,192,84735,128,0,85212:0:0:0:0:
182,192,84854,128,0,85212:0:0:0:0:
109,192,85212,1,2,0:0:0:0:
329,192,85212,128,0,85688:0:0:0:0:
36,192,85331,128,0,85688:0:0:0:0:
256,192,85450,128,0,85688:0:0:0:100:tick.wav
109,192,85688,1,0,0:0:0:50:soft-hitclap.wav
402,192,85688,1,0,0:0:0:50:Cymatics - Future Bass Ride 3.wav
475,192,85688,128,0,85926:0:0:0:0:
182,192,85807,1,0,0:0:0:50:Cymatics - Future Bass Ride 3.wav
256,192,85926,128,0,86164:0:0:0:50:Cymatics - Future Bass Ride 3.wav
109,192,86045,1,0,0:0:0:50:Cymatics - Future Bass Ride 3.wav
36,192,86164,128,2,86640:0:0:0:0:
402,192,86164,1,0,0:0:0:0:
329,192,86402,1,0,0:0:0:100:tick.wav
256,192,86521,1,0,0:0:0:0:
109,192,86640,1,0,0:0:0:50:soft-hitclap.wav
402,192,86640,1,0,0:0:0:0:
475,192,86640,1,0,0:0:0:0:
329,192,86759,1,0,0:0:0:0:
256,192,86878,128,0,87116:0:0:0:100:tick.wav
36,192,87116,1,2,0:0:0:0:
109,192,87116,1,0,0:0:0:0:
329,192,87354,1,0,0:0:0:100:tick.wav
182,192,87474,1,0,0:0:0:0:
109,192,87593,1,0,0:0:0:50:soft-hitclap.wav
256,192,87593,1,0,0:0:0:0:
475,192,87593,1,0,0:0:0:0:
182,192,87831,1,0,0:0:0:100:tick.wav
329,192,87950,1,0,0:0:0:0:
36,192,88069,128,2,88545:0:0:0:0:
402,192,88069,1,0,0:0:0:0:
256,192,88307,1,0,0:0:0:100:tick.wav
182,192,88426,1,0,0:0:0:0:
109,192,88545,1,0,0:0:0:50:soft-hitclap.wav
402,192,88545,1,0,0:0:0:0:
475,192,88545,1,0,0:0:0:0:
329,192,88664,1,0,0:0:0:0:
256,192,88783,128,0,89021:0:0:0:100:tick.wav
36,192,89021,1,2,0:0:0:0:
402,192,89021,1,0,0:0:0:0:
109,192,89259,1,0,0:0:0:100:tick.wav
182,192,89378,1,0,0:0:0:0:
36,192,89497,1,0,0:0:0:50:soft-hitclap.wav
256,192,89497,1,0,0:0:0:0:
475,192,89497,1,0,0:0:0:0:
329,192,89735,1,0,0:0:0:100:tick.wav
109,192,89974,1,2,0:0:0:0:
475,192,89974,128,0,90450:0:0:0:0:
256,192,90212,1,0,0:0:0:100:tick.wav
329,192,90331,1,0,0:0:0:0:
36,192,90450,1,0,0:0:0:50:soft-hitclap.wav
109,192,90450,1,0,0:0:0:0:
402,192,90450,1,0,0:0:0:0:
182,192,90569,1,0,0:0:0:0:
256,192,90688,128,0,90926:0:0:0:100:tick.wav
36,192,90926,1,2,0:0:0:0:
402,192,90926,1,0,0:0:0:0:
109,192,91164,1,0,0:0:0:100:tick.wav
182,192,91283,1,0,0:0:0:0:
36,192,91402,1,0,0:0:0:50:soft-hitclap.wav
329,192,91402,1,0,0:0:0:0:
475,192,91402,1,0,0:0:0:0:
256,192,91640,1,0,0:0:0:100:tick.wav
182,192,91759,1,0,0:0:0:0:
36,192,91878,1,2,0:0:0:0:
402,192,91878,1,0,0:0:0:0:
329,192,92116,1,0,0:0:0:100:tick.wav
182,192,92235,1,0,0:0:0:0:
36,192,92354,1,0,0:0:0:50:soft-hitclap.wav
329,192,92354,1,0,0:0:0:0:
475,192,92354,1,0,0:0:0:0:
182,192,92593,1,0,0:0:0:100:tick.wav
256,192,92712,1,0,0:0:0:0:
109,192,92831,1,2,0:0:0:0:
402,192,92831,1,0,0:0:0:0:
36,192,92950,1,0,0:0:0:0:
329,192,93307,1,0,0:0:0:0:
475,192,93307,1,0,0:0:0:0:
182,192,93466,1,0,0:0:0:0:
402,192,93624,1,0,0:0:0:0:
256,192,93783,128,0,94259:0:0:0:0:
109,192,94259,128,0,95688:0:0:0:0:
182,192,94974,128,0,95688:0:0:0:0:
36,192,95688,1,2,0:0:0:0:
402,192,95688,1,0,0:0:0:100:tick.wav
475,192,95688,1,0,0:0:0:0:
329,192,95807,1,0,0:0:0:100:tick.wav
256,192,95926,1,0,0:0:0:100:tick.wav
182,192,96045,1,0,0:0:0:100:tick.wav
475,192,96164,1,0,0:0:0:100:tick.wav
402,192,96283,1,0,0:0:0:0:
329,192,96402,1,0,0:0:0:100:tick.wav
36,192,96640,1,0,0:0:0:50:soft-hitclap.wav
182,192,96640,1,0,0:0:0:0:
475,192,96640,1,0,0:0:0:0:
256,192,96759,1,0,0:0:0:0:
329,192,96878,1,2,0:0:0:0:
402,192,96878,1,0,0:0:0:0:
109,192,96997,1,0,0:0:0:0:
182,192,97116,1,0,0:0:0:50:soft-hitclap.wav
256,192,97116,1,0,0:0:0:50:Cymatics - Future Bass Ride 3.wav
402,192,97235,1,0,0:0:0:50:Cymatics - Future Bass Ride 3.wav
109,192,97354,1,0,0:0:0:50:Cymatics - Future Bass Ride 3.wav
329,192,97354,1,0,0:0:0:0:
182,192,97474,1,0,0:0:0:50:Cymatics - Future Bass Ride 3.wav
36,192,97593,1,0,0:0:0:100:tick.wav
256,192,97593,1,0,0:0:0:0:
329,192,97831,1,2,0:0:0:0:
475,192,97831,1,0,0:0:0:100:tick.wav
36,192,98069,1,2,0:0:0:0:
182,192,98069,1,0,0:0:0:0:
402,192,98307,1,0,0:0:0:100:tick.wav
182,192,98545,1,0,0:0:0:100:clap03.wav
329,192,98545,1,0,0:0:0:50:soft-hitclap.wav
475,192,98545,1,0,0:0:0:0:
109,192,98664,1,0,0:0:0:100:tick.wav
36,192,98783,1,2,0:0:0:0:
256,192,98783,1,0,0:0:0:0:
329,192,98902,1,0,0:0:0:50:Cymatics - Future Bass Ride 3.wav
182,192,99021,1,2,0:0:0:0:
402,192,99021,1,0,0:0:0:50:Cymatics - Future Bass Ride 3.wav
109,192,99140,1,0,0:0:0:50:Cymatics - Future Bass Ride 3.wav
36,192,99259,1,2,0:0:0:0:
329,192,99259,1,0,0:0:0:50:Cymatics - Future Bass Ride 3.wav
402,192,99378,1,0,0:0:0:50:Cymatics - Future Bass Ride 3.wav
256,192,99497,1,2,0:0:0:0:
475,192,99497,1,0,0:0:0:0:
182,192,99616,1,0,0:0:0:100:tick.wav
402,192,99735,1,0,0:0:0:100:tick.wav
329,192,99854,1,0,0:0:0:100:tick.wav
109,192,99974,1,0,0:0:0:100:tick.wav
182,192,100093,1,0,0:0:0:0:
329,192,100212,1,0,0:0:0:100:tick.wav
256,192,100331,1,0,0:0:0:100:tick.wav
36,192,100450,1,0,0:0:0:100:clap03.wav
182,192,100450,1,0,0:0:0:50:soft-hitclap.wav
402,192,100450,1,0,0:0:0:0:
329,192,100569,1,0,0:0:0:0:
109,192,100688,1,2,0:0:0:0:
256,192,100688,1,0,0:0:0:0:
329,192,100807,1,0,0:0:0:0:
182,192,100926,1,2,0:0:0:0:
402,192,100926,1,0,0:0:0:50:Cymatics - Future Bass Ride 3.wav
256,192,101045,1,0,0:0:0:50:Cymatics - Future Bass Ride 3.wav
329,192,101164,1,2,0:0:0:0:
475,192,101164,1,0,0:0:0:50:Cymatics - Future Bass Ride 3.wav
256,192,101283,1,0,0:0:0:50:Cymatics - Future Bass Ride 3.wav
36,192,101402,1,0,0:0:0:50:Cymatics - Future Bass Ride 3.wav
182,192,101402,1,0,0:0:0:0:
402,192,101640,1,2,0:0:0:0:
475,192,101640,1,0,0:0:0:0:
109,192,101878,1,2,0:0:0:0:
182,192,101878,1,0,0:0:0:0:
329,192,102116,1,0,0:0:0:100:tick.wav
109,192,102354,1,0,0:0:0:50:soft-hitclap.wav
402,192,102354,1,0,0:0:0:0:
475,192,102354,1,0,0:0:0:0:
36,192,102474,1,0,0:0:0:0:
256,192,102593,1,0,0:0:0:0:
182,192,102712,1,0,0:0:0:0:
109,192,102831,1,0,0:0:0:50:soft-hitclap.wav
402,192,102831,1,0,0:0:0:0:
475,192,102831,1,0,0:0:0:0:
329,192,102950,1,0,0:0:0:0:
256,192,103069,1,0,0:0:0:0:
182,192,103188,1,0,0:0:0:0:
36,192,103307,1,2,0:0:0:0:
402,192,103307,1,0,0:0:0:0:
329,192,103426,1,0,0:0:0:0:
109,192,103545,1,2,0:0:0:0:
256,192,103545,1,0,0:0:0:0:
182,192,103783,1,0,0:0:0:100:tick.wav
256,192,104021,1,0,0:0:0:100:tick.wav
475,192,104021,128,0,104259:0:0:0:0:
109,192,104259,1,0,0:0:0:50:soft-hitclap.wav
182,192,104259,1,0,0:0:0:0:
329,192,104259,1,0,0:0:0:0:
36,192,104497,128,0,104735:0:0:0:100:tick.wav
256,192,104497,1,0,0:0:0:0:
329,192,104735,1,2,0:0:0:0:
402,192,104735,1,0,0:0:0:0:
182,192,104854,1,0,0:0:0:0:
109,192,104974,1,0,0:0:0:0:
36,192,105093,1,0,0:0:0:0:
256,192,105212,128,0,105450:0:0:0:100:tick.wav
475,192,105212,1,0,0:0:0:0:
109,192,105450,1,2,0:0:0:0:
329,192,105450,128,0,105688:0:0:0:0:
402,192,105688,1,0,0:0:0:100:tick.wav
36,192,105926,1,2,0:0:0:0:
182,192,105926,128,0,106164:0:0:0:0:
109,192,106164,1,0,0:0:0:50:soft-hitclap.wav
402,192,106164,1,0,0:0:0:0:
475,192,106164,1,0,0:0:0:0:
329,192,106283,1,0,0:0:0:0:
36,192,106402,1,0,0:0:0:100:tick.wav
256,192,106402,128,0,106640:0:0:0:0:
109,192,106521,1,0,0:0:0:0:
182,192,106640,1,2,0:0:0:0:
475,192,106640,1,0,0:0:0:0:
402,192,106878,1,0,0:0:0:100:tick.wav
36,192,107116,128,2,107354:0:0:0:0:
329,192,107116,1,0,0:0:0:0:
329,192,107354,1,2,0:0:0:0:
475,192,107354,128,0,107593:0:0:0:100:tick.wav
182,192,107593,1,0,0:0:0:100:tick.wav
256,192,107712,1,0,0:0:0:0:
36,192,107831,128,2,108069:0:0:0:0:
329,192,107831,1,0,0:0:0:0:
256,192,107950,1,0,0:0:0:0:
109,192,108069,1,0,0:0:0:50:soft-hitclap.wav
182,192,108069,1,0,0:0:0:0:
475,192,108069,1,0,0:0:0:0:
329,192,108307,128,0,108545:0:0:0:100:tick.wav
402,192,108307,1,0,0:0:0:0:
36,192,108545,1,2,0:0:0:0:
475,192,108545,1,0,0:0:0:50:Cymatics - Future Bass Ride 3.wav
182,192,108664,1,0,0:0:0:50:Cymatics - Future Bass Ride 3.wav
109,192,108783,1,0,0:0:0:50:Cymatics - Future Bass Ride 3.wav
256,192,108902,1,0,0:0:0:50:Cymatics - Future Bass Ride 3.wav
36,192,109021,1,0,0:0:0:0:
182,192,109259,128,0,109497:0:0:0:0:
329,192,109497,128,0,109735:0:0:0:0:
475,192,109735,128,0,109974:0:0:0:0:
36,192,109974,128,0,110450:0:0:0:0:
109,192,109974,128,0,110450:0:0:0:0:
329,192,110212,128,0,110450:0:0:0:0:
402,192,110212,128,0,110450:0:0:0:0:
256,192,110450,128,0,110926:0:0:0:0:
36,192,110926,1,2,0:0:0:0:
109,192,110926,1,0,0:0:0:0:
475,192,110926,1,0,0:0:0:0:
182,192,111164,1,0,0:0:0:100:tick.wav
329,192,111283,1,0,0:0:0:0:
402,192,111283,1,0,0:0:0:0:
36,192,111402,1,2,0:0:0:0:
109,192,111402,1,0,0:0:0:100:clap03.wav
36,192,111640,1,0,0:0:0:100:tick.wav
182,192,111759,1,0,0:0:0:0:
329,192,111878,1,2,0:0:0:0:
475,192,111878,1,0,0:0:0:0:
256,192,112116,1,0,0:0:0:100:tick.wav
109,192,112235,1,0,0:0:0:0:
182,192,112235,1,0,0:0:0:0:
402,192,112354,1,2,0:0:0:0:
475,192,112354,1,0,0:0:0:100:clap03.wav
475,192,112593,1,0,0:0:0:100:tick.wav
329,192,112712,1,0,0:0:0:0:
36,192,112831,1,2,0:0:0:0:
182,192,112831,1,0,0:0:0:0:
402,192,113069,1,0,0:0:0:100:tick.wav
256,192,113188,1,0,0:0:0:0:
329,192,113188,1,0,0:0:0:0:
36,192,113307,1,2,0:0:0:0:
109,192,113307,1,0,0:0:0:100:clap03.wav
36,192,113545,1,0,0:0:0:100:tick.wav
182,192,113664,1,0,0:0:0:0:
329,192,113783,1,2,0:0:0:0:
475,192,113783,1,0,0:0:0:0:
402,192,114021,1,0,0:0:0:100:tick.wav
109,192,114140,1,0,0:0:0:0:
182,192,114140,1,0,0:0:0:0:
36,192,114259,1,2,0:0:0:0:
256,192,114259,1,0,0:0:0:100:clap03.wav
109,192,114497,1,0,0:0:0:100:tick.wav
402,192,114497,1,0,0:0:0:0:
182,192,114616,1,0,0:0:0:0:
256,192,114735,1,2,0:0:0:0:
475,192,114735,1,0,0:0:0:0:
402,192,114974,1,0,0:0:0:100:tick.wav
182,192,115093,1,0,0:0:0:0:
329,192,115093,1,0,0:0:0:0:
36,192,115212,1,2,0:0:0:0:
109,192,115212,1,0,0:0:0:100:clap03.wav
109,192,115450,1,0,0:0:0:100:tick.wav
256,192,115569,1,0,0:0:0:0:
402,192,115688,1,2,0:0:0:0:
475,192,115688,1,0,0:0:0:0:
36,192,115926,1,0,0:0:0:100:tick.wav
182,192,116045,1,0,0:0:0:0:
256,192,116045,1,0,0:0:0:0:
109,192,116164,1,2,0:0:0:0:
329,192,116164,1,0,0:0:0:100:clap03.wav
329,192,116402,1,0,0:0:0:100:tick.wav
256,192,116521,1,0,0:0:0:0:
36,192,116640,1,2,0:0:0:0:
182,192,116640,1,0,0:0:0:0:
475,192,116878,1,0,0:0:0:100:tick.wav
182,192,116997,1,0,0:0:0:0:
329,192,116997,1,0,0:0:0:0:
36,192,117116,1,2,0:0:0:0:
109,192,117116,1,0,0:0:0:100:clap03.wav
256,192,117354,1,0,0:0:0:100:tick.wav
475,192,117354,1,0,0:0:0:0:
329,192,117474,1,0,0:0:0:0:
109,192,117593,1,2,0:0:0:0:
182,192,117593,1,0,0:0:0:0:
36,192,117831,1,0,0:0:0:100:tick.wav
182,192,117950,1,2,0:0:0:0:
329,192,117950,1,0,0:0:0:0:
109,192,118069,1,0,0:0:0:100:clap03.wav
475,192,118069,1,0,0:0:0:0:
256,192,118307,1,2,0:0:0:0:
402,192,118307,1,0,0:0:0:0:
36,192,118545,1,2,0:0:0:0:
329,192,118545,1,0,0:0:0:0:
256,192,118783,1,0,0:0:0:0:
182,192,118902,1,0,0:0:0:0:
402,192,118902,1,0,0:0:0:0:
109,192,119021,1,2,0:0:0:0:
475,192,119021,1,0,0:0:0:100:clap03.wav
109,192,119259,1,0,0:0:0:100:tick.wav
182,192,119378,1,0,0:0:0:0:
256,192,119497,1,2,0:0:0:0:
475,192,119497,1,0,0:0:0:0:
329,192,119735,1,0,0:0:0:100:tick.wav
36,192,119854,1,0,0:0:0:0:
182,192,119854,1,0,0:0:0:0:
256,192,119974,1,2,0:0:0:0:
475,192,119974,1,0,0:0:0:100:clap03.wav
256,192,120212,1,0,0:0:0:100:tick.wav
109,192,120331,1,0,0:0:0:0:
402,192,120450,1,2,0:0:0:0:
475,192,120450,1,0,0:0:0:0:
182,192,120688,1,0,0:0:0:100:tick.wav
256,192,120807,1,0,0:0:0:0:
329,192,120807,1,0,0:0:0:0:
36,192,120926,1,2,0:0:0:0:
402,192,120926,1,0,0:0:0:100:clap03.wav
36,192,121164,1,0,0:0:0:100:tick.wav
329,192,121283,1,0,0:0:0:0:
109,192,121402,1,2,0:0:0:0:
256,192,121402,1,0,0:0:0:0:
402,192,121640,1,0,0:0:0:100:tick.wav
256,192,121759,1,0,0:0:0:0:
329,192,121759,1,0,0:0:0:0:
109,192,121878,1,2,0:0:0:0:
475,192,121878,1,0,0:0:0:100:clap03.wav
36,192,122116,1,0,0:0:0:100:tick.wav
402,192,122116,1,0,0:0:0:0:
182,192,122354,1,2,0:0:0:0:
402,192,122354,1,0,0:0:0:0:
475,192,122593,1,0,0:0:0:100:tick.wav
402,192,122712,1,0,0:0:0:0:
36,192,122831,1,2,0:0:0:0:
256,192,122831,1,0,0:0:0:100:clap03.wav
329,192,122950,1,0,0:0:0:0:
182,192,123069,1,0,0:0:0:100:tick.wav
329,192,123188,1,0,0:0:0:0:
109,192,123307,1,2,0:0:0:0:
475,192,123307,1,0,0:0:0:0:
329,192,123545,1,0,0:0:0:100:tick.wav
182,192,123664,1,0,0:0:0:0:
36,192,123783,1,2,0:0:0:0:
475,192,123783,1,0,0:0:0:100:clap03.wav
36,192,124021,1,0,0:0:0:100:tick.wav
109,192,124259,1,2,0:0:0:0:
329,192,124259,1,0,0:0:0:0:
402,192,124259,1,0,0:0:0:0:
402,192,124497,1,0,0:0:0:0:
36,192,124616,1,2,0:0:0:0:
182,192,124616,1,0,0:0:0:0:
475,192,124616,1,0,0:0:0:0:
36,192,124854,1,0,0:0:0:0:
182,192,124974,1,2,0:0:0:0:
329,192,124974,1,0,0:0:0:0:
475,192,124974,1,0,0:0:0:0:
36,192,125212,1,2,0:0:0:0:
182,192,125212,1,0,0:0:0:0:
475,192,125212,1,0,0:0:0:0:
329,192,125450,1,0,0:0:0:0:
109,192,125688,1,2,0:0:0:0:
182,192,125688,1,0,0:0:0:20:kick02.wav
402,192,125688,1,0,0:0:0:0:
256,192,125807,1,0,0:0:0:20:kick02.wav
109,192,125926,1,2,0:0:0:0:
182,192,125926,1,0,0:0:0:0:
402,192,125926,1,0,0:0:0:0:
36,192,126164,1,2,0:0:0:0:
329,192,126164,1,0,0:0:0:0:
475,192,126164,1,0,0:0:0:0:
182,192,126402,1,0,0:0:0:0:
256,192,126640,1,0,0:0:0:0:
402,192,126640,1,0,0:0:0:0:
182,192,126878,1,0,0:0:0:0:
256,192,127116,1,0,0:0:0:0:
402,192,127116,1,0,0:0:0:0:
109,192,127354,1,2,0:0:0:0:
329,192,127354,1,0,0:0:0:0:
475,192,127354,1,0,0:0:0:0:
36,192,127593,1,0,0:0:0:0:
256,192,127593,1,0,0:0:0:0:
402,192,127831,1,0,0:0:0:0:
36,192,128069,1,2,0:0:0:0:
182,192,128069,1,0,0:0:0:0:
329,192,128069,1,0,0:0:0:0:
109,192,128307,1,0,0:0:0:0:
256,192,128426,1,0,0:0:0:0:
402,192,128545,1,0,0:0:0:0:
475,192,128545,1,0,0:0:0:0:
36,192,128783,1,0,0:0:0:0:
109,192,128902,1,0,0:0:0:0:
182,192,129021,1,0,0:0:0:0:
329,192,129021,1,0,0:0:0:0:
36,192,129259,1,2,0:0:0:0:
256,192,129259,1,0,0:0:0:0:
402,192,129259,1,0,0:0:0:0:
182,192,129497,1,0,0:0:0:0:
475,192,129497,1,0,0:0:0:0:
329,192,129735,1,0,0:0:0:0:
36,192,129974,1,2,0:0:0:0:
109,192,129974,1,0,0:0:0:0:
475,192,129974,1,0,0:0:0:0:
402,192,130212,1,0,0:0:0:0:
256,192,130331,1,0,0:0:0:0:
109,192,130450,1,0,0:0:0:0:
475,192,130450,1,0,0:0:0:0:
36,192,130688,1,0,0:0:0:0:
182,192,130807,1,0,0:0:0:0:
329,192,130926,1,0,0:0:0:0:
475,192,130926,1,0,0:0:0:0:
36,192,131164,1,2,0:0:0:0:
109,192,131164,1,0,0:0:0:0:
402,192,131164,1,0,0:0:0:0:
182,192,131402,1,0,0:0:0:0:
475,192,131402,1,0,0:0:0:0:
256,192,131521,1,0,0:0:0:0:
402,192,131640,1,0,0:0:0:0:
182,192,131878,1,0,0:0:0:50:soft-hitclap.wav
329,192,131878,1,0,0:0:0:70:Cymatics - House Kick 1 - D#.wav
36,192,131997,1,0,0:0:0:0:
256,192,132116,1,0,0:0:0:0:
109,192,132235,1,0,0:0:0:70:Cymatics - House Kick 1 - D#.wav
402,192,132235,1,0,0:0:0:0:
329,192,132354,1,0,0:0:0:0:
182,192,132474,1,0,0:0:0:0:
256,192,132593,1,0,0:0:0:70:Cymatics - House Kick 1 - D#.wav
475,192,132593,1,0,0:0:0:0:
36,192,132712,1,0,0:0:0:0:
182,192,132831,1,2,0:0:0:0:
402,192,132831,1,0,0:0:0:0:
109,192,132950,1,0,0:0:0:50:soft-hitclap.wav
329,192,132950,1,0,0:0:0:0:
182,192,133069,1,2,0:0:0:0:
402,192,133069,1,0,0:0:0:0:
36,192,133188,1,0,0:0:0:0:
109,192,133307,1,2,0:0:0:0:
256,192,133307,1,0,0:0:0:0:
475,192,133307,128,0,133783:0:0:0:0:
329,192,133545,1,0,0:0:0:0:
36,192,133783,128,2,134497:0:0:0:0:
182,192,133783,1,0,0:0:0:0:
402,192,133783,1,0,0:0:0:0:
256,192,134021,1,0,0:0:0:0:
182,192,134259,1,2,0:0:0:0:
475,192,134259,1,0,0:0:0:0:
402,192,134378,1,0,0:0:0:0:
109,192,134497,1,0,0:0:0:0:
329,192,134497,128,0,135212:0:0:0:0:
182,192,134735,1,2,0:0:0:0:
475,192,134735,1,0,0:0:0:0:
256,192,134854,1,0,0:0:0:0:
36,192,134974,1,0,0:0:0:0:
109,192,135093,1,0,0:0:0:0:
182,192,135212,1,2,0:0:0:0:
402,192,135212,1,0,0:0:0:0:
256,192,135450,1,0,0:0:0:0:
36,192,135688,128,2,136402:0:0:0:0:
329,192,135688,1,0,0:0:0:0:
402,192,135688,1,0,0:0:0:0:
256,192,135926,1,0,0:0:0:0:
109,192,136164,1,2,0:0:0:0:
182,192,136164,1,0,0:0:0:100:clap03.wav
402,192,136164,1,0,0:0:0:0:
329,192,136283,1,0,0:0:0:0:
256,192,136402,1,0,0:0:0:0:
475,192,136402,128,0,137116:0:0:0:0:
182,192,136640,1,2,0:0:0:0:
329,192,136640,1,0,0:0:0:0:
402,192,136878,1,0,0:0:0:0:
256,192,136997,1,0,0:0:0:0:
36,192,137116,1,2,0:0:0:0:
109,192,137116,1,0,0:0:0:0:
182,192,137235,1,0,0:0:0:0:
329,192,137354,1,0,0:0:0:0:
36,192,137593,128,2,138545:0:0:0:0:
256,192,137593,1,0,0:0:0:0:
475,192,137593,1,0,0:0:0:0:
109,192,137831,1,2,0:0:0:0:
182,192,137831,1,0,0:0:0:0:
256,192,137950,1,0,0:0:0:0:
329,192,138069,1,2,0:0:0:0:
402,192,138069,1,0,0:0:0:0:
109,192,138307,1,2,0:0:0:0:
256,192,138307,1,0,0:0:0:0:
329,192,138426,1,0,0:0:0:50:soft-hitclap.wav
182,192,138545,1,2,0:0:0:0:
402,192,138545,1,0,0:0:0:0:
475,192,138545,1,0,0:0:0:0:
256,192,138664,1,2,0:0:0:0:
109,192,138783,1,2,0:0:0:0:
329,192,138783,1,0,0:0:0:0:
36,192,138902,1,2,0:0:0:0:
256,192,139021,1,2,0:0:0:0:
475,192,139021,1,0,0:0:0:0:
182,192,139140,1,2,0:0:0:0:
109,192,139259,1,2,0:0:0:0:
402,192,139259,1,0,0:0:0:0:
329,192,139378,1,2,0:0:0:0:
256,192,139497,1,0,0:0:0:0:
36,192,139735,128,0,139974:0:0:0:0:
329,192,139974,1,0,0:0:0:0:
182,192,140212,1,0,0:0:0:0:
402,192,140450,1,0,0:0:0:0:
109,192,140569,1,0,0:0:0:0:
109,192,140926,1,0,0:0:0:0:
402,192,141045,128,0,141402:0:0:0:0:
36,192,141402,1,2,0:0:0:0:
256,192,141402,1,0,0:0:0:0:
329,192,141402,1,0,0:0:0:0:
182,192,141640,1,0,0:0:0:100:tick.wav
475,192,141640,1,0,0:0:0:0:
36,192,141878,1,0,0:0:0:50:soft-hitclap.wav
109,192,141878,1,0,0:0:0:0:
402,192,141878,1,0,0:0:0:0:
329,192,141997,1,0,0:0:0:0:
256,192,142116,1,0,0:0:0:100:tick.wav
182,192,142354,1,2,0:0:0:0:
475,192,142354,1,0,0:0:0:0:
256,192,142593,1,0,0:0:0:100:tick.wav
329,192,142712,1,0,0:0:0:0:
36,192,142831,1,0,0:0:0:50:soft-hitclap.wav
109,192,142831,1,0,0:0:0:0:
402,192,142831,1,0,0:0:0:0:
182,192,142950,1,0,0:0:0:0:
256,192,143069,1,0,0:0:0:100:tick.wav
329,192,143307,1,2,0:0:0:0:
402,192,143307,1,0,0:0:0:0:
182,192,143545,1,0,0:0:0:100:tick.wav
256,192,143664,1,0,0:0:0:0:
36,192,143783,1,0,0:0:0:50:soft-hitclap.wav
109,192,143783,1,0,0:0:0:0:
329,192,143783,1,0,0:0:0:0:
402,192,143902,1,0,0:0:0:0:
256,192,144021,1,0,0:0:0:100:tick.wav
182,192,144140,1,0,0:0:0:0:
109,192,144259,1,2,0:0:0:0:
402,192,144259,1,0,0:0:0:0:
36,192,144497,1,0,0:0:0:100:tick.wav
475,192,144497,1,0,0:0:0:0:
182,192,144735,1,0,0:0:0:50:soft-hitclap.wav
256,192,144735,1,0,0:0:0:0:
475,192,144735,1,0,0:0:0:0:
329,192,144974,1,0,0:0:0:100:tick.wav
109,192,145212,1,2,0:0:0:0:
402,192,145212,1,0,0:0:0:0:
182,192,145450,1,0,0:0:0:100:tick.wav
36,192,145688,1,0,0:0:0:50:soft-hitclap.wav
329,192,145688,1,0,0:0:0:0:
475,192,145688,1,0,0:0:0:0:
256,192,145807,1,0,0:0:0:0:
402,192,145926,1,0,0:0:0:100:tick.wav
109,192,146164,1,2,0:0:0:0:
329,192,146164,1,0,0:0:0:0:
256,192,146283,1,0,0:0:0:0:
182,192,146402,1,0,0:0:0:100:tick.wav
402,192,146521,1,0,0:0:0:0:
36,192,146640,1,0,0:0:0:50:soft-hitclap.wav
256,192,146640,1,0,0:0:0:0:
475,192,146640,1,0,0:0:0:0:
329,192,146759,1,0,0:0:0:0:
402,192,146878,1,0,0:0:0:100:tick.wav
182,192,147116,1,2,0:0:0:0:
329,192,147116,1,0,0:0:0:0:
36,192,147354,1,0,0:0:0:100:tick.wav
109,192,147354,1,0,0:0:0:0:
256,192,147474,1,0,0:0:0:0:
36,192,147593,1,0,0:0:0:50:soft-hitclap.wav
329,192,147593,1,0,0:0:0:0:
475,192,147593,1,0,0:0:0:0:
182,192,147831,1,0,0:0:0:100:tick.wav
109,192,148069,1,2,0:0:0:0:
475,192,148069,1,0,0:0:0:0:
329,192,148307,1,0,0:0:0:100:tick.wav
256,192,148426,1,0,0:0:0:0:
36,192,148545,1,0,0:0:0:50:soft-hitclap.wav
182,192,148545,1,0,0:0:0:50:Cymatics - Future Bass Ride 3.wav
402,192,148545,1,0,0:0:0:0:
329,192,148664,1,0,0:0:0:50:Cymatics - Future Bass Ride 3.wav
109,192,148783,1,0,0:0:0:50:Cymatics - Future Bass Ride 3.wav
256,192,148783,1,0,0:0:0:100:tom02.wav
402,192,148902,1,0,0:0:0:50:Cymatics - Future Bass Ride 3.wav
36,192,149021,1,2,0:0:0:0:
182,192,149021,1,0,0:0:0:0:
475,192,149021,1,0,0:0:0:0:
256,192,149259,1,0,0:0:0:100:tick.wav
329,192,149378,1,0,0:0:0:0:
36,192,149497,1,0,0:0:0:50:soft-hitclap.wav
109,192,149497,1,0,0:0:0:0:
475,192,149497,1,0,0:0:0:0:
402,192,149735,1,0,0:0:0:100:tick.wav
182,192,149974,1,2,0:0:0:0:
329,192,149974,1,0,0:0:0:0:
36,192,150212,1,0,0:0:0:100:tick.wav
109,192,150331,1,0,0:0:0:0:
182,192,150331,1,0,0:0:0:0:
256,192,150450,1,0,0:0:0:50:soft-hitclap.wav
329,192,150450,1,0,0:0:0:0:
475,192,150450,1,0,0:0:0:0:
402,192,150688,128,0,150926:0:0:0:100:tick.wav
109,192,150926,1,2,0:0:0:0:
256,192,150926,1,0,0:0:0:0:
36,192,151164,128,0,151402:0:0:0:100:tick.wav
182,192,151402,1,0,0:0:0:50:soft-hitclap.wav
402,192,151402,1,0,0:0:0:0:
475,192,151402,1,0,0:0:0:0:
256,192,151521,1,0,0:0:0:0:
109,192,151640,1,0,0:0:0:100:tick.wav
329,192,151759,1,0,0:0:0:0:
36,192,151878,1,2,0:0:0:0:
256,192,151878,1,0,0:0:0:0:
182,192,151997,1,0,0:0:0:0:
402,192,152116,128,0,152354:0:0:0:100:tick.wav
109,192,152354,1,0,0:0:0:50:soft-hitclap.wav
475,192,152354,1,0,0:0:0:0:
182,192,152474,128,0,152831:0:0:0:0:
329,192,152593,1,0,0:0:0:100:tick.wav
256,192,152712,1,0,0:0:0:0:
36,192,152831,1,2,0:0:0:0:
475,192,152831,128,0,153307:0:0:0:0:
109,192,153069,1,0,0:0:0:100:tick.wav
256,192,153188,1,2,0:0:0:0:
36,192,153307,1,0,0:0:0:50:soft-hitclap.wav
402,192,153307,1,0,0:0:0:0:
182,192,153545,128,2,153783:0:0:0:0:
329,192,153545,1,0,0:0:0:0:
402,192,153783,1,0,0:0:0:0:
329,192,153902,1,0,0:0:0:0:
36,192,154021,1,2,0:0:0:0:
109,192,154021,1,0,0:0:0:0:
256,192,154021,128,0,154259:0:0:0:0:
109,192,154259,1,0,0:0:0:50:soft-hitclap.wav
402,192,154259,1,0,0:0:0:0:
475,192,154259,1,0,0:0:0:0:
182,192,154378,1,0,0:0:0:0:
329,192,154497,128,0,154735:0:0:0:100:tick.wav
109,192,154735,1,2,0:0:0:0:
402,192,154735,1,0,0:0:0:0:
36,192,154974,1,0,0:0:0:100:tick.wav
182,192,155093,1,2,0:0:0:0:
475,192,155093,1,0,0:0:0:0:
36,192,155212,1,0,0:0:0:0:
109,192,155450,1,2,0:0:0:0:
329,192,155450,1,0,0:0:0:0:
402,192,155450,1,0,0:0:0:0:
256,192,155688,1,0,0:0:0:0:
182,192,155807,1,0,0:0:0:0:
475,192,155926,128,0,156164:0:0:0:0:
36,192,156164,128,0,156283:0:0:0:0:
182,192,156283,128,0,156640:0:0:0:0:
329,192,156402,128,0,156640:0:0:0:0:
109,192,156640,1,2,0:0:0:0:
256,192,156640,1,0,0:0:0:0:
475,192,156640,128,0,157116:0:0:0:0:
329,192,156878,1,0,0:0:0:100:tick.wav
182,192,156997,1,0,0:0:0:0:
36,192,157116,1,0,0:0:0:50:soft-hitclap.wav
256,192,157116,1,0,0:0:0:0:
402,192,157116,1,0,0:0:0:0:
109,192,157235,1,0,0:0:0:0:
182,192,157354,128,0,157593:0:0:0:100:tick.wav
329,192,157593,1,2,0:0:0:0:
475,192,157593,1,0,0:0:0:0:
109,192,157831,1,0,0:0:0:100:tick.wav
182,192,157950,1,0,0:0:0:0:
36,192,158069,1,0,0:0:0:50:soft-hitclap.wav
256,192,158069,1,0,0:0:0:0:
475,192,158069,1,0,0:0:0:0:
329,192,158188,1,0,0:0:0:0:
182,192,158307,1,0,0:0:0:100:tick.wav
109,192,158426,1,0,0:0:0:0:
36,192,158545,128,2,159021:0:0:0:0:
475,192,158545,1,0,0:0:0:0:
402,192,158664,1,0,0:0:0:0:
329,192,158783,1,0,0:0:0:100:tick.wav
182,192,158902,1,0,0:0:0:0:
109,192,159021,1,0,0:0:0:50:soft-hitclap.wav
256,192,159021,1,0,0:0:0:0:
475,192,159021,1,0,0:0:0:0:
402,192,159140,1,0,0:0:0:0:
329,192,159259,128,0,159497:0:0:0:100:tick.wav
182,192,159497,1,2,0:0:0:0:
475,192,159497,1,0,0:0:0:0:
256,192,159616,1,0,0:0:0:0:
402,192,159735,1,0,0:0:0:100:tick.wav
36,192,159974,1,0,0:0:0:50:soft-hitclap.wav
182,192,159974,1,0,0:0:0:0:
475,192,159974,1,0,0:0:0:0:
329,192,160212,1,0,0:0:0:100:tick.wav
109,192,160450,128,2,160926:0:0:0:0:
402,192,160450,1,0,0:0:0:0:
475,192,160450,1,0,0:0:0:0:
329,192,160688,1,0,0:0:0:100:tick.wav
182,192,160807,1,0,0:0:0:0:
36,192,160926,1,0,0:0:0:50:soft-hitclap.wav
402,192,160926,1,0,0:0:0:0:
475,192,160926,1,0,0:0:0:0:
329,192,161045,1,0,0:0:0:0:
256,192,161164,128,0,161402:0:0:0:100:tick.wav
36,192,161402,1,2,0:0:0:0:
402,192,161402,1,0,0:0:0:0:
109,192,161640,1,0,0:0:0:100:tick.wav
182,192,161759,1,0,0:0:0:0:
36,192,161878,1,0,0:0:0:50:soft-hitclap.wav
256,192,161878,1,0,0:0:0:0:
475,192,161878,1,0,0:0:0:0:
402,192,161997,1,0,0:0:0:0:
329,192,162116,1,0,0:0:0:100:tick.wav
256,192,162235,1,0,0:0:0:0:
36,192,162354,128,2,162831:0:0:0:0:
475,192,162354,1,0,0:0:0:0:
182,192,162474,128,0,162831:0:0:0:0:
109,192,162831,128,0,163307:0:0:0:50:soft-hitclap.wav
402,192,162831,1,0,0:0:0:0:
475,192,162831,1,0,0:0:0:0:
329,192,162950,128,0,163307:0:0:0:0:
182,192,163307,128,2,163783:0:0:0:0:
402,192,163307,1,0,0:0:0:0:
475,192,163426,128,0,163783:0:0:0:0:
256,192,163545,128,0,163783:0:0:0:100:tick.wav
36,192,163783,128,0,164021:0:0:0:50:soft-hitclap.wav
109,192,163783,1,0,0:0:0:50:Cymatics - Future Bass Ride 3.wav
329,192,163783,1,0,0:0:0:0:
402,192,163902,1,0,0:0:0:50:Cymatics - Future Bass Ride 3.wav
256,192,164021,128,0,164259:0:0:0:50:Cymatics - Future Bass Ride 3.wav
182,192,164140,1,0,0:0:0:50:Cymatics - Future Bass Ride 3.wav
109,192,164259,1,2,0:0:0:0:
329,192,164259,128,0,164735:0:0:0:0:
182,192,164497,1,0,0:0:0:100:tick.wav
256,192,164616,1,0,0:0:0:0:
36,192,164735,1,0,0:0:0:50:soft-hitclap.wav
109,192,164735,1,0,0:0:0:0:
402,192,164735,1,0,0:0:0:0:
182,192,164854,1,0,0:0:0:0:
256,192,164974,128,0,165212:0:0:0:100:tick.wav
402,192,165212,1,2,0:0:0:0:
475,192,165212,1,0,0:0:0:0:
182,192,165450,1,0,0:0:0:100:tick.wav
329,192,165569,1,0,0:0:0:0:
36,192,165688,1,0,0:0:0:50:soft-hitclap.wav
256,192,165688,1,0,0:0:0:0:
402,192,165688,1,0,0:0:0:0:
329,192,165926,1,0,0:0:0:100:tick.wav
182,192,166045,1,0,0:0:0:0:
109,192,166164,1,2,0:0:0:0:
475,192,166164,128,0,166640:0:0:0:0:
256,192,166402,1,0,0:0:0:100:tick.wav
329,192,166521,1,0,0:0:0:0:
36,192,166640,1,0,0:0:0:50:soft-hitclap.wav
109,192,166640,1,0,0:0:0:0:
402,192,166640,1,0,0:0:0:0:
182,192,166759,1,0,0:0:0:0:
256,192,166878,128,0,167116:0:0:0:100:tick.wav
109,192,167116,1,2,0:0:0:0:
475,192,167116,1,0,0:0:0:0:
402,192,167354,1,0,0:0:0:100:tick.wav
329,192,167474,1,0,0:0:0:0:
36,192,167593,1,0,0:0:0:50:soft-hitclap.wav
256,192,167593,1,0,0:0:0:0:
475,192,167593,1,0,0:0:0:0:
182,192,167831,1,0,0:0:0:100:tick.wav
36,192,168069,128,2,168545:0:0:0:0:
402,192,168069,1,0,0:0:0:0:
256,192,168307,1,0,0:0:0:100:tick.wav
182,192,168426,1,0,0:0:0:0:
109,192,168545,1,0,0:0:0:50:soft-hitclap.wav
402,192,168545,1,0,0:0:0:0:
475,192,168545,1,0,0:0:0:0:
329,192,168664,1,0,0:0:0:0:
256,192,168783,128,0,169021:0:0:0:100:tick.wav
109,192,169021,1,2,0:0:0:0:
475,192,169021,1,0,0:0:0:0:
402,192,169259,1,0,0:0:0:100:tick.wav
329,192,169378,1,0,0:0:0:0:
36,192,169497,1,0,0:0:0:50:soft-hitclap.wav
182,192,169497,1,0,0:0:0:0:
475,192,169497,1,0,0:0:0:0:
256,192,169735,1,0,0:0:0:100:tick.wav
329,192,169854,1,0,0:0:0:0:
109,192,169974,1,2,0:0:0:0:
402,192,169974,1,0,0:0:0:0:
182,192,170212,1,0,0:0:0:100:tick.wav
329,192,170331,1,0,0:0:0:0:
36,192,170450,1,0,0:0:0:50:soft-hitclap.wav
182,192,170450,1,0,0:0:0:0:
402,192,170450,1,0,0:0:0:0:
329,192,170688,1,0,0:0:0:100:tick.wav
256,192,170807,1,0,0:0:0:0:
109,192,170926,1,2,0:0:0:0:
475,192,170926,1,0,0:0:0:0:
329,192,171045,1,0,0:0:0:0:
36,192,171402,1,0,0:0:0:0:
182,192,171402,1,0,0:0:0:0:
256,192,171561,1,0,0:0:0:0:
329,192,171720,1,0,0:0:0:0:
109,192,171878,1,0,0:0:0:0:
402,192,171878,128,0,173783:0:0:0:0:
109,192,173307,1,0,0:0:0:0:
182,192,173545,1,0,0:0:0:0:
36,192,173783,128,0,175688:0:0:0:0:
329,192,173783,1,0,0:0:0:0:
109,192,174021,1,0,0:0:0:0:
256,192,174259,1,0,0:0:0:0:
402,192,174497,1,0,0:0:0:0:
182,192,174974,1,0,0:0:0:0:
329,192,175093,1,0,0:0:0:0:
475,192,175212,1,0,0:0:0:0:
256,192,175450,1,0,0:0:0:0:
109,192,175688,1,0,0:0:0:0:
402,192,175688,128,0,176402:0:0:0:0:
329,192,176164,1,0,0:0:0:0:
109,192,176402,128,0,177116:0:0:0:0:
256,192,176402,1,0,0:0:0:0:
182,192,176878,1,0,0:0:0:0:
256,192,176997,1,0,0:0:0:0:
329,192,177116,1,0,0:0:0:0:
402,192,177116,128,0,178545:0:0:0:0:
182,192,177354,1,0,0:0:0:0:
36,192,177593,1,0,0:0:0:0:
475,192,177831,1,0,0:0:0:0:
256,192,178069,1,0,0:0:0:0:
109,192,178307,1,0,0:0:0:0:
36,192,178545,128,0,179497:0:0:0:0:
329,192,178545,1,0,0:0:0:0:
256,192,178664,1,0,0:0:0:0:
182,192,178783,1,0,0:0:0:0:
475,192,178902,1,0,0:0:0:0:
402,192,179021,1,0,0:0:0:0:
329,192,179140,1,0,0:0:0:0:
256,192,179259,1,0,0:0:0:0:
182,192,179378,1,0,0:0:0:0:
109,192,179497,1,2,0:0:0:0:
329,192,179497,1,0,0:0:0:0:
475,192,179497,1,0,0:0:0:0:
402,192,179735,1,0,0:0:0:100:tick.wav
36,192,179974,1,0,0:0:0:50:soft-hitclap.wav
182,192,179974,1,0,0:0:0:0:
256,192,179974,1,0,0:0:0:0:
329,192,180212,1,0,0:0:0:100:tick.wav
36,192,180450,1,2,0:0:0:0:
109,192,180450,1,0,0:0:0:0:
475,192,180450,1,0,0:0:0:0:
182,192,180688,1,0,0:0:0:100:tick.wav
36,192,180926,1,0,0:0:0:50:soft-hitclap.wav
256,192,180926,1,0,0:0:0:0:
402,192,180926,1,0,0:0:0:0:
329,192,181164,1,0,0:0:0:100:tick.wav
109,192,181402,1,2,0:0:0:0:
182,192,181402,1,0,0:0:0:0:
475,192,181402,1,0,0:0:0:0:
402,192,181640,1,0,0:0:0:100:tick.wav
36,192,181878,1,0,0:0:0:50:soft-hitclap.wav
182,192,181878,1,0,0:0:0:0:
329,192,181878,1,0,0:0:0:0:
109,192,182116,1,0,0:0:0:100:tick.wav
256,192,182116,1,0,0:0:0:0:
475,192,182116,1,0,0:0:0:0:
329,192,182354,1,2,0:0:0:0:
402,192,182354,1,0,0:0:0:0:
36,192,182593,1,0,0:0:0:100:tick.wav
182,192,182831,1,0,0:0:0:50:soft-hitclap.wav
329,192,182831,1,0,0:0:0:0:
475,192,182831,1,0,0:0:0:0:
109,192,183069,1,2,0:0:0:0:
402,192,183069,1,0,0:0:0:0:
256,192,183188,1,2,0:0:0:0:
36,192,183307,1,2,0:0:0:0:
182,192,183307,1,0,0:0:0:0:
475,192,183307,1,0,0:0:0:0:
402,192,183426,1,0,0:0:0:0:
109,192,183545,1,2,0:0:0:0:
329,192,183545,1,0,0:0:0:50:soft-hitclap.wav
182,192,183664,1,0,0:0:0:0:
36,192,183783,1,2,0:0:0:0:
256,192,183783,1,0,0:0:0:50:soft-hitclap.wav
475,192,183783,1,0,0:0:0:0:
402,192,183902,1,0,0:0:0:0:
109,192,184021,1,2,0:0:0:0:
329,192,184021,1,0,0:0:0:0:
182,192,184140,1,0,0:0:0:0:
256,192,184259,1,2,0:0:0:0:
475,192,184259,1,0,0:0:0:0:
36,192,184378,1,0,0:0:0:0:
109,192,184497,1,2,0:0:0:0:
402,192,184497,1,0,0:0:0:0:
182,192,184616,1,0,0:0:0:0:
36,192,184735,1,0,0:0:0:50:soft-hitclap.wav
329,192,184735,1,0,0:0:0:0:
475,192,184735,1,0,0:0:0:0:
256,192,184854,1,0,0:0:0:0:
109,192,184974,1,2,0:0:0:0:
182,192,184974,1,0,0:0:0:0:
256,192,185093,1,0,0:0:0:0:
36,192,185212,1,2,0:0:0:0:
329,192,185212,1,0,0:0:0:0:
402,192,185212,1,0,0:0:0:0:
36,192,185569,1,0,0:0:0:50:soft-hitclap.wav
256,192,185569,1,0,0:0:0:0:
475,192,185569,1,0,0:0:0:0:
109,192,185926,1,2,0:0:0:0:
182,192,185926,1,0,0:0:0:0:
475,192,185926,1,0,0:0:0:0:
36,192,186164,1,2,0:0:0:0:
329,192,186164,1,0,0:0:0:0:
475,192,186164,1,0,0:0:0:0:
109,192,186640,128,0,187474:0:0:0:50:soft-hitclap.wav
256,192,186640,128,0,187474:0:0:0:0:
402,192,186640,128,0,187474:0:0:0:0:
36,192,189021,1,2,0:0:0:0:
182,192,189021,1,0,0:0:0:0:
475,192,189021,128,0,192354:0:0:0:0:
329,192,189259,1,0,0:0:0:100:tick.wav
402,192,189259,1,0,0:0:0:0:
109,192,189497,1,0,0:0:0:50:soft-hitclap.wav
256,192,189497,1,0,0:0:0:0:
182,192,189616,1,0,0:0:0:0:
36,192,189735,1,0,0:0:0:100:tick.wav
109,192,189974,1,2,0:0:0:0:
402,192,189974,1,0,0:0:0:0:
256,192,190212,1,0,0:0:0:100:tick.wav
329,192,190212,1,0,0:0:0:0:
182,192,190331,1,0,0:0:0:0:
109,192,190450,1,0,0:0:0:50:soft-hitclap.wav
402,192,190450,1,0,0:0:0:0:
329,192,190569,1,0,0:0:0:0:
256,192,190688,1,0,0:0:0:100:tick.wav
36,192,190926,1,2,0:0:0:0:
329,192,190926,1,0,0:0:0:0:
182,192,191164,1,0,0:0:0:100:tick.wav
256,192,191283,1,0,0:0:0:0:
109,192,191402,1,0,0:0:0:50:soft-hitclap.wav
329,192,191402,1,0,0:0:0:0:
182,192,191521,1,0,0:0:0:0:
402,192,191640,1,0,0:0:0:100:tick.wav
329,192,191759,1,0,0:0:0:0:
36,192,191878,1,2,0:0:0:0:
256,192,191878,1,0,0:0:0:0:
182,192,192116,1,0,0:0:0:100:tick.wav
256,192,192235,1,0,0:0:0:0:
109,192,192354,1,0,0:0:0:50:soft-hitclap.wav
329,192,192354,1,0,0:0:0:0:
402,192,192354,1,0,0:0:0:0:
182,192,192474,1,0,0:0:0:0:
36,192,192593,128,0,193069:0:0:0:100:tick.wav
402,192,192831,1,2,0:0:0:0:
475,192,192831,1,0,0:0:0:0:
329,192,192950,1,0,0:0:0:0:
256,192,193069,1,0,0:0:0:100:tick.wav
36,192,193307,1,0,0:0:0:50:soft-hitclap.wav
109,192,193307,1,0,0:0:0:0:
402,192,193307,1,0,0:0:0:0:
182,192,193426,1,0,0:0:0:0:
329,192,193545,1,0,0:0:0:100:tick.wav
256,192,193664,1,0,0:0:0:0:
109,192,193783,1,2,0:0:0:0:
182,192,193783,1,0,0:0:0:0:
329,192,194021,1,0,0:0:0:100:tick.wav
402,192,194140,1,0,0:0:0:0:
36,192,194259,1,0,0:0:0:50:soft-hitclap.wav
256,192,194259,1,0,0:0:0:0:
475,192,194259,1,0,0:0:0:0:
109,192,194497,1,0,0:0:0:100:tick.wav
182,192,194735,1,2,0:0:0:0:
402,192,194735,1,0,0:0:0:0:
256,192,194974,1,0,0:0:0:100:tick.wav
329,192,194974,1,0,0:0:0:0:
182,192,195093,1,0,0:0:0:0:
36,192,195212,1,0,0:0:0:50:soft-hitclap.wav
109,192,195212,1,0,0:0:0:0:
475,192,195212,1,0,0:0:0:0:
329,192,195331,1,0,0:0:0:0:
256,192,195450,1,0,0:0:0:100:tick.wav
402,192,195569,1,0,0:0:0:0:
109,192,195688,1,0,0:0:0:70:Cymatics - House Kick 1 - D#.wav
182,192,195688,1,0,0:0:0:0:
329,192,195807,1,0,0:0:0:0:
256,192,195926,1,0,0:0:0:100:tick.wav
36,192,196045,1,0,0:0:0:0:
182,192,196045,1,0,0:0:0:0:
329,192,196164,1,0,0:0:0:50:soft-hitclap.wav
475,192,196164,1,0,0:0:0:50:Cymatics - Future Bass Ride 3.wav
36,192,196283,1,0,0:0:0:50:Cymatics - Future Bass Ride 3.wav
109,192,196283,1,0,0:0:0:0:
329,192,196402,1,0,0:0:0:50:Cymatics - Future Bass Ride 3.wav
402,192,196402,1,0,0:0:0:0:
256,192,196521,1,0,0:0:0:50:Cymatics - Future Bass Ride 3.wav
36,192,197116,1,2,0:0:0:0:
182,192,197116,1,0,0:0:0:100:clap03.wav
329,192,197116,1,0,0:0:0:0:
475,192,197116,1,0,0:0:0:0:
36,192,197354,1,0,0:0:0:100:tick.wav
182,192,197593,1,2,0:0:0:0:
402,192,197593,1,0,0:0:0:0:
256,192,197831,1,0,0:0:0:100:tick.wav
109,192,197950,1,0,0:0:0:0:
36,192,198069,1,0,0:0:0:50:soft-hitclap.wav
329,192,198069,1,0,0:0:0:0:
402,192,198069,1,0,0:0:0:0:
256,192,198307,128,0,198545:0:0:0:100:tick.wav
182,192,198545,1,2,0:0:0:0:
475,192,198545,1,0,0:0:0:0:
329,192,198783,128,0,199021:0:0:0:100:tick.wav
109,192,199021,1,0,0:0:0:50:soft-hitclap.wav
402,192,199021,1,0,0:0:0:0:
475,192,199021,1,0,0:0:0:0:
256,192,199140,1,0,0:0:0:0:
182,192,199259,1,0,0:0:0:100:tick.wav
329,192,199378,1,0,0:0:0:0:
36,192,199497,1,2,0:0:0:0:
109,192,199497,1,0,0:0:0:0:
256,192,199616,1,0,0:0:0:0:
475,192,199735,128,0,199974:0:0:0:100:tick.wav
36,192,199974,1,0,0:0:0:50:soft-hitclap.wav
182,192,199974,1,0,0:0:0:0:
329,192,200093,128,0,200450:0:0:0:0:
256,192,200212,1,0,0:0:0:100:tick.wav
182,192,200331,1,0,0:0:0:0:
109,192,200450,128,2,200926:0:0:0:0:
475,192,200450,1,0,0:0:0:0:
402,192,200688,1,0,0:0:0:100:tick.wav
329,192,200807,1,0,0:0:0:0:
36,192,200926,1,0,0:0:0:50:soft-hitclap.wav
182,192,200926,1,0,0:0:0:0:
256,192,200926,1,0,0:0:0:0:
402,192,201045,1,0,0:0:0:0:
475,192,201164,1,0,0:0:0:100:tick.wav
109,192,201402,1,2,0:0:0:0:
182,192,201402,1,0,0:0:0:0:
256,192,201521,1,0,0:0:0:0:
329,192,201640,1,0,0:0:0:100:tick.wav
36,192,201759,1,0,0:0:0:0:
109,192,201759,1,0,0:0:0:0:
256,192,201878,1,0,0:0:0:50:soft-hitclap.wav
402,192,201878,1,0,0:0:0:0:
475,192,201878,1,0,0:0:0:0:
182,192,201997,1,0,0:0:0:0:
109,192,202116,1,0,0:0:0:100:tick.wav
329,192,202116,1,0,0:0:0:0:
36,192,202354,1,2,0:0:0:0:
402,192,202354,1,0,0:0:0:0:
182,192,202593,1,0,0:0:0:100:tick.wav
256,192,202593,1,0,0:0:0:0:
402,192,202712,1,0,0:0:0:0:
475,192,202712,1,0,0:0:0:0:
36,192,202831,1,0,0:0:0:50:soft-hitclap.wav
109,192,202831,1,0,0:0:0:0:
329,192,202831,1,0,0:0:0:0:
182,192,202950,1,0,0:0:0:0:
256,192,202950,1,0,0:0:0:0:
402,192,203069,1,0,0:0:0:100:tick.wav
475,192,203069,1,0,0:0:0:0:
109,192,203307,1,2,0:0:0:0:
475,192,203307,1,0,0:0:0:0:
256,192,203426,1,0,0:0:0:0:
36,192,203545,1,0,0:0:0:100:tom02.wav
402,192,203545,1,0,0:0:0:0:
182,192,203664,1,0,0:0:0:0:
109,192,203783,1,2,0:0:0:0:
329,192,203783,1,0,0:0:0:50:soft-hitclap.wav
256,192,203902,128,0,204259:0:0:0:0:
36,192,204259,1,2,0:0:0:0:
182,192,204259,1,0,0:0:0:0:
475,192,204259,1,0,0:0:0:0:
256,192,204735,1,0,0:0:0:0:
329,192,204854,1,0,0:0:0:0:
109,192,204974,1,0,0:0:0:100:tom02.wav
402,192,204974,1,0,0:0:0:0:
182,192,205212,1,0,0:0:0:0:
256,192,205450,1,2,0:0:0:0:
329,192,205450,1,0,0:0:0:0:
109,192,205569,1,2,0:0:0:0:
182,192,205569,1,0,0:0:0:0:
36,192,205688,1,2,0:0:0:0:
402,192,205688,1,0,0:0:0:100:tom02.wav
475,192,205688,1,0,0:0:0:0:
36,192,206402,1,2,0:0:0:0:
182,192,206402,1,0,0:0:0:0:
329,192,206402,1,0,0:0:0:0:
402,192,206759,1,0,0:0:0:0:
256,192,206878,1,0,0:0:0:0:
182,192,207116,1,2,0:0:0:0:
329,192,207116,1,0,0:0:0:0:
475,192,207116,1,0,0:0:0:0:
109,192,207235,1,0,0:0:0:0:
256,192,207354,1,0,0:0:0:0:
36,192,207593,1,2,0:0:0:0:
182,192,207593,1,0,0:0:0:0:
329,192,207593,1,0,0:0:0:0:
402,192,207712,1,0,0:0:0:0:
256,192,207831,1,0,0:0:0:0:
109,192,208069,1,2,0:0:0:0:
182,192,208069,1,0,0:0:0:0:
475,192,208069,1,0,0:0:0:0:
36,192,208307,1,0,0:0:0:0:
256,192,208426,1,0,0:0:0:0:
109,192,208545,1,0,0:0:0:0:
402,192,208545,1,0,0:0:0:0:
329,192,208664,1,0,0:0:0:0:
36,192,208783,1,0,0:0:0:0:
475,192,208783,1,0,0:0:0:0:
182,192,208902,1,0,0:0:0:0:
109,192,209021,1,0,0:0:0:0:
402,192,209021,1,0,0:0:0:0:
36,192,209259,1,0,0:0:0:0:
329,192,209378,1,0,0:0:0:0:
109,192,209497,1,2,0:0:0:0:
256,192,209497,1,0,0:0:0:0:
475,192,209497,1,0,0:0:0:0:
402,192,209735,1,0,0:0:0:0:
182,192,209854,1,0,0:0:0:0:
36,192,209974,1,2,0:0:0:0:
256,192,209974,1,0,0:0:0:0:
475,192,209974,1,0,0:0:0:0:
109,192,210212,1,0,0:0:0:100:tick.wav
329,192,210331,1,0,0:0:0:0:
36,192,210450,1,0,0:0:0:50:soft-hitclap.wav
256,192,210450,1,0,0:0:0:0:
402,192,210450,1,0,0:0:0:0:
182,192,210569,1,0,0:0:0:0:
329,192,210688,1,0,0:0:0:100:tick.wav
402,192,210807,1,0,0:0:0:0:
256,192,210926,1,2,0:0:0:0:
475,192,210926,1,0,0:0:0:0:
109,192,211045,1,0,0:0:0:0:
182,192,211164,1,0,0:0:0:100:tick.wav
329,192,211164,1,0,0:0:0:0:
402,192,211283,1,0,0:0:0:0:
36,192,211402,1,0,0:0:0:50:soft-hitclap.wav
256,192,211402,1,0,0:0:0:0:
109,192,211521,1,0,0:0:0:0:
182,192,211640,1,0,0:0:0:50:Cymatics - Future Bass Ride 3.wav
329,192,211640,1,0,0:0:0:0:
402,192,211759,1,0,0:0:0:50:Cymatics - Future Bass Ride 3.wav
36,192,211878,1,2,0:0:0:0:
256,192,211878,1,0,0:0:0:0:
475,192,211878,128,0,212354:0:0:0:0:
329,192,212116,1,0,0:0:0:100:tick.wav
182,192,212235,1,0,0:0:0:0:
36,192,212354,1,0,0:0:0:50:soft-hitclap.wav
256,192,212354,1,0,0:0:0:0:
402,192,212354,1,0,0:0:0:0:
109,192,212474,1,0,0:0:0:0:
182,192,212593,128,0,212831:0:0:0:100:tick.wav
36,192,212831,1,2,0:0:0:0:
329,192,212831,1,0,0:0:0:0:
475,192,213069,1,0,0:0:0:100:tick.wav
402,192,213188,1,0,0:0:0:0:
36,192,213307,1,0,0:0:0:50:soft-hitclap.wav
109,192,213307,1,0,0:0:0:0:
329,192,213307,1,0,0:0:0:0:
182,192,213545,1,0,0:0:0:100:tick.wav
109,192,213664,1,0,0:0:0:0:
36,192,213783,128,2,214259:0:0:0:0:
402,192,213783,1,0,0:0:0:0:
329,192,213902,1,0,0:0:0:0:
402,192,214021,1,0,0:0:0:100:tick.wav
475,192,214140,1,0,0:0:0:0:
109,192,214259,1,0,0:0:0:50:soft-hitclap.wav
182,192,214259,1,0,0:0:0:0:
256,192,214378,1,0,0:0:0:0:
329,192,214497,128,0,214735:0:0:0:100:tick.wav
36,192,214735,1,2,0:0:0:0:
182,192,214735,1,0,0:0:0:0:
402,192,214854,1,0,0:0:0:0:
256,192,214974,1,0,0:0:0:100:tick.wav
36,192,215212,1,0,0:0:0:50:soft-hitclap.wav
109,192,215212,1,0,0:0:0:0:
329,192,215212,1,0,0:0:0:0:
256,192,215450,1,0,0:0:0:100:tick.wav
109,192,215688,128,2,216164:0:0:0:0:
402,192,215688,1,0,0:0:0:0:
475,192,215688,1,0,0:0:0:0:
182,192,215926,1,0,0:0:0:100:tick.wav
329,192,216045,1,0,0:0:0:0:
36,192,216164,1,0,0:0:0:50:soft-hitclap.wav
402,192,216164,1,0,0:0:0:0:
475,192,216164,1,0,0:0:0:0:
182,192,216283,1,0,0:0:0:0:
256,192,216402,128,0,216640:0:0:0:100:tick.wav
329,192,216640,1,2,0:0:0:0:
402,192,216640,1,0,0:0:0:0:
182,192,216878,1,0,0:0:0:100:tick.wav
256,192,216997,1,0,0:0:0:0:
36,192,217116,1,0,0:0:0:50:soft-hitclap.wav
329,192,217116,1,0,0:0:0:0:
402,192,217116,1,0,0:0:0:0:
109,192,217235,1,0,0:0:0:0:
182,192,217354,1,0,0:0:0:100:tick.wav
475,192,217474,1,0,0:0:0:0:
36,192,217593,1,2,0:0:0:0:
402,192,217593,1,0,0:0:0:0:
256,192,217831,1,0,0:0:0:100:tick.wav
182,192,217950,1,2,0:0:0:0:
402,192,217950,1,0,0:0:0:0:
109,192,218069,1,0,0:0:0:50:soft-hitclap.wav
475,192,218069,1,0,0:0:0:0:
36,192,218307,1,2,0:0:0:0:
402,192,218307,1,0,0:0:0:0:
109,192,218426,1,0,0:0:0:0:
182,192,218545,1,2,0:0:0:0:
329,192,218545,1,0,0:0:0:0:
475,192,218545,1,0,0:0:0:0:
36,192,218664,1,0,0:0:0:0:
109,192,218902,1,2,0:0:0:0:
256,192,218902,1,0,0:0:0:0:
402,192,218902,1,0,0:0:0:0:
36,192,219259,1,2,0:0:0:0:
256,192,219259,1,0,0:0:0:0:
475,192,219259,1,0,0:0:0:0:
