osu file format v14

[General]
AudioFilename: audio.mp3
AudioLeadIn: 0
PreviewTime: 139616
Countdown: 0
SampleSet: Soft
StackLeniency: 0.7
Mode: 3
LetterboxInBreaks: 0
SpecialStyle: 0
WidescreenStoryboard: 1

[Editor]
DistanceSpacing: 2.1
BeatDivisor: 4
GridSize: 32
TimelineZoom: 1

[Metadata]
Title:Panorama
TitleUnicode:Panorama
Artist:IZ*ONE
ArtistUnicode:아이즈원
Creator:Ilham
Version:7K Easy
Source:
Tags:IZONE One-reeler / Act IV 파노라마 OFF THE RECORD SWING Entertainment 웅킴 제인스 지예준 비오 KZ B.O. FAB Nthonius Jayins Ji Ye Joon Ung Kim Korean Pop K-Pop KPop Syadow- Hytex Tigerinity Indoroid Ucitysm Gahyeonln fvrex xtrippin
BeatmapID:3833838
BeatmapSetID:1864149

[Difficulty]
HPDrainRate:6
CircleSize:7
OverallDifficulty:7
ApproachRate:5
SliderMultiplier:1.4
SliderTickRate:1

[Events]
//Background and Video events
0,0,"BG - Wony.jpg",0,0
Video,-5515,"video.mp4"
//Break Periods
//Storyboard Layer 0 (Background)
//Storyboard Layer 1 (Fail)
//Storyboard Layer 2 (Pass)
//Storyboard Layer 3 (Foreground)
//Storyboard Layer 4 (Overlay)
//Storyboard Sound Samples
Sample,53783,0,"Cymatics - House Kick 1 - D#.wav",70
Sample,58069,0,"clap03.wav",100
Sample,97116,0,"Cymatics - Future Bass Ride 3.wav",50
Sample,97831,0,"tick.wav",100
Sample,99021,0,"Cymatics - Future Bass Ride 3.wav",50
Sample,99259,0,"Cymatics - Future Bass Ride 3.wav",50
Sample,100926,0,"Cymatics - Future Bass Ride 3.wav",50
Sample,101164,0,"Cymatics - Future Bass Ride 3.wav",50
Sample,107354,0,"tick.wav",100
Sample,108545,0,"Cymatics - Future Bass Ride 3.wav",50
Sample,131878,0,"Cymatics - House Kick 1 - D#.wav",70
Sample,136164,0,"clap03.wav",100
Sample,183545,0,"soft-hitclap.wav",50
Sample,183783,0,"soft-hitclap.wav",50
Sample,203783,0,"soft-hitclap.wav",50

[TimingPoints]
2355,476.190476190476,4,2,1,100,1,0
63307,-100.0,4,2,1,100,0,1
93307,-100.0,4,2,1,100,0,0
141402,-100.0,4,2,1,100,0,1
171402,-100.0,4,2,1,100,0,0
189021,-100.0,4,2,1,100,0,1
204259,-100.0,4,2,1,100,0,0
211878,-100.0,4,2,1,100,0,1
219259,-100.0,4,2,1,100,0,0

[HitObjects]
402,192,2355,1,0,0:0:0:0:
256,192,2712,1,0,0:0:0:0:
109,192,3307,1,0,0:0:0:0:
256,192,3664,1,0,0:0:0:0:
475,192,4259,1,0,0:0:0:0:
329,192,4616,1,0,0:0:0:0:
182,192,5212,1,0,0:0:0:0:
329,192,5569,1,0,0:0:0:0:
36,192,6164,1,2,0:0:0:0:
329,192,6164,1,0,0:0:0:0:
182,192,6521,1,0,0:0:0:0:
475,192,7116,1,0,0:0:0:0:
329,192,7474,1,0,0:0:0:0:
109,192,8069,1,0,0:0:0:0:
256,192,8426,1,0,0:0:0:0:
329,192,9021,1,0,0:0:0:0:
36,192,9259,1,0,0:0:0:0:
109,192,9497,1,0,0:0:0:0:
182,192,9735,1,0,0:0:0:0:
256,192,9974,1,2,0:0:0:0:
475,192,9974,1,0,0:0:0:0:
109,192,10450,1,0,0:0:0:50:soft-hitclap.wav
402,192,10450,1,0,0:0:0:0:
256,192,10688,1,0,0:0:0:70:tom02.wav
36,192,10926,1,2,0:0:0:0:
329,192,10926,1,0,0:0:0:0:
182,192,11402,1,0,0:0:0:50:soft-hitclap.wav
475,192,11402,1,0,0:0:0:0:
109,192,11878,128,2,12354:0:0:0:0:
402,192,11878,1,0,0:0:0:0:
329,192,12354,1,0,0:0:0:50:soft-hitclap.wav
475,192,12354,1,0,0:0:0:0:
182,192,12593,1,0,0:0:0:0:
256,192,12831,1,2,0:0:0:0:
402,192,12831,1,0,0:0:0:0:
109,192,13307,1,0,0:0:0:50:soft-hitclap.wav
402,192,13307,1,0,0:0:0:0:
36,192,13783,1,2,0:0:0:0:
329,192,13783,128,0,14259:0:0:0:0:
109,192,14259,1,0,0:0:0:50:soft-hitclap.wav
402,192,14259,1,0,0:0:0:0:
256,192,14497,1,0,0:0:0:70:tom02.wav
182,192,14735,1,2,0:0:0:0:
475,192,14735,1,0,0:0:0:0:
256,192,15212,1,0,0:0:0:50:soft-hitclap.wav
402,192,15212,1,0,0:0:0:0:
182,192,15450,1,0,0:0:0:70:tom02.wav
109,192,15688,128,2,16164:0:0:0:0:
329,192,15688,1,0,0:0:0:0:
182,192,16164,1,0,0:0:0:50:soft-hitclap.wav
402,192,16164,1,0,0:0:0:0:
475,192,16402,128,0,17116:0:0:0:0:
182,192,17116,1,0,0:0:0:0:
36,192,17593,1,2,0:0:0:0:
182,192,17831,1,2,0:0:0:0:
329,192,18069,1,0,0:0:0:100:clap03.wav
475,192,18069,1,0,0:0:0:0:
402,192,18783,1,2,0:0:0:0:
109,192,19021,1,0,0:0:0:100:clap03.wav
256,192,19021,1,0,0:0:0:0:
182,192,19735,1,2,0:0:0:0:
36,192,19974,1,0,0:0:0:100:clap03.wav
329,192,19974,1,0,0:0:0:0:
329,192,20688,1,2,0:0:0:0:
182,192,20926,1,0,0:0:0:100:clap03.wav
475,192,20926,1,0,0:0:0:0:
402,192,21402,1,2,0:0:0:0:
256,192,21640,1,2,0:0:0:0:
109,192,21878,1,0,0:0:0:100:clap03.wav
329,192,21878,1,0,0:0:0:0:
182,192,22593,1,2,0:0:0:0:
256,192,22831,1,0,0:0:0:100:clap03.wav
475,192,22831,1,0,0:0:0:0:
329,192,23069,1,2,0:0:0:0:
109,192,23307,1,2,0:0:0:0:
402,192,23664,1,2,0:0:0:0:
109,192,24021,1,2,0:0:0:0:
329,192,24497,1,2,0:0:0:0:
36,192,24735,1,0,0:0:0:100:clap03.wav
256,192,24735,1,0,0:0:0:0:
109,192,24974,1,2,0:0:0:0:
182,192,25212,1,2,0:0:0:0:
402,192,25212,128,0,25688:0:0:0:0:
36,192,25688,1,0,0:0:0:100:clap03.wav
329,192,25688,1,0,0:0:0:0:
182,192,26164,1,2,0:0:0:0:
256,192,26402,1,0,0:0:0:0:
36,192,26640,1,0,0:0:0:100:clap03.wav
329,192,26640,1,0,0:0:0:0:
109,192,26878,1,2,0:0:0:0:
182,192,27116,1,2,0:0:0:0:
109,192,27593,1,0,0:0:0:100:clap03.wav
475,192,27593,1,0,0:0:0:0:
329,192,28069,1,2,0:0:0:0:
256,192,28307,1,0,0:0:0:0:
182,192,28545,1,0,0:0:0:100:clap03.wav
475,192,28545,1,0,0:0:0:0:
402,192,28783,1,2,0:0:0:0:
329,192,29021,1,2,0:0:0:0:
109,192,29497,1,0,0:0:0:100:clap03.wav
475,192,29497,1,0,0:0:0:0:
402,192,29974,1,2,0:0:0:0:
329,192,30212,1,2,0:0:0:0:
36,192,30450,1,2,0:0:0:0:
256,192,30450,1,0,0:0:0:100:clap03.wav
329,192,30688,1,2,0:0:0:0:
475,192,31164,1,0,0:0:0:0:
402,192,31402,1,0,0:0:0:0:
329,192,31640,1,0,0:0:0:0:
182,192,31878,1,0,0:0:0:0:
256,192,32116,1,0,0:0:0:0:
329,192,32354,128,0,32831:0:0:0:0:
36,192,32831,1,2,0:0:0:0:
256,192,32831,1,0,0:0:0:0:
182,192,33069,1,0,0:0:0:100:tick.wav
329,192,33307,1,2,0:0:0:0:
475,192,33307,1,0,0:0:0:100:clap03.wav
402,192,33783,1,2,0:0:0:0:
182,192,34021,1,0,0:0:0:100:tick.wav
109,192,34259,1,2,0:0:0:0:
329,192,34259,1,0,0:0:0:100:clap03.wav
182,192,34735,1,2,0:0:0:0:
402,192,34974,1,0,0:0:0:100:tick.wav
256,192,35212,1,2,0:0:0:0:
475,192,35212,1,0,0:0:0:100:clap03.wav
182,192,35450,1,0,0:0:0:100:tick.wav
329,192,35688,128,2,36164:0:0:0:0:
182,192,36164,1,2,0:0:0:0:
402,192,36164,1,0,0:0:0:100:clap03.wav
329,192,36640,1,2,0:0:0:0:
182,192,36878,1,0,0:0:0:100:tick.wav
36,192,37116,1,2,0:0:0:0:
256,192,37116,1,0,0:0:0:100:clap03.wav
402,192,37593,1,2,0:0:0:0:
182,192,37831,1,0,0:0:0:100:tick.wav
109,192,38069,1,2,0:0:0:0:
329,192,38069,1,0,0:0:0:100:clap03.wav
182,192,38545,1,2,0:0:0:0:
329,192,38783,1,0,0:0:0:100:tick.wav
256,192,39021,1,2,0:0:0:0:
475,192,39021,1,0,0:0:0:100:clap03.wav
36,192,39259,1,0,0:0:0:100:tick.wav
182,192,39497,1,2,0:0:0:0:
256,192,39854,128,2,40212:0:0:0:0:
182,192,40212,1,2,0:0:0:0:
329,192,40450,1,2,0:0:0:0:
109,192,40688,128,0,41045:0:0:0:0:
402,192,41045,1,0,0:0:0:0:
182,192,41402,128,2,41759:0:0:0:0:
329,192,41759,1,0,0:0:0:0:
109,192,42116,1,0,0:0:0:100:tick.wav
256,192,42354,1,2,0:0:0:0:
402,192,42593,128,0,42950:0:0:0:100:tick.wav
182,192,42950,1,0,0:0:0:0:
109,192,43307,128,2,43664:0:0:0:0:
329,192,43664,1,0,0:0:0:0:
256,192,44021,1,0,0:0:0:100:tick.wav
182,192,44259,1,2,0:0:0:0:
329,192,44497,1,0,0:0:0:100:tick.wav
109,192,44735,1,2,0:0:0:0:
402,192,44735,1,0,0:0:0:100:clap03.wav
182,192,44974,1,0,0:0:0:100:tick.wav
256,192,45212,1,2,0:0:0:0:
182,192,45688,1,2,0:0:0:0:
475,192,45688,1,0,0:0:0:100:clap03.wav
109,192,46164,1,2,0:0:0:0:
329,192,46164,1,0,0:0:0:0:
182,192,46521,1,2,0:0:0:0:
402,192,46521,1,0,0:0:0:0:
109,192,46878,1,2,0:0:0:0:
329,192,46878,1,0,0:0:0:0:
182,192,47116,1,2,0:0:0:0:
402,192,47116,1,0,0:0:0:0:
36,192,47593,1,2,0:0:0:0:
475,192,47593,1,0,0:0:0:20:kick02.wav
402,192,47831,1,2,0:0:0:0:
109,192,48069,1,2,0:0:0:0:
329,192,48069,1,0,0:0:0:0:
256,192,48545,1,0,0:0:0:0:
329,192,49021,1,0,0:0:0:0:
109,192,49259,1,2,0:0:0:0:
475,192,49259,1,0,0:0:0:0:
402,192,49497,1,0,0:0:0:0:
329,192,49735,1,0,0:0:0:0:
182,192,49974,1,2,0:0:0:0:
475,192,49974,1,0,0:0:0:0:
256,192,50450,1,0,0:0:0:0:
182,192,50926,1,0,0:0:0:0:
36,192,51164,1,2,0:0:0:0:
402,192,51164,1,0,0:0:0:0:
109,192,51402,1,0,0:0:0:0:
256,192,51640,1,0,0:0:0:0:
36,192,51878,1,2,0:0:0:0:
329,192,51878,1,0,0:0:0:0:
182,192,52235,1,0,0:0:0:0:
256,192,52593,1,0,0:0:0:0:
329,192,52831,1,0,0:0:0:0:
109,192,53069,1,2,0:0:0:0:
402,192,53069,1,0,0:0:0:0:
182,192,53307,1,0,0:0:0:0:
475,192,53783,1,0,0:0:0:50:soft-hitclap.wav
182,192,54140,1,0,0:0:0:70:Cymatics - House Kick 1 - D#.wav
329,192,54497,1,0,0:0:0:70:Cymatics - House Kick 1 - D#.wav
36,192,54735,128,2,55212:0:0:0:0:
182,192,55212,1,2,0:0:0:0:
475,192,55212,1,0,0:0:0:0:
256,192,55688,1,2,0:0:0:0:
475,192,55688,1,0,0:0:0:0:
402,192,56164,1,2,0:0:0:0:
182,192,56402,1,0,0:0:0:0:
256,192,56402,1,0,0:0:0:0:
402,192,56640,1,2,0:0:0:0:
402,192,57116,1,2,0:0:0:0:
109,192,57593,1,2,0:0:0:0:
329,192,57593,1,0,0:0:0:0:
109,192,58069,1,2,0:0:0:0:
256,192,58307,1,0,0:0:0:0:
329,192,58307,1,0,0:0:0:0:
109,192,58545,1,2,0:0:0:0:
109,192,59021,1,2,0:0:0:0:
182,192,59497,1,2,0:0:0:0:
475,192,59497,1,0,0:0:0:0:
329,192,59735,1,2,0:0:0:0:
36,192,59974,1,2,0:0:0:0:
182,192,60212,1,2,0:0:0:0:
256,192,60450,128,2,61402:0:0:0:0:
475,192,60450,1,0,0:0:0:0:
329,192,61640,1,0,0:0:0:0:
182,192,61878,1,0,0:0:0:0:
256,192,62116,1,0,0:0:0:0:
402,192,62354,128,0,62831:0:0:0:0:
109,192,62831,128,0,63307:0:0:0:0:
182,192,63307,1,2,0:0:0:0:
475,192,63307,1,0,0:0:0:0:
36,192,63783,1,0,0:0:0:50:soft-hitclap.wav
329,192,63783,1,0,0:0:0:0:
109,192,64021,1,0,0:0:0:100:tick.wav
256,192,64259,128,2,64616:0:0:0:0:
182,192,64616,1,0,0:0:0:0:
256,192,64974,1,0,0:0:0:100:tick.wav
329,192,65212,128,2,65569:0:0:0:0:
109,192,65569,1,0,0:0:0:0:
256,192,65807,1,0,0:0:0:0:
402,192,66045,128,0,66640:0:0:0:0:
182,192,66640,1,0,0:0:0:50:soft-hitclap.wav
475,192,66640,1,0,0:0:0:0:
256,192,66878,1,0,0:0:0:100:tick.wav
402,192,67116,1,2,0:0:0:0:
329,192,67354,1,0,0:0:0:100:tick.wav
36,192,67593,1,0,0:0:0:50:soft-hitclap.wav
182,192,67593,1,0,0:0:0:0:
475,192,68069,1,2,0:0:0:0:
329,192,68307,1,0,0:0:0:100:tick.wav
182,192,68545,1,0,0:0:0:50:soft-hitclap.wav
475,192,68545,1,0,0:0:0:0:
329,192,68783,1,0,0:0:0:100:tick.wav
256,192,69021,128,2,69497:0:0:0:0:
36,192,69497,1,0,0:0:0:50:soft-hitclap.wav
402,192,69497,1,0,0:0:0:0:
329,192,69735,1,0,0:0:0:100:tick.wav
109,192,69974,1,2,0:0:0:0:
329,192,70212,1,0,0:0:0:100:tick.wav
182,192,70450,1,0,0:0:0:50:soft-hitclap.wav
475,192,70450,128,0,70926:0:0:0:50:Cymatics - Future Bass Ride 3.wav
329,192,70926,1,2,0:0:0:0:
256,192,71164,1,0,0:0:0:100:tick.wav
36,192,71402,1,0,0:0:0:50:soft-hitclap.wav
182,192,71402,1,0,0:0:0:0:
329,192,71640,1,0,0:0:0:100:tick.wav
402,192,71878,128,2,72235:0:0:0:0:
109,192,72235,128,0,72593:0:0:0:0:
402,192,72593,1,0,0:0:0:100:tick.wav
329,192,72831,128,2,73188:0:0:0:0:
256,192,73188,1,0,0:0:0:0:
182,192,73426,1,0,0:0:0:0:
109,192,73664,1,0,0:0:0:0:
329,192,74021,1,0,0:0:0:100:tick.wav
182,192,74378,1,0,0:0:0:0:
475,192,74735,128,2,75450:0:0:0:0:
256,192,75093,1,2,0:0:0:0:
36,192,75450,1,2,0:0:0:0:
109,192,75926,1,2,0:0:0:0:
402,192,76283,1,0,0:0:0:0:
182,192,76640,1,2,0:0:0:0:
329,192,76997,1,2,0:0:0:0:
182,192,77354,1,2,0:0:0:0:
402,192,77831,1,0,0:0:0:0:
256,192,78069,1,0,0:0:0:0:
329,192,78307,1,0,0:0:0:0:
36,192,78545,128,2,78902:0:0:0:0:
182,192,78545,1,0,0:0:0:0:
329,192,78902,1,0,0:0:0:0:
109,192,79259,1,0,0:0:0:100:tick.wav
329,192,79497,1,2,0:0:0:0:
256,192,79735,1,0,0:0:0:100:tick.wav
36,192,79974,1,0,0:0:0:50:soft-hitclap.wav
182,192,79974,1,0,0:0:0:0:
256,192,80212,1,0,0:0:0:100:tick.wav
402,192,80450,128,2,80926:0:0:0:0:
109,192,80926,128,0,81402:0:0:0:50:soft-hitclap.wav
329,192,80926,1,0,0:0:0:0:
475,192,81402,128,2,81878:0:0:0:0:
182,192,81878,1,0,0:0:0:50:soft-hitclap.wav
256,192,81878,128,0,82354:0:0:0:0:
402,192,82354,128,2,82712:0:0:0:0:
109,192,82712,1,0,0:0:0:0:
329,192,83069,1,0,0:0:0:100:tick.wav
109,192,83307,1,2,0:0:0:0:
182,192,83545,1,0,0:0:0:100:tick.wav
36,192,83783,1,0,0:0:0:50:soft-hitclap.wav
256,192,83783,1,0,0:0:0:0:
329,192,84021,1,0,0:0:0:100:tick.wav
475,192,84259,128,2,84735:0:0:0:0:
109,192,84735,128,0,85212:0:0:0:50:soft-hitclap.wav
402,192,84735,1,0,0:0:0:0:
182,192,85212,1,2,0:0:0:0:
329,192,85450,1,0,0:0:0:100:tick.wav
109,192,85688,1,0,0:0:0:50:soft-hitclap.wav
256,192,85688,1,0,0:0:0:50:Cymatics - Future Bass Ride 3.wav
402,192,85926,1,0,0:0:0:50:Cymatics - Future Bass Ride 3.wav
36,192,86164,128,2,86521:0:0:0:0:
329,192,86164,1,0,0:0:0:0:
182,192,86521,1,0,0:0:0:0:
256,192,86878,1,0,0:0:0:100:tick.wav
475,192,87116,128,2,87593:0:0:0:0:
182,192,87593,1,0,0:0:0:50:soft-hitclap.wav
402,192,87593,1,0,0:0:0:0:
256,192,87831,1,0,0:0:0:100:tick.wav
329,192,88069,128,2,88426:0:0:0:0:
182,192,88426,1,0,0:0:0:0:
256,192,88783,1,0,0:0:0:100:tick.wav
36,192,89021,128,2,89497:0:0:0:0:
109,192,89497,1,0,0:0:0:50:soft-hitclap.wav
329,192,89497,1,0,0:0:0:0:
256,192,89735,1,0,0:0:0:100:tick.wav
402,192,89974,128,2,90331:0:0:0:0:
109,192,90331,1,0,0:0:0:0:
329,192,90688,1,0,0:0:0:100:tick.wav
182,192,90926,128,2,91402:0:0:0:0:
329,192,91402,1,0,0:0:0:50:soft-hitclap.wav
475,192,91402,1,0,0:0:0:0:
256,192,91640,1,0,0:0:0:100:tick.wav
109,192,91878,1,2,0:0:0:0:
256,192,92116,1,0,0:0:0:100:tick.wav
109,192,92354,1,0,0:0:0:50:soft-hitclap.wav
402,192,92354,1,0,0:0:0:0:
329,192,92831,128,2,93307:0:0:0:0:
182,192,93307,128,0,93783:0:0:0:0:
475,192,93783,128,0,94259:0:0:0:0:
256,192,95688,1,2,0:0:0:0:
475,192,95688,1,0,0:0:0:100:tick.wav
36,192,96640,1,0,0:0:0:50:soft-hitclap.wav
475,192,96640,1,0,0:0:0:0:
329,192,96878,1,2,0:0:0:0:
182,192,97116,1,0,0:0:0:50:soft-hitclap.wav
109,192,97354,1,0,0:0:0:50:Cymatics - Future Bass Ride 3.wav
402,192,97354,1,0,0:0:0:0:
329,192,97831,1,2,0:0:0:0:
182,192,98069,1,2,0:0:0:0:
36,192,98545,1,0,0:0:0:100:clap03.wav
256,192,98545,1,0,0:0:0:50:soft-hitclap.wav
329,192,98783,1,2,0:0:0:0:
402,192,99021,1,2,0:0:0:0:
109,192,99259,1,2,0:0:0:0:
182,192,99497,1,2,0:0:0:0:
475,192,99497,128,0,99974:0:0:0:0:
256,192,100450,1,0,0:0:0:100:clap03.wav
475,192,100450,1,0,0:0:0:50:soft-hitclap.wav
109,192,100688,1,2,0:0:0:0:
182,192,100926,1,2,0:0:0:0:
329,192,101164,1,2,0:0:0:0:
36,192,101402,1,0,0:0:0:50:Cymatics - Future Bass Ride 3.wav
402,192,101402,1,0,0:0:0:0:
182,192,101640,1,2,0:0:0:0:
475,192,101878,1,2,0:0:0:0:
36,192,102354,1,0,0:0:0:50:soft-hitclap.wav
329,192,102354,1,0,0:0:0:0:
109,192,102831,1,0,0:0:0:50:soft-hitclap.wav
402,192,102831,1,0,0:0:0:0:
475,192,103307,1,2,0:0:0:0:
256,192,103545,1,2,0:0:0:0:
182,192,104021,1,0,0:0:0:100:tick.wav
36,192,104259,1,0,0:0:0:50:soft-hitclap.wav
329,192,104259,1,0,0:0:0:0:
182,192,104497,1,0,0:0:0:100:tick.wav
256,192,104735,1,2,0:0:0:0:
109,192,105212,1,0,0:0:0:100:tick.wav
256,192,105450,1,2,0:0:0:0:
402,192,105926,1,2,0:0:0:0:
109,192,106164,1,0,0:0:0:50:soft-hitclap.wav
256,192,106164,1,0,0:0:0:0:
402,192,106402,1,0,0:0:0:100:tick.wav
182,192,106640,1,2,0:0:0:0:
256,192,107116,1,2,0:0:0:0:
475,192,107354,1,2,0:0:0:0:
329,192,107831,1,2,0:0:0:0:
182,192,108069,1,0,0:0:0:50:soft-hitclap.wav
475,192,108069,1,0,0:0:0:0:
329,192,108307,1,0,0:0:0:100:tick.wav
256,192,108545,1,2,0:0:0:0:
109,192,109021,128,0,109497:0:0:0:0:
256,192,109497,128,0,109974:0:0:0:0:
402,192,109974,128,0,110450:0:0:0:0:
182,192,110450,128,0,110926:0:0:0:0:
109,192,110926,1,2,0:0:0:0:
402,192,110926,1,0,0:0:0:0:
329,192,111164,1,0,0:0:0:100:tick.wav
256,192,111402,1,2,0:0:0:0:
475,192,111402,1,0,0:0:0:100:clap03.wav
36,192,111878,1,2,0:0:0:0:
256,192,112116,1,0,0:0:0:100:tick.wav
182,192,112354,1,2,0:0:0:0:
402,192,112354,1,0,0:0:0:100:clap03.wav
109,192,112831,1,2,0:0:0:0:
329,192,113069,1,0,0:0:0:100:tick.wav
256,192,113307,1,2,0:0:0:0:
475,192,113307,1,0,0:0:0:100:clap03.wav
329,192,113545,1,0,0:0:0:100:tick.wav
109,192,113783,128,2,114259:0:0:0:0:
182,192,114259,1,2,0:0:0:0:
402,192,114259,1,0,0:0:0:100:clap03.wav
329,192,114735,1,2,0:0:0:0:
182,192,114974,1,0,0:0:0:100:tick.wav
36,192,115212,1,2,0:0:0:0:
256,192,115212,1,0,0:0:0:100:clap03.wav
402,192,115688,1,2,0:0:0:0:
256,192,115926,1,0,0:0:0:100:tick.wav
109,192,116164,1,2,0:0:0:0:
329,192,116164,1,0,0:0:0:100:clap03.wav
402,192,116640,1,2,0:0:0:0:
329,192,116878,1,0,0:0:0:100:tick.wav
182,192,117116,1,2,0:0:0:0:
475,192,117116,1,0,0:0:0:100:clap03.wav
256,192,117354,1,0,0:0:0:100:tick.wav
109,192,117593,1,2,0:0:0:0:
182,192,117950,128,2,118307:0:0:0:0:
256,192,118307,1,2,0:0:0:0:
402,192,118545,1,2,0:0:0:0:
329,192,118783,128,0,119140:0:0:0:0:
36,192,119140,1,0,0:0:0:0:
182,192,119497,128,2,119854:0:0:0:0:
475,192,119854,1,0,0:0:0:0:
329,192,120212,1,0,0:0:0:100:tick.wav
36,192,120450,1,2,0:0:0:0:
402,192,120688,128,0,121045:0:0:0:100:tick.wav
182,192,121045,1,0,0:0:0:0:
109,192,121402,128,2,121759:0:0:0:0:
329,192,121759,1,0,0:0:0:0:
256,192,122116,1,0,0:0:0:100:tick.wav
182,192,122354,1,2,0:0:0:0:
329,192,122593,1,0,0:0:0:100:tick.wav
109,192,122831,1,2,0:0:0:0:
402,192,122831,1,0,0:0:0:100:clap03.wav
182,192,123069,1,0,0:0:0:100:tick.wav
256,192,123307,1,2,0:0:0:0:
36,192,123783,1,2,0:0:0:0:
329,192,123783,1,0,0:0:0:100:clap03.wav
256,192,124021,1,0,0:0:0:100:tick.wav
182,192,124259,1,2,0:0:0:0:
475,192,124259,1,0,0:0:0:0:
109,192,124616,1,2,0:0:0:0:
402,192,124616,1,0,0:0:0:0:
36,192,124974,1,2,0:0:0:0:
329,192,124974,1,0,0:0:0:0:
182,192,125212,1,2,0:0:0:0:
475,192,125212,1,0,0:0:0:0:
36,192,125688,1,2,0:0:0:0:
256,192,125688,1,0,0:0:0:20:kick02.wav
329,192,125926,1,2,0:0:0:0:
182,192,126164,1,2,0:0:0:0:
402,192,126164,1,0,0:0:0:0:
256,192,126640,1,0,0:0:0:0:
329,192,127116,1,0,0:0:0:0:
109,192,127354,1,2,0:0:0:0:
475,192,127354,1,0,0:0:0:0:
256,192,127593,1,0,0:0:0:0:
402,192,127831,1,0,0:0:0:0:
182,192,128069,1,2,0:0:0:0:
475,192,128069,1,0,0:0:0:0:
329,192,128545,1,0,0:0:0:0:
182,192,129021,1,0,0:0:0:0:
36,192,129259,1,2,0:0:0:0:
256,192,129259,1,0,0:0:0:0:
475,192,129497,1,0,0:0:0:0:
329,192,129735,1,0,0:0:0:0:
182,192,129974,1,2,0:0:0:0:
402,192,129974,1,0,0:0:0:0:
36,192,130331,1,0,0:0:0:0:
182,192,130688,1,0,0:0:0:0:
329,192,130926,1,0,0:0:0:0:
109,192,131164,1,2,0:0:0:0:
402,192,131164,1,0,0:0:0:0:
256,192,131402,1,0,0:0:0:0:
475,192,131878,1,0,0:0:0:50:soft-hitclap.wav
182,192,132235,1,0,0:0:0:70:Cymatics - House Kick 1 - D#.wav
402,192,132593,1,0,0:0:0:70:Cymatics - House Kick 1 - D#.wav
109,192,132831,128,2,133307:0:0:0:0:
182,192,133307,1,2,0:0:0:0:
475,192,133307,1,0,0:0:0:0:
182,192,133783,1,2,0:0:0:0:
329,192,133783,1,0,0:0:0:0:
402,192,134259,1,2,0:0:0:0:
109,192,134497,1,0,0:0:0:0:
329,192,134497,1,0,0:0:0:0:
402,192,134735,1,2,0:0:0:0:
402,192,135212,1,2,0:0:0:0:
109,192,135688,1,2,0:0:0:0:
475,192,135688,1,0,0:0:0:0:
109,192,136164,1,2,0:0:0:0:
182,192,136402,1,0,0:0:0:0:
475,192,136402,1,0,0:0:0:0:
109,192,136640,1,2,0:0:0:0:
109,192,137116,1,2,0:0:0:0:
329,192,137593,1,2,0:0:0:0:
475,192,137593,1,0,0:0:0:0:
182,192,137831,1,2,0:0:0:0:
36,192,138069,1,2,0:0:0:0:
475,192,138307,1,2,0:0:0:0:
182,192,138545,1,2,0:0:0:0:
256,192,138545,128,0,139497:0:0:0:0:
402,192,139735,1,0,0:0:0:0:
109,192,139974,1,0,0:0:0:0:
182,192,140212,1,0,0:0:0:0:
329,192,140450,128,0,140926:0:0:0:0:
182,192,140926,128,0,141402:0:0:0:0:
36,192,141402,1,2,0:0:0:0:
402,192,141402,1,0,0:0:0:0:
109,192,141878,1,0,0:0:0:50:soft-hitclap.wav
475,192,141878,1,0,0:0:0:0:
329,192,142116,1,0,0:0:0:100:tick.wav
182,192,142354,128,2,142712:0:0:0:0:
329,192,142712,1,0,0:0:0:0:
256,192,143069,1,0,0:0:0:100:tick.wav
109,192,143307,128,2,143664:0:0:0:0:
329,192,143664,1,0,0:0:0:0:
256,192,143902,1,0,0:0:0:0:
182,192,144140,128,0,144735:0:0:0:0:
36,192,144735,1,0,0:0:0:50:soft-hitclap.wav
329,192,144735,1,0,0:0:0:0:
256,192,144974,1,0,0:0:0:100:tick.wav
109,192,145212,1,2,0:0:0:0:
182,192,145450,1,0,0:0:0:100:tick.wav
329,192,145688,1,0,0:0:0:50:soft-hitclap.wav
475,192,145688,1,0,0:0:0:0:
36,192,146164,1,2,0:0:0:0:
182,192,146402,1,0,0:0:0:100:tick.wav
36,192,146640,1,0,0:0:0:50:soft-hitclap.wav
329,192,146640,1,0,0:0:0:0:
182,192,146878,1,0,0:0:0:100:tick.wav
256,192,147116,128,2,147593:0:0:0:0:
109,192,147593,1,0,0:0:0:50:soft-hitclap.wav
475,192,147593,1,0,0:0:0:0:
182,192,147831,1,0,0:0:0:100:tick.wav
402,192,148069,1,2,0:0:0:0:
182,192,148307,1,0,0:0:0:100:tick.wav
36,192,148545,128,0,149021:0:0:0:50:soft-hitclap.wav
329,192,148545,1,0,0:0:0:50:Cymatics - Future Bass Ride 3.wav
182,192,149021,1,2,0:0:0:0:
256,192,149259,1,0,0:0:0:100:tick.wav
329,192,149497,1,0,0:0:0:50:soft-hitclap.wav
475,192,149497,1,0,0:0:0:0:
182,192,149735,1,0,0:0:0:100:tick.wav
109,192,149974,128,2,150331:0:0:0:0:
402,192,150331,128,0,150688:0:0:0:0:
109,192,150688,1,0,0:0:0:100:tick.wav
182,192,150926,128,2,151283:0:0:0:0:
256,192,151283,1,0,0:0:0:0:
329,192,151521,1,0,0:0:0:0:
402,192,151759,1,0,0:0:0:0:
182,192,152116,1,0,0:0:0:100:tick.wav
329,192,152474,1,0,0:0:0:0:
36,192,152831,128,2,153545:0:0:0:0:
256,192,153188,1,2,0:0:0:0:
475,192,153545,1,2,0:0:0:0:
402,192,154021,1,2,0:0:0:0:
109,192,154378,1,0,0:0:0:0:
329,192,154735,1,2,0:0:0:0:
182,192,155093,1,2,0:0:0:0:
329,192,155450,1,2,0:0:0:0:
109,192,155926,1,0,0:0:0:0:
256,192,156164,1,0,0:0:0:0:
182,192,156402,1,0,0:0:0:0:
329,192,156640,1,2,0:0:0:0:
475,192,156640,128,0,156997:0:0:0:0:
182,192,156997,1,0,0:0:0:0:
402,192,157354,1,0,0:0:0:100:tick.wav
182,192,157593,1,2,0:0:0:0:
256,192,157831,1,0,0:0:0:100:tick.wav
329,192,158069,1,0,0:0:0:50:soft-hitclap.wav
475,192,158069,1,0,0:0:0:0:
256,192,158307,1,0,0:0:0:100:tick.wav
109,192,158545,128,2,159021:0:0:0:0:
182,192,159021,1,0,0:0:0:50:soft-hitclap.wav
402,192,159021,128,0,159497:0:0:0:0:
36,192,159497,128,2,159974:0:0:0:0:
256,192,159974,128,0,160450:0:0:0:50:soft-hitclap.wav
329,192,159974,1,0,0:0:0:0:
109,192,160450,128,2,160807:0:0:0:0:
402,192,160807,1,0,0:0:0:0:
182,192,161164,1,0,0:0:0:100:tick.wav
402,192,161402,1,2,0:0:0:0:
329,192,161640,1,0,0:0:0:100:tick.wav
256,192,161878,1,0,0:0:0:50:soft-hitclap.wav
475,192,161878,1,0,0:0:0:0:
182,192,162116,1,0,0:0:0:100:tick.wav
36,192,162354,128,2,162831:0:0:0:0:
109,192,162831,1,0,0:0:0:50:soft-hitclap.wav
402,192,162831,128,0,163307:0:0:0:0:
329,192,163307,1,2,0:0:0:0:
182,192,163545,1,0,0:0:0:100:tick.wav
256,192,163783,1,0,0:0:0:50:soft-hitclap.wav
402,192,163783,1,0,0:0:0:50:Cymatics - Future Bass Ride 3.wav
109,192,164021,1,0,0:0:0:50:Cymatics - Future Bass Ride 3.wav
182,192,164259,1,2,0:0:0:0:
475,192,164259,128,0,164616:0:0:0:0:
329,192,164616,1,0,0:0:0:0:
256,192,164974,1,0,0:0:0:100:tick.wav
36,192,165212,128,2,165688:0:0:0:0:
109,192,165688,1,0,0:0:0:50:soft-hitclap.wav
329,192,165688,1,0,0:0:0:0:
256,192,165926,1,0,0:0:0:100:tick.wav
182,192,166164,128,2,166521:0:0:0:0:
329,192,166521,1,0,0:0:0:0:
256,192,166878,1,0,0:0:0:100:tick.wav
475,192,167116,128,2,167593:0:0:0:0:
182,192,167593,1,0,0:0:0:50:soft-hitclap.wav
402,192,167593,1,0,0:0:0:0:
256,192,167831,1,0,0:0:0:100:tick.wav
109,192,168069,128,2,168426:0:0:0:0:
402,192,168426,1,0,0:0:0:0:
182,192,168783,1,0,0:0:0:100:tick.wav
329,192,169021,128,2,169497:0:0:0:0:
36,192,169497,1,0,0:0:0:50:soft-hitclap.wav
182,192,169497,1,0,0:0:0:0:
402,192,169735,1,0,0:0:0:100:tick.wav
109,192,169974,1,2,0:0:0:0:
329,192,170212,1,0,0:0:0:100:tick.wav
109,192,170450,1,0,0:0:0:50:soft-hitclap.wav
182,192,170450,1,0,0:0:0:0:
329,192,170926,128,2,171402:0:0:0:0:
256,192,171402,128,0,171878:0:0:0:0:
109,192,171878,1,0,0:0:0:0:
402,192,171878,128,0,172354:0:0:0:0:
182,192,173783,1,0,0:0:0:0:
329,192,173783,1,0,0:0:0:0:
256,192,175688,1,0,0:0:0:0:
402,192,175688,128,0,176402:0:0:0:0:
109,192,176402,128,0,177116:0:0:0:0:
256,192,176402,1,0,0:0:0:0:
256,192,177116,128,0,178545:0:0:0:0:
475,192,177116,1,0,0:0:0:0:
36,192,178545,128,0,179497:0:0:0:0:
182,192,179497,1,2,0:0:0:0:
475,192,179497,1,0,0:0:0:0:
329,192,179735,1,0,0:0:0:100:tick.wav
109,192,179974,1,0,0:0:0:50:soft-hitclap.wav
402,192,179974,1,0,0:0:0:0:
256,192,180212,128,0,180688:0:0:0:100:tick.wav
402,192,180688,1,0,0:0:0:100:tick.wav
182,192,180926,1,0,0:0:0:50:soft-hitclap.wav
475,192,180926,1,0,0:0:0:0:
36,192,181164,128,0,181878:0:0:0:100:tick.wav
256,192,181402,1,2,0:0:0:0:
109,192,181878,1,0,0:0:0:50:soft-hitclap.wav
402,192,181878,1,0,0:0:0:0:
329,192,182116,1,0,0:0:0:100:tick.wav
182,192,182354,1,2,0:0:0:0:
329,192,182831,1,0,0:0:0:50:soft-hitclap.wav
475,192,182831,1,0,0:0:0:0:
109,192,183069,1,2,0:0:0:0:
256,192,183307,1,2,0:0:0:0:
182,192,183545,1,2,0:0:0:0:
329,192,183783,1,2,0:0:0:0:
256,192,184021,1,2,0:0:0:0:
475,192,184259,1,2,0:0:0:0:
329,192,184497,1,2,0:0:0:0:
36,192,184735,1,0,0:0:0:50:soft-hitclap.wav
182,192,184974,1,2,0:0:0:0:
36,192,185212,1,2,0:0:0:0:
329,192,185212,1,0,0:0:0:0:
109,192,185569,1,0,0:0:0:50:soft-hitclap.wav
182,192,185926,1,2,0:0:0:0:
256,192,186164,1,2,0:0:0:0:
475,192,186164,128,0,186640:0:0:0:0:
36,192,186640,128,0,187474:0:0:0:50:soft-hitclap.wav
402,192,186640,1,0,0:0:0:0:
182,192,189021,1,2,0:0:0:0:
329,192,189021,1,0,0:0:0:0:
36,192,189497,1,0,0:0:0:50:soft-hitclap.wav
402,192,189497,1,0,0:0:0:0:
109,192,189735,1,0,0:0:0:100:tick.wav
256,192,189974,128,2,190331:0:0:0:0:
182,192,190331,1,0,0:0:0:0:
329,192,190688,1,0,0:0:0:100:tick.wav
109,192,190926,128,2,191283:0:0:0:0:
402,192,191283,1,0,0:0:0:0:
256,192,191521,1,0,0:0:0:0:
182,192,191759,128,0,192354:0:0:0:0:
256,192,192354,1,0,0:0:0:50:soft-hitclap.wav
475,192,192354,1,0,0:0:0:0:
402,192,192593,1,0,0:0:0:100:tick.wav
109,192,192831,1,2,0:0:0:0:
182,192,193069,1,0,0:0:0:100:tick.wav
329,192,193307,1,0,0:0:0:50:soft-hitclap.wav
475,192,193307,1,0,0:0:0:0:
256,192,193783,1,2,0:0:0:0:
109,192,194021,1,0,0:0:0:100:tick.wav
329,192,194259,1,0,0:0:0:50:soft-hitclap.wav
475,192,194259,1,0,0:0:0:0:
182,192,194497,1,0,0:0:0:100:tick.wav
256,192,194735,128,2,195212:0:0:0:0:
36,192,195212,1,0,0:0:0:50:soft-hitclap.wav
329,192,195212,1,0,0:0:0:0:
109,192,195450,1,0,0:0:0:100:tick.wav
256,192,195688,1,0,0:0:0:70:Cymatics - House Kick 1 - D#.wav
402,192,195926,1,0,0:0:0:100:tick.wav
36,192,196164,128,0,196640:0:0:0:50:soft-hitclap.wav
329,192,196164,1,0,0:0:0:50:Cymatics - Future Bass Ride 3.wav
36,192,197116,1,2,0:0:0:0:
475,192,197116,1,0,0:0:0:100:clap03.wav
329,192,197354,1,0,0:0:0:100:tick.wav
402,192,197593,128,2,197950:0:0:0:0:
182,192,197950,128,0,198307:0:0:0:0:
256,192,198307,1,0,0:0:0:100:tick.wav
475,192,198545,128,2,198902:0:0:0:0:
109,192,198902,1,0,0:0:0:0:
256,192,199140,1,0,0:0:0:0:
402,192,199378,1,0,0:0:0:0:
36,192,199735,1,0,0:0:0:100:tick.wav
182,192,200093,1,0,0:0:0:0:
402,192,200450,128,2,200926:0:0:0:0:
36,192,200926,1,0,0:0:0:50:soft-hitclap.wav
256,192,200926,1,0,0:0:0:0:
256,192,201402,128,2,201878:0:0:0:0:
109,192,201878,128,0,202354:0:0:0:50:soft-hitclap.wav
402,192,201878,1,0,0:0:0:0:
182,192,202354,1,2,0:0:0:0:
329,192,202593,1,0,0:0:0:100:tick.wav
256,192,202831,1,0,0:0:0:50:soft-hitclap.wav
475,192,202831,1,0,0:0:0:0:
182,192,203069,1,0,0:0:0:100:tick.wav
402,192,203307,1,2,0:0:0:0:
109,192,203545,1,0,0:0:0:100:tom02.wav
256,192,203783,1,2,0:0:0:0:
36,192,204259,1,2,0:0:0:0:
329,192,204259,1,0,0:0:0:0:
256,192,204974,1,0,0:0:0:100:tom02.wav
402,192,205450,1,2,0:0:0:0:
36,192,205688,1,2,0:0:0:0:
182,192,205688,1,0,0:0:0:100:tom02.wav
256,192,206402,1,2,0:0:0:0:
475,192,206402,1,0,0:0:0:0:
36,192,207116,1,2,0:0:0:0:
329,192,207116,1,0,0:0:0:0:
256,192,207593,1,2,0:0:0:0:
475,192,207593,1,0,0:0:0:0:
182,192,208069,1,2,0:0:0:0:
402,192,208069,1,0,0:0:0:0:
109,192,209021,1,0,0:0:0:0:
36,192,209497,1,2,0:0:0:0:
256,192,209497,1,0,0:0:0:0:
329,192,209974,1,2,0:0:0:0:
475,192,209974,1,0,0:0:0:0:
182,192,210450,1,0,0:0:0:50:soft-hitclap.wav
402,192,210450,1,0,0:0:0:0:
109,192,210926,1,2,0:0:0:0:
402,192,211164,1,0,0:0:0:100:tick.wav
182,192,211402,1,0,0:0:0:50:soft-hitclap.wav
36,192,211878,1,2,0:0:0:0:
329,192,211878,128,0,212235:0:0:0:0:
109,192,212235,1,0,0:0:0:0:
256,192,212593,1,0,0:0:0:100:tick.wav
402,192,212831,128,2,213188:0:0:0:0:
182,192,213188,1,0,0:0:0:0:
256,192,213545,1,0,0:0:0:100:tick.wav
329,192,213783,1,2,0:0:0:0:
182,192,214021,1,0,0:0:0:100:tick.wav
256,192,214259,1,0,0:0:0:50:soft-hitclap.wav
475,192,214259,1,0,0:0:0:0:
109,192,214497,1,0,0:0:0:100:tick.wav
36,192,214735,128,2,215212:0:0:0:0:
109,192,215212,1,0,0:0:0:50:soft-hitclap.wav
329,192,215212,1,0,0:0:0:0:
402,192,215688,128,2,216164:0:0:0:0:
36,192,216164,1,0,0:0:0:50:soft-hitclap.wav
256,192,216164,1,0,0:0:0:0:
182,192,216640,128,2,217116:0:0:0:0:
329,192,217116,1,0,0:0:0:50:soft-hitclap.wav
475,192,217116,1,0,0:0:0:0:
36,192,217354,1,0,0:0:0:100:tick.wav
256,192,217593,1,2,0:0:0:0:
182,192,217831,1,0,0:0:0:100:tick.wav
109,192,218069,1,0,0:0:0:50:soft-hitclap.wav
402,192,218069,1,0,0:0:0:0:
256,192,218307,1,2,0:0:0:0:
329,192,218545,1,2,0:0:0:0:
182,192,218902,1,2,0:0:0:0:
329,192,219259,1,2,0:0:0:0:
