osu file format v14

[General]
AudioFilename: audio.ogg
AudioLeadIn: 0
PreviewTime: 46292
Countdown: 0
SampleSet: Soft
StackLeniency: 0.7
Mode: 3
LetterboxInBreaks: 0
SpecialStyle: 0
WidescreenStoryboard: 1

[Editor]
DistanceSpacing: 1
BeatDivisor: 2
GridSize: 16
TimelineZoom: 1.8

[Metadata]
Title:Airplane
TitleUnicode:Airplane
Artist:IZ*ONE
ArtistUnicode:아이즈원
Creator:Chrisse
Version:Ihram's Easy
Source:
Tags:Ucitysm indoroid tigerinity Ihram-san kpop korean pop k-pop heart*iz heartiz izone off the record swing entertainment 장원영 Jang Won-young Wonyoung 사쿠라 宮脇咲良 Miyawaki Sakura 조유리 Jo Yu-ri Yuri 최예나 Choi Ye-na Yena 안유진 An Yu-jin Yujin 나코 矢吹奈子 Yabuki Nako 권은비 Kwon Eun-bi Eunbi 강혜원 Kang Hye-won Hyewon 히토미 本田仁美 Honda Hitomi 김채원 Kim Chae-won Chaewon 김민주 Kim Min-ju Minju 이채연 Lee Chae-yeon Chaeyeon 이대휘 Dae-hwi 조윤경 Yun-kyung 장여진 Yeo-jin 리시 Lishi Simpson
BeatmapID:4119913
BeatmapSetID:1979805

[Difficulty]
HPDrainRate:6.5
CircleSize:4
OverallDifficulty:6.5
ApproachRate:5
SliderMultiplier:1.4
SliderTickRate:1

[Events]
//Background and Video events
0,0,"backg.jpg",0,0
//Break Periods
//Storyboard Layer 0 (Background)
//Storyboard Layer 1 (Fail)
//Storyboard Layer 2 (Pass)
//Storyboard Layer 3 (Foreground)
//Storyboard Layer 4 (Overlay)
//Storyboard Sound Samples
Sample,34110,0,"clap.wav",70
Sample,42110,0,"tom.wav",90
Sample,42837,0,"tom.wav",90
Sample,43564,0,"tom.wav",90
Sample,43928,0,"tom.wav",90
Sample,44292,0,"tom.wav",90
Sample,44655,0,"tom.wav",90
Sample,69019,0,"snare.wav",100
Sample,69746,0,"snare.wav",100
Sample,92292,0,"clap.wav",70
Sample,99201,0,"tom.wav",90
Sample,100292,0,"tom.wav",90
Sample,101019,0,"tom.wav",90
Sample,101746,0,"tom.wav",90
Sample,102110,0,"tom.wav",90
Sample,102473,0,"tom.wav",90
Sample,102837,0,"tom.wav",90
Sample,127201,0,"snare.wav",100
Sample,127928,0,"snare.wav",100
Sample,137019,0,"tom.wav",90
Sample,138110,0,"tom.wav",90
Sample,138837,0,"tom.wav",90
Sample,139564,0,"tom.wav",90
Sample,139928,0,"clap.wav",70
Sample,140655,0,"clap.wav",70
Sample,154473,0,"cymbal.wav",70
Sample,165019,0,"snare.wav",100
Sample,165746,0,"snare.wav",100
Sample,166473,0,"snare.wav",100
Sample,167201,0,"snare.wav",100
Sample,167928,0,"snare.wav",100
Sample,168655,0,"snare.wav",100
Sample,169382,0,"snare.wav",100
Sample,170110,0,"snare.wav",100
Sample,170837,0,"snare.wav",100
Sample,171564,0,"snare.wav",100
Sample,172292,0,"snare.wav",100
Sample,173019,0,"snare.wav",100
Sample,173746,0,"snare.wav",100
Sample,174473,0,"snare.wav",100
Sample,175201,0,"snare.wav",100
Sample,175928,0,"snare.wav",100
Sample,176473,0,"snare.wav",100
Sample,176655,0,"snare.wav",100
Sample,177382,0,"snare.wav",100

[TimingPoints]
292,363.636363636364,4,2,1,80,1,0
46837,-100.0,4,2,1,80,0,1
70110,-100.0,4,2,1,80,0,0
105019,-100.0,4,2,1,80,0,1
128292,-100.0,4,2,1,80,0,0
144292,-100.0,4,2,1,80,0,1
177746,-100.0,4,2,1,80,0,0

[HitObjects]
64,192,292,1,0,0:0:0:70:cymbal.wav
448,192,292,1,0,0:0:0:0:
192,192,837,1,0,0:0:0:0:
448,192,1564,1,0,0:0:0:0:
320,192,2110,1,0,0:0:0:0:
192,192,2655,1,0,0:0:0:0:
64,192,3201,1,0,0:0:0:0:
320,192,3746,1,0,0:0:0:0:
192,192,4473,1,0,0:0:0:0:
448,192,5019,1,0,0:0:0:0:
64,192,5564,1,0,0:0:0:0:
448,192,6110,1,0,0:0:0:70:clap.wav
320,192,6473,1,0,0:0:0:70:clap.wav
192,192,6837,1,0,0:0:0:70:clap.wav
64,192,7201,1,0,0:0:0:70:clap.wav
448,192,7564,1,0,0:0:0:70:clap.wav
192,192,7928,1,0,0:0:0:70:clap.wav
320,192,8292,1,0,0:0:0:70:clap.wav
64,192,8655,1,0,0:0:0:70:clap.wav
448,192,9019,1,0,0:0:0:70:clap.wav
192,192,9564,1,0,0:0:0:70:clap.wav
64,192,10110,1,0,0:0:0:70:clap.wav
320,192,10292,1,0,0:0:0:70:clap.wav
448,192,10473,128,0,11382:0:0:0:70:clap.wav
64,192,11382,128,0,11928:0:0:0:0:
192,192,11928,1,0,0:0:0:70:cymbal.wav
320,192,11928,1,0,0:0:0:0:
448,192,12292,1,0,0:0:0:70:clap.wav
320,192,13019,1,0,0:0:0:70:clap.wav
192,192,13746,1,0,0:0:0:70:clap.wav
64,192,14473,1,0,0:0:0:70:clap.wav
192,192,14655,1,0,0:0:0:0:
320,192,14837,1,0,0:0:0:0:
448,192,15201,1,0,0:0:0:70:clap.wav
64,192,15928,1,0,0:0:0:70:clap.wav
320,192,16655,1,0,0:0:0:70:clap.wav
192,192,17382,1,0,0:0:0:70:clap.wav
448,192,17746,1,0,0:0:0:0:
64,192,18110,1,0,0:0:0:70:clap.wav
320,192,18837,1,0,0:0:0:70:clap.wav
192,192,19564,1,0,0:0:0:70:clap.wav
448,192,20292,1,0,0:0:0:70:clap.wav
320,192,20655,1,0,0:0:0:0:
192,192,21019,1,0,0:0:0:70:clap.wav
448,192,21746,1,0,0:0:0:70:clap.wav
64,192,22473,1,0,0:0:0:70:clap.wav
320,192,22837,128,0,23201:0:0:0:0:
64,192,23201,128,0,23564:0:0:0:0:
192,192,23564,1,0,0:0:0:70:kick.wav
320,192,23928,1,0,0:0:0:70:clap.wav
64,192,24473,1,0,0:0:0:70:kick.wav
448,192,24655,1,0,0:0:0:70:clap.wav
192,192,24837,1,0,0:0:0:70:kick.wav
320,192,25382,1,0,0:0:0:70:clap.wav
192,192,25928,1,0,0:0:0:70:kick.wav
448,192,26110,128,0,26473:0:0:0:70:clap.wav
64,192,26473,1,0,0:0:0:70:kick.wav
192,192,26837,1,0,0:0:0:70:clap.wav
320,192,27382,1,0,0:0:0:70:kick.wav
64,192,27564,1,0,0:0:0:70:clap.wav
448,192,27746,1,0,0:0:0:70:kick.wav
192,192,28292,1,0,0:0:0:70:clap.wav
448,192,28837,1,0,0:0:0:70:kick.wav
64,192,29019,128,0,29382:0:0:0:70:clap.wav
320,192,29382,1,0,0:0:0:70:kick.wav
192,192,29746,1,0,0:0:0:70:clap.wav
448,192,30292,1,0,0:0:0:70:kick.wav
64,192,30473,1,0,0:0:0:70:clap.wav
320,192,30655,1,0,0:0:0:70:kick.wav
192,192,31201,1,0,0:0:0:70:clap.wav
64,192,31746,1,0,0:0:0:70:kick.wav
448,192,31928,128,0,32292:0:0:0:70:clap.wav
192,192,32292,1,0,0:0:0:70:kick.wav
320,192,32655,1,0,0:0:0:70:clap.wav
64,192,33201,1,0,0:0:0:70:kick.wav
448,192,33382,1,0,0:0:0:70:clap.wav
192,192,33564,1,0,0:0:0:70:kick.wav
320,192,33928,1,0,0:0:0:70:kick.wav
64,192,34110,128,0,34473:0:0:0:70:kick.wav
192,192,34473,128,0,34837:0:0:0:70:kick.wav
448,192,34837,128,0,35201:0:0:0:0:
64,192,35201,1,0,0:0:0:70:cymbal.wav
320,192,35201,1,0,0:0:0:0:
192,192,35746,1,0,0:0:0:0:
320,192,36292,1,0,0:0:0:0:
448,192,36837,1,0,0:0:0:0:
64,192,37201,1,0,0:0:0:0:
320,192,37382,1,0,0:0:0:0:
192,192,37746,128,0,38110:0:0:0:0:
448,192,38110,1,0,0:0:0:0:
320,192,38655,1,0,0:0:0:0:
192,192,39201,1,0,0:0:0:0:
64,192,39746,1,0,0:0:0:0:
448,192,40110,1,0,0:0:0:0:
64,192,40292,1,0,0:0:0:0:
192,192,40473,1,0,0:0:0:0:
320,192,40655,128,0,41019:0:0:0:0:
64,192,41019,1,0,0:0:0:70:clap.wav
448,192,41019,1,0,0:0:0:90:tom.wav
192,192,41382,1,0,0:0:0:70:clap.wav
448,192,41746,1,0,0:0:0:70:clap.wav
64,192,42110,1,0,0:0:0:70:clap.wav
320,192,42473,1,0,0:0:0:70:clap.wav
448,192,42837,1,0,0:0:0:70:clap.wav
192,192,43201,1,0,0:0:0:70:clap.wav
320,192,43564,1,0,0:0:0:70:clap.wav
64,192,43928,128,0,44292:0:0:0:70:clap.wav
448,192,44292,128,0,44655:0:0:0:70:clap.wav
192,192,44655,128,0,45382:0:0:0:70:clap.wav
320,192,45382,128,0,46292:0:0:0:0:
64,192,46292,1,0,0:0:0:0:
192,192,46473,1,0,0:0:0:0:
320,192,46655,1,0,0:0:0:0:
64,192,46837,1,0,0:0:0:70:kick.wav
448,192,46837,128,0,47201:0:0:0:70:cymbal.wav
192,192,47201,1,0,0:0:0:100:snare.wav
320,192,47382,1,0,0:0:0:70:kick.wav
448,192,47746,1,0,0:0:0:70:kick.wav
64,192,47928,1,0,0:0:0:100:snare.wav
320,192,48292,1,0,0:0:0:70:kick.wav
192,192,48655,1,0,0:0:0:100:snare.wav
448,192,48837,1,0,0:0:0:70:kick.wav
64,192,49201,1,0,0:0:0:70:kick.wav
320,192,49382,1,0,0:0:0:100:snare.wav
192,192,49746,128,0,50110:0:0:0:70:kick.wav
448,192,50110,1,0,0:0:0:100:snare.wav
64,192,50292,1,0,0:0:0:70:kick.wav
320,192,50655,1,0,0:0:0:70:kick.wav
192,192,50837,1,0,0:0:0:100:snare.wav
448,192,51201,1,0,0:0:0:70:kick.wav
64,192,51564,1,0,0:0:0:100:snare.wav
320,192,51746,1,0,0:0:0:70:kick.wav
448,192,52110,1,0,0:0:0:70:kick.wav
192,192,52292,1,0,0:0:0:100:snare.wav
64,192,52655,128,0,53019:0:0:0:70:kick.wav
448,192,53019,1,0,0:0:0:100:snare.wav
192,192,53201,1,0,0:0:0:70:kick.wav
64,192,53564,1,0,0:0:0:70:kick.wav
320,192,53746,1,0,0:0:0:100:snare.wav
448,192,54110,128,0,54473:0:0:0:70:kick.wav
64,192,54473,1,0,0:0:0:100:snare.wav
320,192,54655,1,0,0:0:0:70:kick.wav
448,192,55019,1,0,0:0:0:70:kick.wav
192,192,55201,1,0,0:0:0:100:snare.wav
320,192,55564,128,0,55928:0:0:0:70:kick.wav
64,192,55928,1,0,0:0:0:100:snare.wav
448,192,56110,1,0,0:0:0:70:kick.wav
320,192,56473,1,0,0:0:0:70:kick.wav
192,192,56655,128,0,57019:0:0:0:100:snare.wav
448,192,57019,1,0,0:0:0:70:kick.wav
320,192,57201,1,0,0:0:0:100:snare.wav
192,192,57382,1,0,0:0:0:100:snare.wav
64,192,57564,1,0,0:0:0:70:kick.wav
448,192,57746,128,0,58110:0:0:0:100:snare.wav
192,192,58110,128,0,58473:0:0:0:100:snare.wav
64,192,58473,1,0,0:0:0:70:kick.wav
320,192,58473,128,0,58837:0:0:0:70:cymbal.wav
64,192,58837,128,0,59201:0:0:0:100:snare.wav
448,192,59201,128,0,59564:0:0:0:0:
320,192,59564,1,0,0:0:0:100:snare.wav
192,192,59746,1,0,0:0:0:0:
64,192,59928,128,0,60292:0:0:0:70:kick.wav
448,192,60292,128,0,60655:0:0:0:100:snare.wav
192,192,60655,128,0,61019:0:0:0:0:
320,192,61019,1,0,0:0:0:100:snare.wav
448,192,61201,1,0,0:0:0:0:
64,192,61382,1,0,0:0:0:70:kick.wav
448,192,61746,1,0,0:0:0:100:snare.wav
192,192,61928,1,0,0:0:0:70:kick.wav
64,192,62292,1,0,0:0:0:70:kick.wav
320,192,62473,1,0,0:0:0:100:snare.wav
192,192,62837,1,0,0:0:0:70:kick.wav
448,192,63201,1,0,0:0:0:100:snare.wav
64,192,63382,1,0,0:0:0:70:kick.wav
320,192,63746,1,0,0:0:0:70:kick.wav
192,192,63928,1,0,0:0:0:100:snare.wav
448,192,64292,128,0,64655:0:0:0:70:kick.wav
64,192,64655,128,0,65019:0:0:0:100:snare.wav
192,192,65019,128,0,65382:0:0:0:0:
448,192,65382,1,0,0:0:0:100:snare.wav
320,192,65564,1,0,0:0:0:0:
64,192,65746,128,0,66110:0:0:0:70:kick.wav
448,192,66110,128,0,66473:0:0:0:100:snare.wav
320,192,66473,128,0,66837:0:0:0:0:
192,192,66837,1,0,0:0:0:100:snare.wav
64,192,67019,1,0,0:0:0:0:
448,192,67201,1,0,0:0:0:70:kick.wav
192,192,67564,1,0,0:0:0:100:snare.wav
448,192,67746,1,0,0:0:0:70:kick.wav
64,192,68110,1,0,0:0:0:70:kick.wav
320,192,68292,1,0,0:0:0:100:snare.wav
448,192,68655,128,0,69019:0:0:0:70:kick.wav
320,192,69019,128,0,69382:0:0:0:70:kick.wav
192,192,69382,128,0,69746:0:0:0:70:kick.wav
64,192,69746,128,0,70110:0:0:0:70:kick.wav
320,192,70110,1,0,0:0:0:70:kick.wav
448,192,70110,1,0,0:0:0:70:cymbal.wav
192,192,70837,1,0,0:0:0:100:snare.wav
448,192,71019,1,0,0:0:0:0:
64,192,71382,1,0,0:0:0:0:
192,192,71746,1,0,0:0:0:70:kick.wav
448,192,71928,1,0,0:0:0:70:kick.wav
320,192,72292,1,0,0:0:0:100:snare.wav
64,192,72473,1,0,0:0:0:0:
448,192,72837,1,0,0:0:0:0:
192,192,73019,1,0,0:0:0:70:kick.wav
64,192,73564,1,0,0:0:0:70:kick.wav
320,192,73746,1,0,0:0:0:100:snare.wav
448,192,73928,1,0,0:0:0:0:
64,192,74292,1,0,0:0:0:0:
320,192,74655,1,0,0:0:0:0:
192,192,74837,1,0,0:0:0:70:kick.wav
320,192,75201,1,0,0:0:0:100:snare.wav
448,192,75201,1,0,0:0:0:0:
64,192,75928,1,0,0:0:0:70:kick.wav
192,192,75928,1,0,0:0:0:0:
448,192,76655,1,0,0:0:0:100:snare.wav
320,192,76837,1,0,0:0:0:0:
64,192,77201,1,0,0:0:0:0:
448,192,77564,1,0,0:0:0:70:kick.wav
192,192,77746,1,0,0:0:0:70:kick.wav
320,192,78110,1,0,0:0:0:100:snare.wav
448,192,78292,1,0,0:0:0:0:
192,192,78655,1,0,0:0:0:0:
320,192,78837,1,0,0:0:0:70:kick.wav
64,192,79382,1,0,0:0:0:70:kick.wav
448,192,79564,1,0,0:0:0:100:snare.wav
192,192,79746,1,0,0:0:0:0:
320,192,80110,1,0,0:0:0:0:
448,192,80292,128,0,81746:0:0:0:0:
64,192,81746,1,0,0:0:0:70:kick.wav
192,192,82110,1,0,0:0:0:70:clap.wav
448,192,82655,1,0,0:0:0:70:kick.wav
64,192,82837,1,0,0:0:0:70:clap.wav
320,192,83019,1,0,0:0:0:70:kick.wav
192,192,83564,1,0,0:0:0:70:clap.wav
448,192,84110,1,0,0:0:0:70:kick.wav
64,192,84292,128,0,84655:0:0:0:70:clap.wav
320,192,84655,1,0,0:0:0:70:kick.wav
192,192,85019,1,0,0:0:0:70:clap.wav
448,192,85564,1,0,0:0:0:70:kick.wav
64,192,85746,1,0,0:0:0:70:clap.wav
320,192,85928,1,0,0:0:0:70:kick.wav
192,192,86473,1,0,0:0:0:70:clap.wav
320,192,87019,1,0,0:0:0:70:kick.wav
448,192,87201,128,0,87564:0:0:0:70:clap.wav
64,192,87564,1,0,0:0:0:70:kick.wav
320,192,87928,1,0,0:0:0:70:clap.wav
192,192,88473,1,0,0:0:0:70:kick.wav
448,192,88655,1,0,0:0:0:70:clap.wav
64,192,88837,1,0,0:0:0:70:kick.wav
320,192,89382,1,0,0:0:0:70:clap.wav
192,192,89928,1,0,0:0:0:70:kick.wav
64,192,90110,128,0,90473:0:0:0:70:clap.wav
448,192,90473,1,0,0:0:0:70:kick.wav
192,192,90837,1,0,0:0:0:70:clap.wav
320,192,91382,1,0,0:0:0:70:kick.wav
64,192,91564,1,0,0:0:0:70:clap.wav
448,192,91746,1,0,0:0:0:70:kick.wav
192,192,92110,1,0,0:0:0:70:kick.wav
320,192,92292,128,0,92655:0:0:0:70:kick.wav
64,192,92655,128,0,93019:0:0:0:70:kick.wav
448,192,93019,128,0,93382:0:0:0:0:
192,192,93382,1,0,0:0:0:70:cymbal.wav
320,192,93382,1,0,0:0:0:0:
64,192,93928,1,0,0:0:0:0:
192,192,94473,1,0,0:0:0:0:
448,192,95019,1,0,0:0:0:0:
320,192,95382,1,0,0:0:0:0:
64,192,95564,1,0,0:0:0:0:
448,192,95928,128,0,96292:0:0:0:0:
192,192,96292,1,0,0:0:0:0:
320,192,96837,1,0,0:0:0:0:
192,192,97382,1,0,0:0:0:0:
64,192,97928,1,0,0:0:0:0:
448,192,98292,1,0,0:0:0:0:
192,192,98473,1,0,0:0:0:0:
320,192,98655,1,0,0:0:0:0:
64,192,98837,128,0,99201:0:0:0:0:
448,192,99201,1,0,0:0:0:70:clap.wav
320,192,99564,1,0,0:0:0:70:clap.wav
64,192,99928,1,0,0:0:0:70:clap.wav
192,192,100292,1,0,0:0:0:70:clap.wav
448,192,100655,1,0,0:0:0:70:clap.wav
192,192,101019,1,0,0:0:0:70:clap.wav
320,192,101382,1,0,0:0:0:70:clap.wav
64,192,101746,1,0,0:0:0:70:clap.wav
448,192,102110,128,0,102473:0:0:0:70:clap.wav
64,192,102473,128,0,102837:0:0:0:70:clap.wav
320,192,102837,128,0,103564:0:0:0:70:clap.wav
192,192,103564,128,0,104473:0:0:0:0:
448,192,104473,1,0,0:0:0:0:
320,192,104655,1,0,0:0:0:0:
192,192,104837,1,0,0:0:0:0:
64,192,105019,128,0,105382:0:0:0:70:kick.wav
448,192,105019,1,0,0:0:0:70:cymbal.wav
320,192,105382,1,0,0:0:0:100:snare.wav
192,192,105564,1,0,0:0:0:70:kick.wav
64,192,105928,1,0,0:0:0:70:kick.wav
448,192,106110,1,0,0:0:0:100:snare.wav
192,192,106473,1,0,0:0:0:70:kick.wav
320,192,106837,1,0,0:0:0:100:snare.wav
64,192,107019,1,0,0:0:0:70:kick.wav
448,192,107382,1,0,0:0:0:70:kick.wav
192,192,107564,1,0,0:0:0:100:snare.wav
320,192,107928,128,0,108292:0:0:0:70:kick.wav
64,192,108292,1,0,0:0:0:100:snare.wav
448,192,108473,1,0,0:0:0:70:kick.wav
192,192,108837,1,0,0:0:0:70:kick.wav
320,192,109019,1,0,0:0:0:100:snare.wav
64,192,109382,1,0,0:0:0:70:kick.wav
448,192,109746,1,0,0:0:0:100:snare.wav
192,192,109928,1,0,0:0:0:70:kick.wav
64,192,110292,1,0,0:0:0:70:kick.wav
320,192,110473,1,0,0:0:0:100:snare.wav
448,192,110837,128,0,111201:0:0:0:70:kick.wav
64,192,111201,1,0,0:0:0:100:snare.wav
320,192,111382,1,0,0:0:0:70:kick.wav
448,192,111746,1,0,0:0:0:70:kick.wav
192,192,111928,1,0,0:0:0:100:snare.wav
64,192,112292,128,0,112655:0:0:0:70:kick.wav
448,192,112655,1,0,0:0:0:100:snare.wav
192,192,112837,1,0,0:0:0:70:kick.wav
64,192,113201,1,0,0:0:0:70:kick.wav
320,192,113382,1,0,0:0:0:100:snare.wav
192,192,113746,128,0,114110:0:0:0:70:kick.wav
448,192,114110,1,0,0:0:0:100:snare.wav
64,192,114292,1,0,0:0:0:70:kick.wav
192,192,114655,1,0,0:0:0:70:kick.wav
320,192,114837,128,0,115201:0:0:0:100:snare.wav
64,192,115201,1,0,0:0:0:70:kick.wav
192,192,115382,1,0,0:0:0:100:snare.wav
320,192,115564,1,0,0:0:0:100:snare.wav
448,192,115746,1,0,0:0:0:70:kick.wav
64,192,115928,128,0,116292:0:0:0:100:snare.wav
320,192,116292,128,0,116655:0:0:0:100:snare.wav
192,192,116655,128,0,117019:0:0:0:70:kick.wav
448,192,116655,1,0,0:0:0:70:cymbal.wav
448,192,117019,128,0,117382:0:0:0:100:snare.wav
64,192,117382,128,0,117746:0:0:0:0:
192,192,117746,1,0,0:0:0:100:snare.wav
320,192,117928,1,0,0:0:0:0:
448,192,118110,128,0,118473:0:0:0:70:kick.wav
64,192,118473,128,0,118837:0:0:0:100:snare.wav
320,192,118837,128,0,119201:0:0:0:0:
192,192,119201,1,0,0:0:0:100:snare.wav
64,192,119382,1,0,0:0:0:0:
448,192,119564,1,0,0:0:0:70:kick.wav
64,192,119928,1,0,0:0:0:100:snare.wav
320,192,120110,1,0,0:0:0:70:kick.wav
448,192,120473,1,0,0:0:0:70:kick.wav
192,192,120655,1,0,0:0:0:100:snare.wav
320,192,121019,1,0,0:0:0:70:kick.wav
64,192,121382,1,0,0:0:0:100:snare.wav
448,192,121564,1,0,0:0:0:70:kick.wav
192,192,121928,1,0,0:0:0:70:kick.wav
320,192,122110,1,0,0:0:0:100:snare.wav
64,192,122473,128,0,122837:0:0:0:70:kick.wav
448,192,122837,128,0,123201:0:0:0:100:snare.wav
320,192,123201,128,0,123564:0:0:0:0:
64,192,123564,1,0,0:0:0:100:snare.wav
192,192,123746,1,0,0:0:0:0:
448,192,123928,128,0,124292:0:0:0:70:kick.wav
64,192,124292,128,0,124655:0:0:0:100:snare.wav
192,192,124655,128,0,125019:0:0:0:0:
320,192,125019,1,0,0:0:0:100:snare.wav
448,192,125201,1,0,0:0:0:0:
64,192,125382,1,0,0:0:0:70:kick.wav
320,192,125746,1,0,0:0:0:100:snare.wav
64,192,125928,1,0,0:0:0:70:kick.wav
448,192,126292,1,0,0:0:0:70:kick.wav
192,192,126473,1,0,0:0:0:100:snare.wav
64,192,126837,128,0,127201:0:0:0:70:kick.wav
192,192,127201,128,0,127564:0:0:0:70:kick.wav
320,192,127564,128,0,127928:0:0:0:70:kick.wav
448,192,127928,128,0,128292:0:0:0:70:kick.wav
64,192,128292,128,0,129382:0:0:0:70:cymbal.wav
192,192,128292,1,0,0:0:0:0:
320,192,129382,128,0,129746:0:0:0:0:
192,192,129746,128,0,131201:0:0:0:0:
320,192,131201,128,0,132655:0:0:0:0:
448,192,132655,128,0,134110:0:0:0:0:
64,192,134110,1,0,0:0:0:70:clap.wav
64,192,134473,1,0,0:0:0:70:clap.wav
192,192,134837,1,0,0:0:0:70:clap.wav
192,192,135201,1,0,0:0:0:70:clap.wav
320,192,135564,1,0,0:0:0:70:clap.wav
320,192,135928,1,0,0:0:0:70:clap.wav
448,192,136292,1,0,0:0:0:70:clap.wav
448,192,136655,1,0,0:0:0:70:clap.wav
64,192,137019,128,0,137382:0:0:0:70:clap.wav
192,192,137382,128,0,137746:0:0:0:70:clap.wav
320,192,137746,128,0,138110:0:0:0:70:clap.wav
448,192,138110,128,0,138473:0:0:0:70:clap.wav
64,192,138473,128,0,138837:0:0:0:70:clap.wav
192,192,138837,128,0,139201:0:0:0:70:clap.wav
448,192,139201,128,0,139564:0:0:0:70:clap.wav
320,192,139564,128,0,139928:0:0:0:70:clap.wav
192,192,139928,128,0,140655:0:0:0:70:kick.wav
64,192,140655,128,0,141382:0:0:0:70:kick.wav
320,192,141382,1,0,0:0:0:70:kick.wav
448,192,141382,1,0,0:0:0:70:cymbal.wav
448,192,142292,1,0,0:0:0:0:
320,192,142473,1,0,0:0:0:0:
192,192,142655,1,0,0:0:0:0:
64,192,142837,128,0,143201:0:0:0:0:
320,192,143201,1,0,0:0:0:70:cymbal.wav
448,192,143201,128,0,143746:0:0:0:100:i dont think you understand how funny this sounds.wav
64,192,143746,1,0,0:0:0:70:kick.wav
320,192,143928,1,0,0:0:0:100:snare.wav
192,192,144110,1,0,0:0:0:0:
448,192,144292,1,0,0:0:0:70:kick.wav
64,192,144655,1,0,0:0:0:100:snare.wav
320,192,144837,1,0,0:0:0:70:kick.wav
448,192,145201,1,0,0:0:0:70:kick.wav
192,192,145382,1,0,0:0:0:100:snare.wav
320,192,145746,128,0,146110:0:0:0:70:kick.wav
64,192,146110,1,0,0:0:0:100:snare.wav
448,192,146292,1,0,0:0:0:70:kick.wav
192,192,146655,1,0,0:0:0:70:kick.wav
320,192,146837,1,0,0:0:0:100:snare.wav
64,192,147201,1,0,0:0:0:70:kick.wav
448,192,147564,1,0,0:0:0:100:snare.wav
192,192,147746,1,0,0:0:0:70:kick.wav
320,192,148110,1,0,0:0:0:70:kick.wav
64,192,148292,1,0,0:0:0:100:snare.wav
448,192,148655,128,0,149019:0:0:0:70:kick.wav
64,192,149019,1,0,0:0:0:100:snare.wav
320,192,149201,1,0,0:0:0:70:kick.wav
192,192,149564,1,0,0:0:0:70:kick.wav
448,192,149746,1,0,0:0:0:100:snare.wav
320,192,150110,128,0,150473:0:0:0:70:kick.wav
64,192,150473,1,0,0:0:0:100:snare.wav
448,192,150655,1,0,0:0:0:70:kick.wav
320,192,151019,1,0,0:0:0:70:kick.wav
192,192,151201,1,0,0:0:0:100:snare.wav
64,192,151564,128,0,151928:0:0:0:70:kick.wav
448,192,151928,1,0,0:0:0:100:snare.wav
192,192,152110,1,0,0:0:0:70:kick.wav
64,192,152473,1,0,0:0:0:70:kick.wav
448,192,152655,128,0,153019:0:0:0:100:snare.wav
192,192,153019,1,0,0:0:0:70:kick.wav
64,192,153201,1,0,0:0:0:100:snare.wav
320,192,153382,1,0,0:0:0:100:snare.wav
448,192,153564,1,0,0:0:0:70:kick.wav
64,192,153746,128,0,154110:0:0:0:100:snare.wav
320,192,154110,128,0,154473:0:0:0:100:snare.wav
192,192,154473,128,0,154837:0:0:0:70:kick.wav
448,192,154837,128,0,155201:0:0:0:100:snare.wav
64,192,155201,128,0,155564:0:0:0:0:
192,192,155564,1,0,0:0:0:100:snare.wav
320,192,155746,1,0,0:0:0:0:
448,192,155928,128,0,156292:0:0:0:70:kick.wav
192,192,156292,128,0,156655:0:0:0:100:snare.wav
320,192,156655,128,0,157019:0:0:0:0:
64,192,157019,1,0,0:0:0:100:snare.wav
192,192,157201,1,0,0:0:0:0:
448,192,157382,1,0,0:0:0:70:kick.wav
320,192,157746,1,0,0:0:0:100:snare.wav
64,192,157928,1,0,0:0:0:70:kick.wav
192,192,158292,1,0,0:0:0:70:kick.wav
448,192,158473,1,0,0:0:0:100:snare.wav
320,192,158837,1,0,0:0:0:70:kick.wav
64,192,159201,1,0,0:0:0:100:snare.wav
448,192,159382,1,0,0:0:0:70:kick.wav
192,192,159746,1,0,0:0:0:70:kick.wav
320,192,159928,1,0,0:0:0:100:snare.wav
64,192,160292,128,0,160655:0:0:0:70:kick.wav
448,192,160655,128,0,161019:0:0:0:100:snare.wav
192,192,161019,128,0,161382:0:0:0:0:
320,192,161382,1,0,0:0:0:100:snare.wav
448,192,161564,1,0,0:0:0:0:
64,192,161746,128,0,162110:0:0:0:70:kick.wav
192,192,162110,128,0,162473:0:0:0:100:snare.wav
448,192,162473,128,0,162837:0:0:0:0:
320,192,162837,1,0,0:0:0:100:snare.wav
192,192,163019,1,0,0:0:0:0:
64,192,163201,1,0,0:0:0:70:kick.wav
192,192,163564,1,0,0:0:0:100:snare.wav
448,192,163746,1,0,0:0:0:70:kick.wav
320,192,164110,1,0,0:0:0:70:kick.wav
64,192,164292,1,0,0:0:0:100:snare.wav
448,192,164655,128,0,165019:0:0:0:70:kick.wav
320,192,165019,128,0,165382:0:0:0:70:kick.wav
192,192,165382,128,0,165746:0:0:0:70:kick.wav
64,192,165746,1,0,0:0:0:70:kick.wav
320,192,166110,1,0,0:0:0:70:kick.wav
448,192,166110,128,0,166473:0:0:0:70:cymbal.wav
64,192,166473,128,0,166837:0:0:0:70:kick.wav
320,192,166837,128,0,167201:0:0:0:70:kick.wav
192,192,167201,128,0,167564:0:0:0:70:kick.wav
448,192,167564,128,0,167928:0:0:0:70:kick.wav
64,192,167928,128,0,168292:0:0:0:70:kick.wav
320,192,168292,128,0,168655:0:0:0:70:kick.wav
192,192,168655,1,0,0:0:0:70:kick.wav
64,192,168837,1,0,0:0:0:0:
448,192,169019,1,0,0:0:0:70:kick.wav
192,192,169382,1,0,0:0:0:70:kick.wav
448,192,169564,1,0,0:0:0:0:
320,192,169746,1,0,0:0:0:70:kick.wav
64,192,170110,1,0,0:0:0:70:kick.wav
448,192,170292,1,0,0:0:0:0:
192,192,170473,1,0,0:0:0:70:kick.wav
320,192,170837,1,0,0:0:0:70:kick.wav
64,192,171201,1,0,0:0:0:70:kick.wav
448,192,171382,1,0,0:0:0:0:
320,192,171564,1,0,0:0:0:70:kick.wav
64,192,171928,128,0,172292:0:0:0:70:kick.wav
192,192,171928,1,0,0:0:0:70:cymbal.wav
448,192,172292,128,0,172655:0:0:0:70:kick.wav
192,192,172655,128,0,173019:0:0:0:70:kick.wav
320,192,173019,128,0,173382:0:0:0:70:kick.wav
64,192,173382,128,0,173746:0:0:0:70:kick.wav
448,192,173746,128,0,174110:0:0:0:70:kick.wav
192,192,174110,128,0,174473:0:0:0:70:kick.wav
320,192,174473,1,0,0:0:0:70:kick.wav
448,192,174655,1,0,0:0:0:0:
64,192,174837,1,0,0:0:0:70:kick.wav
448,192,175201,1,0,0:0:0:70:kick.wav
64,192,175382,1,0,0:0:0:0:
192,192,175564,1,0,0:0:0:70:kick.wav
448,192,175928,1,0,0:0:0:70:kick.wav
320,192,176292,1,0,0:0:0:70:kick.wav
64,192,176473,1,0,0:0:0:70:kick.wav
448,192,176655,1,0,0:0:0:70:kick.wav
192,192,176837,1,0,0:0:0:0:
64,192,177019,128,0,177382:0:0:0:70:kick.wav
320,192,177382,128,0,177746:0:0:0:70:kick.wav
192,192,177746,128,0,178655:0:0:0:50:i dont think you understand how funny this sounds.wav
