osu file format v14

[General]
AudioFilename: audio.mp3
AudioLeadIn: 0
PreviewTime: -1
Countdown: 0
SampleSet: Normal
StackLeniency: 0.7
Mode: 0
LetterboxInBreaks: 0
WidescreenStoryboard: 0

[Editor]
Bookmarks: 12840,113640
DistanceSpacing: 2.5
BeatDivisor: 4
GridSize: 16
TimelineZoom: 2

[Metadata]
Title:Birds (Ghastly x Swage Remix)
TitleUnicode:Birds (Ghastly x Swage Remix)
Artist:IZII
ArtistUnicode:IZII
Creator:SawySavvy
Version:Deal with the Devil
Source:
Tags:
BeatmapID:1439309
BeatmapSetID:680743

[Difficulty]
HPDrainRate:7.5
CircleSize:4
OverallDifficulty:7
ApproachRate:8.2
SliderMultiplier:1.4
SliderTickRate:1

[Events]
//Background and Video events
//Break Periods
2,105040,112920
//Storyboard Layer 0 (Background)
//Storyboard Layer 1 (Fail)
//Storyboard Layer 2 (Pass)
//Storyboard Layer 3 (Foreground)
//Storyboard Sound Samples

[TimingPoints]
40,400,4,1,0,100,1,0
50040,-200,4,1,0,100,0,0
64040,-100,4,1,0,100,0,1
102440,-100,4,1,0,100,0,0
140840,-100,4,1,0,100,0,1
179240,-100,4,1,0,100,0,0

[Colours]
Combo1 : 255,0,0
Combo2 : 128,0,64
Combo3 : 128,0,128
Combo4 : 255,128,64

[HitObjects]
184,100,12840,5,0,0:0:0:0:
268,76,13440,1,0,0:0:0:0:
280,248,13640,1,0,0:0:0:0:
184,100,14040,1,0,0:0:0:0:
328,92,14440,5,0,0:0:0:0:
368,168,15040,1,0,0:0:0:0:
184,100,15240,1,0,0:0:0:0:
184,100,16040,5,0,0:0:0:0:
152,168,16640,1,0,0:0:0:0:
272,244,16840,1,0,0:0:0:0:
184,100,17240,2,0,P|108:112|80:180,1,140
268,240,18240,1,0,0:0:0:0:
184,100,18440,1,0,0:0:0:0:
268,240,19240,5,0,0:0:0:0:
184,260,19840,1,0,0:0:0:0:
264,116,20040,1,0,0:0:0:0:
268,240,20440,1,0,0:0:0:0:
268,240,20840,5,0,0:0:0:0:
188,272,21440,1,0,0:0:0:0:
184,112,21640,1,0,0:0:0:0:
125,61,22440,6,0,P|61:105|65:181,1,140
139,145,23040,1,0,0:0:0:0:
104,288,23240,1,0,0:0:0:0:
139,145,23440,1,0,0:0:0:0:
44,197,23840,1,0,0:0:0:0:
104,288,24040,5,0,0:0:0:0:
134,316,24140,1,0,0:0:0:0:
168,339,24240,1,0,0:0:0:0:
209,346,24340,1,0,0:0:0:0:
250,340,24440,1,0,0:0:0:0:
286,318,24540,1,0,0:0:0:0:
321,296,24640,1,0,0:0:0:0:
346,262,24740,1,0,0:0:0:0:
344,220,24840,1,0,0:0:0:0:
336,178,24940,1,0,0:0:0:0:
321,138,25040,6,0,L|296:92,1,35
268,46,25240,2,0,L|221:78,1,35
176,97,25440,2,0,L|140:50,1,35
104,19,25640,6,0,P|61:50|44:137,1,140
66,256,26240,2,0,P|109:225|126:138,1,140
104,22,26840,2,0,L|184:40,1,70
273,66,27240,6,0,L|243:133,1,70
342,91,27540,2,0,L|312:158,1,70
410,116,27840,2,0,L|380:183,1,70
479,142,28140,2,0,L|449:209,1,70
405,300,28440,1,0,0:0:0:0:
405,300,28640,1,0,0:0:0:0:
225,191,28840,6,0,P|296:218|370:192,1,140
225,191,29440,2,0,P|273:134|274:55,1,140
225,191,30040,2,0,P|199:135|172:119,1,70
42,48,30440,5,0,0:0:0:0:
42,90,30540,1,0,0:0:0:0:
42,132,30640,1,0,0:0:0:0:
40,173,30740,1,0,0:0:0:0:
41,214,30840,1,0,0:0:0:0:
40,255,30940,1,0,0:0:0:0:
38,296,31040,1,0,0:0:0:0:
38,338,31140,1,0,0:0:0:0:
79,340,31240,5,0,0:0:0:0:
111,312,31340,1,0,0:0:0:0:
139,281,31440,1,0,0:0:0:0:
167,249,31540,1,0,0:0:0:0:
193,216,31640,1,0,0:0:0:0:
219,183,31740,1,0,0:0:0:0:
241,147,31840,1,0,0:0:0:0:
265,112,31940,1,0,0:0:0:0:
205,42,32040,6,0,L|62:42,1,140
205,42,32640,2,0,B|181:94|181:94|228:120|228:120|185:162,1,140
205,42,33240,2,0,L|306:42,1,70
163,191,33640,6,0,L|215:133,1,70
214,243,33940,2,0,L|266:185,1,70
264,295,34240,2,0,L|316:237,1,70
313,347,34540,2,0,L|365:289,1,70
471,159,34840,1,0,0:0:0:0:
239,162,35040,1,0,0:0:0:0:
216,200,35140,1,0,0:0:0:0:
214,243,35240,6,0,P|273:267|342:234,1,140
214,243,35840,2,0,P|154:219|86:251,1,140
214,243,36440,2,0,B|208:378|208:378|337:288,1,280
352,160,37640,5,0,0:0:0:0:
352,160,37740,1,0,0:0:0:0:
352,160,37840,1,0,0:0:0:0:
352,160,37940,1,0,0:0:0:0:
352,208,38040,5,0,0:0:0:0:
352,208,38140,1,0,0:0:0:0:
352,208,38240,1,0,0:0:0:0:
352,208,38340,1,0,0:0:0:0:
197,187,38440,6,0,L|145:248,1,70
197,187,38840,6,0,L|145:248,1,70
197,187,39240,6,0,L|145:248,1,70
62,123,39640,6,0,L|123:172,1,70
62,123,40040,6,0,L|123:172,1,70
62,123,40440,6,0,L|123:172,1,70
226,253,40840,6,0,L|62:123,1,210
33,340,41640,6,0,L|76:281,1,70
33,340,42040,6,0,L|76:281,1,70
33,340,42440,6,0,L|76:281,1,70
158,168,42840,6,0,L|115:227,1,70
158,168,43240,6,0,L|115:227,1,70
158,168,43640,6,0,L|115:227,1,70
35,338,44040,6,0,L|158:168,1,210
32,192,44840,6,0,P|75:202|102:192,1,70
104,120,45240,6,0,P|137:111|170:122,1,70
184,196,45640,6,0,P|227:206|254:196,1,70
256,124,46040,6,0,P|289:115|322:126,1,70
256,124,46440,6,0,P|264:157|253:190,1,70
256,124,46840,6,0,P|222:132|189:121,1,70
256,124,47240,6,0,P|276:36|384:44,1,210
328,96,48040,6,0,L|424:216,1,140
316,344,48640,1,0,0:0:0:0:
316,344,48840,2,0,L|240:256,1,105
176,184,49440,1,0,0:0:0:0:
80,252,49640,1,0,0:0:0:0:
316,236,49840,1,0,0:0:0:0:
232,132,50040,2,0,P|164:108|112:144,1,140
175,182,51240,6,0,B|127:226|127:226|199:254|199:254|138:291|138:291|186:330|186:330|248:292|248:292|307:337|307:337|351:283|351:283|300:247|300:247|364:214|364:214|299:171|299:171|361:140|361:140|295:102,1,840
256,192,57440,12,0,63240,0:0:0:0:
256,192,63640,5,0,0:0:0:0:
112,96,64040,5,0,0:0:0:0:
112,96,64140,1,0,0:0:0:0:
112,96,64240,2,0,L|128:128,1,35
256,192,64440,5,0,0:0:0:0:
256,192,64540,1,0,0:0:0:0:
256,192,64640,2,0,L|272:224,1,35
112,272,64840,5,0,0:0:0:0:
112,272,64940,1,0,0:0:0:0:
112,272,65040,2,0,L|128:304,1,35
256,192,65240,5,0,0:0:0:0:
277,180,65340,1,0,0:0:0:0:
296,164,65440,1,0,0:0:0:0:
311,145,65540,1,0,0:0:0:0:
331,112,65640,5,0,0:0:0:0:
341,74,65740,1,0,0:0:0:0:
364,43,65840,1,0,0:0:0:0:
397,23,65940,1,0,0:0:0:0:
449,25,66040,5,0,0:0:0:0:
476,69,66140,1,0,0:0:0:0:
447,113,66240,1,0,0:0:0:0:
473,158,66340,1,0,0:0:0:0:
460,219,66440,5,0,0:0:0:0:
414,262,66540,1,0,0:0:0:0:
351,266,66640,1,0,0:0:0:0:
294,237,66740,1,0,0:0:0:0:
255,187,66840,6,0,L|255:267,1,70
256,32,67240,5,0,0:0:0:0:
256,32,67340,1,0,0:0:0:0:
256,32,67440,2,0,L|256:96,1,35
176,128,67640,5,0,0:0:0:0:
176,128,67740,1,0,0:0:0:0:
176,128,67840,2,0,L|176:176,1,35
320,128,68040,5,0,0:0:0:0:
320,128,68140,1,0,0:0:0:0:
320,128,68240,1,0,0:0:0:0:
320,128,68340,2,0,L|320:176,1,35
256,240,68440,5,0,0:0:0:0:
256,240,68540,1,0,0:0:0:0:
256,240,68640,1,0,0:0:0:0:
256,240,68740,2,0,L|256:288,1,35
400,240,68840,6,0,L|352:288,1,35
432,320,69040,2,0,L|464:288,1,35
496,224,69240,2,0,L|448:176,1,35
464,112,69440,2,0,L|496:144,1,35
416,176,69640,6,0,L|352:176,1,35
240,176,69840,1,0,0:0:0:0:
384,64,70040,1,0,0:0:0:0:
96,288,70240,1,0,0:0:0:0:
256,288,70440,5,0,0:0:0:0:
256,288,70540,1,0,0:0:0:0:
256,288,70640,1,0,0:0:0:0:
256,288,70740,2,0,L|240:240,1,35
368,224,70840,5,0,0:0:0:0:
368,224,70940,1,0,0:0:0:0:
368,224,71040,2,0,L|352:176,1,35
384,96,71240,5,0,0:0:0:0:
384,96,71340,1,0,0:0:0:0:
384,96,71440,2,0,L|368:64,1,35
256,32,71640,5,0,0:0:0:0:
228,37,71740,1,0,0:0:0:0:
201,45,71840,1,0,0:0:0:0:
175,57,71940,1,0,0:0:0:0:
145,81,72040,5,0,0:0:0:0:
123,113,72140,1,0,0:0:0:0:
106,147,72240,1,0,0:0:0:0:
94,183,72340,1,0,0:0:0:0:
104,234,72440,5,0,0:0:0:0:
136,274,72540,1,0,0:0:0:0:
105,316,72640,1,0,0:0:0:0:
139,356,72740,1,0,0:0:0:0:
201,347,72840,5,0,0:0:0:0:
258,322,72940,1,0,0:0:0:0:
309,286,73040,1,0,0:0:0:0:
348,237,73140,1,0,0:0:0:0:
381,183,73240,6,0,L|381:279,1,70
381,97,73640,5,0,0:0:0:0:
334,73,73740,1,0,0:0:0:0:
286,63,73840,1,0,0:0:0:0:
243,78,73940,1,0,0:0:0:0:
213,108,74040,1,0,0:0:0:0:
206,145,74140,1,0,0:0:0:0:
219,177,74240,1,0,0:0:0:0:
240,199,74340,1,0,0:0:0:0:
266,208,74440,5,0,0:0:0:0:
290,204,74540,1,0,0:0:0:0:
308,194,74640,1,0,0:0:0:0:
319,180,74740,1,0,0:0:0:0:
320,162,74840,1,0,0:0:0:0:
311,146,74940,1,0,0:0:0:0:
297,134,75040,1,0,0:0:0:0:
279,134,75140,1,0,0:0:0:0:
267,140,75240,6,0,B|222:170|222:170|250:219,1,105
267,140,75640,2,0,B|312:110|312:110|284:60,1,105
180,142,76240,5,0,0:0:0:0:
362,56,76440,1,0,0:0:0:0:
66,197,76640,1,0,0:0:0:0:
256,200,76840,5,0,0:0:0:0:
256,200,77040,1,0,0:0:0:0:
256,200,77240,1,0,0:0:0:0:
73,267,77440,5,0,0:0:0:0:
79,304,77540,1,0,0:0:0:0:
107,329,77640,2,0,L|158:344,1,35
317,341,77840,5,0,0:0:0:0:
358,337,77940,1,0,0:0:0:0:
383,302,78040,2,0,L|403:251,1,35
381,93,78240,5,0,0:0:0:0:
353,71,78340,1,0,0:0:0:0:
321,55,78440,1,0,0:0:0:0:
286,49,78540,1,0,0:0:0:0:
241,59,78640,1,0,0:0:0:0:
199,78,78740,1,0,0:0:0:0:
163,106,78840,1,0,0:0:0:0:
135,142,78940,1,0,0:0:0:0:
114,197,79040,5,0,0:0:0:0:
120,256,79140,1,0,0:0:0:0:
148,308,79240,1,0,0:0:0:0:
198,339,79340,1,0,0:0:0:0:
257,337,79440,1,0,0:0:0:0:
310,310,79540,1,0,0:0:0:0:
346,262,79640,2,0,L|346:343,1,70
348,52,80040,5,0,0:0:0:0:
463,193,80240,5,0,0:0:0:0:
464,231,80340,1,0,0:0:0:0:
466,269,80440,2,0,L|466:314,1,35
330,193,80640,5,0,0:0:0:0:
331,231,80740,1,0,0:0:0:0:
329,269,80840,1,0,0:0:0:0:
314,304,80940,1,0,0:0:0:0:
287,331,81040,1,0,0:0:0:0:
251,346,81140,1,0,0:0:0:0:
212,343,81240,1,0,0:0:0:0:
175,330,81340,1,0,0:0:0:0:
143,307,81440,1,0,0:0:0:0:
119,276,81540,1,0,0:0:0:0:
71,107,81640,5,0,0:0:0:0:
216,248,81840,2,0,L|264:263,2,35
71,107,82240,1,0,0:0:0:0:
33,241,82440,1,0,0:0:0:0:
232,84,82640,6,0,L|269:30,1,35
296,130,82840,2,0,L|333:76,1,35
362,175,83040,2,0,L|343:204,1,35
187,324,83240,5,0,0:0:0:0:
416,277,83440,5,0,0:0:0:0:
377,277,83540,1,0,0:0:0:0:
328,275,83640,2,0,L|263:275,1,35
138,192,83840,5,0,0:0:0:0:
176,192,83940,1,0,0:0:0:0:
214,193,84040,2,0,L|276:194,1,35
398,102,84240,5,0,0:0:0:0:
359,98,84340,1,0,0:0:0:0:
320,93,84440,2,0,L|253:88,1,35
116,43,84640,5,0,0:0:0:0:
97,68,84740,1,0,0:0:0:0:
81,95,84840,1,0,0:0:0:0:
72,125,84940,1,0,0:0:0:0:
65,166,85040,5,0,0:0:0:0:
72,207,85140,1,0,0:0:0:0:
89,244,85240,1,0,0:0:0:0:
111,279,85340,1,0,0:0:0:0:
156,304,85440,5,0,0:0:0:0:
208,300,85540,1,0,0:0:0:0:
256,279,85640,1,0,0:0:0:0:
296,245,85740,1,0,0:0:0:0:
324,192,85840,1,0,0:0:0:0:
335,133,85940,1,0,0:0:0:0:
318,75,86040,6,0,L|300:147,1,70
333,8,86440,5,0,0:0:0:0:
256,279,86640,1,0,0:0:0:0:
232,309,86740,1,0,0:0:0:0:
199,329,86840,2,0,L|152:340,1,35
39,215,87040,5,0,0:0:0:0:
55,168,87140,1,0,0:0:0:0:
80,134,87240,1,0,0:0:0:0:
111,118,87340,1,0,0:0:0:0:
138,120,87440,1,0,0:0:0:0:
155,132,87540,1,0,0:0:0:0:
159,148,87640,1,0,0:0:0:0:
158,165,87740,1,0,0:0:0:0:
154,182,87840,1,0,0:0:0:0:
147,198,87940,1,0,0:0:0:0:
90,284,88040,6,0,L|47:326,4,35
257,194,89640,5,0,0:0:0:0:
257,194,89840,1,0,0:0:0:0:
257,194,90040,1,0,0:0:0:0:
49,160,90240,6,0,L|25:118,2,35
256,121,90640,6,0,L|289:91,2,35
100,261,91040,5,0,0:0:0:0:
117,287,91140,1,0,0:0:0:0:
141,311,91240,1,0,0:0:0:0:
174,329,91340,1,0,0:0:0:0:
216,329,91440,1,0,0:0:0:0:
257,309,91540,1,0,0:0:0:0:
292,275,91640,5,0,0:0:0:0:
318,229,91740,1,0,0:0:0:0:
338,176,91840,1,0,0:0:0:0:
360,132,91940,1,0,0:0:0:0:
387,99,92040,5,0,0:0:0:0:
420,108,92140,1,0,0:0:0:0:
437,130,92240,1,0,0:0:0:0:
447,152,92340,1,0,0:0:0:0:
459,169,92440,6,0,L|498:106,1,70
350,350,92840,5,0,0:0:0:0:
75,294,93040,6,0,L|24:268,2,35
350,350,93440,1,0,0:0:0:0:
371,313,93540,1,0,0:0:0:0:
377,271,93640,1,0,0:0:0:0:
377,229,93740,1,0,0:0:0:0:
371,187,93840,1,0,0:0:0:0:
358,146,93940,1,0,0:0:0:0:
340,107,94040,5,0,0:0:0:0:
320,69,94140,1,0,0:0:0:0:
293,36,94240,1,0,0:0:0:0:
253,22,94340,1,0,0:0:0:0:
211,17,94440,1,0,0:0:0:0:
33,129,94640,6,0,L|70:169,2,35
223,217,95040,1,0,0:0:0:0:
18,262,95240,1,0,0:0:0:0:
201,160,95440,6,0,L|214:119,1,35
301,183,95640,2,0,L|314:131,1,35
392,214,95840,2,0,L|380:271,1,35
235,338,96040,5,0,0:0:0:0:
62,218,96240,6,0,L|22:182,2,35
268,178,96640,6,0,L|314:147,2,35
98,53,97040,5,0,0:0:0:0:
78,90,97140,1,0,0:0:0:0:
87,130,97240,1,0,0:0:0:0:
72,169,97340,1,0,0:0:0:0:
90,206,97440,1,0,0:0:0:0:
69,242,97540,1,0,0:0:0:0:
96,273,97640,5,0,0:0:0:0:
75,309,97740,1,0,0:0:0:0:
96,345,97840,1,0,0:0:0:0:
136,355,97940,1,0,0:0:0:0:
175,339,98040,1,0,0:0:0:0:
201,306,98140,1,0,0:0:0:0:
212,265,98240,1,0,0:0:0:0:
213,223,98340,1,0,0:0:0:0:
189,188,98440,5,0,0:0:0:0:
150,170,98540,1,0,0:0:0:0:
108,171,98640,1,0,0:0:0:0:
74,196,98740,1,0,0:0:0:0:
67,237,98840,1,0,0:0:0:0:
432,252,99240,5,0,0:0:0:0:
415,234,99340,1,0,0:0:0:0:
393,222,99440,1,0,0:0:0:0:
371,234,99540,1,0,0:0:0:0:
353,250,99640,1,0,0:0:0:0:
335,266,99740,1,0,0:0:0:0:
312,256,99840,1,0,0:0:0:0:
292,241,99940,1,0,0:0:0:0:
273,224,100040,5,0,0:0:0:0:
248,227,100140,1,0,0:0:0:0:
226,239,100240,1,0,0:0:0:0:
207,254,100340,1,0,0:0:0:0:
189,270,100440,1,0,0:0:0:0:
165,261,100540,1,0,0:0:0:0:
146,245,100640,1,0,0:0:0:0:
125,231,100740,1,0,0:0:0:0:
100,233,100840,5,0,0:0:0:0:
78,245,100940,1,0,0:0:0:0:
58,260,101040,1,0,0:0:0:0:
45,280,101140,1,0,0:0:0:0:
43,304,101240,1,0,0:0:0:0:
48,327,101340,1,0,0:0:0:0:
61,347,101440,1,0,0:0:0:0:
83,356,101540,1,0,0:0:0:0:
107,360,101640,5,0,0:0:0:0:
136,360,101740,1,0,0:0:0:0:
185,360,101840,1,0,0:0:0:0:
234,360,101940,1,0,0:0:0:0:
283,360,102040,1,0,0:0:0:0:
331,358,102140,1,0,0:0:0:0:
379,359,102240,1,0,0:0:0:0:
427,357,102340,1,0,0:0:0:0:
475,358,102440,2,0,B|496:288|496:288|432:256|432:256|496:224|496:224|432:192|432:192|496:160|496:160|320:0|32:64,1,840
244,168,113640,6,0,L|270:145,3,35
112,269,114040,5,0,0:0:0:0:
112,269,114140,1,0,0:0:0:0:
112,269,114240,2,0,L|139:208,1,35
146,104,114440,6,0,L|166:64,3,35
40,208,114840,6,0,P|27:259|62:330,1,105
256,288,115240,5,0,0:0:0:0:
145,108,115640,1,0,0:0:0:0:
256,288,115840,1,0,0:0:0:0:
448,64,116240,1,0,0:0:0:0:
256,288,116440,2,0,L|176:304,1,70
48,160,116840,5,0,0:0:0:0:
64,256,117140,1,0,0:0:0:0:
128,320,117440,1,0,0:0:0:0:
224,336,117740,1,0,0:0:0:0:
224,224,118040,1,0,0:0:0:0:
112,128,118240,1,0,0:0:0:0:
352,320,118440,6,0,P|400:336|480:288,1,140
352,320,119040,6,0,P|396:295|413:203,1,140
352,320,119640,6,0,P|353:273|337:225,1,70
192,64,120040,5,0,0:0:0:0:
192,64,120140,1,0,0:0:0:0:
192,64,120240,1,0,0:0:0:0:
192,64,120340,1,0,0:0:0:0:
208,82,120440,5,0,0:0:0:0:
220,102,120540,1,0,0:0:0:0:
235,129,120640,1,0,0:0:0:0:
247,157,120740,1,0,0:0:0:0:
256,187,120840,5,0,0:0:0:0:
256,218,120940,1,0,0:0:0:0:
247,248,121040,1,0,0:0:0:0:
234,276,121140,1,0,0:0:0:0:
202,313,121240,5,0,0:0:0:0:
158,336,121340,1,0,0:0:0:0:
109,326,121440,1,0,0:0:0:0:
71,294,121540,1,0,0:0:0:0:
41,200,121640,6,0,B|64:125|64:125|29:49,1,140
41,200,122240,6,0,B|117:182|117:182|165:114,1,140
41,200,122840,6,0,P|94:257|94:257,1,70
272,304,123240,1,0,0:0:0:0:
416,224,123540,1,0,0:0:0:0:
208,304,123840,1,0,0:0:0:0:
464,272,124140,1,0,0:0:0:0:
176,240,124440,1,0,0:0:0:0:
464,272,124640,1,0,0:0:0:0:
491,240,124740,1,0,0:0:0:0:
499,198,124840,6,0,L|481:102,1,70
288,48,125240,1,0,0:0:0:0:
288,48,125440,2,0,L|250:131,1,70
304,304,125840,1,0,0:0:0:0:
304,304,126040,2,0,L|342:221,1,70
304,304,126440,6,0,L|272:218,1,70
304,304,126840,6,0,L|221:266,1,70
398,288,127240,6,0,L|384:320,3,35
432,208,127640,6,0,L|446:176,4,35
256,192,128440,5,0,0:0:0:0:
192,96,128840,1,0,0:0:0:0:
320,96,129240,1,0,0:0:0:0:
256,224,129640,5,0,0:0:0:0:
176,80,130040,1,0,0:0:0:0:
336,80,130440,1,0,0:0:0:0:
257,240,130840,5,0,0:0:0:0:
256,48,131040,1,0,0:0:0:0:
257,269,131240,2,0,P|247:308|218:345,1,70
257,269,131640,6,0,P|218:279|171:273,1,70
257,269,132040,6,0,P|228:240|210:197,1,70
257,269,132440,6,0,P|266:229|296:193,1,70
363,195,132840,6,0,P|353:234|324:271,1,70
257,269,133240,6,0,P|266:229|296:193,1,70
363,195,133640,6,0,P|353:234|324:271,1,70
256,64,134040,6,0,B|256:144,1,70
256,192,134440,12,0,140040,0:0:0:0:
256,192,140440,5,0,0:0:0:0:
423,80,140840,5,0,0:0:0:0:
423,80,140940,1,0,0:0:0:0:
423,80,141040,1,0,0:0:0:0:
423,80,141140,1,0,0:0:0:0:
423,80,141240,5,0,0:0:0:0:
423,80,141340,1,0,0:0:0:0:
423,80,141440,2,0,L|426:129,1,35
385,285,141640,5,0,0:0:0:0:
357,316,141740,1,0,0:0:0:0:
321,337,141840,1,0,0:0:0:0:
280,349,141940,1,0,0:0:0:0:
238,340,142040,2,0,L|183:303,1,35
106,77,142240,5,0,0:0:0:0:
106,77,142340,1,0,0:0:0:0:
106,77,142440,1,0,0:0:0:0:
106,77,142540,1,0,0:0:0:0:
106,77,142640,2,0,L|123:137,1,35
75,269,142840,5,0,0:0:0:0:
76,310,142940,1,0,0:0:0:0:
101,343,143040,2,0,L|156:358,1,35
392,290,143240,6,0,L|352:279,1,35
317,269,143440,1,0,0:0:0:0:
276,256,143540,1,0,0:0:0:0:
277,195,143640,6,0,L|333:200,1,35
446,129,143840,2,0,L|466:109,3,17.5
279,90,144040,5,0,0:0:0:0:
279,90,144140,1,0,0:0:0:0:
279,90,144240,1,0,0:0:0:0:
279,90,144340,1,0,0:0:0:0:
279,90,144440,1,0,0:0:0:0:
279,90,144540,1,0,0:0:0:0:
279,90,144640,2,0,L|311:141,1,35
138,182,144840,6,0,L|90:188,1,35
33,334,145040,2,0,L|84:343,1,35
239,323,145240,1,0,0:0:0:0:
280,316,145340,1,0,0:0:0:0:
316,295,145440,2,0,L|355:242,1,35
260,66,145640,5,0,0:0:0:0:
132,217,145840,2,0,L|95:243,2,35
336,26,146240,1,0,0:0:0:0:
336,26,146340,1,0,0:0:0:0:
336,26,146440,2,0,L|373:54,1,35
452,264,146640,6,0,L|417:228,1,35
347,277,146840,6,0,L|312:241,1,35
243,290,147040,6,0,L|267:315,1,35
