osu file format v14

[General]
AudioFilename: audio.ogg
AudioLeadIn: 0
PreviewTime: 114478
Countdown: 0
SampleSet: Soft
StackLeniency: 0.7
Mode: 3
LetterboxInBreaks: 0
SpecialStyle: 0
WidescreenStoryboard: 1

[Editor]
DistanceSpacing: 1.8
BeatDivisor: 6
GridSize: 4
TimelineZoom: 2.1

[Metadata]
Title:I AM
TitleUnicode:I AM
Artist:IVE
ArtistUnicode:아이브
Creator:fvrex
Version:Ucitysm's Expert
Source:
Tags:starship entertainment 스타쉽엔터테인먼트 iam i've i have yujin 유진 gaeul 가을 rei 레이 wonyoung 원영 liz 리즈 leeseo 이서 kim i na 김이나 ryan jhun 라이언 전 Kristin Marie Audun Agnar Eline Noelia Myreng kpop k-pop korean pop xtrippin slowpoke104 monoseul scisso ucitysm indoroid tigerinity
BeatmapID:4094067
BeatmapSetID:1972938

[Difficulty]
HPDrainRate:8.5
CircleSize:4
OverallDifficulty:7.7
ApproachRate:5
SliderMultiplier:1.4
SliderTickRate:1

[Events]
//Background and Video events
0,0,"bg.jpg",0,0
//Break Periods
//Storyboard Layer 0 (Background)
//Storyboard Layer 1 (Fail)
//Storyboard Layer 2 (Pass)
//Storyboard Layer 3 (Foreground)
//Storyboard Layer 4 (Overlay)
//Storyboard Sound Samples

[TimingPoints]
1394.55961243246,491.803278688525,4,2,1,70,1,0
52542,-100,4,2,1,70,0,1
68279,-100,4,2,1,70,0,0
115492,-100,4,2,1,70,0,1
131230,-100,4,2,1,70,0,0
152869,-100,4,2,1,70,0,1
164181,-100,4,2,1,70,0,0
164673,-100,4,2,1,70,0,1
176476,-100,4,2,1,70,0,0

[HitObjects]
64,192,1394,128,0,1722:0:0:0:0:
320,192,1394,128,0,1722:0:0:0:0:
192,192,1394,1,0,0:0:0:0:
448,192,1558,128,0,1722:0:0:0:0:
192,192,1722,128,0,1886:0:0:0:0:
320,192,1886,128,0,2050:0:0:0:0:
448,192,1886,128,0,2214:0:0:0:0:
64,192,2050,128,0,2214:0:0:0:0:
320,192,2214,128,0,2378:0:0:0:0:
64,192,2378,128,0,2542:0:0:0:0:
192,192,2378,128,0,2706:0:0:0:0:
448,192,2542,128,0,2706:0:0:0:0:
64,192,2706,128,0,2869:0:0:0:0:
448,192,2869,128,0,3033:0:0:0:0:
320,192,2869,128,0,3197:0:0:0:0:
192,192,3033,128,0,3197:0:0:0:0:
448,192,3197,128,0,3361:0:0:0:0:
320,192,3361,1,0,0:0:0:0:
64,192,3361,128,0,3525:0:0:0:0:
192,192,3361,128,0,3689:0:0:0:0:
448,192,3525,1,0,0:0:0:0:
320,192,3525,1,0,0:0:0:0:
64,192,3689,1,0,0:0:0:0:
448,192,3689,1,0,0:0:0:0:
192,192,3853,128,0,4017:0:0:0:0:
320,192,3853,128,0,4181:0:0:0:0:
64,192,4017,1,0,0:0:0:0:
448,192,4017,1,0,0:0:0:0:
64,192,4181,1,0,0:0:0:0:
192,192,4181,1,0,0:0:0:0:
320,192,4263,1,0,0:0:0:0:
448,192,4345,128,0,4509:0:0:0:0:
192,192,4345,128,0,4673:0:0:0:0:
320,192,4509,1,0,0:0:0:0:
64,192,4509,1,0,0:0:0:0:
320,192,4673,1,0,0:0:0:0:
448,192,4673,1,0,0:0:0:0:
64,192,4837,128,0,5001:0:0:0:0:
448,192,4837,128,0,5165:0:0:0:0:
192,192,5001,1,0,0:0:0:0:
320,192,5001,1,0,0:0:0:0:
320,192,5165,1,0,0:0:0:0:
64,192,5165,1,0,0:0:0:0:
192,192,5247,1,0,0:0:0:0:
64,192,5328,128,0,5492:0:0:0:0:
448,192,5328,128,0,5492:0:0:0:0:
320,192,5656,128,0,5820:0:0:0:0:
192,192,5656,128,0,5820:0:0:0:0:
448,192,5820,1,0,0:0:0:0:
64,192,5820,1,0,0:0:0:0:
192,192,5984,128,0,6312:0:0:0:0:
64,192,6148,128,0,6312:0:0:0:0:
320,192,6312,128,0,6476:0:0:0:0:
448,192,6312,128,0,6640:0:0:0:0:
192,192,6476,128,0,6640:0:0:0:0:
320,192,6640,128,0,6804:0:0:0:0:
448,192,6804,128,0,7296:0:0:0:0:
64,192,6804,128,0,6968:0:0:0:0:
192,192,6886,128,0,7132:0:0:0:0:
320,192,6968,1,0,0:0:0:0:
64,192,7132,1,0,0:0:0:0:
192,192,7296,128,0,7460:0:0:0:0:
320,192,7296,128,0,7460:0:0:0:0:
64,192,7624,128,0,7788:0:0:0:0:
320,192,7624,128,0,7788:0:0:0:0:
448,192,7788,1,0,0:0:0:0:
192,192,7788,1,0,0:0:0:0:
320,192,7951,128,0,8279:0:0:0:0:
448,192,8115,128,0,8279:0:0:0:0:
64,192,8279,128,0,8607:0:0:0:0:
192,192,8279,128,0,8361:0:0:0:0:
320,192,8443,128,0,8525:0:0:0:0:
192,192,8607,128,0,8689:0:0:0:0:
64,192,8771,128,0,8935:0:0:0:0:
448,192,8771,128,0,9099:0:0:0:0:
320,192,8935,128,0,9099:0:0:0:0:
192,192,9099,128,0,9427:0:0:0:0:
64,192,9181,128,0,9591:0:0:0:0:
320,192,9263,128,0,9427:0:0:0:0:
448,192,9263,128,0,9427:0:0:0:0:
192,192,9591,128,0,9755:0:0:0:0:
320,192,9591,128,0,9755:0:0:0:0:
448,192,9755,1,0,0:0:0:0:
64,192,9755,1,0,0:0:0:0:
192,192,9919,1,0,0:0:0:0:
320,192,10083,128,0,10165:0:0:0:0:
192,192,10247,128,0,10410:0:0:0:0:
64,192,10247,128,0,10574:0:0:0:0:
448,192,10410,128,0,10492:0:0:0:0:
320,192,10574,128,0,10738:0:0:0:0:
448,192,10738,128,0,10902:0:0:0:0:
192,192,10738,128,0,11066:0:0:0:0:
64,192,10902,1,0,0:0:0:0:
320,192,11066,128,0,11148:0:0:0:0:
448,192,11230,128,0,11394:0:0:0:0:
64,192,11230,128,0,11558:0:0:0:0:
192,192,11394,1,0,0:0:0:0:
320,192,11558,128,0,11722:0:0:0:0:
448,192,11558,128,0,11722:0:0:0:0:
192,192,11722,128,0,12214:0:0:0:0:
64,192,11722,128,0,11886:0:0:0:0:
320,192,11886,1,0,0:0:0:0:
448,192,12050,1,0,0:0:0:0:
64,192,12214,128,0,12542:0:0:0:0:
320,192,12214,128,0,12378:0:0:0:0:
192,192,12542,128,0,12706:0:0:0:0:
448,192,12542,128,0,12869:0:0:0:0:
320,192,12706,1,0,0:0:0:0:
64,192,12706,1,0,0:0:0:0:
192,192,12869,128,0,13197:0:0:0:0:
448,192,13033,128,0,13197:0:0:0:0:
320,192,13197,128,0,13361:0:0:0:0:
64,192,13197,128,0,13525:0:0:0:0:
192,192,13525,128,0,13689:0:0:0:0:
320,192,13525,128,0,13689:0:0:0:0:
448,192,13689,1,0,0:0:0:0:
64,192,13689,1,0,0:0:0:0:
192,192,13853,128,0,14181:0:0:0:0:
448,192,14017,128,0,14181:0:0:0:0:
64,192,14181,128,0,14345:0:0:0:0:
320,192,14181,128,0,14509:0:0:0:0:
192,192,14345,128,0,14509:0:0:0:0:
448,192,14509,128,0,14673:0:0:0:0:
64,192,14673,128,0,15001:0:0:0:0:
192,192,14673,128,0,15165:0:0:0:0:
320,192,14837,1,0,0:0:0:0:
448,192,15001,1,0,0:0:0:0:
64,192,15165,128,0,15492:0:0:0:0:
320,192,15165,128,0,15328:0:0:0:0:
192,192,15492,128,0,15656:0:0:0:0:
320,192,15492,128,0,15656:0:0:0:0:
448,192,15656,1,0,0:0:0:0:
64,192,15656,1,0,0:0:0:0:
320,192,15820,128,0,16148:0:0:0:0:
448,192,15984,128,0,16148:0:0:0:0:
64,192,16148,128,0,16476:0:0:0:0:
192,192,16148,128,0,16230:0:0:0:0:
320,192,16312,128,0,16394:0:0:0:0:
192,192,16476,128,0,16558:0:0:0:0:
64,192,16640,128,0,16804:0:0:0:0:
448,192,16640,128,0,17132:0:0:0:0:
320,192,16804,1,0,0:0:0:0:
192,192,16968,128,0,17296:0:0:0:0:
64,192,17132,128,0,17296:0:0:0:0:
320,192,17132,128,0,17460:0:0:0:0:
192,192,17460,128,0,17624:0:0:0:0:
64,192,17460,128,0,17624:0:0:0:0:
448,192,17624,1,0,0:0:0:0:
320,192,17624,1,0,0:0:0:0:
192,192,17788,128,0,17869:0:0:0:0:
320,192,17951,128,0,18033:0:0:0:0:
192,192,18115,128,0,18279:0:0:0:0:
64,192,18115,128,0,18443:0:0:0:0:
448,192,18279,128,0,18443:0:0:0:0:
320,192,18443,128,0,18607:0:0:0:0:
448,192,18607,128,0,18771:0:0:0:0:
192,192,18607,128,0,18935:0:0:0:0:
64,192,18771,1,0,0:0:0:0:
320,192,18935,128,0,19099:0:0:0:0:
64,192,19099,128,0,19263:0:0:0:0:
448,192,19099,128,0,19427:0:0:0:0:
320,192,19263,128,0,19427:0:0:0:0:
192,192,19427,128,0,19591:0:0:0:0:
64,192,19427,128,0,19591:0:0:0:0:
448,192,19591,128,0,19755:0:0:0:0:
320,192,19591,128,0,19919:0:0:0:0:
64,192,19755,1,0,0:0:0:0:
192,192,19919,1,0,0:0:0:0:
64,192,20083,128,0,20574:0:0:0:0:
448,192,20083,128,0,20410:0:0:0:0:
320,192,20165,128,0,20410:0:0:0:0:
192,192,20410,128,0,20902:0:0:0:0:
448,192,20574,1,0,0:0:0:0:
320,192,20574,128,0,20738:0:0:0:0:
64,192,20738,128,0,21066:0:0:0:0:
192,192,21066,1,0,0:0:0:0:
320,192,21066,128,0,21230:0:0:0:0:
448,192,21066,128,0,21394:0:0:0:0:
64,192,21230,128,0,21722:0:0:0:0:
192,192,21394,1,0,0:0:0:0:
448,192,21558,1,0,0:0:0:0:
320,192,21558,1,0,0:0:0:0:
192,192,21722,128,0,22050:0:0:0:0:
448,192,21886,128,0,22050:0:0:0:0:
64,192,22050,128,0,22378:0:0:0:0:
320,192,22050,128,0,22706:0:0:0:0:
448,192,22214,1,0,0:0:0:0:
192,192,22378,1,0,0:0:0:0:
448,192,22542,1,0,0:0:0:0:
64,192,22542,1,0,0:0:0:0:
192,192,22706,128,0,23033:0:0:0:0:
320,192,22869,128,0,23033:0:0:0:0:
64,192,23033,128,0,23361:0:0:0:0:
448,192,23033,128,0,23689:0:0:0:0:
192,192,23197,1,0,0:0:0:0:
320,192,23361,1,0,0:0:0:0:
192,192,23525,1,0,0:0:0:0:
64,192,23525,1,0,0:0:0:0:
320,192,23689,1,0,0:0:0:0:
64,192,23853,1,0,0:0:0:0:
320,192,24017,1,0,0:0:0:0:
448,192,24017,1,0,0:0:0:0:
192,192,24181,128,0,24509:0:0:0:0:
64,192,24345,128,0,24673:0:0:0:0:
448,192,24509,128,0,24837:0:0:0:0:
320,192,24509,128,0,24673:0:0:0:0:
192,192,24673,1,0,0:0:0:0:
320,192,24837,1,0,0:0:0:0:
192,192,25001,128,0,25165:0:0:0:0:
64,192,25001,128,0,25492:0:0:0:0:
320,192,25083,128,0,25328:0:0:0:0:
448,192,25165,1,0,0:0:0:0:
192,192,25328,128,0,25820:0:0:0:0:
448,192,25492,1,0,0:0:0:0:
320,192,25492,1,0,0:0:0:0:
64,192,25656,128,0,25984:0:0:0:0:
448,192,25820,1,0,0:0:0:0:
192,192,25984,128,0,26148:0:0:0:0:
320,192,25984,128,0,26476:0:0:0:0:
448,192,26066,128,0,26312:0:0:0:0:
64,192,26148,1,0,0:0:0:0:
192,192,26312,128,0,26804:0:0:0:0:
64,192,26476,1,0,0:0:0:0:
448,192,26476,1,0,0:0:0:0:
320,192,26640,128,0,26968:0:0:0:0:
64,192,26804,1,0,0:0:0:0:
448,192,26968,128,0,27132:0:0:0:0:
192,192,26968,128,0,27460:0:0:0:0:
64,192,27050,128,0,27296:0:0:0:0:
320,192,27132,1,0,0:0:0:0:
448,192,27296,128,0,27460:0:0:0:0:
320,192,27460,1,0,0:0:0:0:
64,192,27460,1,0,0:0:0:0:
448,192,27624,1,0,0:0:0:0:
64,192,27788,1,0,0:0:0:0:
320,192,27951,128,0,28115:0:0:0:0:
448,192,27951,128,0,28443:0:0:0:0:
192,192,28033,128,0,28279:0:0:0:0:
64,192,28115,1,0,0:0:0:0:
320,192,28279,128,0,28771:0:0:0:0:
64,192,28443,1,0,0:0:0:0:
192,192,28443,128,0,28607:0:0:0:0:
448,192,28607,128,0,28935:0:0:0:0:
192,192,28771,1,0,0:0:0:0:
320,192,28935,128,0,29099:0:0:0:0:
64,192,28935,128,0,29263:0:0:0:0:
192,192,29099,128,0,29591:0:0:0:0:
320,192,29263,1,0,0:0:0:0:
64,192,29427,1,0,0:0:0:0:
448,192,29427,1,0,0:0:0:0:
320,192,29591,128,0,29919:0:0:0:0:
64,192,29755,128,0,29919:0:0:0:0:
448,192,29919,128,0,30247:0:0:0:0:
192,192,29919,128,0,30574:0:0:0:0:
64,192,30083,1,0,0:0:0:0:
320,192,30247,1,0,0:0:0:0:
64,192,30410,1,0,0:0:0:0:
448,192,30410,1,0,0:0:0:0:
320,192,30574,128,0,30902:0:0:0:0:
192,192,30738,128,0,30902:0:0:0:0:
448,192,30902,128,0,31230:0:0:0:0:
64,192,30902,128,0,31558:0:0:0:0:
320,192,31066,1,0,0:0:0:0:
192,192,31230,1,0,0:0:0:0:
320,192,31394,1,0,0:0:0:0:
448,192,31394,1,0,0:0:0:0:
192,192,31558,128,0,31722:0:0:0:0:
448,192,31722,128,0,31886:0:0:0:0:
64,192,31886,1,0,0:0:0:0:
192,192,31886,128,0,32214:0:0:0:0:
320,192,32050,1,0,0:0:0:0:
448,192,32214,1,0,0:0:0:0:
192,192,32378,1,0,0:0:0:0:
64,192,32378,1,0,0:0:0:0:
320,192,32542,1,0,0:0:0:0:
64,192,32706,1,0,0:0:0:0:
320,192,32869,128,0,33033:0:0:0:0:
448,192,32869,128,0,33361:0:0:0:0:
192,192,32951,128,0,33197:0:0:0:0:
64,192,33033,1,0,0:0:0:0:
320,192,33197,128,0,33689:0:0:0:0:
64,192,33361,1,0,0:0:0:0:
192,192,33361,1,0,0:0:0:0:
448,192,33525,128,0,33853:0:0:0:0:
64,192,33689,1,0,0:0:0:0:
320,192,33853,128,0,34017:0:0:0:0:
192,192,33853,128,0,34345:0:0:0:0:
64,192,33935,128,0,34181:0:0:0:0:
448,192,34017,1,0,0:0:0:0:
320,192,34181,128,0,34673:0:0:0:0:
448,192,34345,1,0,0:0:0:0:
64,192,34345,1,0,0:0:0:0:
192,192,34509,128,0,34837:0:0:0:0:
448,192,34673,128,0,34837:0:0:0:0:
64,192,34837,128,0,35001:0:0:0:0:
320,192,34837,128,0,35328:0:0:0:0:
192,192,35165,1,0,0:0:0:0:
448,192,35328,128,0,35492:0:0:0:0:
64,192,35328,1,0,0:0:0:0:
448,192,35656,1,0,0:0:0:0:
192,192,35820,128,0,35984:0:0:0:0:
448,192,36066,1,0,0:0:0:0:
192,192,36148,1,0,0:0:0:0:
64,192,36312,1,0,0:0:0:0:
320,192,36312,128,0,36476:0:0:0:0:
320,192,36640,1,0,0:0:0:0:
448,192,36804,1,0,0:0:0:0:
64,192,36804,128,0,37132:0:0:0:0:
64,192,37296,128,0,37624:0:0:0:0:
64,192,37788,128,0,38033:0:0:0:0:
448,192,37869,128,0,38197:0:0:0:0:
320,192,37951,128,0,38115:0:0:0:0:
192,192,38115,128,0,38197:0:0:0:0:
320,192,38279,128,0,38689:0:0:0:0:
448,192,38607,128,0,38689:0:0:0:0:
192,192,38771,128,0,39099:0:0:0:0:
64,192,39099,128,0,39181:0:0:0:0:
192,192,39263,128,0,39591:0:0:0:0:
192,192,39755,128,0,39919:0:0:0:0:
64,192,40247,128,0,40656:0:0:0:0:
192,192,40574,128,0,40656:0:0:0:0:
448,192,40738,128,0,41066:0:0:0:0:
448,192,41230,128,0,41558:0:0:0:0:
448,192,41722,128,0,41968:0:0:0:0:
64,192,41804,128,0,42132:0:0:0:0:
192,192,41886,128,0,42050:0:0:0:0:
320,192,42050,128,0,42132:0:0:0:0:
192,192,42214,128,0,42624:0:0:0:0:
448,192,42542,128,0,42624:0:0:0:0:
64,192,42706,128,0,43033:0:0:0:0:
192,192,43033,128,0,43115:0:0:0:0:
64,192,43197,128,0,43525:0:0:0:0:
64,192,43689,128,0,44017:0:0:0:0:
448,192,43771,128,0,43935:0:0:0:0:
192,192,43853,128,0,44017:0:0:0:0:
320,192,44181,128,0,44427:0:0:0:0:
192,192,44509,128,0,44591:0:0:0:0:
448,192,44673,1,0,0:0:0:0:
64,192,44673,128,0,45001:0:0:0:0:
192,192,45001,1,0,0:0:0:0:
64,192,45165,128,0,45492:0:0:0:0:
320,192,45165,1,0,0:0:0:0:
448,192,45247,128,0,45410:0:0:0:0:
192,192,45328,128,0,45492:0:0:0:0:
320,192,45492,1,0,0:0:0:0:
64,192,45656,128,0,45902:0:0:0:0:
192,192,45656,1,0,0:0:0:0:
448,192,45738,128,0,46066:0:0:0:0:
320,192,45820,128,0,45984:0:0:0:0:
192,192,45984,128,0,46066:0:0:0:0:
320,192,46148,128,0,46558:0:0:0:0:
64,192,46148,1,0,0:0:0:0:
448,192,46476,128,0,46558:0:0:0:0:
192,192,46640,128,0,46968:0:0:0:0:
64,192,46640,1,0,0:0:0:0:
448,192,46968,128,0,47214:0:0:0:0:
192,192,47132,128,0,47460:0:0:0:0:
320,192,47132,1,0,0:0:0:0:
448,192,47460,1,0,0:0:0:0:
192,192,47624,128,0,47951:0:0:0:0:
320,192,47624,1,0,0:0:0:0:
64,192,47706,128,0,47869:0:0:0:0:
448,192,47951,1,0,0:0:0:0:
320,192,48115,1,0,0:0:0:0:
192,192,48115,1,0,0:0:0:0:
64,192,48443,1,0,0:0:0:0:
448,192,48607,128,0,48853:0:0:0:0:
192,192,48607,1,0,0:0:0:0:
320,192,48689,128,0,48771:0:0:0:0:
64,192,48771,128,0,48935:0:0:0:0:
192,192,48853,128,0,49017:0:0:0:0:
448,192,48935,1,0,0:0:0:0:
320,192,49099,128,0,49345:0:0:0:0:
64,192,49099,1,0,0:0:0:0:
448,192,49181,128,0,49263:0:0:0:0:
192,192,49263,128,0,49345:0:0:0:0:
64,192,49345,128,0,49427:0:0:0:0:
320,192,49427,1,0,0:0:0:0:
448,192,49591,128,0,49673:0:0:0:0:
192,192,49591,128,0,49837:0:0:0:0:
320,192,49673,128,0,49837:0:0:0:0:
64,192,49755,128,0,49919:0:0:0:0:
448,192,49837,128,0,49919:0:0:0:0:
192,192,49919,128,0,50001:0:0:0:0:
320,192,50083,128,0,50165:0:0:0:0:
64,192,50083,128,0,50328:0:0:0:0:
448,192,50165,128,0,50328:0:0:0:0:
192,192,50247,128,0,50410:0:0:0:0:
320,192,50328,128,0,50410:0:0:0:0:
64,192,50410,128,0,50492:0:0:0:0:
448,192,50492,128,0,50574:0:0:0:0:
192,192,50574,128,0,50820:0:0:0:0:
320,192,50656,128,0,50820:0:0:0:0:
64,192,50738,128,0,50902:0:0:0:0:
448,192,50820,128,0,50902:0:0:0:0:
192,192,50902,128,0,51148:0:0:0:0:
320,192,50984,128,0,51066:0:0:0:0:
64,192,51066,128,0,51230:0:0:0:0:
448,192,51148,128,0,51230:0:0:0:0:
320,192,51230,1,0,0:0:0:0:
192,192,51312,1,0,0:0:0:0:
448,192,51394,1,0,0:0:0:0:
64,192,51476,1,0,0:0:0:0:
448,192,51558,128,0,51968:0:0:0:0:
320,192,51558,1,0,0:0:0:0:
192,192,52050,128,0,52460:0:0:0:0:
320,192,52050,1,0,0:0:0:0:
64,192,52296,128,0,52378:0:0:0:0:
448,192,52378,128,0,52460:0:0:0:0:
320,192,52460,128,0,52542:0:0:0:0:
448,192,52542,128,0,52788:0:0:0:0:
64,192,52542,128,0,52869:0:0:0:0:
192,192,52542,128,0,52624:0:0:0:0:
320,192,52706,128,0,52788:0:0:0:0:
192,192,52706,128,0,52788:0:0:0:0:
448,192,52869,128,0,52951:0:0:0:0:
320,192,52869,128,0,52951:0:0:0:0:
192,192,53033,1,0,0:0:0:0:
448,192,53033,128,0,53361:0:0:0:0:
64,192,53033,128,0,53279:0:0:0:0:
320,192,53197,128,0,53279:0:0:0:0:
192,192,53197,128,0,53279:0:0:0:0:
320,192,53361,128,0,53443:0:0:0:0:
64,192,53361,128,0,53443:0:0:0:0:
192,192,53525,128,0,53607:0:0:0:0:
448,192,53525,128,0,53771:0:0:0:0:
320,192,53607,128,0,53771:0:0:0:0:
64,192,53689,128,0,53853:0:0:0:0:
448,192,53853,1,0,0:0:0:0:
320,192,53853,128,0,53935:0:0:0:0:
192,192,54017,128,0,54263:0:0:0:0:
64,192,54017,128,0,54099:0:0:0:0:
448,192,54017,1,0,0:0:0:0:
320,192,54099,128,0,54181:0:0:0:0:
64,192,54181,128,0,54345:0:0:0:0:
320,192,54345,128,0,54427:0:0:0:0:
448,192,54345,1,0,0:0:0:0:
192,192,54509,128,0,54837:0:0:0:0:
448,192,54509,128,0,54755:0:0:0:0:
320,192,54673,128,0,54755:0:0:0:0:
64,192,54673,128,0,54755:0:0:0:0:
320,192,54837,128,0,54919:0:0:0:0:
448,192,54837,128,0,54919:0:0:0:0:
192,192,55001,1,0,0:0:0:0:
64,192,55001,128,0,55247:0:0:0:0:
448,192,55001,128,0,55328:0:0:0:0:
192,192,55165,128,0,55247:0:0:0:0:
320,192,55165,128,0,55247:0:0:0:0:
64,192,55328,128,0,55410:0:0:0:0:
192,192,55328,128,0,55410:0:0:0:0:
448,192,55492,128,0,55738:0:0:0:0:
320,192,55492,128,0,55574:0:0:0:0:
192,192,55656,128,0,55738:0:0:0:0:
64,192,55656,128,0,55738:0:0:0:0:
320,192,55738,1,0,0:0:0:0:
192,192,55820,128,0,55902:0:0:0:0:
64,192,55820,128,0,55902:0:0:0:0:
320,192,55984,128,0,56394:0:0:0:0:
64,192,55984,1,0,0:0:0:0:
448,192,55984,128,0,56312:0:0:0:0:
192,192,56312,128,0,56394:0:0:0:0:
64,192,56476,128,0,56722:0:0:0:0:
448,192,56476,128,0,56804:0:0:0:0:
192,192,56640,128,0,56722:0:0:0:0:
320,192,56640,128,0,56722:0:0:0:0:
64,192,56804,128,0,56886:0:0:0:0:
192,192,56804,128,0,56886:0:0:0:0:
320,192,56968,1,0,0:0:0:0:
64,192,56968,128,0,57296:0:0:0:0:
448,192,56968,128,0,57214:0:0:0:0:
192,192,57132,128,0,57214:0:0:0:0:
320,192,57132,128,0,57214:0:0:0:0:
192,192,57296,128,0,57378:0:0:0:0:
448,192,57296,128,0,57378:0:0:0:0:
320,192,57460,128,0,57624:0:0:0:0:
64,192,57460,128,0,57706:0:0:0:0:
192,192,57542,128,0,57624:0:0:0:0:
448,192,57624,128,0,57788:0:0:0:0:
64,192,57788,1,0,0:0:0:0:
192,192,57788,128,0,57869:0:0:0:0:
320,192,57951,128,0,58197:0:0:0:0:
64,192,57951,1,0,0:0:0:0:
448,192,57951,128,0,58033:0:0:0:0:
192,192,58033,128,0,58115:0:0:0:0:
448,192,58115,128,0,58279:0:0:0:0:
64,192,58279,1,0,0:0:0:0:
192,192,58279,128,0,58361:0:0:0:0:
448,192,58443,128,0,58771:0:0:0:0:
64,192,58443,128,0,58689:0:0:0:0:
192,192,58607,128,0,58689:0:0:0:0:
320,192,58607,128,0,58689:0:0:0:0:
192,192,58771,128,0,58853:0:0:0:0:
64,192,58771,128,0,58853:0:0:0:0:
320,192,58935,1,0,0:0:0:0:
448,192,58935,128,0,59181:0:0:0:0:
64,192,58935,128,0,59263:0:0:0:0:
192,192,59099,128,0,59181:0:0:0:0:
320,192,59099,128,0,59181:0:0:0:0:
192,192,59263,128,0,59345:0:0:0:0:
448,192,59263,128,0,59345:0:0:0:0:
64,192,59427,128,0,59509:0:0:0:0:
320,192,59427,128,0,59673:0:0:0:0:
64,192,59591,128,0,59673:0:0:0:0:
192,192,59591,128,0,59673:0:0:0:0:
448,192,59673,1,0,0:0:0:0:
192,192,59755,128,0,59837:0:0:0:0:
320,192,59755,128,0,59837:0:0:0:0:
448,192,59919,128,0,60165:0:0:0:0:
320,192,59919,128,0,60165:0:0:0:0:
64,192,59919,1,0,0:0:0:0:
64,192,60083,1,0,0:0:0:0:
192,192,60083,1,0,0:0:0:0:
320,192,60247,128,0,60328:0:0:0:0:
448,192,60247,1,0,0:0:0:0:
64,192,60328,1,0,0:0:0:0:
448,192,60410,128,0,60738:0:0:0:0:
192,192,60410,128,0,60656:0:0:0:0:
320,192,60574,128,0,60656:0:0:0:0:
64,192,60574,128,0,60656:0:0:0:0:
320,192,60738,128,0,60820:0:0:0:0:
192,192,60738,128,0,60820:0:0:0:0:
448,192,60902,128,0,61148:0:0:0:0:
64,192,60902,128,0,61230:0:0:0:0:
192,192,61066,128,0,61148:0:0:0:0:
320,192,61066,128,0,61148:0:0:0:0:
320,192,61230,128,0,61312:0:0:0:0:
448,192,61230,128,0,61312:0:0:0:0:
192,192,61394,128,0,61558:0:0:0:0:
448,192,61394,128,0,61640:0:0:0:0:
320,192,61476,128,0,61640:0:0:0:0:
64,192,61558,128,0,61722:0:0:0:0:
448,192,61722,1,0,0:0:0:0:
320,192,61722,128,0,61804:0:0:0:0:
192,192,61886,128,0,62132:0:0:0:0:
448,192,61886,1,0,0:0:0:0:
64,192,61886,128,0,61968:0:0:0:0:
320,192,61968,128,0,62050:0:0:0:0:
64,192,62050,128,0,62214:0:0:0:0:
448,192,62214,1,0,0:0:0:0:
320,192,62214,128,0,62296:0:0:0:0:
192,192,62378,128,0,62706:0:0:0:0:
448,192,62378,128,0,62624:0:0:0:0:
320,192,62542,128,0,62624:0:0:0:0:
64,192,62542,128,0,62624:0:0:0:0:
320,192,62706,128,0,62788:0:0:0:0:
448,192,62706,128,0,62788:0:0:0:0:
192,192,62869,1,0,0:0:0:0:
64,192,62869,128,0,63115:0:0:0:0:
448,192,62869,128,0,63197:0:0:0:0:
192,192,63033,128,0,63115:0:0:0:0:
320,192,63033,128,0,63115:0:0:0:0:
192,192,63197,128,0,63279:0:0:0:0:
64,192,63197,128,0,63279:0:0:0:0:
448,192,63361,128,0,63607:0:0:0:0:
320,192,63361,128,0,63443:0:0:0:0:
64,192,63525,128,0,63607:0:0:0:0:
192,192,63525,128,0,63607:0:0:0:0:
320,192,63607,1,0,0:0:0:0:
64,192,63689,128,0,63771:0:0:0:0:
192,192,63689,128,0,63771:0:0:0:0:
448,192,63853,1,0,0:0:0:0:
320,192,63853,1,0,0:0:0:0:
64,192,63853,1,0,0:0:0:0:
320,192,64181,128,0,64263:0:0:0:0:
64,192,64345,128,0,64591:0:0:0:0:
448,192,64345,128,0,64755:0:0:0:0:
192,192,64509,128,0,64591:0:0:0:0:
320,192,64509,128,0,64591:0:0:0:0:
64,192,64673,128,0,64755:0:0:0:0:
192,192,64673,128,0,64755:0:0:0:0:
320,192,64837,1,0,0:0:0:0:
448,192,64837,128,0,65083:0:0:0:0:
64,192,64837,128,0,65247:0:0:0:0:
320,192,65001,128,0,65083:0:0:0:0:
192,192,65001,128,0,65083:0:0:0:0:
448,192,65165,128,0,65247:0:0:0:0:
192,192,65165,128,0,65247:0:0:0:0:
320,192,65328,128,0,65492:0:0:0:0:
64,192,65328,128,0,65574:0:0:0:0:
192,192,65410,128,0,65492:0:0:0:0:
448,192,65492,128,0,65738:0:0:0:0:
320,192,65574,128,0,65656:0:0:0:0:
192,192,65656,128,0,65820:0:0:0:0:
64,192,65820,128,0,65902:0:0:0:0:
320,192,65820,128,0,66066:0:0:0:0:
448,192,65820,1,0,0:0:0:0:
192,192,65902,128,0,65984:0:0:0:0:
448,192,65984,128,0,66148:0:0:0:0:
64,192,66066,128,0,66230:0:0:0:0:
192,192,66148,128,0,66312:0:0:0:0:
320,192,66230,128,0,66312:0:0:0:0:
64,192,66312,128,0,66558:0:0:0:0:
448,192,66312,128,0,66394:0:0:0:0:
320,192,66394,128,0,66640:0:0:0:0:
448,192,66476,128,0,66640:0:0:0:0:
192,192,66558,128,0,66722:0:0:0:0:
64,192,66640,128,0,66722:0:0:0:0:
320,192,66722,128,0,66804:0:0:0:0:
192,192,66804,1,0,0:0:0:0:
64,192,66804,1,0,0:0:0:0:
448,192,66804,1,0,0:0:0:0:
320,192,66968,1,0,0:0:0:0:
64,192,66968,1,0,0:0:0:0:
192,192,67132,1,0,0:0:0:0:
448,192,67132,1,0,0:0:0:0:
320,192,67214,1,0,0:0:0:0:
448,192,67296,1,0,0:0:0:0:
64,192,67296,1,0,0:0:0:0:
320,192,67460,1,0,0:0:0:0:
64,192,67460,1,0,0:0:0:0:
192,192,67624,1,0,0:0:0:0:
448,192,67624,1,0,0:0:0:0:
320,192,67788,1,0,0:0:0:0:
448,192,67788,1,0,0:0:0:0:
64,192,67788,1,0,0:0:0:0:
192,192,67951,1,0,0:0:0:0:
320,192,67951,1,0,0:0:0:0:
64,192,68115,1,0,0:0:0:0:
448,192,68115,1,0,0:0:0:0:
192,192,68197,1,0,0:0:0:0:
320,192,68279,128,0,68361:0:0:0:0:
64,192,68279,128,0,68525:0:0:0:0:
320,192,68443,128,0,68525:0:0:0:0:
320,192,68607,128,0,68771:0:0:0:0:
64,192,68607,128,0,68689:0:0:0:0:
192,192,68771,128,0,68853:0:0:0:0:
448,192,68771,1,0,0:0:0:0:
192,192,68935,128,0,69017:0:0:0:0:
192,192,69099,128,0,69263:0:0:0:0:
64,192,69263,1,0,0:0:0:0:
448,192,69263,128,0,69345:0:0:0:0:
448,192,69427,128,0,69509:0:0:0:0:
448,192,69591,128,0,69755:0:0:0:0:
320,192,69755,1,0,0:0:0:0:
64,192,69755,128,0,70001:0:0:0:0:
192,192,69837,128,0,69919:0:0:0:0:
448,192,69919,1,0,0:0:0:0:
64,192,70083,1,0,0:0:0:0:
448,192,70247,128,0,70492:0:0:0:0:
192,192,70247,128,0,70328:0:0:0:0:
192,192,70410,128,0,70492:0:0:0:0:
192,192,70574,128,0,70738:0:0:0:0:
448,192,70574,128,0,70656:0:0:0:0:
64,192,70738,1,0,0:0:0:0:
320,192,70738,128,0,70820:0:0:0:0:
320,192,70902,128,0,70984:0:0:0:0:
320,192,71066,1,0,0:0:0:0:
448,192,71230,1,0,0:0:0:0:
64,192,71230,128,0,71312:0:0:0:0:
64,192,71394,1,0,0:0:0:0:
64,192,71558,128,0,71640:0:0:0:0:
448,192,71722,128,0,71968:0:0:0:0:
192,192,71722,1,0,0:0:0:0:
320,192,71804,128,0,71886:0:0:0:0:
64,192,71886,1,0,0:0:0:0:
448,192,72050,1,0,0:0:0:0:
320,192,72214,128,0,72460:0:0:0:0:
64,192,72214,128,0,72296:0:0:0:0:
64,192,72378,128,0,72460:0:0:0:0:
64,192,72542,128,0,72706:0:0:0:0:
320,192,72542,128,0,72624:0:0:0:0:
192,192,72706,1,0,0:0:0:0:
448,192,72706,128,0,72788:0:0:0:0:
448,192,72869,128,0,72951:0:0:0:0:
448,192,73033,1,0,0:0:0:0:
320,192,73197,1,0,0:0:0:0:
192,192,73197,128,0,73279:0:0:0:0:
192,192,73361,128,0,73443:0:0:0:0:
192,192,73525,1,0,0:0:0:0:
320,192,73689,128,0,74181:0:0:0:0:
64,192,73689,128,0,74017:0:0:0:0:
448,192,73853,128,0,74017:0:0:0:0:
192,192,74017,128,0,74181:0:0:0:0:
448,192,74181,128,0,74509:0:0:0:0:
64,192,74181,128,0,74345:0:0:0:0:
320,192,74345,1,0,0:0:0:0:
64,192,74509,128,0,74673:0:0:0:0:
192,192,74509,128,0,74673:0:0:0:0:
320,192,74673,128,0,75001:0:0:0:0:
448,192,74673,128,0,75001:0:0:0:0:
64,192,74837,1,0,0:0:0:0:
192,192,75001,1,0,0:0:0:0:
64,192,75165,128,0,75492:0:0:0:0:
320,192,75165,128,0,75328:0:0:0:0:
192,192,75247,128,0,75328:0:0:0:0:
448,192,75328,128,0,75492:0:0:0:0:
320,192,75492,128,0,75820:0:0:0:0:
192,192,75492,128,0,75656:0:0:0:0:
64,192,75656,128,0,75984:0:0:0:0:
448,192,75656,128,0,75820:0:0:0:0:
192,192,75820,1,0,0:0:0:0:
320,192,75984,128,0,76148:0:0:0:0:
448,192,76148,128,0,76640:0:0:0:0:
64,192,76148,128,0,76968:0:0:0:0:
192,192,76312,128,0,76476:0:0:0:0:
320,192,76476,128,0,76640:0:0:0:0:
192,192,76640,128,0,76968:0:0:0:0:
320,192,76804,1,0,0:0:0:0:
448,192,76804,1,0,0:0:0:0:
448,192,76968,1,0,0:0:0:0:
320,192,76968,128,0,77132:0:0:0:0:
64,192,77132,1,0,0:0:0:0:
192,192,77132,1,0,0:0:0:0:
64,192,77337,128,0,77460:0:0:0:0:
448,192,77460,128,0,77583:0:0:0:0:
192,192,77583,128,0,77828:0:0:0:0:
64,192,77665,128,0,77747:0:0:0:0:
320,192,77747,128,0,77992:0:0:0:0:
448,192,77828,128,0,77910:0:0:0:0:
192,192,77910,1,0,0:0:0:0:
448,192,78115,128,0,78607:0:0:0:0:
64,192,78115,128,0,78279:0:0:0:0:
320,192,78279,128,0,78443:0:0:0:0:
192,192,78443,128,0,78607:0:0:0:0:
64,192,78443,128,0,78771:0:0:0:0:
320,192,78607,128,0,78935:0:0:0:0:
448,192,78771,1,0,0:0:0:0:
192,192,78771,128,0,79099:0:0:0:0:
64,192,78935,128,0,79099:0:0:0:0:
448,192,79099,1,0,0:0:0:0:
320,192,79099,128,0,79263:0:0:0:0:
64,192,79304,128,0,79427:0:0:0:0:
448,192,79427,128,0,79550:0:0:0:0:
192,192,79550,128,0,79755:0:0:0:0:
448,192,79673,128,0,79919:0:0:0:0:
320,192,79755,128,0,79837:0:0:0:0:
64,192,79837,128,0,80083:0:0:0:0:
192,192,79919,128,0,80001:0:0:0:0:
448,192,80083,128,0,80574:0:0:0:0:
320,192,80083,128,0,80410:0:0:0:0:
64,192,80247,128,0,80328:0:0:0:0:
64,192,80410,128,0,80492:0:0:0:0:
192,192,80574,128,0,80820:0:0:0:0:
320,192,80656,128,0,80738:0:0:0:0:
448,192,80738,1,0,0:0:0:0:
64,192,80738,1,0,0:0:0:0:
320,192,80902,1,0,0:0:0:0:
448,192,80902,1,0,0:0:0:0:
192,192,81066,1,0,0:0:0:0:
64,192,81066,1,0,0:0:0:0:
448,192,81230,128,0,81312:0:0:0:0:
448,192,81394,128,0,81476:0:0:0:0:
192,192,81558,128,0,81722:0:0:0:0:
320,192,81640,128,0,81722:0:0:0:0:
64,192,81722,1,0,0:0:0:0:
448,192,81886,1,0,0:0:0:0:
320,192,82050,1,0,0:0:0:0:
64,192,82050,128,0,82214:0:0:0:0:
192,192,82050,128,0,82378:0:0:0:0:
320,192,82214,1,0,0:0:0:0:
448,192,82214,1,0,0:0:0:0:
64,192,82378,1,0,0:0:0:0:
448,192,82378,1,0,0:0:0:0:
320,192,82542,128,0,82869:0:0:0:0:
192,192,82542,128,0,82706:0:0:0:0:
64,192,82706,1,0,0:0:0:0:
448,192,82706,1,0,0:0:0:0:
192,192,82869,1,0,0:0:0:0:
64,192,82869,1,0,0:0:0:0:
320,192,82951,1,0,0:0:0:0:
448,192,83033,128,0,83361:0:0:0:0:
192,192,83033,128,0,83197:0:0:0:0:
64,192,83197,1,0,0:0:0:0:
320,192,83197,1,0,0:0:0:0:
192,192,83361,1,0,0:0:0:0:
64,192,83361,1,0,0:0:0:0:
320,192,83525,128,0,83689:0:0:0:0:
192,192,83525,128,0,83853:0:0:0:0:
448,192,83689,1,0,0:0:0:0:
64,192,83689,1,0,0:0:0:0:
448,192,83853,1,0,0:0:0:0:
320,192,83853,1,0,0:0:0:0:
64,192,83935,1,0,0:0:0:0:
320,192,84017,128,0,84181:0:0:0:0:
448,192,84017,128,0,84345:0:0:0:0:
192,192,84017,1,0,0:0:0:0:
64,192,84181,128,0,84673:0:0:0:0:
192,192,84345,1,0,0:0:0:0:
448,192,84509,1,0,0:0:0:0:
320,192,84509,1,0,0:0:0:0:
192,192,84673,128,0,85001:0:0:0:0:
448,192,84837,128,0,85001:0:0:0:0:
64,192,85001,128,0,85328:0:0:0:0:
320,192,85001,128,0,85656:0:0:0:0:
448,192,85165,1,0,0:0:0:0:
192,192,85328,1,0,0:0:0:0:
448,192,85492,1,0,0:0:0:0:
64,192,85492,1,0,0:0:0:0:
192,192,85656,128,0,85984:0:0:0:0:
320,192,85820,128,0,85984:0:0:0:0:
64,192,85984,128,0,86312:0:0:0:0:
448,192,85984,128,0,86640:0:0:0:0:
192,192,86148,1,0,0:0:0:0:
320,192,86312,1,0,0:0:0:0:
192,192,86476,1,0,0:0:0:0:
64,192,86476,1,0,0:0:0:0:
320,192,86640,1,0,0:0:0:0:
64,192,86804,1,0,0:0:0:0:
320,192,86968,1,0,0:0:0:0:
448,192,86968,1,0,0:0:0:0:
192,192,87132,128,0,87460:0:0:0:0:
64,192,87296,128,0,87624:0:0:0:0:
448,192,87460,128,0,87788:0:0:0:0:
320,192,87460,128,0,87624:0:0:0:0:
192,192,87624,1,0,0:0:0:0:
320,192,87788,1,0,0:0:0:0:
192,192,87951,128,0,88115:0:0:0:0:
64,192,87951,128,0,88443:0:0:0:0:
320,192,88033,128,0,88279:0:0:0:0:
448,192,88115,1,0,0:0:0:0:
192,192,88279,128,0,88771:0:0:0:0:
448,192,88443,1,0,0:0:0:0:
320,192,88443,1,0,0:0:0:0:
64,192,88607,128,0,88935:0:0:0:0:
448,192,88771,1,0,0:0:0:0:
192,192,88935,128,0,89099:0:0:0:0:
320,192,88935,128,0,89427:0:0:0:0:
448,192,89017,128,0,89263:0:0:0:0:
64,192,89099,1,0,0:0:0:0:
192,192,89263,128,0,89755:0:0:0:0:
64,192,89427,1,0,0:0:0:0:
448,192,89427,1,0,0:0:0:0:
320,192,89591,128,0,89919:0:0:0:0:
64,192,89755,1,0,0:0:0:0:
448,192,89919,128,0,90083:0:0:0:0:
192,192,89919,128,0,90410:0:0:0:0:
64,192,90001,128,0,90247:0:0:0:0:
320,192,90083,1,0,0:0:0:0:
448,192,90247,128,0,90410:0:0:0:0:
320,192,90410,1,0,0:0:0:0:
64,192,90410,1,0,0:0:0:0:
448,192,90574,1,0,0:0:0:0:
64,192,90738,1,0,0:0:0:0:
320,192,90902,128,0,91066:0:0:0:0:
448,192,90902,128,0,91394:0:0:0:0:
192,192,90984,128,0,91230:0:0:0:0:
64,192,91066,1,0,0:0:0:0:
320,192,91230,128,0,91722:0:0:0:0:
64,192,91394,1,0,0:0:0:0:
192,192,91394,128,0,91558:0:0:0:0:
448,192,91558,128,0,91886:0:0:0:0:
192,192,91722,1,0,0:0:0:0:
320,192,91886,128,0,92050:0:0:0:0:
64,192,91886,128,0,92214:0:0:0:0:
192,192,92050,128,0,92542:0:0:0:0:
320,192,92214,1,0,0:0:0:0:
64,192,92378,1,0,0:0:0:0:
448,192,92378,1,0,0:0:0:0:
320,192,92542,128,0,92869:0:0:0:0:
64,192,92706,128,0,92869:0:0:0:0:
448,192,92869,128,0,93197:0:0:0:0:
192,192,92869,128,0,93525:0:0:0:0:
64,192,93033,1,0,0:0:0:0:
320,192,93197,1,0,0:0:0:0:
64,192,93361,1,0,0:0:0:0:
448,192,93361,1,0,0:0:0:0:
320,192,93525,128,0,93853:0:0:0:0:
192,192,93689,128,0,93853:0:0:0:0:
448,192,93853,128,0,94181:0:0:0:0:
64,192,93853,128,0,94509:0:0:0:0:
320,192,94017,1,0,0:0:0:0:
192,192,94181,1,0,0:0:0:0:
320,192,94345,1,0,0:0:0:0:
448,192,94345,1,0,0:0:0:0:
192,192,94509,128,0,94673:0:0:0:0:
448,192,94673,128,0,94837:0:0:0:0:
64,192,94837,1,0,0:0:0:0:
192,192,94837,128,0,95165:0:0:0:0:
320,192,95001,1,0,0:0:0:0:
448,192,95165,1,0,0:0:0:0:
192,192,95328,1,0,0:0:0:0:
64,192,95328,1,0,0:0:0:0:
320,192,95492,1,0,0:0:0:0:
64,192,95656,1,0,0:0:0:0:
320,192,95820,128,0,95984:0:0:0:0:
448,192,95820,128,0,96312:0:0:0:0:
192,192,95902,128,0,96148:0:0:0:0:
64,192,95984,1,0,0:0:0:0:
320,192,96148,128,0,96640:0:0:0:0:
64,192,96312,5,0,0:0:0:0:
192,192,96312,1,0,0:0:0:0:
448,192,96476,128,0,96804:0:0:0:0:
64,192,96640,1,0,0:0:0:0:
320,192,96804,128,0,96968:0:0:0:0:
192,192,96804,128,0,97296:0:0:0:0:
64,192,96886,128,0,97132:0:0:0:0:
448,192,96968,1,0,0:0:0:0:
320,192,97132,128,0,97624:0:0:0:0:
448,192,97296,1,0,0:0:0:0:
64,192,97296,1,0,0:0:0:0:
192,192,97460,128,0,97788:0:0:0:0:
448,192,97624,128,0,97788:0:0:0:0:
64,192,97788,128,0,97951:0:0:0:0:
320,192,97788,128,0,98279:0:0:0:0:
192,192,98115,1,0,0:0:0:0:
448,192,98279,128,0,98443:0:0:0:0:
64,192,98279,1,0,0:0:0:0:
448,192,98607,1,0,0:0:0:0:
192,192,98771,128,0,98935:0:0:0:0:
448,192,99017,1,0,0:0:0:0:
192,192,99099,1,0,0:0:0:0:
64,192,99263,1,0,0:0:0:0:
320,192,99263,128,0,99427:0:0:0:0:
320,192,99591,1,0,0:0:0:0:
448,192,99755,1,0,0:0:0:0:
64,192,99755,128,0,100083:0:0:0:0:
64,192,100247,128,0,100574:0:0:0:0:
64,192,100738,128,0,100984:0:0:0:0:
448,192,100820,128,0,101148:0:0:0:0:
320,192,100902,128,0,101066:0:0:0:0:
192,192,101066,128,0,101148:0:0:0:0:
320,192,101230,128,0,101640:0:0:0:0:
448,192,101558,128,0,101640:0:0:0:0:
192,192,101722,128,0,102050:0:0:0:0:
64,192,102050,128,0,102132:0:0:0:0:
192,192,102214,128,0,102542:0:0:0:0:
192,192,102706,128,0,102869:0:0:0:0:
64,192,103197,128,0,103607:0:0:0:0:
192,192,103525,128,0,103607:0:0:0:0:
448,192,103689,128,0,104017:0:0:0:0:
448,192,104181,128,0,104509:0:0:0:0:
448,192,104673,128,0,104919:0:0:0:0:
64,192,104755,128,0,105083:0:0:0:0:
192,192,104837,128,0,105001:0:0:0:0:
320,192,105001,128,0,105083:0:0:0:0:
192,192,105165,128,0,105574:0:0:0:0:
448,192,105492,128,0,105574:0:0:0:0:
64,192,105656,128,0,105984:0:0:0:0:
192,192,105984,128,0,106066:0:0:0:0:
64,192,106148,128,0,106476:0:0:0:0:
64,192,106640,128,0,106968:0:0:0:0:
448,192,106722,128,0,106886:0:0:0:0:
192,192,106804,128,0,106968:0:0:0:0:
320,192,107132,128,0,107378:0:0:0:0:
192,192,107460,128,0,107542:0:0:0:0:
448,192,107624,1,0,0:0:0:0:
64,192,107624,128,0,107951:0:0:0:0:
192,192,107951,1,0,0:0:0:0:
64,192,108115,128,0,108443:0:0:0:0:
320,192,108115,1,0,0:0:0:0:
448,192,108197,128,0,108361:0:0:0:0:
192,192,108279,128,0,108443:0:0:0:0:
320,192,108443,1,0,0:0:0:0:
64,192,108607,128,0,108853:0:0:0:0:
192,192,108607,1,0,0:0:0:0:
448,192,108689,128,0,109017:0:0:0:0:
320,192,108771,128,0,108935:0:0:0:0:
192,192,108935,128,0,109017:0:0:0:0:
320,192,109099,128,0,109509:0:0:0:0:
64,192,109099,1,0,0:0:0:0:
448,192,109427,128,0,109509:0:0:0:0:
192,192,109591,128,0,109919:0:0:0:0:
64,192,109591,1,0,0:0:0:0:
448,192,109919,128,0,110165:0:0:0:0:
192,192,110083,128,0,110410:0:0:0:0:
320,192,110083,1,0,0:0:0:0:
448,192,110410,1,0,0:0:0:0:
192,192,110574,128,0,110902:0:0:0:0:
320,192,110574,1,0,0:0:0:0:
64,192,110656,128,0,110820:0:0:0:0:
448,192,110902,1,0,0:0:0:0:
320,192,111066,1,0,0:0:0:0:
192,192,111066,1,0,0:0:0:0:
64,192,111394,1,0,0:0:0:0:
448,192,111558,128,0,111804:0:0:0:0:
192,192,111558,1,0,0:0:0:0:
320,192,111640,128,0,111722:0:0:0:0:
64,192,111722,128,0,111886:0:0:0:0:
192,192,111804,128,0,111968:0:0:0:0:
448,192,111886,1,0,0:0:0:0:
320,192,112050,128,0,112296:0:0:0:0:
64,192,112050,1,0,0:0:0:0:
448,192,112132,128,0,112214:0:0:0:0:
192,192,112214,128,0,112296:0:0:0:0:
64,192,112296,128,0,112378:0:0:0:0:
320,192,112378,1,0,0:0:0:0:
448,192,112542,128,0,112624:0:0:0:0:
192,192,112542,128,0,112788:0:0:0:0:
320,192,112624,128,0,112788:0:0:0:0:
64,192,112706,128,0,112869:0:0:0:0:
448,192,112788,128,0,112869:0:0:0:0:
192,192,112869,128,0,112951:0:0:0:0:
320,192,113033,128,0,113115:0:0:0:0:
64,192,113033,128,0,113279:0:0:0:0:
448,192,113115,128,0,113279:0:0:0:0:
192,192,113197,128,0,113361:0:0:0:0:
320,192,113279,128,0,113361:0:0:0:0:
64,192,113361,128,0,113443:0:0:0:0:
448,192,113443,128,0,113525:0:0:0:0:
192,192,113525,128,0,113771:0:0:0:0:
320,192,113607,128,0,113771:0:0:0:0:
64,192,113689,128,0,113853:0:0:0:0:
448,192,113771,128,0,113853:0:0:0:0:
192,192,113853,128,0,114099:0:0:0:0:
320,192,113935,128,0,114017:0:0:0:0:
64,192,114017,128,0,114181:0:0:0:0:
448,192,114099,128,0,114181:0:0:0:0:
320,192,114181,1,0,0:0:0:0:
192,192,114263,1,0,0:0:0:0:
448,192,114345,1,0,0:0:0:0:
64,192,114427,1,0,0:0:0:0:
320,192,114509,128,0,114837:0:0:0:0:
448,192,114509,128,0,114919:0:0:0:0:
64,192,114837,128,0,114919:0:0:0:0:
192,192,115001,128,0,115410:0:0:0:0:
320,192,115001,128,0,115247:0:0:0:0:
64,192,115247,128,0,115328:0:0:0:0:
448,192,115328,128,0,115410:0:0:0:0:
320,192,115410,128,0,115492:0:0:0:0:
192,192,115492,128,0,115574:0:0:0:0:
64,192,115492,128,0,115820:0:0:0:0:
448,192,115492,128,0,115738:0:0:0:0:
192,192,115656,128,0,115738:0:0:0:0:
320,192,115656,128,0,115738:0:0:0:0:
320,192,115820,128,0,115902:0:0:0:0:
448,192,115820,128,0,115902:0:0:0:0:
64,192,115984,128,0,116230:0:0:0:0:
448,192,115984,128,0,116312:0:0:0:0:
192,192,115984,1,0,0:0:0:0:
192,192,116148,128,0,116230:0:0:0:0:
320,192,116148,128,0,116230:0:0:0:0:
64,192,116312,128,0,116394:0:0:0:0:
320,192,116312,128,0,116394:0:0:0:0:
448,192,116476,128,0,116722:0:0:0:0:
192,192,116476,128,0,116558:0:0:0:0:
320,192,116558,128,0,116722:0:0:0:0:
64,192,116640,128,0,116804:0:0:0:0:
320,192,116804,128,0,116886:0:0:0:0:
448,192,116804,1,0,0:0:0:0:
448,192,116968,1,0,0:0:0:0:
64,192,116968,128,0,117050:0:0:0:0:
192,192,116968,128,0,117214:0:0:0:0:
320,192,117050,128,0,117132:0:0:0:0:
64,192,117132,128,0,117296:0:0:0:0:
448,192,117296,1,0,0:0:0:0:
320,192,117296,128,0,117378:0:0:0:0:
448,192,117460,128,0,117706:0:0:0:0:
192,192,117460,128,0,117788:0:0:0:0:
64,192,117624,128,0,117706:0:0:0:0:
320,192,117624,128,0,117706:0:0:0:0:
448,192,117788,128,0,117869:0:0:0:0:
320,192,117788,128,0,117869:0:0:0:0:
448,192,117951,128,0,118279:0:0:0:0:
64,192,117951,128,0,118197:0:0:0:0:
192,192,117951,1,0,0:0:0:0:
320,192,118115,128,0,118197:0:0:0:0:
192,192,118115,128,0,118197:0:0:0:0:
64,192,118279,128,0,118361:0:0:0:0:
320,192,118279,128,0,118361:0:0:0:0:
192,192,118443,128,0,118525:0:0:0:0:
64,192,118443,128,0,118689:0:0:0:0:
448,192,118607,128,0,118689:0:0:0:0:
320,192,118607,128,0,118689:0:0:0:0:
192,192,118689,1,0,0:0:0:0:
320,192,118771,128,0,118853:0:0:0:0:
448,192,118771,128,0,118853:0:0:0:0:
64,192,118935,128,0,119263:0:0:0:0:
448,192,118935,1,0,0:0:0:0:
192,192,118935,128,0,119345:0:0:0:0:
320,192,119263,128,0,119345:0:0:0:0:
448,192,119427,128,0,119755:0:0:0:0:
64,192,119427,128,0,119673:0:0:0:0:
320,192,119591,128,0,119673:0:0:0:0:
192,192,119591,128,0,119673:0:0:0:0:
192,192,119755,128,0,119837:0:0:0:0:
64,192,119755,128,0,119837:0:0:0:0:
448,192,119919,128,0,120165:0:0:0:0:
64,192,119919,128,0,120247:0:0:0:0:
320,192,119919,1,0,0:0:0:0:
320,192,120083,128,0,120165:0:0:0:0:
192,192,120083,128,0,120165:0:0:0:0:
448,192,120247,128,0,120328:0:0:0:0:
192,192,120247,128,0,120328:0:0:0:0:
64,192,120410,128,0,120656:0:0:0:0:
320,192,120410,128,0,120574:0:0:0:0:
192,192,120492,128,0,120574:0:0:0:0:
448,192,120574,128,0,120738:0:0:0:0:
192,192,120738,128,0,120820:0:0:0:0:
64,192,120738,1,0,0:0:0:0:
448,192,120902,128,0,120984:0:0:0:0:
64,192,120902,1,0,0:0:0:0:
320,192,120902,128,0,121148:0:0:0:0:
192,192,120984,128,0,121066:0:0:0:0:
448,192,121066,128,0,121230:0:0:0:0:
192,192,121230,128,0,121312:0:0:0:0:
64,192,121230,1,0,0:0:0:0:
64,192,121394,128,0,121640:0:0:0:0:
320,192,121394,128,0,121722:0:0:0:0:
448,192,121558,128,0,121640:0:0:0:0:
192,192,121558,128,0,121640:0:0:0:0:
64,192,121722,128,0,121804:0:0:0:0:
192,192,121722,128,0,121804:0:0:0:0:
64,192,121886,128,0,122214:0:0:0:0:
448,192,121886,128,0,122132:0:0:0:0:
320,192,121886,1,0,0:0:0:0:
192,192,122050,128,0,122132:0:0:0:0:
320,192,122050,128,0,122132:0:0:0:0:
448,192,122214,128,0,122296:0:0:0:0:
192,192,122214,128,0,122296:0:0:0:0:
320,192,122378,128,0,122624:0:0:0:0:
64,192,122378,128,0,122460:0:0:0:0:
192,192,122542,128,0,122624:0:0:0:0:
64,192,122542,128,0,122624:0:0:0:0:
448,192,122624,1,0,0:0:0:0:
320,192,122706,128,0,122788:0:0:0:0:
192,192,122706,128,0,122788:0:0:0:0:
64,192,122869,1,0,0:0:0:0:
320,192,122869,128,0,123115:0:0:0:0:
448,192,122869,128,0,123115:0:0:0:0:
192,192,123033,1,0,0:0:0:0:
64,192,123033,1,0,0:0:0:0:
448,192,123197,1,0,0:0:0:0:
320,192,123197,128,0,123279:0:0:0:0:
64,192,123279,1,0,0:0:0:0:
192,192,123361,128,0,123607:0:0:0:0:
448,192,123361,128,0,123689:0:0:0:0:
64,192,123525,128,0,123607:0:0:0:0:
320,192,123525,128,0,123607:0:0:0:0:
192,192,123689,128,0,123771:0:0:0:0:
320,192,123689,128,0,123771:0:0:0:0:
64,192,123853,128,0,124181:0:0:0:0:
448,192,123853,128,0,124099:0:0:0:0:
320,192,124017,128,0,124099:0:0:0:0:
192,192,124017,128,0,124099:0:0:0:0:
448,192,124181,128,0,124263:0:0:0:0:
320,192,124181,128,0,124263:0:0:0:0:
448,192,124345,128,0,124591:0:0:0:0:
192,192,124345,128,0,124509:0:0:0:0:
320,192,124427,128,0,124591:0:0:0:0:
64,192,124509,128,0,124673:0:0:0:0:
320,192,124673,128,0,124755:0:0:0:0:
448,192,124673,1,0,0:0:0:0:
64,192,124837,128,0,124919:0:0:0:0:
448,192,124837,1,0,0:0:0:0:
192,192,124837,128,0,125083:0:0:0:0:
320,192,124919,128,0,125001:0:0:0:0:
64,192,125001,128,0,125165:0:0:0:0:
320,192,125165,128,0,125247:0:0:0:0:
448,192,125165,1,0,0:0:0:0:
64,192,125328,128,0,125574:0:0:0:0:
448,192,125328,128,0,125656:0:0:0:0:
320,192,125492,128,0,125574:0:0:0:0:
192,192,125492,128,0,125574:0:0:0:0:
64,192,125656,128,0,125738:0:0:0:0:
192,192,125656,128,0,125738:0:0:0:0:
64,192,125820,128,0,126148:0:0:0:0:
448,192,125820,128,0,126066:0:0:0:0:
320,192,125820,1,0,0:0:0:0:
192,192,125984,128,0,126066:0:0:0:0:
320,192,125984,128,0,126066:0:0:0:0:
448,192,126148,128,0,126230:0:0:0:0:
320,192,126148,128,0,126230:0:0:0:0:
192,192,126312,128,0,126394:0:0:0:0:
64,192,126312,128,0,126558:0:0:0:0:
320,192,126476,128,0,126558:0:0:0:0:
448,192,126476,128,0,126558:0:0:0:0:
192,192,126558,1,0,0:0:0:0:
320,192,126640,128,0,126722:0:0:0:0:
448,192,126640,128,0,126722:0:0:0:0:
448,192,126804,1,0,0:0:0:0:
64,192,126804,1,0,0:0:0:0:
192,192,126804,1,0,0:0:0:0:
320,192,127132,128,0,127214:0:0:0:0:
448,192,127296,128,0,127706:0:0:0:0:
64,192,127296,128,0,127542:0:0:0:0:
320,192,127460,128,0,127542:0:0:0:0:
192,192,127460,128,0,127542:0:0:0:0:
192,192,127624,128,0,127706:0:0:0:0:
64,192,127624,128,0,127706:0:0:0:0:
64,192,127788,128,0,128197:0:0:0:0:
448,192,127788,128,0,128033:0:0:0:0:
320,192,127788,1,0,0:0:0:0:
192,192,127951,128,0,128033:0:0:0:0:
320,192,127951,128,0,128033:0:0:0:0:
192,192,128115,128,0,128197:0:0:0:0:
448,192,128115,128,0,128197:0:0:0:0:
64,192,128279,128,0,128525:0:0:0:0:
320,192,128279,128,0,128443:0:0:0:0:
192,192,128361,128,0,128443:0:0:0:0:
448,192,128443,128,0,128689:0:0:0:0:
320,192,128525,128,0,128607:0:0:0:0:
192,192,128607,128,0,128771:0:0:0:0:
448,192,128771,1,0,0:0:0:0:
320,192,128771,128,0,129017:0:0:0:0:
64,192,128771,128,0,128853:0:0:0:0:
192,192,128853,128,0,128935:0:0:0:0:
448,192,128935,128,0,129099:0:0:0:0:
64,192,129017,128,0,129181:0:0:0:0:
192,192,129099,128,0,129263:0:0:0:0:
320,192,129181,128,0,129263:0:0:0:0:
448,192,129263,128,0,129345:0:0:0:0:
64,192,129263,128,0,129509:0:0:0:0:
320,192,129345,128,0,129591:0:0:0:0:
448,192,129427,128,0,129591:0:0:0:0:
192,192,129509,128,0,129673:0:0:0:0:
64,192,129591,128,0,129673:0:0:0:0:
320,192,129673,128,0,129755:0:0:0:0:
448,192,129755,1,0,0:0:0:0:
64,192,129755,1,0,0:0:0:0:
192,192,129755,1,0,0:0:0:0:
64,192,129919,1,0,0:0:0:0:
320,192,129919,1,0,0:0:0:0:
448,192,130083,1,0,0:0:0:0:
192,192,130083,1,0,0:0:0:0:
320,192,130165,1,0,0:0:0:0:
64,192,130247,1,0,0:0:0:0:
448,192,130247,1,0,0:0:0:0:
64,192,130410,1,0,0:0:0:0:
320,192,130410,1,0,0:0:0:0:
448,192,130574,1,0,0:0:0:0:
192,192,130574,1,0,0:0:0:0:
64,192,130738,1,0,0:0:0:0:
448,192,130738,1,0,0:0:0:0:
320,192,130738,1,0,0:0:0:0:
320,192,130902,1,0,0:0:0:0:
192,192,130902,1,0,0:0:0:0:
448,192,131066,1,0,0:0:0:0:
64,192,131066,1,0,0:0:0:0:
192,192,131148,1,0,0:0:0:0:
320,192,131230,1,0,0:0:0:0:
64,192,131230,128,0,132460:0:0:0:0:
448,192,131312,128,0,132296:0:0:0:0:
192,192,131722,1,0,0:0:0:0:
320,192,131722,128,0,131886:0:0:0:0:
320,192,132050,1,0,0:0:0:0:
320,192,132214,128,0,132378:0:0:0:0:
448,192,132706,1,0,0:0:0:0:
320,192,132706,128,0,132869:0:0:0:0:
192,192,132788,128,0,133033:0:0:0:0:
64,192,132869,128,0,133197:0:0:0:0:
448,192,133033,128,0,133197:0:0:0:0:
320,192,133197,128,0,134181:0:0:0:0:
192,192,133197,128,0,134263:0:0:0:0:
64,192,133689,128,0,133853:0:0:0:0:
448,192,133689,1,0,0:0:0:0:
64,192,134017,1,0,0:0:0:0:
64,192,134181,128,0,134345:0:0:0:0:
448,192,134673,1,0,0:0:0:0:
64,192,134673,128,0,135165:0:0:0:0:
192,192,135001,128,0,135165:0:0:0:0:
448,192,135165,128,0,136476:0:0:0:0:
320,192,135247,128,0,136394:0:0:0:0:
64,192,135656,1,0,0:0:0:0:
192,192,135656,128,0,135820:0:0:0:0:
192,192,135984,1,0,0:0:0:0:
192,192,136148,128,0,136312:0:0:0:0:
64,192,136640,1,0,0:0:0:0:
192,192,136640,128,0,136804:0:0:0:0:
320,192,136722,128,0,136968:0:0:0:0:
448,192,136804,128,0,137132:0:0:0:0:
64,192,136968,128,0,137132:0:0:0:0:
192,192,137132,128,0,138115:0:0:0:0:
320,192,137132,128,0,138197:0:0:0:0:
448,192,137624,128,0,137788:0:0:0:0:
64,192,137624,1,0,0:0:0:0:
448,192,137951,1,0,0:0:0:0:
448,192,138115,128,0,138279:0:0:0:0:
192,192,138361,128,0,138607:0:0:0:0:
320,192,138443,128,0,138607:0:0:0:0:
64,192,138607,128,0,138771:0:0:0:0:
448,192,138607,128,0,138935:0:0:0:0:
64,192,138935,1,0,0:0:0:0:
320,192,139099,128,0,141066:0:0:0:0:
448,192,139099,128,0,139427:0:0:0:0:
64,192,139263,128,0,139427:0:0:0:0:
192,192,139427,128,0,139591:0:0:0:0:
448,192,139591,1,0,0:0:0:0:
64,192,139591,128,0,139755:0:0:0:0:
64,192,140083,128,0,140410:0:0:0:0:
448,192,140247,128,0,140410:0:0:0:0:
192,192,140410,128,0,140574:0:0:0:0:
64,192,140574,1,0,0:0:0:0:
448,192,140574,128,0,140738:0:0:0:0:
64,192,141066,128,0,143033:0:0:0:0:
448,192,141066,128,0,141394:0:0:0:0:
320,192,141230,128,0,141394:0:0:0:0:
192,192,141394,128,0,141558:0:0:0:0:
448,192,141558,1,0,0:0:0:0:
320,192,141558,128,0,141886:0:0:0:0:
192,192,141722,128,0,141886:0:0:0:0:
448,192,141886,128,0,142050:0:0:0:0:
192,192,142050,128,0,142378:0:0:0:0:
448,192,142214,128,0,142378:0:0:0:0:
320,192,142378,128,0,142542:0:0:0:0:
192,192,142542,128,0,142869:0:0:0:0:
448,192,142542,128,0,142706:0:0:0:0:
448,192,143033,128,0,143197:0:0:0:0:
192,192,143033,128,0,143525:0:0:0:0:
320,192,143033,128,0,143853:0:0:0:0:
64,192,143361,128,0,143525:0:0:0:0:
448,192,143361,128,0,143525:0:0:0:0:
192,192,143689,128,0,143853:0:0:0:0:
64,192,143689,128,0,143853:0:0:0:0:
192,192,144017,128,0,144837:0:0:0:0:
320,192,144017,128,0,144509:0:0:0:0:
64,192,144017,128,0,144181:0:0:0:0:
448,192,144345,128,0,144509:0:0:0:0:
64,192,144345,128,0,144509:0:0:0:0:
320,192,144673,128,0,144837:0:0:0:0:
448,192,144673,128,0,144837:0:0:0:0:
448,192,145001,128,0,145820:0:0:0:0:
64,192,145001,128,0,145492:0:0:0:0:
320,192,145001,128,0,145165:0:0:0:0:
192,192,145328,128,0,145492:0:0:0:0:
320,192,145328,128,0,145492:0:0:0:0:
192,192,145656,128,0,145820:0:0:0:0:
64,192,145656,128,0,145820:0:0:0:0:
64,192,145984,128,0,146804:0:0:0:0:
448,192,145984,128,0,146804:0:0:0:0:
320,192,145984,128,0,146148:0:0:0:0:
192,192,146312,128,0,146476:0:0:0:0:
320,192,146394,128,0,147951:0:0:0:0:
64,192,146968,128,0,147132:0:0:0:0:
448,192,146968,128,0,147132:0:0:0:0:
192,192,146968,128,0,147951:0:0:0:0:
448,192,147951,1,0,0:0:0:0:
64,192,148033,128,0,148197:0:0:0:0:
192,192,148115,128,0,148279:0:0:0:0:
320,192,148197,128,0,148361:0:0:0:0:
448,192,148279,128,0,148525:0:0:0:0:
64,192,148361,1,0,0:0:0:0:
320,192,148443,128,0,148607:0:0:0:0:
192,192,148525,128,0,148689:0:0:0:0:
64,192,148607,128,0,148853:0:0:0:0:
448,192,148689,1,0,0:0:0:0:
192,192,148771,128,0,148935:0:0:0:0:
320,192,148853,128,0,149017:0:0:0:0:
448,192,148935,128,0,149263:0:0:0:0:
448,192,149427,128,0,149755:0:0:0:0:
448,192,149919,128,0,150247:0:0:0:0:
64,192,150165,128,0,150247:0:0:0:0:
448,192,150410,128,0,150738:0:0:0:0:
320,192,150656,128,0,150738:0:0:0:0:
192,192,150902,128,0,151148:0:0:0:0:
448,192,151230,128,0,151312:0:0:0:0:
64,192,151394,128,0,151558:0:0:0:0:
448,192,151722,1,0,0:0:0:0:
192,192,151722,1,0,0:0:0:0:
320,192,151804,1,0,0:0:0:0:
448,192,151886,1,0,0:0:0:0:
64,192,151886,1,0,0:0:0:0:
64,192,152050,1,0,0:0:0:0:
192,192,152050,1,0,0:0:0:0:
448,192,152214,1,0,0:0:0:0:
320,192,152214,1,0,0:0:0:0:
448,192,152378,1,0,0:0:0:0:
64,192,152378,1,0,0:0:0:0:
320,192,152542,1,0,0:0:0:0:
64,192,152542,1,0,0:0:0:0:
448,192,152706,1,0,0:0:0:0:
192,192,152706,1,0,0:0:0:0:
64,192,152869,128,0,153115:0:0:0:0:
448,192,152869,128,0,153197:0:0:0:0:
320,192,152869,128,0,152951:0:0:0:0:
192,192,153033,128,0,153115:0:0:0:0:
320,192,153033,128,0,153115:0:0:0:0:
64,192,153197,128,0,153279:0:0:0:0:
192,192,153197,128,0,153279:0:0:0:0:
320,192,153361,1,0,0:0:0:0:
64,192,153361,128,0,153689:0:0:0:0:
448,192,153361,128,0,153607:0:0:0:0:
192,192,153525,128,0,153607:0:0:0:0:
320,192,153525,128,0,153607:0:0:0:0:
192,192,153689,128,0,153771:0:0:0:0:
448,192,153689,128,0,153771:0:0:0:0:
64,192,153853,128,0,154099:0:0:0:0:
320,192,153853,128,0,154181:0:0:0:0:
192,192,153935,128,0,154099:0:0:0:0:
448,192,154017,128,0,154181:0:0:0:0:
64,192,154181,1,0,0:0:0:0:
192,192,154181,128,0,154263:0:0:0:0:
320,192,154345,128,0,154591:0:0:0:0:
64,192,154345,1,0,0:0:0:0:
448,192,154345,128,0,154427:0:0:0:0:
192,192,154427,128,0,154591:0:0:0:0:
448,192,154509,128,0,154673:0:0:0:0:
64,192,154673,1,0,0:0:0:0:
192,192,154673,128,0,154755:0:0:0:0:
320,192,154837,128,0,155165:0:0:0:0:
64,192,154837,128,0,155083:0:0:0:0:
192,192,155001,128,0,155083:0:0:0:0:
448,192,155001,128,0,155083:0:0:0:0:
192,192,155165,128,0,155247:0:0:0:0:
64,192,155165,128,0,155247:0:0:0:0:
320,192,155328,1,0,0:0:0:0:
448,192,155328,128,0,155574:0:0:0:0:
64,192,155328,128,0,155656:0:0:0:0:
320,192,155492,128,0,155574:0:0:0:0:
192,192,155492,128,0,155574:0:0:0:0:
448,192,155656,128,0,155738:0:0:0:0:
192,192,155656,128,0,155902:0:0:0:0:
64,192,155738,128,0,155902:0:0:0:0:
320,192,155820,128,0,156066:0:0:0:0:
448,192,155902,128,0,156066:0:0:0:0:
192,192,155984,128,0,156148:0:0:0:0:
64,192,156066,128,0,156230:0:0:0:0:
448,192,156148,128,0,156230:0:0:0:0:
192,192,156230,128,0,156312:0:0:0:0:
448,192,156312,128,0,156558:0:0:0:0:
320,192,156312,128,0,156558:0:0:0:0:
64,192,156312,128,0,156394:0:0:0:0:
64,192,156476,1,0,0:0:0:0:
192,192,156476,1,0,0:0:0:0:
320,192,156640,128,0,156722:0:0:0:0:
448,192,156640,1,0,0:0:0:0:
64,192,156722,1,0,0:0:0:0:
448,192,156804,128,0,157132:0:0:0:0:
192,192,156804,128,0,157050:0:0:0:0:
320,192,156968,128,0,157050:0:0:0:0:
64,192,156968,128,0,157050:0:0:0:0:
320,192,157132,128,0,157214:0:0:0:0:
192,192,157132,128,0,157214:0:0:0:0:
64,192,157296,128,0,157542:0:0:0:0:
448,192,157296,128,0,157624:0:0:0:0:
320,192,157460,128,0,157542:0:0:0:0:
192,192,157460,128,0,157542:0:0:0:0:
192,192,157624,128,0,157706:0:0:0:0:
64,192,157624,128,0,157706:0:0:0:0:
64,192,157788,128,0,157951:0:0:0:0:
448,192,157788,128,0,158033:0:0:0:0:
320,192,157869,128,0,158033:0:0:0:0:
192,192,157951,128,0,158115:0:0:0:0:
64,192,158115,1,0,0:0:0:0:
448,192,158115,128,0,158197:0:0:0:0:
448,192,158279,1,0,0:0:0:0:
64,192,158279,128,0,158361:0:0:0:0:
192,192,158279,128,0,158443:0:0:0:0:
320,192,158361,128,0,158525:0:0:0:0:
64,192,158443,128,0,158689:0:0:0:0:
192,192,158525,128,0,158607:0:0:0:0:
320,192,158607,128,0,158689:0:0:0:0:
448,192,158607,1,0,0:0:0:0:
448,192,158771,128,0,159017:0:0:0:0:
64,192,158771,1,0,0:0:0:0:
192,192,158853,128,0,159181:0:0:0:0:
320,192,158935,128,0,159017:0:0:0:0:
64,192,158935,128,0,159099:0:0:0:0:
320,192,159099,128,0,159181:0:0:0:0:
448,192,159099,128,0,159181:0:0:0:0:
192,192,159263,1,0,0:0:0:0:
64,192,159263,128,0,159509:0:0:0:0:
448,192,159263,128,0,159591:0:0:0:0:
192,192,159427,128,0,159509:0:0:0:0:
320,192,159427,128,0,159509:0:0:0:0:
320,192,159591,128,0,159673:0:0:0:0:
64,192,159591,128,0,159673:0:0:0:0:
192,192,159755,128,0,160001:0:0:0:0:
448,192,159755,128,0,159837:0:0:0:0:
448,192,159919,128,0,160001:0:0:0:0:
320,192,159919,128,0,160001:0:0:0:0:
64,192,160001,1,0,0:0:0:0:
320,192,160083,128,0,160165:0:0:0:0:
192,192,160083,128,0,160165:0:0:0:0:
448,192,160247,1,0,0:0:0:0:
192,192,160247,1,0,0:0:0:0:
64,192,160247,1,0,0:0:0:0:
320,192,160574,1,0,0:0:0:0:
64,192,160738,128,0,160984:0:0:0:0:
448,192,160738,128,0,161148:0:0:0:0:
192,192,160902,128,0,160984:0:0:0:0:
320,192,160902,128,0,160984:0:0:0:0:
64,192,161066,128,0,161148:0:0:0:0:
192,192,161066,128,0,161148:0:0:0:0:
320,192,161230,1,0,0:0:0:0:
448,192,161230,128,0,161476:0:0:0:0:
64,192,161230,128,0,161640:0:0:0:0:
320,192,161394,128,0,161476:0:0:0:0:
192,192,161394,128,0,161476:0:0:0:0:
448,192,161558,128,0,161640:0:0:0:0:
192,192,161558,128,0,161640:0:0:0:0:
320,192,161722,128,0,161886:0:0:0:0:
64,192,161722,128,0,161968:0:0:0:0:
192,192,161804,128,0,161886:0:0:0:0:
448,192,161886,128,0,162132:0:0:0:0:
320,192,161968,128,0,162050:0:0:0:0:
192,192,162050,128,0,162214:0:0:0:0:
64,192,162214,128,0,162296:0:0:0:0:
320,192,162214,128,0,162460:0:0:0:0:
448,192,162214,1,0,0:0:0:0:
192,192,162296,128,0,162378:0:0:0:0:
448,192,162378,128,0,162542:0:0:0:0:
64,192,162460,128,0,162624:0:0:0:0:
192,192,162542,128,0,162706:0:0:0:0:
320,192,162624,128,0,162706:0:0:0:0:
64,192,162706,128,0,162951:0:0:0:0:
448,192,162706,128,0,162788:0:0:0:0:
320,192,162788,128,0,163033:0:0:0:0:
448,192,162869,128,0,163033:0:0:0:0:
192,192,162951,128,0,163115:0:0:0:0:
64,192,163033,128,0,163115:0:0:0:0:
320,192,163115,128,0,163197:0:0:0:0:
192,192,163197,1,0,0:0:0:0:
64,192,163197,1,0,0:0:0:0:
448,192,163197,1,0,0:0:0:0:
320,192,163361,1,0,0:0:0:0:
64,192,163361,1,0,0:0:0:0:
448,192,163525,1,0,0:0:0:0:
192,192,163525,1,0,0:0:0:0:
64,192,163607,1,0,0:0:0:0:
448,192,163689,128,0,164099:0:0:0:0:
320,192,163689,128,0,163853:0:0:0:0:
64,192,163853,1,0,0:0:0:0:
192,192,163853,1,0,0:0:0:0:
64,192,164017,128,0,164099:0:0:0:0:
320,192,164017,1,0,0:0:0:0:
448,192,164181,1,0,0:0:0:0:
320,192,164181,128,0,164263:0:0:0:0:
192,192,164181,128,0,164345:0:0:0:0:
320,192,164345,1,0,0:0:0:0:
64,192,164345,1,0,0:0:0:0:
192,192,164427,128,0,164509:0:0:0:0:
448,192,164509,128,0,164591:0:0:0:0:
320,192,164591,128,0,164673:0:0:0:0:
192,192,164673,128,0,164755:0:0:0:0:
64,192,164673,128,0,165001:0:0:0:0:
448,192,164673,128,0,164919:0:0:0:0:
192,192,164837,128,0,164919:0:0:0:0:
320,192,164837,128,0,164919:0:0:0:0:
320,192,165001,128,0,165083:0:0:0:0:
448,192,165001,128,0,165083:0:0:0:0:
64,192,165165,128,0,165410:0:0:0:0:
448,192,165165,128,0,165492:0:0:0:0:
192,192,165165,1,0,0:0:0:0:
192,192,165328,128,0,165410:0:0:0:0:
320,192,165328,128,0,165410:0:0:0:0:
64,192,165492,128,0,165574:0:0:0:0:
320,192,165492,128,0,165574:0:0:0:0:
448,192,165656,128,0,165902:0:0:0:0:
192,192,165656,128,0,165738:0:0:0:0:
320,192,165738,128,0,165902:0:0:0:0:
64,192,165820,128,0,165984:0:0:0:0:
320,192,165984,128,0,166066:0:0:0:0:
448,192,165984,1,0,0:0:0:0:
448,192,166148,1,0,0:0:0:0:
64,192,166148,128,0,166230:0:0:0:0:
192,192,166148,128,0,166394:0:0:0:0:
320,192,166230,128,0,166312:0:0:0:0:
64,192,166312,128,0,166476:0:0:0:0:
448,192,166476,1,0,0:0:0:0:
320,192,166476,128,0,166558:0:0:0:0:
448,192,166640,128,0,166886:0:0:0:0:
192,192,166640,128,0,166968:0:0:0:0:
64,192,166804,128,0,166886:0:0:0:0:
320,192,166804,128,0,166886:0:0:0:0:
448,192,166968,128,0,167050:0:0:0:0:
320,192,166968,128,0,167050:0:0:0:0:
448,192,167132,128,0,167460:0:0:0:0:
64,192,167132,128,0,167378:0:0:0:0:
192,192,167132,1,0,0:0:0:0:
320,192,167296,128,0,167378:0:0:0:0:
192,192,167296,128,0,167378:0:0:0:0:
64,192,167460,128,0,167542:0:0:0:0:
320,192,167460,128,0,167706:0:0:0:0:
448,192,167624,128,0,167706:0:0:0:0:
192,192,167624,128,0,167869:0:0:0:0:
320,192,167788,128,0,167869:0:0:0:0:
448,192,167788,128,0,167869:0:0:0:0:
64,192,167869,1,0,0:0:0:0:
192,192,167951,128,0,168033:0:0:0:0:
320,192,167951,128,0,168197:0:0:0:0:
64,192,168115,128,0,168443:0:0:0:0:
192,192,168115,128,0,168525:0:0:0:0:
448,192,168115,128,0,168197:0:0:0:0:
448,192,168443,128,0,168525:0:0:0:0:
320,192,168525,128,0,168689:0:0:0:0:
448,192,168607,128,0,168935:0:0:0:0:
64,192,168607,128,0,168853:0:0:0:0:
320,192,168771,128,0,168853:0:0:0:0:
192,192,168771,128,0,168853:0:0:0:0:
192,192,168935,128,0,169017:0:0:0:0:
64,192,168935,128,0,169017:0:0:0:0:
448,192,169099,128,0,169345:0:0:0:0:
64,192,169099,128,0,169427:0:0:0:0:
320,192,169099,1,0,0:0:0:0:
320,192,169263,128,0,169345:0:0:0:0:
192,192,169263,128,0,169345:0:0:0:0:
448,192,169427,128,0,169509:0:0:0:0:
192,192,169427,128,0,169509:0:0:0:0:
64,192,169591,128,0,169837:0:0:0:0:
320,192,169591,128,0,169755:0:0:0:0:
192,192,169673,128,0,169755:0:0:0:0:
448,192,169755,128,0,169919:0:0:0:0:
192,192,169919,128,0,170001:0:0:0:0:
64,192,169919,1,0,0:0:0:0:
448,192,170083,128,0,170165:0:0:0:0:
64,192,170083,1,0,0:0:0:0:
320,192,170083,128,0,170328:0:0:0:0:
192,192,170165,128,0,170247:0:0:0:0:
448,192,170247,128,0,170410:0:0:0:0:
192,192,170410,128,0,170492:0:0:0:0:
64,192,170410,1,0,0:0:0:0:
64,192,170574,128,0,170820:0:0:0:0:
320,192,170574,128,0,170902:0:0:0:0:
448,192,170738,128,0,170820:0:0:0:0:
192,192,170738,128,0,170820:0:0:0:0:
64,192,170902,128,0,170984:0:0:0:0:
192,192,170902,128,0,170984:0:0:0:0:
64,192,171066,128,0,171394:0:0:0:0:
448,192,171066,128,0,171312:0:0:0:0:
320,192,171066,1,0,0:0:0:0:
192,192,171230,128,0,171312:0:0:0:0:
320,192,171230,128,0,171312:0:0:0:0:
448,192,171394,128,0,171476:0:0:0:0:
192,192,171394,128,0,171476:0:0:0:0:
320,192,171558,128,0,171640:0:0:0:0:
64,192,171558,128,0,171804:0:0:0:0:
320,192,171722,128,0,171804:0:0:0:0:
192,192,171722,128,0,171804:0:0:0:0:
448,192,171804,1,0,0:0:0:0:
192,192,171886,128,0,171968:0:0:0:0:
64,192,171886,128,0,171968:0:0:0:0:
64,192,172050,1,0,0:0:0:0:
320,192,172050,128,0,172296:0:0:0:0:
448,192,172050,128,0,172296:0:0:0:0:
192,192,172214,1,0,0:0:0:0:
64,192,172214,1,0,0:0:0:0:
448,192,172378,1,0,0:0:0:0:
320,192,172378,128,0,172460:0:0:0:0:
64,192,172460,1,0,0:0:0:0:
192,192,172542,128,0,172788:0:0:0:0:
448,192,172542,128,0,172869:0:0:0:0:
64,192,172706,128,0,172788:0:0:0:0:
320,192,172706,128,0,172788:0:0:0:0:
192,192,172869,128,0,172951:0:0:0:0:
320,192,172869,128,0,172951:0:0:0:0:
64,192,173033,128,0,173361:0:0:0:0:
448,192,173033,128,0,173279:0:0:0:0:
320,192,173197,128,0,173279:0:0:0:0:
192,192,173197,128,0,173279:0:0:0:0:
448,192,173361,128,0,173443:0:0:0:0:
320,192,173361,128,0,173443:0:0:0:0:
448,192,173525,128,0,173771:0:0:0:0:
192,192,173525,128,0,173689:0:0:0:0:
320,192,173607,128,0,173771:0:0:0:0:
64,192,173689,128,0,173853:0:0:0:0:
448,192,173853,1,0,0:0:0:0:
320,192,173853,128,0,173935:0:0:0:0:
192,192,174017,128,0,174181:0:0:0:0:
64,192,174017,128,0,174099:0:0:0:0:
448,192,174017,1,0,0:0:0:0:
320,192,174099,128,0,174263:0:0:0:0:
64,192,174181,128,0,174427:0:0:0:0:
192,192,174263,128,0,174345:0:0:0:0:
448,192,174345,1,0,0:0:0:0:
320,192,174345,128,0,174427:0:0:0:0:
448,192,174509,128,0,174673:0:0:0:0:
192,192,174509,128,0,174755:0:0:0:0:
320,192,174591,128,0,174755:0:0:0:0:
64,192,174673,128,0,174755:0:0:0:0:
448,192,174755,128,0,174837:0:0:0:0:
192,192,174837,128,0,174919:0:0:0:0:
320,192,174837,128,0,174919:0:0:0:0:
448,192,175001,128,0,175328:0:0:0:0:
64,192,175001,128,0,175247:0:0:0:0:
192,192,175001,1,0,0:0:0:0:
320,192,175165,128,0,175247:0:0:0:0:
192,192,175165,128,0,175247:0:0:0:0:
64,192,175328,128,0,175410:0:0:0:0:
320,192,175328,128,0,175410:0:0:0:0:
448,192,175492,128,0,175574:0:0:0:0:
192,192,175492,128,0,175738:0:0:0:0:
448,192,175656,128,0,175738:0:0:0:0:
320,192,175656,128,0,175738:0:0:0:0:
64,192,175738,1,0,0:0:0:0:
192,192,175820,128,0,175902:0:0:0:0:
320,192,175820,128,0,175902:0:0:0:0:
64,192,175984,128,0,176230:0:0:0:0:
192,192,175984,128,0,176230:0:0:0:0:
320,192,175984,128,0,176230:0:0:0:0:
448,192,175984,128,0,176230:0:0:0:0:
320,192,176312,128,0,176394:0:0:0:0:
64,192,176476,128,0,176722:0:0:0:0:
192,192,176558,128,0,176640:0:0:0:0:
448,192,176640,128,0,176804:0:0:0:0:
320,192,176722,128,0,176886:0:0:0:0:
192,192,176968,128,0,177214:0:0:0:0:
64,192,177050,128,0,177132:0:0:0:0:
320,192,177132,128,0,177214:0:0:0:0:
448,192,177214,128,0,177296:0:0:0:0:
64,192,177460,128,0,177542:0:0:0:0:
320,192,177460,128,0,177706:0:0:0:0:
192,192,177542,128,0,177706:0:0:0:0:
448,192,177624,128,0,177788:0:0:0:0:
64,192,177706,128,0,177788:0:0:0:0:
320,192,177788,128,0,177869:0:0:0:0:
192,192,177951,128,0,178033:0:0:0:0:
448,192,177951,128,0,178197:0:0:0:0:
64,192,178033,128,0,178197:0:0:0:0:
320,192,178115,128,0,178279:0:0:0:0:
192,192,178197,128,0,178279:0:0:0:0:
448,192,178279,128,0,178361:0:0:0:0:
64,192,178361,128,0,178443:0:0:0:0:
320,192,178443,128,0,178935:0:0:0:0:
192,192,178525,128,0,178853:0:0:0:0:
64,192,178607,128,0,178771:0:0:0:0:
448,192,178689,128,0,179017:0:0:0:0:
