osu file format v14

[General]
AudioFilename: audio.ogg
AudioLeadIn: 0
PreviewTime: 114478
Countdown: 0
SampleSet: None
StackLeniency: 0.7
Mode: 3
LetterboxInBreaks: 0
SpecialStyle: 0
WidescreenStoryboard: 1

[Editor]
DistanceSpacing: 1.8
BeatDivisor: 3
GridSize: 4
TimelineZoom: 1.5

[Metadata]
Title:I AM
TitleUnicode:I AM
Artist:IVE
ArtistUnicode:아이브
Creator:fvrex
Version:Mono's Normal
Source:
Tags:starship entertainment 스타쉽엔터테인먼트 iam i've i have yujin 유진 gaeul 가을 rei 레이 wonyoung 원영 liz 리즈 leeseo 이서 kim i na 김이나 ryan jhun 라이언 전 Kristin Marie Audun Agnar Eline Noelia Myreng kpop k-pop korean pop xtrippin slowpoke104 monoseul scisso ucitysm indoroid tigerinity
BeatmapID:4273258
BeatmapSetID:1972938

[Difficulty]
HPDrainRate:7
CircleSize:4
OverallDifficulty:7
ApproachRate:5
SliderMultiplier:1.4
SliderTickRate:1

[Events]
//Background and Video events
0,0,"bg.jpg",0,0
//Break Periods
//Storyboard Layer 0 (Background)
//Storyboard Layer 1 (Fail)
//Storyboard Layer 2 (Pass)
//Storyboard Layer 3 (Foreground)
//Storyboard Layer 4 (Overlay)
//Storyboard Sound Samples

[TimingPoints]
1394.55961243246,491.803278688525,4,2,1,70,1,0
52542,-100,4,2,1,70,0,1
68279,-100,4,2,1,70,0,0
115492,-100,4,2,1,70,0,1
131230,-100,4,2,1,70,0,0
152869,-100,4,2,1,70,0,1
164181,-100,4,2,1,70,0,0
164673,-100,4,2,1,70,0,1
176476,-100,4,2,1,70,0,0

[HitObjects]
320,192,1394,5,0,0:0:0:0:
448,192,1394,128,0,1886:0:0:0:0:
64,192,1886,1,0,0:0:0:0:
64,192,2378,1,0,0:0:0:0:
64,192,2869,1,0,0:0:0:0:
448,192,3361,128,0,3853:0:0:0:0:
320,192,3361,128,0,3607:0:0:0:0:
64,192,3853,128,0,4345:0:0:0:0:
192,192,3853,128,0,4099:0:0:0:0:
320,192,4345,128,0,4837:0:0:0:0:
192,192,4345,128,0,4591:0:0:0:0:
64,192,4837,128,0,5328:0:0:0:0:
448,192,4837,128,0,5083:0:0:0:0:
448,192,5328,1,0,0:0:0:0:
320,192,5328,1,0,0:0:0:0:
448,192,5656,1,0,0:0:0:0:
192,192,5984,1,0,0:0:0:0:
64,192,6148,1,0,0:0:0:0:
320,192,6312,1,0,0:0:0:0:
64,192,6476,1,0,0:0:0:0:
192,192,6640,1,0,0:0:0:0:
448,192,6804,128,0,7296:0:0:0:0:
64,192,7296,1,0,0:0:0:0:
192,192,7296,1,0,0:0:0:0:
64,192,7624,1,0,0:0:0:0:
448,192,7951,1,0,0:0:0:0:
320,192,8115,1,0,0:0:0:0:
64,192,8279,1,0,0:0:0:0:
192,192,8443,1,0,0:0:0:0:
64,192,8607,1,0,0:0:0:0:
448,192,8771,1,0,0:0:0:0:
192,192,9099,1,0,0:0:0:0:
320,192,9263,1,0,0:0:0:0:
64,192,9263,1,0,0:0:0:0:
320,192,9591,1,0,0:0:0:0:
192,192,10083,1,0,0:0:0:0:
448,192,10247,1,0,0:0:0:0:
320,192,10410,1,0,0:0:0:0:
64,192,10574,1,0,0:0:0:0:
192,192,10738,128,0,11066:0:0:0:0:
320,192,11066,1,0,0:0:0:0:
64,192,11230,1,0,0:0:0:0:
448,192,11230,1,0,0:0:0:0:
64,192,11558,1,0,0:0:0:0:
320,192,11722,128,0,11968:0:0:0:0:
64,192,12214,1,0,0:0:0:0:
192,192,12214,128,0,12542:0:0:0:0:
448,192,12542,128,0,12869:0:0:0:0:
64,192,12869,128,0,13197:0:0:0:0:
192,192,13197,1,0,0:0:0:0:
320,192,13197,1,0,0:0:0:0:
320,192,13525,1,0,0:0:0:0:
64,192,13853,1,0,0:0:0:0:
448,192,14017,1,0,0:0:0:0:
64,192,14181,1,0,0:0:0:0:
320,192,14345,1,0,0:0:0:0:
448,192,14509,1,0,0:0:0:0:
64,192,14673,128,0,15165:0:0:0:0:
192,192,14673,128,0,14919:0:0:0:0:
320,192,15165,1,0,0:0:0:0:
448,192,15165,1,0,0:0:0:0:
448,192,15492,1,0,0:0:0:0:
192,192,15820,1,0,0:0:0:0:
64,192,15984,1,0,0:0:0:0:
320,192,16148,1,0,0:0:0:0:
192,192,16312,1,0,0:0:0:0:
448,192,16476,1,0,0:0:0:0:
64,192,16640,128,0,16968:0:0:0:0:
320,192,16968,1,0,0:0:0:0:
64,192,17132,1,0,0:0:0:0:
192,192,17132,1,0,0:0:0:0:
64,192,17460,1,0,0:0:0:0:
320,192,17788,1,0,0:0:0:0:
64,192,17951,1,0,0:0:0:0:
320,192,18115,1,0,0:0:0:0:
448,192,18279,1,0,0:0:0:0:
192,192,18443,1,0,0:0:0:0:
448,192,18607,128,0,19099:0:0:0:0:
320,192,18607,128,0,18853:0:0:0:0:
64,192,19099,1,0,0:0:0:0:
192,192,19263,1,0,0:0:0:0:
64,192,19427,1,0,0:0:0:0:
320,192,19591,128,0,20083:0:0:0:0:
448,192,20083,1,0,0:0:0:0:
192,192,20410,1,0,0:0:0:0:
64,192,20574,1,0,0:0:0:0:
448,192,20574,1,0,0:0:0:0:
320,192,20738,1,0,0:0:0:0:
64,192,21066,128,0,21558:0:0:0:0:
192,192,21066,128,0,21312:0:0:0:0:
320,192,21558,1,0,0:0:0:0:
448,192,21558,1,0,0:0:0:0:
192,192,21722,1,0,0:0:0:0:
64,192,21886,1,0,0:0:0:0:
448,192,22050,128,0,22542:0:0:0:0:
64,192,22542,1,0,0:0:0:0:
192,192,22542,1,0,0:0:0:0:
320,192,22706,1,0,0:0:0:0:
448,192,22869,1,0,0:0:0:0:
192,192,23033,128,0,23525:0:0:0:0:
64,192,23525,1,0,0:0:0:0:
448,192,23525,1,0,0:0:0:0:
320,192,23853,1,0,0:0:0:0:
64,192,24017,1,0,0:0:0:0:
192,192,24181,1,0,0:0:0:0:
320,192,24345,1,0,0:0:0:0:
64,192,24509,1,0,0:0:0:0:
448,192,24509,128,0,24673:0:0:0:0:
448,192,25001,128,0,25328:0:0:0:0:
64,192,25328,1,0,0:0:0:0:
192,192,25492,1,0,0:0:0:0:
320,192,25492,1,0,0:0:0:0:
448,192,25656,1,0,0:0:0:0:
64,192,25984,128,0,26312:0:0:0:0:
448,192,26312,1,0,0:0:0:0:
320,192,26476,1,0,0:0:0:0:
192,192,26476,1,0,0:0:0:0:
64,192,26640,1,0,0:0:0:0:
192,192,26968,128,0,27214:0:0:0:0:
320,192,26968,128,0,27460:0:0:0:0:
64,192,27460,1,0,0:0:0:0:
448,192,27460,1,0,0:0:0:0:
320,192,27951,1,0,0:0:0:0:
64,192,28279,1,0,0:0:0:0:
448,192,28443,1,0,0:0:0:0:
320,192,28443,1,0,0:0:0:0:
192,192,28607,1,0,0:0:0:0:
448,192,28935,128,0,29427:0:0:0:0:
320,192,28935,128,0,29181:0:0:0:0:
192,192,29427,1,0,0:0:0:0:
64,192,29427,1,0,0:0:0:0:
320,192,29591,1,0,0:0:0:0:
448,192,29755,1,0,0:0:0:0:
64,192,29919,128,0,30410:0:0:0:0:
448,192,30410,1,0,0:0:0:0:
320,192,30410,1,0,0:0:0:0:
192,192,30574,1,0,0:0:0:0:
64,192,30738,1,0,0:0:0:0:
320,192,30902,128,0,31394:0:0:0:0:
448,192,31394,1,0,0:0:0:0:
64,192,31394,1,0,0:0:0:0:
192,192,31558,1,0,0:0:0:0:
320,192,31722,1,0,0:0:0:0:
64,192,31886,128,0,32050:0:0:0:0:
448,192,32378,1,0,0:0:0:0:
320,192,32378,1,0,0:0:0:0:
64,192,32869,128,0,33197:0:0:0:0:
448,192,33197,1,0,0:0:0:0:
320,192,33361,1,0,0:0:0:0:
192,192,33361,1,0,0:0:0:0:
64,192,33525,1,0,0:0:0:0:
448,192,33853,128,0,34181:0:0:0:0:
64,192,34181,1,0,0:0:0:0:
192,192,34345,1,0,0:0:0:0:
320,192,34345,1,0,0:0:0:0:
448,192,34509,1,0,0:0:0:0:
192,192,34837,128,0,35083:0:0:0:0:
320,192,34837,128,0,35083:0:0:0:0:
448,192,35328,1,0,0:0:0:0:
64,192,35328,1,0,0:0:0:0:
320,192,35820,1,0,0:0:0:0:
192,192,36312,1,0,0:0:0:0:
64,192,36804,128,0,36968:0:0:0:0:
64,192,37296,128,0,37460:0:0:0:0:
448,192,37788,128,0,38115:0:0:0:0:
320,192,38115,1,0,0:0:0:0:
64,192,38279,128,0,38607:0:0:0:0:
192,192,38607,1,0,0:0:0:0:
320,192,38771,128,0,38935:0:0:0:0:
320,192,39263,128,0,39427:0:0:0:0:
320,192,39755,128,0,39919:0:0:0:0:
64,192,40247,128,0,40574:0:0:0:0:
192,192,40574,1,0,0:0:0:0:
448,192,40738,128,0,40902:0:0:0:0:
448,192,41230,128,0,41394:0:0:0:0:
448,192,41722,128,0,42050:0:0:0:0:
64,192,42050,1,0,0:0:0:0:
192,192,42214,128,0,42542:0:0:0:0:
448,192,42542,1,0,0:0:0:0:
64,192,42706,128,0,42869:0:0:0:0:
64,192,43197,128,0,43689:0:0:0:0:
448,192,43689,128,0,43853:0:0:0:0:
192,192,44181,128,0,44509:0:0:0:0:
64,192,44509,1,0,0:0:0:0:
448,192,44673,1,0,0:0:0:0:
320,192,44673,128,0,44837:0:0:0:0:
320,192,45165,128,0,45656:0:0:0:0:
448,192,45656,128,0,46148:0:0:0:0:
192,192,45984,128,0,46148:0:0:0:0:
64,192,46148,128,0,46640:0:0:0:0:
320,192,46476,128,0,46640:0:0:0:0:
192,192,46640,128,0,46804:0:0:0:0:
192,192,47132,128,0,47296:0:0:0:0:
192,192,47624,128,0,47951:0:0:0:0:
320,192,47951,1,0,0:0:0:0:
64,192,48115,1,0,0:0:0:0:
448,192,48115,1,0,0:0:0:0:
192,192,48443,1,0,0:0:0:0:
320,192,48607,128,0,49345:0:0:0:0:
448,192,49099,128,0,49345:0:0:0:0:
64,192,49591,128,0,50574:0:0:0:0:
448,192,50083,128,0,50574:0:0:0:0:
320,192,50574,128,0,51312:0:0:0:0:
192,192,50574,128,0,51312:0:0:0:0:
448,192,51558,128,0,52296:0:0:0:0:
64,192,52050,128,0,52296:0:0:0:0:
448,192,52542,128,0,52788:0:0:0:0:
64,192,52542,128,0,53033:0:0:0:0:
448,192,53033,128,0,53279:0:0:0:0:
320,192,53033,1,0,0:0:0:0:
192,192,53525,128,0,54017:0:0:0:0:
64,192,53853,128,0,54017:0:0:0:0:
320,192,54017,128,0,54509:0:0:0:0:
448,192,54017,1,0,0:0:0:0:
192,192,54345,128,0,54509:0:0:0:0:
448,192,54509,128,0,55001:0:0:0:0:
64,192,54509,128,0,54755:0:0:0:0:
192,192,55001,1,0,0:0:0:0:
64,192,55001,128,0,55247:0:0:0:0:
64,192,55492,128,0,55738:0:0:0:0:
448,192,55984,128,0,56476:0:0:0:0:
192,192,55984,1,0,0:0:0:0:
192,192,56312,128,0,56476:0:0:0:0:
320,192,56476,128,0,56722:0:0:0:0:
64,192,56476,128,0,56968:0:0:0:0:
448,192,56968,1,0,0:0:0:0:
320,192,56968,128,0,57214:0:0:0:0:
320,192,57460,128,0,57951:0:0:0:0:
448,192,57788,128,0,57951:0:0:0:0:
64,192,57951,1,0,0:0:0:0:
192,192,57951,128,0,58443:0:0:0:0:
320,192,58279,128,0,58443:0:0:0:0:
448,192,58443,128,0,58935:0:0:0:0:
64,192,58443,128,0,58689:0:0:0:0:
192,192,58935,1,0,0:0:0:0:
64,192,58935,128,0,59181:0:0:0:0:
64,192,59427,128,0,59673:0:0:0:0:
448,192,59919,128,0,60083:0:0:0:0:
320,192,59919,128,0,60247:0:0:0:0:
192,192,60247,1,0,0:0:0:0:
64,192,60410,128,0,60656:0:0:0:0:
448,192,60410,128,0,60902:0:0:0:0:
192,192,60902,1,0,0:0:0:0:
64,192,60902,128,0,61148:0:0:0:0:
448,192,61394,128,0,61886:0:0:0:0:
192,192,61722,128,0,61886:0:0:0:0:
320,192,61886,1,0,0:0:0:0:
64,192,61886,128,0,62378:0:0:0:0:
320,192,62214,128,0,62378:0:0:0:0:
448,192,62378,128,0,62869:0:0:0:0:
192,192,62378,128,0,62624:0:0:0:0:
64,192,62869,1,0,0:0:0:0:
192,192,62869,128,0,63115:0:0:0:0:
320,192,63361,128,0,63853:0:0:0:0:
192,192,63361,128,0,63853:0:0:0:0:
448,192,63853,1,0,0:0:0:0:
64,192,63853,1,0,0:0:0:0:
320,192,64181,1,0,0:0:0:0:
64,192,64345,128,0,65083:0:0:0:0:
192,192,64345,128,0,64591:0:0:0:0:
320,192,64837,128,0,65083:0:0:0:0:
448,192,64837,1,0,0:0:0:0:
448,192,65328,128,0,66066:0:0:0:0:
64,192,65328,128,0,65574:0:0:0:0:
320,192,65820,128,0,66066:0:0:0:0:
192,192,65820,1,0,0:0:0:0:
448,192,66312,1,0,0:0:0:0:
64,192,66476,1,0,0:0:0:0:
192,192,66640,1,0,0:0:0:0:
448,192,66804,1,0,0:0:0:0:
320,192,66804,1,0,0:0:0:0:
448,192,67132,128,0,67296:0:0:0:0:
192,192,67296,1,0,0:0:0:0:
64,192,67460,1,0,0:0:0:0:
320,192,67624,1,0,0:0:0:0:
64,192,67788,1,0,0:0:0:0:
448,192,67788,1,0,0:0:0:0:
320,192,68115,128,0,68279:0:0:0:0:
448,192,68279,1,0,0:0:0:0:
192,192,68443,1,0,0:0:0:0:
64,192,68607,1,0,0:0:0:0:
320,192,68771,1,0,0:0:0:0:
448,192,68771,1,0,0:0:0:0:
192,192,68935,1,0,0:0:0:0:
64,192,69099,1,0,0:0:0:0:
448,192,69263,1,0,0:0:0:0:
192,192,69427,1,0,0:0:0:0:
320,192,69591,1,0,0:0:0:0:
448,192,69755,1,0,0:0:0:0:
64,192,69755,1,0,0:0:0:0:
64,192,70247,1,0,0:0:0:0:
320,192,70410,1,0,0:0:0:0:
64,192,70574,1,0,0:0:0:0:
320,192,70738,1,0,0:0:0:0:
448,192,70738,1,0,0:0:0:0:
192,192,70902,1,0,0:0:0:0:
448,192,71066,1,0,0:0:0:0:
64,192,71230,1,0,0:0:0:0:
320,192,71394,1,0,0:0:0:0:
192,192,71558,1,0,0:0:0:0:
64,192,71722,1,0,0:0:0:0:
448,192,71722,1,0,0:0:0:0:
320,192,72214,1,0,0:0:0:0:
64,192,72378,1,0,0:0:0:0:
448,192,72542,1,0,0:0:0:0:
192,192,72706,1,0,0:0:0:0:
320,192,72706,1,0,0:0:0:0:
64,192,72869,1,0,0:0:0:0:
320,192,73033,1,0,0:0:0:0:
448,192,73197,1,0,0:0:0:0:
192,192,73361,1,0,0:0:0:0:
320,192,73525,1,0,0:0:0:0:
64,192,73689,128,0,74181:0:0:0:0:
192,192,73689,128,0,73935:0:0:0:0:
448,192,74181,128,0,74427:0:0:0:0:
448,192,74673,128,0,74919:0:0:0:0:
64,192,74673,1,0,0:0:0:0:
320,192,75165,128,0,75656:0:0:0:0:
192,192,75492,128,0,75656:0:0:0:0:
64,192,75656,1,0,0:0:0:0:
448,192,75656,1,0,0:0:0:0:
64,192,75984,128,0,76148:0:0:0:0:
192,192,76148,1,0,0:0:0:0:
448,192,76312,1,0,0:0:0:0:
320,192,76476,1,0,0:0:0:0:
64,192,76640,128,0,77132:0:0:0:0:
320,192,76968,128,0,77132:0:0:0:0:
448,192,77132,1,0,0:0:0:0:
192,192,77132,1,0,0:0:0:0:
448,192,77378,128,0,78115:0:0:0:0:
192,192,77624,128,0,78115:0:0:0:0:
320,192,78115,1,0,0:0:0:0:
64,192,78279,1,0,0:0:0:0:
192,192,78443,1,0,0:0:0:0:
448,192,78607,128,0,79099:0:0:0:0:
192,192,78935,128,0,79099:0:0:0:0:
64,192,79099,1,0,0:0:0:0:
320,192,79099,1,0,0:0:0:0:
64,192,79345,128,0,79919:0:0:0:0:
320,192,79591,128,0,79919:0:0:0:0:
448,192,79919,128,0,80083:0:0:0:0:
64,192,80083,1,0,0:0:0:0:
192,192,80247,1,0,0:0:0:0:
448,192,80410,1,0,0:0:0:0:
64,192,80574,128,0,80738:0:0:0:0:
448,192,81066,1,0,0:0:0:0:
192,192,81066,1,0,0:0:0:0:
320,192,81230,1,0,0:0:0:0:
64,192,81394,1,0,0:0:0:0:
448,192,81558,128,0,81722:0:0:0:0:
192,192,82050,128,0,82296:0:0:0:0:
64,192,82050,128,0,82542:0:0:0:0:
320,192,82542,128,0,82788:0:0:0:0:
448,192,82542,128,0,83033:0:0:0:0:
320,192,83033,128,0,83279:0:0:0:0:
192,192,83033,128,0,83525:0:0:0:0:
448,192,83525,128,0,84017:0:0:0:0:
64,192,83525,128,0,83853:0:0:0:0:
320,192,83853,128,0,84017:0:0:0:0:
192,192,84017,128,0,84263:0:0:0:0:
64,192,84017,128,0,84509:0:0:0:0:
448,192,84509,1,0,0:0:0:0:
320,192,84509,1,0,0:0:0:0:
192,192,84673,1,0,0:0:0:0:
64,192,84837,1,0,0:0:0:0:
448,192,85001,128,0,85492:0:0:0:0:
192,192,85492,1,0,0:0:0:0:
64,192,85492,1,0,0:0:0:0:
320,192,85656,1,0,0:0:0:0:
448,192,85820,1,0,0:0:0:0:
192,192,85984,128,0,86476:0:0:0:0:
448,192,86476,1,0,0:0:0:0:
64,192,86476,1,0,0:0:0:0:
320,192,86804,1,0,0:0:0:0:
64,192,86968,1,0,0:0:0:0:
192,192,87132,1,0,0:0:0:0:
320,192,87296,1,0,0:0:0:0:
448,192,87460,128,0,87624:0:0:0:0:
64,192,87460,1,0,0:0:0:0:
448,192,87951,128,0,88279:0:0:0:0:
64,192,88279,1,0,0:0:0:0:
192,192,88443,1,0,0:0:0:0:
320,192,88443,1,0,0:0:0:0:
448,192,88607,1,0,0:0:0:0:
64,192,88935,128,0,89263:0:0:0:0:
448,192,89263,1,0,0:0:0:0:
320,192,89427,1,0,0:0:0:0:
192,192,89427,1,0,0:0:0:0:
64,192,89591,1,0,0:0:0:0:
192,192,89919,128,0,90165:0:0:0:0:
320,192,89919,128,0,90410:0:0:0:0:
448,192,90410,1,0,0:0:0:0:
64,192,90410,1,0,0:0:0:0:
320,192,90902,1,0,0:0:0:0:
64,192,91230,1,0,0:0:0:0:
448,192,91394,1,0,0:0:0:0:
320,192,91394,1,0,0:0:0:0:
192,192,91558,1,0,0:0:0:0:
320,192,91886,128,0,92132:0:0:0:0:
448,192,91886,128,0,92378:0:0:0:0:
64,192,92378,1,0,0:0:0:0:
192,192,92378,1,0,0:0:0:0:
320,192,92542,1,0,0:0:0:0:
448,192,92706,1,0,0:0:0:0:
64,192,92869,128,0,93361:0:0:0:0:
320,192,93361,1,0,0:0:0:0:
448,192,93361,1,0,0:0:0:0:
192,192,93525,1,0,0:0:0:0:
64,192,93689,1,0,0:0:0:0:
320,192,93853,128,0,94345:0:0:0:0:
64,192,94345,1,0,0:0:0:0:
448,192,94345,1,0,0:0:0:0:
192,192,94509,1,0,0:0:0:0:
320,192,94673,1,0,0:0:0:0:
64,192,94837,128,0,95001:0:0:0:0:
320,192,95328,1,0,0:0:0:0:
448,192,95328,1,0,0:0:0:0:
64,192,95820,128,0,96148:0:0:0:0:
448,192,96148,1,0,0:0:0:0:
320,192,96312,1,0,0:0:0:0:
192,192,96312,1,0,0:0:0:0:
64,192,96476,1,0,0:0:0:0:
448,192,96804,128,0,97132:0:0:0:0:
64,192,97132,1,0,0:0:0:0:
192,192,97296,1,0,0:0:0:0:
320,192,97296,1,0,0:0:0:0:
448,192,97460,1,0,0:0:0:0:
192,192,97788,128,0,98033:0:0:0:0:
320,192,97788,128,0,98033:0:0:0:0:
64,192,98279,1,0,0:0:0:0:
448,192,98279,1,0,0:0:0:0:
320,192,98771,1,0,0:0:0:0:
192,192,99263,1,0,0:0:0:0:
64,192,99755,128,0,99919:0:0:0:0:
64,192,100247,128,0,100410:0:0:0:0:
448,192,100738,128,0,101066:0:0:0:0:
320,192,101066,1,0,0:0:0:0:
64,192,101230,128,0,101558:0:0:0:0:
192,192,101558,1,0,0:0:0:0:
320,192,101722,128,0,101886:0:0:0:0:
320,192,102214,128,0,102378:0:0:0:0:
320,192,102706,128,0,102869:0:0:0:0:
64,192,103197,128,0,103525:0:0:0:0:
192,192,103525,1,0,0:0:0:0:
448,192,103689,128,0,103853:0:0:0:0:
448,192,104181,128,0,104345:0:0:0:0:
448,192,104673,128,0,105001:0:0:0:0:
64,192,105001,1,0,0:0:0:0:
192,192,105165,128,0,105492:0:0:0:0:
448,192,105492,1,0,0:0:0:0:
64,192,105656,128,0,105820:0:0:0:0:
64,192,106148,128,0,106640:0:0:0:0:
448,192,106640,128,0,106886:0:0:0:0:
192,192,107132,128,0,107460:0:0:0:0:
64,192,107460,1,0,0:0:0:0:
448,192,107624,1,0,0:0:0:0:
320,192,107624,128,0,107788:0:0:0:0:
320,192,108115,128,0,108607:0:0:0:0:
448,192,108607,128,0,109099:0:0:0:0:
192,192,108935,128,0,109099:0:0:0:0:
64,192,109099,128,0,109591:0:0:0:0:
320,192,109427,128,0,109591:0:0:0:0:
192,192,109591,128,0,109755:0:0:0:0:
192,192,110083,128,0,110247:0:0:0:0:
192,192,110574,128,0,110902:0:0:0:0:
320,192,110902,1,0,0:0:0:0:
64,192,111066,1,0,0:0:0:0:
448,192,111066,1,0,0:0:0:0:
192,192,111394,1,0,0:0:0:0:
320,192,111558,128,0,112296:0:0:0:0:
448,192,112050,128,0,112296:0:0:0:0:
64,192,112542,128,0,113525:0:0:0:0:
448,192,113033,128,0,113525:0:0:0:0:
320,192,113525,128,0,114263:0:0:0:0:
192,192,113525,128,0,114263:0:0:0:0:
64,192,114509,128,0,115247:0:0:0:0:
448,192,115001,128,0,115247:0:0:0:0:
448,192,115492,128,0,115984:0:0:0:0:
64,192,115492,128,0,115738:0:0:0:0:
192,192,115984,1,0,0:0:0:0:
64,192,115984,128,0,116230:0:0:0:0:
320,192,116476,128,0,116968:0:0:0:0:
448,192,116804,128,0,116968:0:0:0:0:
64,192,116968,1,0,0:0:0:0:
192,192,116968,128,0,117460:0:0:0:0:
320,192,117296,128,0,117460:0:0:0:0:
448,192,117460,128,0,117706:0:0:0:0:
64,192,117460,128,0,117951:0:0:0:0:
448,192,117951,128,0,118197:0:0:0:0:
320,192,117951,1,0,0:0:0:0:
448,192,118443,128,0,118689:0:0:0:0:
64,192,118935,128,0,119427:0:0:0:0:
320,192,118935,1,0,0:0:0:0:
320,192,119263,128,0,119427:0:0:0:0:
448,192,119427,128,0,119919:0:0:0:0:
192,192,119427,128,0,119673:0:0:0:0:
192,192,119919,128,0,120165:0:0:0:0:
64,192,119919,1,0,0:0:0:0:
192,192,120410,128,0,120902:0:0:0:0:
64,192,120738,128,0,120902:0:0:0:0:
320,192,120902,128,0,121394:0:0:0:0:
448,192,120902,1,0,0:0:0:0:
192,192,121230,128,0,121394:0:0:0:0:
448,192,121394,128,0,121640:0:0:0:0:
64,192,121394,128,0,121886:0:0:0:0:
448,192,121886,128,0,122132:0:0:0:0:
320,192,121886,1,0,0:0:0:0:
448,192,122378,128,0,122624:0:0:0:0:
192,192,122869,128,0,123197:0:0:0:0:
64,192,122869,128,0,123033:0:0:0:0:
320,192,123197,1,0,0:0:0:0:
64,192,123361,128,0,123853:0:0:0:0:
448,192,123361,128,0,123607:0:0:0:0:
448,192,123853,128,0,124099:0:0:0:0:
320,192,123853,1,0,0:0:0:0:
64,192,124345,128,0,124837:0:0:0:0:
320,192,124673,128,0,124837:0:0:0:0:
448,192,124837,128,0,125328:0:0:0:0:
192,192,124837,1,0,0:0:0:0:
192,192,125165,128,0,125328:0:0:0:0:
320,192,125328,128,0,125574:0:0:0:0:
64,192,125328,128,0,125820:0:0:0:0:
320,192,125820,128,0,126066:0:0:0:0:
448,192,125820,1,0,0:0:0:0:
320,192,126312,128,0,126804:0:0:0:0:
192,192,126312,128,0,126804:0:0:0:0:
448,192,126804,1,0,0:0:0:0:
64,192,126804,1,0,0:0:0:0:
192,192,127132,1,0,0:0:0:0:
448,192,127296,128,0,128033:0:0:0:0:
320,192,127296,128,0,127542:0:0:0:0:
64,192,127788,1,0,0:0:0:0:
192,192,127788,128,0,128033:0:0:0:0:
448,192,128279,128,0,128525:0:0:0:0:
64,192,128279,128,0,129017:0:0:0:0:
320,192,128771,1,0,0:0:0:0:
192,192,128771,128,0,129017:0:0:0:0:
64,192,129263,1,0,0:0:0:0:
448,192,129427,1,0,0:0:0:0:
320,192,129591,1,0,0:0:0:0:
192,192,129755,1,0,0:0:0:0:
64,192,129755,1,0,0:0:0:0:
64,192,130083,128,0,130247:0:0:0:0:
320,192,130247,1,0,0:0:0:0:
448,192,130410,1,0,0:0:0:0:
192,192,130574,1,0,0:0:0:0:
64,192,130738,128,0,131066:0:0:0:0:
448,192,130738,128,0,130902:0:0:0:0:
192,192,131066,1,0,0:0:0:0:
448,192,131230,128,0,132214:0:0:0:0:
320,192,131230,1,0,0:0:0:0:
64,192,131722,1,0,0:0:0:0:
320,192,132214,1,0,0:0:0:0:
192,192,132706,128,0,133197:0:0:0:0:
64,192,133197,128,0,134181:0:0:0:0:
448,192,133197,1,0,0:0:0:0:
192,192,133689,1,0,0:0:0:0:
448,192,134181,1,0,0:0:0:0:
320,192,134673,128,0,135001:0:0:0:0:
448,192,135001,1,0,0:0:0:0:
192,192,135165,128,0,136148:0:0:0:0:
64,192,135165,1,0,0:0:0:0:
448,192,135656,1,0,0:0:0:0:
64,192,136148,1,0,0:0:0:0:
64,192,136640,128,0,137132:0:0:0:0:
320,192,137132,128,0,138115:0:0:0:0:
448,192,137132,1,0,0:0:0:0:
64,192,137624,1,0,0:0:0:0:
448,192,138115,1,0,0:0:0:0:
192,192,138443,1,0,0:0:0:0:
64,192,138607,128,0,138935:0:0:0:0:
448,192,138935,1,0,0:0:0:0:
64,192,139099,128,0,141066:0:0:0:0:
192,192,139099,128,0,139591:0:0:0:0:
320,192,139591,1,0,0:0:0:0:
448,192,140083,1,0,0:0:0:0:
320,192,140574,1,0,0:0:0:0:
448,192,141066,128,0,143033:0:0:0:0:
192,192,141066,128,0,141558:0:0:0:0:
64,192,141558,1,0,0:0:0:0:
320,192,142050,1,0,0:0:0:0:
64,192,142542,1,0,0:0:0:0:
64,192,143033,1,0,0:0:0:0:
320,192,143033,1,0,0:0:0:0:
192,192,143361,1,0,0:0:0:0:
320,192,143689,1,0,0:0:0:0:
64,192,144017,1,0,0:0:0:0:
448,192,144017,1,0,0:0:0:0:
192,192,144345,1,0,0:0:0:0:
320,192,144673,1,0,0:0:0:0:
64,192,145001,128,0,145328:0:0:0:0:
448,192,145001,1,0,0:0:0:0:
192,192,145328,128,0,145656:0:0:0:0:
320,192,145656,128,0,145984:0:0:0:0:
448,192,145984,128,0,148607:0:0:0:0:
64,192,145984,1,0,0:0:0:0:
320,192,146312,128,0,148607:0:0:0:0:
64,192,146968,1,0,0:0:0:0:
192,192,146968,1,0,0:0:0:0:
64,192,148935,5,0,0:0:0:0:
64,192,149427,1,0,0:0:0:0:
64,192,149919,128,0,150247:0:0:0:0:
320,192,150247,1,0,0:0:0:0:
64,192,150410,128,0,150738:0:0:0:0:
448,192,150738,1,0,0:0:0:0:
320,192,150902,1,0,0:0:0:0:
64,192,151394,1,0,0:0:0:0:
320,192,151722,1,0,0:0:0:0:
64,192,151886,1,0,0:0:0:0:
192,192,151886,1,0,0:0:0:0:
448,192,152050,1,0,0:0:0:0:
64,192,152214,128,0,152706:0:0:0:0:
448,192,152378,128,0,152706:0:0:0:0:
192,192,152706,1,0,0:0:0:0:
320,192,152869,128,0,153115:0:0:0:0:
64,192,152869,128,0,153361:0:0:0:0:
320,192,153361,128,0,153607:0:0:0:0:
448,192,153361,1,0,0:0:0:0:
320,192,153853,128,0,154345:0:0:0:0:
448,192,154181,128,0,154345:0:0:0:0:
64,192,154345,1,0,0:0:0:0:
192,192,154345,128,0,154837:0:0:0:0:
320,192,154673,128,0,154837:0:0:0:0:
448,192,154837,128,0,155328:0:0:0:0:
64,192,154837,128,0,155328:0:0:0:0:
320,192,155328,1,0,0:0:0:0:
192,192,155328,128,0,155574:0:0:0:0:
192,192,155820,128,0,156148:0:0:0:0:
64,192,156148,1,0,0:0:0:0:
448,192,156312,128,0,156476:0:0:0:0:
320,192,156312,128,0,156640:0:0:0:0:
192,192,156640,1,0,0:0:0:0:
64,192,156804,128,0,157050:0:0:0:0:
448,192,156804,128,0,157296:0:0:0:0:
192,192,157296,1,0,0:0:0:0:
64,192,157296,128,0,157542:0:0:0:0:
448,192,157788,128,0,158279:0:0:0:0:
192,192,158115,128,0,158279:0:0:0:0:
320,192,158279,1,0,0:0:0:0:
64,192,158279,128,0,158771:0:0:0:0:
320,192,158607,128,0,158771:0:0:0:0:
448,192,158771,128,0,159263:0:0:0:0:
192,192,158771,128,0,159017:0:0:0:0:
64,192,159263,1,0,0:0:0:0:
192,192,159263,128,0,159509:0:0:0:0:
320,192,159755,128,0,160001:0:0:0:0:
192,192,159755,128,0,160247:0:0:0:0:
64,192,160247,128,0,160492:0:0:0:0:
448,192,160247,128,0,160492:0:0:0:0:
64,192,160738,128,0,161476:0:0:0:0:
192,192,160738,128,0,160984:0:0:0:0:
320,192,161230,128,0,161476:0:0:0:0:
448,192,161230,1,0,0:0:0:0:
448,192,161722,128,0,162460:0:0:0:0:
64,192,161722,128,0,161968:0:0:0:0:
320,192,162214,128,0,162460:0:0:0:0:
192,192,162214,1,0,0:0:0:0:
320,192,162706,1,0,0:0:0:0:
64,192,162869,1,0,0:0:0:0:
192,192,163033,1,0,0:0:0:0:
448,192,163197,1,0,0:0:0:0:
448,192,163525,128,0,163689:0:0:0:0:
192,192,163689,128,0,164673:0:0:0:0:
320,192,164181,128,0,164673:0:0:0:0:
64,192,164673,128,0,165165:0:0:0:0:
448,192,164673,128,0,164919:0:0:0:0:
320,192,165165,1,0,0:0:0:0:
448,192,165165,128,0,165410:0:0:0:0:
192,192,165656,128,0,166148:0:0:0:0:
64,192,165984,128,0,166148:0:0:0:0:
448,192,166148,1,0,0:0:0:0:
320,192,166148,128,0,166640:0:0:0:0:
192,192,166476,128,0,166640:0:0:0:0:
64,192,166640,128,0,166886:0:0:0:0:
448,192,166640,128,0,167132:0:0:0:0:
64,192,167132,128,0,167378:0:0:0:0:
192,192,167132,1,0,0:0:0:0:
64,192,167624,128,0,167869:0:0:0:0:
448,192,168115,128,0,168607:0:0:0:0:
192,192,168115,1,0,0:0:0:0:
192,192,168443,128,0,168607:0:0:0:0:
64,192,168607,128,0,169099:0:0:0:0:
320,192,168607,128,0,168853:0:0:0:0:
320,192,169099,128,0,169345:0:0:0:0:
448,192,169099,1,0,0:0:0:0:
320,192,169591,128,0,170083:0:0:0:0:
448,192,169919,128,0,170083:0:0:0:0:
192,192,170083,128,0,170574:0:0:0:0:
64,192,170083,1,0,0:0:0:0:
320,192,170410,128,0,170574:0:0:0:0:
64,192,170574,128,0,170820:0:0:0:0:
448,192,170574,128,0,171066:0:0:0:0:
64,192,171066,128,0,171312:0:0:0:0:
192,192,171066,1,0,0:0:0:0:
64,192,171558,128,0,171804:0:0:0:0:
320,192,172050,128,0,172378:0:0:0:0:
448,192,172050,128,0,172214:0:0:0:0:
192,192,172378,1,0,0:0:0:0:
448,192,172542,128,0,173033:0:0:0:0:
64,192,172542,128,0,172788:0:0:0:0:
64,192,173033,128,0,173279:0:0:0:0:
192,192,173033,1,0,0:0:0:0:
448,192,173525,128,0,174017:0:0:0:0:
192,192,173853,128,0,174017:0:0:0:0:
64,192,174017,128,0,174509:0:0:0:0:
320,192,174017,1,0,0:0:0:0:
320,192,174345,128,0,174509:0:0:0:0:
192,192,174509,128,0,174755:0:0:0:0:
448,192,174509,128,0,175001:0:0:0:0:
192,192,175001,128,0,175247:0:0:0:0:
64,192,175001,1,0,0:0:0:0:
192,192,175492,128,0,175984:0:0:0:0:
320,192,175492,128,0,175984:0:0:0:0:
64,192,175984,1,0,0:0:0:0:
448,192,175984,1,0,0:0:0:0:
320,192,176312,1,0,0:0:0:0:
64,192,176476,128,0,177214:0:0:0:0:
320,192,176968,128,0,177214:0:0:0:0:
448,192,177460,128,0,178443:0:0:0:0:
64,192,177951,128,0,178443:0:0:0:0:
192,192,178443,128,0,178935:0:0:0:0:
320,192,178443,128,0,178935:0:0:0:0:
