osu file format v14

[General]
AudioFilename: audio.ogg
AudioLeadIn: 0
PreviewTime: 49608
Countdown: 0
SampleSet: Soft
StackLeniency: 0.7
Mode: 3
LetterboxInBreaks: 0
SpecialStyle: 0
WidescreenStoryboard: 1

[Editor]
DistanceSpacing: 1
BeatDivisor: 6
GridSize: 32
TimelineZoom: 2.699999

[Metadata]
Title:Baddie
TitleUnicode:Baddie
Artist:IVE
ArtistUnicode:아이브
Creator:Ilham
Version:Insane
Source:
Tags:Slowpoke104 Chrisse Ainer KinoHimari IZ*ONE IZONE I'VE MINE 스타쉽엔터테인먼트 Starship Entertainment BIG Naughty 서동현 Seo Donghyun Perrie 라이언 전 Ryan Jhun Christopher Fin Dow Smith Lauren Aquilina Starsmith RISC 안유진 An Yujin 김가을 Kim Gaeul 나오이 레이 直井れい Naoi Rei 장원영 Jang Wonyoung 김지원 리즈 Kim Jiwon Liz 이현서 이서 Lee Hyunseo Leeseo Korean Pop K-Pop Kpop
BeatmapID:4348567
BeatmapSetID:2074009

[Difficulty]
HPDrainRate:8
CircleSize:4
OverallDifficulty:7.7
ApproachRate:5
SliderMultiplier:1.4
SliderTickRate:1

[Events]
//Background and Video events
0,0,"bg.jpg",0,0
//Break Periods
//Storyboard Layer 0 (Background)
//Storyboard Layer 1 (Fail)
//Storyboard Layer 2 (Pass)
//Storyboard Layer 3 (Foreground)
//Storyboard Layer 4 (Overlay)
//Storyboard Sound Samples
Sample,85748,0,"snare.wav",25
Sample,85936,0,"snare.wav",25

[TimingPoints]
530,375.0,4,2,1,50,1,0
50030,-100.0,4,2,1,50,0,1
62030,-100.0,4,2,1,50,0,0
92030,-100.0,4,2,1,50,0,1
114530,-100.0,4,2,1,50,0,0

[HitObjects]
192,192,530,1,2,0:0:0:0:
448,192,530,1,0,0:0:0:0:
320,192,717,1,2,0:0:0:0:
448,192,717,1,0,0:0:0:0:
64,192,905,1,2,0:0:0:0:
320,192,905,1,0,0:0:0:0:
64,192,1092,1,2,0:0:0:0:
192,192,1092,1,0,0:0:0:0:
192,192,1280,1,2,0:0:0:0:
448,192,1280,1,0,0:0:0:0:
320,192,1467,1,2,0:0:0:0:
448,192,1467,1,0,0:0:0:0:
64,192,1655,128,0,1842:0:0:0:0:
448,192,1842,128,0,2030:0:0:0:0:
64,192,2030,128,0,2311:0:0:0:50:bass.wav
192,192,2030,1,0,0:0:0:0:
448,192,2217,128,0,2311:0:0:0:0:
192,192,2405,1,0,0:0:0:0:
192,192,2592,1,0,0:0:0:50:bass.wav
448,192,2592,1,0,0:0:0:0:
64,192,2780,128,8,3061:0:0:0:100:clap.wav
320,192,2780,1,0,0:0:0:0:
448,192,2780,1,0,0:0:0:0:
192,192,2967,128,0,3061:0:0:0:0:
64,192,3155,1,0,0:0:0:50:bass.wav
192,192,3155,128,0,3436:0:0:0:0:
320,192,3342,128,0,3436:0:0:0:0:
448,192,3530,128,0,3717:0:0:0:0:
64,192,3717,128,0,3905:0:0:0:0:
192,192,3905,128,0,4092:0:0:0:50:bass.wav
448,192,3905,1,0,0:0:0:0:
320,192,4092,128,0,4280:0:0:0:0:
64,192,4280,128,8,4467:0:0:0:100:clap.wav
192,192,4280,1,0,0:0:0:0:
448,192,4280,1,0,0:0:0:0:
320,192,4467,1,2,0:0:0:0:
448,192,4467,1,0,0:0:0:0:
64,192,4655,128,0,4936:0:0:0:0:
448,192,4842,128,0,4936:0:0:0:0:
64,192,5030,1,0,0:0:0:50:bass.wav
448,192,5030,128,0,5311:0:0:0:0:
320,192,5217,128,0,5311:0:0:0:0:
192,192,5405,128,0,5592:0:0:0:0:
320,192,5592,128,0,5780:0:0:0:50:bass.wav
448,192,5592,1,0,0:0:0:0:
64,192,5780,128,8,5967:0:0:0:100:clap.wav
192,192,5780,1,0,0:0:0:0:
448,192,5780,1,0,0:0:0:0:
320,192,5967,128,0,6155:0:0:0:0:
192,192,6155,1,0,0:0:0:50:bass.wav
448,192,6155,128,0,6342:0:0:0:0:
64,192,6342,128,0,6530:0:0:0:0:
320,192,6530,1,0,0:0:0:0:
448,192,6530,128,0,6717:0:0:0:0:
192,192,6717,128,0,6905:0:0:0:0:
320,192,6905,1,2,0:0:0:0:
448,192,6905,1,0,0:0:0:0:
320,192,7092,1,2,0:0:0:0:
448,192,7092,1,0,0:0:0:50:bass.wav
64,192,7280,1,8,0:0:0:100:clap.wav
192,192,7280,1,0,0:0:0:0:
448,192,7280,128,0,7467:0:0:0:0:
64,192,7467,1,2,0:0:0:0:
192,192,7467,1,0,0:0:0:0:
192,192,7655,1,0,0:0:0:0:
448,192,7655,128,0,7936:0:0:0:0:
320,192,7748,1,0,0:0:0:0:
64,192,7842,1,0,0:0:0:0:
64,192,8030,1,0,0:0:0:50:bass.wav
448,192,8030,128,0,8311:0:0:0:0:
192,192,8217,128,0,8311:0:0:0:0:
320,192,8405,1,4,0:0:0:0:
448,192,8405,1,0,0:0:0:0:
64,192,8592,1,0,0:0:0:50:bass.wav
320,192,8592,1,0,0:0:0:0:
64,192,8780,1,8,0:0:0:100:clap.wav
192,192,8780,1,0,0:0:0:0:
448,192,8780,128,0,9061:0:0:0:0:
320,192,8967,128,0,9061:0:0:0:0:
320,192,9155,1,0,0:0:0:50:bass.wav
448,192,9155,128,0,9436:0:0:0:0:
192,192,9342,128,0,9436:0:0:0:0:
192,192,9530,128,0,9717:0:0:0:0:
448,192,9717,128,0,9905:0:0:0:0:
64,192,9905,128,4,10092:0:0:0:0:
192,192,9905,1,0,0:0:0:50:bass.wav
320,192,9905,1,0,0:0:0:0:
448,192,10092,128,0,10280:0:0:0:0:
64,192,10280,1,8,0:0:0:100:clap.wav
192,192,10280,1,0,0:0:0:0:
320,192,10280,128,0,10467:0:0:0:0:
192,192,10467,128,2,10655:0:0:0:0:
448,192,10467,1,0,0:0:0:0:
448,192,10655,128,0,10842:0:0:0:0:
64,192,10842,128,0,11030:0:0:0:0:
320,192,11030,1,0,0:0:0:50:bass.wav
448,192,11030,128,0,11311:0:0:0:0:
64,192,11217,128,0,11311:0:0:0:0:
64,192,11405,128,4,11592:0:0:0:0:
320,192,11405,1,0,0:0:0:0:
192,192,11592,128,0,11780:0:0:0:50:bass.wav
448,192,11592,1,0,0:0:0:0:
64,192,11780,1,8,0:0:0:100:clap.wav
320,192,11780,1,0,0:0:0:0:
448,192,11780,128,0,11967:0:0:0:0:
192,192,11967,128,0,12155:0:0:0:0:
320,192,12155,128,0,12342:0:0:0:50:bass.wav
448,192,12155,1,0,0:0:0:0:
64,192,12342,128,0,12530:0:0:0:0:
192,192,12530,1,0,0:0:0:0:
448,192,12530,128,0,12717:0:0:0:0:
320,192,12717,128,0,12905:0:0:0:0:
64,192,12905,1,2,0:0:0:0:
192,192,12905,1,4,0:0:0:0:
64,192,13092,1,2,0:0:0:0:
192,192,13092,1,0,0:0:0:50:bass.wav
64,192,13280,128,8,13467:0:0:0:100:clap.wav
320,192,13280,1,0,0:0:0:0:
448,192,13280,1,0,0:0:0:0:
320,192,13467,1,2,0:0:0:0:
448,192,13467,1,0,0:0:0:0:
64,192,13655,128,0,13936:0:0:0:0:
320,192,13655,1,0,0:0:0:0:
192,192,13748,1,0,0:0:0:0:
448,192,13842,1,0,0:0:0:0:
64,192,14030,1,0,0:0:0:50:bass.wav
448,192,14030,128,0,14780:0:0:0:0:
320,192,14217,1,0,0:0:0:0:
320,192,14405,1,0,0:0:0:0:
64,192,14592,1,0,0:0:0:50:bass.wav
192,192,14592,1,0,0:0:0:0:
64,192,14780,1,8,0:0:0:0:
320,192,14780,1,0,0:0:0:0:
192,192,14967,1,0,0:0:0:0:
320,192,15155,1,0,0:0:0:50:bass.wav
448,192,15155,128,0,15905:0:0:0:0:
64,192,15342,1,0,0:0:0:0:
64,192,15530,1,0,0:0:0:0:
320,192,15717,1,0,0:0:0:0:
64,192,15905,128,0,16280:0:0:0:50:bass.wav
192,192,15905,1,0,0:0:0:0:
320,192,16092,1,0,0:0:0:0:
320,192,16280,1,8,0:0:0:0:
448,192,16280,128,0,16655:0:0:0:0:
64,192,16467,128,2,16655:0:0:0:0:
192,192,16467,1,0,0:0:0:0:
320,192,16655,128,0,17030:0:0:0:0:
64,192,17030,128,0,17405:0:0:0:50:bass.wav
192,192,17030,1,0,0:0:0:0:
448,192,17217,1,0,0:0:0:0:
448,192,17405,1,0,0:0:0:0:
64,192,17592,128,0,17780:0:0:0:50:bass.wav
320,192,17592,1,0,0:0:0:0:
192,192,17780,1,8,0:0:0:0:
320,192,17780,1,0,0:0:0:0:
448,192,17967,1,0,0:0:0:0:
64,192,18155,128,0,18905:0:0:0:50:bass.wav
192,192,18155,1,0,0:0:0:0:
320,192,18342,1,0,0:0:0:0:
320,192,18530,1,0,0:0:0:0:
192,192,18717,1,0,0:0:0:0:
320,192,18905,1,2,0:0:0:0:
448,192,18905,128,0,19092:0:0:0:0:
64,192,19092,1,2,0:0:0:0:
192,192,19092,1,0,0:0:0:50:bass.wav
64,192,19280,1,8,0:0:0:0:
448,192,19280,128,0,19467:0:0:0:0:
192,192,19467,1,2,0:0:0:0:
320,192,19467,1,0,0:0:0:0:
64,192,19655,1,0,0:0:0:0:
448,192,19655,128,0,20030:0:0:0:0:
320,192,19748,1,0,0:0:0:0:
192,192,19842,1,0,0:0:0:0:
64,192,20030,128,0,20780:0:0:0:50:bass.wav
192,192,20030,1,0,0:0:0:0:
320,192,20217,1,0,0:0:0:0:
320,192,20405,1,0,0:0:0:0:
192,192,20592,1,0,0:0:0:50:bass.wav
448,192,20592,1,0,0:0:0:0:
320,192,20780,1,8,0:0:0:0:
448,192,20780,1,0,0:0:0:0:
192,192,20967,1,0,0:0:0:0:
64,192,21155,128,0,21905:0:0:0:50:bass.wav
320,192,21155,1,0,0:0:0:0:
448,192,21342,1,0,0:0:0:0:
192,192,21530,1,0,0:0:0:0:
192,192,21717,1,0,0:0:0:0:
320,192,21905,128,0,22280:0:0:0:50:bass.wav
448,192,21905,1,0,0:0:0:0:
192,192,22092,1,0,0:0:0:0:
64,192,22280,128,8,22655:0:0:0:0:
448,192,22280,1,0,0:0:0:0:
192,192,22467,128,2,22655:0:0:0:0:
320,192,22467,1,0,0:0:0:0:
448,192,22655,128,0,23030:0:0:0:0:
64,192,23030,1,0,0:0:0:50:bass.wav
192,192,23030,128,0,23405:0:0:0:0:
320,192,23217,1,0,0:0:0:0:
320,192,23405,1,0,0:0:0:0:
192,192,23592,128,0,23780:0:0:0:50:bass.wav
448,192,23592,1,0,0:0:0:0:
64,192,23780,1,8,0:0:0:0:
320,192,23780,1,0,0:0:0:0:
448,192,23967,1,0,0:0:0:0:
64,192,24155,1,0,0:0:0:50:bass.wav
192,192,24155,128,0,24905:0:0:0:0:
320,192,24342,1,0,0:0:0:0:
448,192,24530,1,0,0:0:0:0:
64,192,24717,1,0,0:0:0:0:
320,192,24905,1,2,0:0:0:0:
448,192,24905,128,0,25092:0:0:0:0:
64,192,25092,1,2,0:0:0:0:
192,192,25092,1,0,0:0:0:50:bass.wav
64,192,25280,1,8,0:0:0:0:
448,192,25280,128,0,25467:0:0:0:0:
192,192,25373,1,0,0:0:0:0:
64,192,25467,1,2,0:0:0:0:
320,192,25467,1,0,0:0:0:0:
192,192,25655,128,0,26030:0:0:0:0:
448,192,25655,128,0,25748:0:0:0:0:
320,192,25748,128,0,26030:0:0:0:0:
64,192,26030,128,0,26780:0:0:0:50:bass.wav
448,192,26030,1,0,0:0:0:0:
448,192,26217,1,0,0:0:0:0:
320,192,26311,1,0,0:0:0:0:
192,192,26405,1,0,0:0:0:0:
320,192,26592,1,0,0:0:0:50:bass.wav
448,192,26592,1,0,0:0:0:0:
192,192,26780,1,8,0:0:0:0:
320,192,26780,1,0,0:0:0:0:
448,192,26780,1,0,0:0:0:0:
192,192,26967,128,0,27155:0:0:0:0:
64,192,27155,128,0,27905:0:0:0:50:bass.wav
448,192,27155,1,0,0:0:0:0:
320,192,27342,1,0,0:0:0:0:
192,192,27530,1,0,0:0:0:0:
448,192,27655,1,0,0:0:0:0:
192,192,27811,1,0,0:0:0:0:
320,192,27905,1,0,0:0:0:50:bass.wav
448,192,27905,1,0,0:0:0:0:
192,192,28092,1,0,0:0:0:0:
64,192,28280,1,8,0:0:0:0:
192,192,28280,1,0,0:0:0:0:
448,192,28280,1,0,0:0:0:0:
320,192,28467,128,2,28655:0:0:0:0:
448,192,28467,128,0,28655:0:0:0:0:
320,192,28842,128,0,29030:0:0:0:0:
64,192,29030,1,0,0:0:0:50:bass.wav
448,192,29030,128,0,29311:0:0:0:0:
192,192,29217,1,0,0:0:0:0:
320,192,29311,1,0,0:0:0:0:
64,192,29498,1,0,0:0:0:0:
320,192,29592,1,0,0:0:0:50:bass.wav
448,192,29592,128,0,29780:0:0:0:0:
64,192,29780,1,8,0:0:0:0:
192,192,29780,1,0,0:0:0:0:
320,192,29780,1,0,0:0:0:0:
192,192,29967,1,0,0:0:0:0:
64,192,30155,1,0,0:0:0:50:bass.wav
448,192,30155,128,0,30905:0:0:0:0:
192,192,30342,1,0,0:0:0:0:
320,192,30530,1,0,0:0:0:0:
64,192,30717,1,0,0:0:0:0:
320,192,30811,1,0,0:0:0:0:
64,192,30905,1,2,0:0:0:0:
192,192,30905,1,0,0:0:0:0:
320,192,31092,1,2,0:0:0:0:
448,192,31092,1,0,0:0:0:50:bass.wav
64,192,31280,1,8,0:0:0:0:
192,192,31280,1,0,0:0:0:0:
448,192,31280,1,0,0:0:0:0:
64,192,31467,1,2,0:0:0:0:
192,192,31467,1,0,0:0:0:0:
320,192,31655,1,0,0:0:0:0:
448,192,31655,1,0,0:0:0:0:
64,192,31780,1,0,0:0:0:0:
448,192,31905,1,0,0:0:0:0:
64,192,32030,128,0,32780:0:0:0:50:bass.wav
192,192,32030,1,0,0:0:0:0:
320,192,32217,1,0,0:0:0:0:
192,192,32405,1,0,0:0:0:0:
448,192,32530,1,0,0:0:0:0:
192,192,32655,1,0,0:0:0:0:
320,192,32780,1,8,0:0:0:0:
448,192,32780,1,0,0:0:0:0:
192,192,32967,1,0,0:0:0:0:
64,192,33155,1,0,0:0:0:50:bass.wav
448,192,33155,128,0,33905:0:0:0:0:
320,192,33280,1,0,0:0:0:0:
64,192,33405,1,0,0:0:0:0:
320,192,33530,1,0,0:0:0:0:
192,192,33717,1,0,0:0:0:0:
64,192,33905,1,0,0:0:0:50:bass.wav
320,192,33905,1,0,0:0:0:0:
192,192,34030,1,0,0:0:0:0:
448,192,34092,1,0,0:0:0:0:
64,192,34280,1,8,0:0:0:0:
448,192,34280,1,0,0:0:0:0:
64,192,34467,1,2,0:0:0:0:
320,192,34467,1,0,0:0:0:0:
448,192,34655,1,0,0:0:0:0:
192,192,34780,1,0,0:0:0:0:
448,192,34905,1,0,0:0:0:0:
64,192,35030,128,0,35405:0:0:0:50:bass.wav
192,192,35030,1,0,0:0:0:0:
320,192,35280,1,0,0:0:0:0:
448,192,35405,1,0,0:0:0:0:
192,192,35530,1,0,0:0:0:0:
320,192,35655,1,0,0:0:0:0:
64,192,35780,1,8,0:0:0:0:
192,192,35780,1,0,0:0:0:0:
448,192,35780,1,0,0:0:0:0:
64,192,35967,1,0,0:0:0:0:
448,192,36155,128,0,36530:0:0:0:50:bass.wav
192,192,36217,1,0,0:0:0:0:
320,192,36342,1,0,0:0:0:0:
64,192,36530,1,0,0:0:0:0:
320,192,36717,1,0,0:0:0:0:
192,192,36905,1,2,0:0:0:0:
448,192,36905,1,0,0:0:0:0:
64,192,37092,1,2,0:0:0:0:
192,192,37092,1,0,0:0:0:50:bass.wav
64,192,37280,1,8,0:0:0:0:
320,192,37280,1,0,0:0:0:0:
448,192,37280,1,0,0:0:0:0:
192,192,37373,1,0,0:0:0:0:
320,192,37467,1,2,0:0:0:0:
448,192,37467,1,0,0:0:0:0:
192,192,37655,1,0,0:0:0:0:
320,192,37701,1,0,0:0:0:0:
448,192,37748,1,0,0:0:0:0:
64,192,37842,1,0,0:0:0:0:
320,192,38030,128,0,38405:0:0:0:25:snare.wav
448,192,38030,1,0,0:0:0:0:
192,192,38405,1,0,0:0:0:25:snare.wav
448,192,38405,1,0,0:0:0:0:
192,192,38780,128,0,39155:0:0:0:25:snare.wav
320,192,38780,1,0,0:0:0:0:
64,192,39155,128,0,39530:0:0:0:25:snare.wav
320,192,39155,1,0,0:0:0:0:
192,192,39530,1,0,0:0:0:25:snare.wav
448,192,39530,128,0,39905:0:0:0:0:
192,192,39905,1,0,0:0:0:25:snare.wav
64,192,40280,1,0,0:0:0:25:snare.wav
320,192,40280,128,0,40655:0:0:0:0:
64,192,40655,1,0,0:0:0:25:snare.wav
448,192,40655,128,0,40842:0:0:0:0:
64,192,40842,1,0,0:0:0:25:snare.wav
192,192,40842,1,0,0:0:0:0:
320,192,40936,1,0,0:0:0:25:snare.wav
192,192,41030,128,0,41405:0:0:0:25:snare.wav
448,192,41030,1,0,0:0:0:0:
64,192,41405,128,0,42905:0:0:0:25:snare.wav
448,192,41405,1,0,0:0:0:0:
192,192,41780,1,0,0:0:0:25:snare.wav
320,192,41780,1,0,0:0:0:0:
320,192,42155,1,0,0:0:0:25:snare.wav
448,192,42155,1,0,0:0:0:0:
192,192,42530,1,0,0:0:0:25:snare.wav
320,192,42530,1,0,0:0:0:0:
320,192,42905,1,0,0:0:0:25:snare.wav
448,192,42905,1,0,0:0:0:0:
64,192,43280,1,0,0:0:0:25:snare.wav
320,192,43280,1,0,0:0:0:0:
64,192,43467,1,0,0:0:0:25:snare.wav
448,192,43467,1,0,0:0:0:0:
192,192,43655,1,0,0:0:0:25:snare.wav
448,192,43655,1,0,0:0:0:0:
192,192,43842,1,0,0:0:0:25:snare.wav
320,192,43842,1,0,0:0:0:0:
64,192,44030,128,0,44405:0:0:0:25:snare.wav
320,192,44030,1,0,0:0:0:0:
320,192,44405,1,0,0:0:0:25:snare.wav
192,192,44780,1,0,0:0:0:25:snare.wav
448,192,44780,128,0,45155:0:0:0:0:
192,192,45155,1,0,0:0:0:25:snare.wav
320,192,45155,128,0,45530:0:0:0:0:
64,192,45530,128,0,45905:0:0:0:25:snare.wav
448,192,45530,1,0,0:0:0:0:
192,192,45905,128,0,46280:0:0:0:25:snare.wav
448,192,45905,1,0,0:0:0:0:
320,192,46280,1,0,0:0:0:25:snare.wav
448,192,46280,128,0,46655:0:0:0:0:
64,192,46655,128,0,46842:0:0:0:25:snare.wav
320,192,46655,1,0,0:0:0:0:
192,192,46842,1,0,0:0:0:25:snare.wav
448,192,46842,1,0,0:0:0:0:
320,192,46936,1,0,0:0:0:25:snare.wav
64,192,47030,128,0,47217:0:0:0:25:snare.wav
192,192,47030,1,0,0:0:0:0:
448,192,47217,128,0,47405:0:0:0:0:
192,192,47405,1,0,0:0:0:25:snare.wav
320,192,47405,1,0,0:0:0:0:
64,192,47780,128,0,48155:0:0:0:25:snare.wav
448,192,47780,1,0,0:0:0:0:
320,192,48155,128,0,48530:0:0:0:25:snare.wav
448,192,48155,128,0,48530:0:0:0:0:
64,192,48530,1,2,0:0:0:0:
192,192,48530,1,0,0:0:0:0:
64,192,48717,1,2,0:0:0:0:
320,192,48717,1,0,0:0:0:0:
320,192,48905,1,2,0:0:0:0:
448,192,48905,1,0,0:0:0:0:
192,192,49092,1,2,0:0:0:0:
448,192,49092,1,0,0:0:0:0:
64,192,49280,1,2,0:0:0:0:
192,192,49280,1,0,0:0:0:0:
64,192,49467,1,2,0:0:0:0:
320,192,49467,1,0,0:0:0:0:
448,192,49655,128,0,49842:0:0:0:0:
192,192,49842,128,0,50030:0:0:0:0:
320,192,50030,1,0,0:0:0:50:bass.wav
448,192,50030,128,0,50311:0:0:0:0:
192,192,50217,128,0,50311:0:0:0:0:
448,192,50405,1,0,0:0:0:0:
64,192,50592,1,0,0:0:0:50:bass.wav
448,192,50592,1,0,0:0:0:0:
64,192,50780,1,8,0:0:0:100:clap.wav
192,192,50780,1,0,0:0:0:0:
448,192,50780,128,0,51061:0:0:0:0:
320,192,50967,128,0,51061:0:0:0:0:
320,192,51155,1,0,0:0:0:50:bass.wav
448,192,51155,128,0,51436:0:0:0:0:
64,192,51342,128,0,51436:0:0:0:0:
64,192,51530,128,0,51717:0:0:0:0:
448,192,51717,128,0,51905:0:0:0:0:
64,192,51905,1,0,0:0:0:50:bass.wav
320,192,51905,128,0,52092:0:0:0:0:
192,192,52092,128,0,52280:0:0:0:0:
64,192,52280,1,8,0:0:0:100:clap.wav
320,192,52280,1,0,0:0:0:0:
448,192,52280,128,0,52467:0:0:0:0:
64,192,52467,1,2,0:0:0:0:
192,192,52467,1,0,0:0:0:0:
448,192,52655,128,0,52936:0:0:0:0:
64,192,52842,128,0,52936:0:0:0:0:
64,192,53030,128,0,53311:0:0:0:50:bass.wav
448,192,53030,1,0,0:0:0:0:
192,192,53217,128,0,53311:0:0:0:0:
320,192,53405,128,0,53592:0:0:0:0:
64,192,53592,1,0,0:0:0:50:bass.wav
192,192,53592,128,0,53780:0:0:0:0:
64,192,53780,1,8,0:0:0:100:clap.wav
320,192,53780,1,0,0:0:0:0:
448,192,53780,128,0,53967:0:0:0:0:
192,192,53967,128,0,54155:0:0:0:0:
64,192,54155,128,0,54342:0:0:0:50:bass.wav
320,192,54155,1,0,0:0:0:0:
448,192,54342,128,0,54530:0:0:0:0:
64,192,54530,128,0,54717:0:0:0:0:
192,192,54530,1,0,0:0:0:0:
320,192,54717,128,0,54905:0:0:0:0:
64,192,54905,1,2,0:0:0:0:
192,192,54905,1,0,0:0:0:0:
64,192,55092,1,2,0:0:0:0:
192,192,55092,1,0,0:0:0:50:bass.wav
64,192,55280,128,8,55467:0:0:0:100:clap.wav
320,192,55280,1,0,0:0:0:0:
448,192,55280,1,0,0:0:0:0:
320,192,55467,1,2,0:0:0:0:
448,192,55467,1,0,0:0:0:0:
64,192,55655,128,0,55936:0:0:0:0:
320,192,55655,1,0,0:0:0:0:
192,192,55748,1,0,0:0:0:0:
448,192,55842,1,0,0:0:0:0:
64,192,56030,128,0,56311:0:0:0:50:bass.wav
448,192,56030,1,0,0:0:0:0:
320,192,56217,128,0,56311:0:0:0:0:
64,192,56405,1,4,0:0:0:0:
192,192,56405,1,0,0:0:0:0:
64,192,56592,1,0,0:0:0:50:bass.wav
448,192,56592,1,0,0:0:0:0:
64,192,56780,128,8,57061:0:0:0:100:clap.wav
320,192,56780,1,0,0:0:0:0:
448,192,56780,1,0,0:0:0:0:
192,192,56967,128,0,57061:0:0:0:0:
64,192,57155,128,0,57436:0:0:0:50:bass.wav
192,192,57155,1,0,0:0:0:0:
320,192,57342,128,0,57436:0:0:0:0:
320,192,57530,128,0,57717:0:0:0:0:
64,192,57717,128,0,57905:0:0:0:0:
192,192,57905,1,4,0:0:0:0:
320,192,57905,1,0,0:0:0:50:bass.wav
448,192,57905,128,0,58092:0:0:0:0:
64,192,58092,128,0,58280:0:0:0:0:
192,192,58280,128,8,58467:0:0:0:100:clap.wav
320,192,58280,1,0,0:0:0:0:
448,192,58280,1,0,0:0:0:0:
64,192,58467,1,2,0:0:0:0:
320,192,58467,128,0,58655:0:0:0:0:
64,192,58655,128,0,58842:0:0:0:0:
448,192,58842,128,0,59030:0:0:0:0:
64,192,59030,128,0,59311:0:0:0:50:bass.wav
192,192,59030,1,0,0:0:0:0:
448,192,59217,128,0,59311:0:0:0:0:
192,192,59405,1,4,0:0:0:0:
448,192,59405,128,0,59592:0:0:0:0:
64,192,59592,1,0,0:0:0:50:bass.wav
320,192,59592,128,0,59780:0:0:0:0:
64,192,59780,128,8,59967:0:0:0:100:clap.wav
192,192,59780,1,0,0:0:0:0:
448,192,59780,1,0,0:0:0:0:
320,192,59967,128,0,60155:0:0:0:0:
64,192,60155,1,0,0:0:0:50:bass.wav
192,192,60155,128,0,60342:0:0:0:0:
448,192,60342,128,0,60530:0:0:0:0:
64,192,60530,128,0,60717:0:0:0:0:
320,192,60530,1,0,0:0:0:0:
192,192,60717,128,0,60905:0:0:0:0:
320,192,60905,1,6,0:0:0:0:
448,192,60905,1,0,0:0:0:50:bass.wav
320,192,61092,1,0,0:0:0:50:bass.wav
64,192,61280,1,8,0:0:0:100:clap.wav
192,192,61280,1,0,0:0:0:0:
448,192,61280,128,0,61467:0:0:0:0:
64,192,61467,1,2,0:0:0:0:
192,192,61467,1,0,0:0:0:0:
192,192,61655,1,0,0:0:0:0:
448,192,61655,128,0,61936:0:0:0:0:
320,192,61748,1,0,0:0:0:0:
64,192,61842,1,0,0:0:0:0:
64,192,62030,128,0,62780:0:0:0:50:bass.wav
192,192,62030,1,0,0:0:0:0:
448,192,62030,128,0,62123:0:0:0:0:
320,192,62217,128,0,62311:0:0:0:0:
192,192,62311,128,0,62405:0:0:0:0:
448,192,62498,128,0,62592:0:0:0:0:
192,192,62592,1,0,0:0:0:50:bass.wav
320,192,62592,128,0,62686:0:0:0:0:
192,192,62780,1,8,0:0:0:100:clap.wav
320,192,62780,128,0,62873:0:0:0:0:
448,192,62780,128,0,62873:0:0:0:0:
64,192,62967,128,0,63155:0:0:0:0:
192,192,63061,128,0,63155:0:0:0:0:
320,192,63155,128,0,63530:0:0:0:50:bass.wav
448,192,63155,128,0,63717:0:0:0:0:
192,192,63342,128,0,63530:0:0:0:0:
64,192,63530,128,0,63717:0:0:0:0:
320,192,63717,1,0,0:0:0:0:
64,192,63905,128,0,64280:0:0:0:50:bass.wav
192,192,63905,128,0,64092:0:0:0:0:
320,192,64092,1,0,0:0:0:0:
192,192,64280,1,8,0:0:0:100:clap.wav
320,192,64280,1,0,0:0:0:0:
448,192,64280,128,0,64467:0:0:0:0:
64,192,64467,128,2,64936:0:0:0:0:
192,192,64467,1,0,0:0:0:0:
448,192,64655,128,0,64936:0:0:0:0:
64,192,65030,1,0,0:0:0:50:bass.wav
320,192,65030,1,0,0:0:0:0:
448,192,65030,128,0,65780:0:0:0:0:
192,192,65217,128,0,65311:0:0:0:0:
320,192,65311,128,0,65405:0:0:0:0:
64,192,65498,128,0,65592:0:0:0:0:
192,192,65592,128,0,65686:0:0:0:50:bass.wav
320,192,65592,1,0,0:0:0:0:
64,192,65780,128,8,65873:0:0:0:100:clap.wav
192,192,65780,128,0,65873:0:0:0:0:
320,192,65780,1,0,0:0:0:0:
448,192,65967,128,0,66155:0:0:0:0:
320,192,66061,128,0,66155:0:0:0:0:
64,192,66155,128,0,66530:0:0:0:50:bass.wav
192,192,66155,128,0,66717:0:0:0:0:
448,192,66342,128,0,66530:0:0:0:0:
320,192,66530,128,0,66717:0:0:0:0:
64,192,66717,1,0,0:0:0:0:
320,192,66905,1,2,0:0:0:0:
448,192,66905,128,0,67092:0:0:0:0:
64,192,67092,1,2,0:0:0:0:
192,192,67092,1,0,0:0:0:50:bass.wav
64,192,67280,1,8,0:0:0:100:clap.wav
320,192,67280,128,0,67467:0:0:0:0:
448,192,67280,1,0,0:0:0:0:
192,192,67467,128,2,67936:0:0:0:0:
448,192,67467,1,0,0:0:0:0:
64,192,67655,1,0,0:0:0:0:
320,192,67748,1,0,0:0:0:0:
448,192,67842,1,0,0:0:0:0:
64,192,68030,128,0,68780:0:0:0:50:bass.wav
192,192,68030,1,0,0:0:0:0:
448,192,68030,1,0,0:0:0:0:
320,192,68217,128,0,68311:0:0:0:0:
192,192,68311,128,0,68405:0:0:0:0:
448,192,68498,128,0,68592:0:0:0:0:
192,192,68592,1,0,0:0:0:50:bass.wav
320,192,68592,128,0,68686:0:0:0:0:
192,192,68780,1,8,0:0:0:100:clap.wav
320,192,68780,128,0,68873:0:0:0:0:
448,192,68780,128,0,68873:0:0:0:0:
64,192,68967,128,0,69155:0:0:0:0:
192,192,69061,128,0,69155:0:0:0:0:
320,192,69155,128,0,69530:0:0:0:50:bass.wav
448,192,69155,128,0,69717:0:0:0:0:
192,192,69342,128,0,69530:0:0:0:0:
64,192,69530,128,0,69717:0:0:0:0:
320,192,69717,1,0,0:0:0:0:
64,192,69905,128,0,70280:0:0:0:50:bass.wav
192,192,69905,128,0,70092:0:0:0:0:
320,192,70092,1,0,0:0:0:0:
192,192,70280,1,8,0:0:0:100:clap.wav
320,192,70280,1,0,0:0:0:0:
448,192,70280,128,0,70467:0:0:0:0:
64,192,70467,128,2,70936:0:0:0:0:
192,192,70467,1,0,0:0:0:0:
448,192,70655,128,0,70936:0:0:0:0:
64,192,71030,1,0,0:0:0:50:bass.wav
320,192,71030,1,0,0:0:0:0:
448,192,71030,128,0,71780:0:0:0:0:
192,192,71217,128,0,71311:0:0:0:0:
320,192,71311,128,0,71405:0:0:0:0:
64,192,71498,128,0,71592:0:0:0:0:
192,192,71592,128,0,71686:0:0:0:50:bass.wav
320,192,71592,1,0,0:0:0:0:
64,192,71780,128,8,71873:0:0:0:100:clap.wav
192,192,71780,128,0,71873:0:0:0:0:
320,192,71780,1,0,0:0:0:0:
448,192,71967,128,0,72155:0:0:0:0:
320,192,72061,128,0,72155:0:0:0:0:
64,192,72155,128,0,72530:0:0:0:50:bass.wav
192,192,72155,128,0,72717:0:0:0:0:
448,192,72342,128,0,72530:0:0:0:0:
320,192,72530,128,0,72717:0:0:0:0:
64,192,72717,1,0,0:0:0:0:
320,192,72905,1,2,0:0:0:0:
448,192,72905,128,0,73092:0:0:0:0:
64,192,73092,1,2,0:0:0:0:
192,192,73092,1,0,0:0:0:50:bass.wav
192,192,73280,1,8,0:0:0:100:clap.wav
320,192,73280,1,0,0:0:0:0:
448,192,73280,128,0,73467:0:0:0:0:
64,192,73467,128,2,73936:0:0:0:0:
320,192,73467,1,0,0:0:0:0:
192,192,73655,1,0,0:0:0:0:
320,192,73748,1,0,0:0:0:0:
448,192,73842,1,0,0:0:0:0:
64,192,74030,128,0,74780:0:0:0:50:bass.wav
448,192,74030,1,0,0:0:0:0:
320,192,74311,128,0,74498:0:0:0:0:
192,192,74592,1,0,0:0:0:50:bass.wav
448,192,74592,128,0,74780:0:0:0:0:
320,192,74780,128,0,74873:0:0:0:0:
192,192,74873,128,0,74967:0:0:0:0:
64,192,74967,128,0,75155:0:0:0:0:
448,192,75061,128,0,75155:0:0:0:0:
192,192,75155,1,0,0:0:0:50:bass.wav
320,192,75155,128,0,75530:0:0:0:0:
64,192,75342,128,0,75436:0:0:0:0:
64,192,75530,128,0,75717:0:0:0:0:
448,192,75530,1,0,0:0:0:0:
448,192,75811,128,0,76280:0:0:0:0:
192,192,75905,1,0,0:0:0:50:bass.wav
320,192,76092,128,0,76280:0:0:0:0:
64,192,76280,128,0,76373:0:0:0:0:
192,192,76373,128,0,76467:0:0:0:0:
320,192,76467,128,2,76655:0:0:0:0:
448,192,76467,1,0,0:0:0:0:
64,192,76655,128,0,76748:0:0:0:0:
192,192,76748,128,0,76842:0:0:0:0:
448,192,76842,128,0,77030:0:0:0:0:
64,192,77030,128,0,77405:0:0:0:50:bass.wav
320,192,77030,1,0,0:0:0:0:
192,192,77217,1,0,0:0:0:0:
448,192,77311,1,0,0:0:0:0:
320,192,77405,1,0,0:0:0:0:
64,192,77592,128,0,77780:0:0:0:50:bass.wav
448,192,77592,1,0,0:0:0:0:
192,192,77780,1,8,0:0:0:0:
320,192,77780,1,0,0:0:0:0:
448,192,77780,1,0,0:0:0:0:
64,192,77873,1,0,0:0:0:0:
448,192,77967,128,0,78155:0:0:0:0:
64,192,78155,128,0,78905:0:0:0:50:bass.wav
192,192,78155,1,0,0:0:0:0:
320,192,78342,128,0,78530:0:0:0:0:
448,192,78530,128,0,78717:0:0:0:0:
192,192,78717,1,0,0:0:0:0:
320,192,78811,1,0,0:0:0:0:
192,192,78905,1,2,0:0:0:0:
448,192,78905,1,0,0:0:0:0:
64,192,79092,1,2,0:0:0:0:
448,192,79092,1,0,0:0:0:50:bass.wav
64,192,79280,1,8,0:0:0:0:
192,192,79280,1,0,0:0:0:0:
320,192,79280,1,0,0:0:0:0:
448,192,79373,1,0,0:0:0:0:
192,192,79467,128,2,79655:0:0:0:0:
320,192,79655,1,0,0:0:0:0:
64,192,79748,1,0,0:0:0:0:
320,192,79842,1,0,0:0:0:0:
192,192,80030,1,0,0:0:0:50:bass.wav
448,192,80030,128,0,80780:0:0:0:0:
320,192,80217,1,0,0:0:0:0:
64,192,80311,1,0,0:0:0:0:
192,192,80405,1,0,0:0:0:0:
64,192,80592,1,0,0:0:0:50:bass.wav
320,192,80592,1,0,0:0:0:0:
64,192,80780,1,8,0:0:0:0:
192,192,80780,1,0,0:0:0:0:
320,192,80780,1,0,0:0:0:0:
448,192,80967,1,0,0:0:0:0:
320,192,81061,1,0,0:0:0:0:
64,192,81155,128,0,81342:0:0:0:50:bass.wav
192,192,81201,128,0,81342:0:0:0:0:
448,192,81342,128,0,81717:0:0:0:0:
64,192,81530,128,0,81717:0:0:0:0:
320,192,81717,1,0,0:0:0:0:
192,192,81811,1,0,0:0:0:0:
320,192,81905,1,0,0:0:0:50:bass.wav
448,192,81905,1,0,0:0:0:0:
64,192,82092,128,0,82280:0:0:0:0:
192,192,82280,1,8,0:0:0:0:
320,192,82280,1,0,0:0:0:0:
448,192,82280,128,0,82467:0:0:0:0:
64,192,82467,1,2,0:0:0:0:
320,192,82467,1,0,0:0:0:0:
192,192,82655,128,0,82936:0:0:0:0:
448,192,82655,128,0,82936:0:0:0:0:
64,192,83030,128,0,83405:0:0:0:50:bass.wav
448,192,83030,1,0,0:0:0:0:
320,192,83217,1,0,0:0:0:0:
192,192,83311,1,0,0:0:0:0:
448,192,83405,1,0,0:0:0:0:
64,192,83592,128,0,83780:0:0:0:50:bass.wav
320,192,83592,1,0,0:0:0:0:
192,192,83780,1,8,0:0:0:0:
320,192,83780,1,0,0:0:0:0:
448,192,83780,128,0,83967:0:0:0:0:
192,192,83967,1,0,0:0:0:0:
64,192,84155,1,0,0:0:0:50:bass.wav
448,192,84155,128,0,84530:0:0:0:0:
320,192,84342,1,0,0:0:0:0:
64,192,84530,1,2,0:0:0:0:
192,192,84530,1,0,0:0:0:0:
320,192,84717,1,2,0:0:0:0:
448,192,84717,1,0,0:0:0:0:
64,192,84811,1,2,0:0:0:0:
192,192,84811,1,0,0:0:0:0:
64,192,84998,1,2,0:0:0:0:
320,192,84998,1,0,0:0:0:0:
192,192,85092,1,2,0:0:0:0:
448,192,85092,1,0,0:0:0:50:bass.wav
64,192,85280,1,0,0:0:0:25:snare.wav
320,192,85280,1,0,0:0:0:0:
448,192,85280,1,0,0:0:0:0:
192,192,85467,1,0,0:0:0:25:snare.wav
320,192,85467,1,0,0:0:0:0:
64,192,85655,1,2,0:0:0:0:
448,192,85655,1,0,0:0:0:25:snare.wav
192,192,85748,1,2,0:0:0:0:
320,192,85842,1,2,0:0:0:0:
448,192,85842,1,0,0:0:0:25:snare.wav
192,192,85936,1,2,0:0:0:0:
64,192,86030,128,0,86592:0:0:0:25:snare.wav
448,192,86030,128,0,86405:0:0:0:0:
320,192,86405,1,0,0:0:0:25:snare.wav
192,192,86780,128,0,87061:0:0:0:25:snare.wav
320,192,86967,128,0,87155:0:0:0:0:
192,192,87155,1,0,0:0:0:25:snare.wav
64,192,87530,128,0,87905:0:0:0:25:snare.wav
448,192,87530,128,0,88092:0:0:0:0:
192,192,87905,1,0,0:0:0:25:snare.wav
320,192,88280,128,0,88561:0:0:0:25:snare.wav
192,192,88467,128,0,88655:0:0:0:0:
320,192,88655,1,0,0:0:0:25:snare.wav
64,192,88842,1,0,0:0:0:25:snare.wav
192,192,88936,1,0,0:0:0:25:snare.wav
320,192,89030,1,0,0:0:0:50:bass.wav
448,192,89030,128,0,89217:0:0:0:25:snare.wav
64,192,89217,128,0,89405:0:0:0:0:
320,192,89405,128,0,89592:0:0:0:25:snare.wav
64,192,89592,1,0,0:0:0:50:bass.wav
192,192,89592,128,0,89967:0:0:0:0:
448,192,89780,128,0,89967:0:0:0:25:snare.wav
320,192,89967,128,0,90342:0:0:0:0:
64,192,90155,1,0,0:0:0:50:bass.wav
192,192,90155,128,0,90342:0:0:0:25:snare.wav
448,192,90342,128,0,90530:0:0:0:0:
64,192,90530,1,2,0:0:0:0:
192,192,90530,128,0,90717:0:0:0:25:snare.wav
64,192,90717,128,2,90905:0:0:0:0:
320,192,90717,1,0,0:0:0:25:snare.wav
192,192,90905,1,2,0:0:0:0:
320,192,90905,128,0,91092:0:0:0:25:snare.wav
192,192,91092,128,2,91280:0:0:0:0:
448,192,91092,1,0,0:0:0:25:snare.wav
320,192,91280,1,2,0:0:0:0:
448,192,91280,128,0,91467:0:0:0:25:snare.wav
64,192,91467,1,0,0:0:0:0:
192,192,91655,128,0,91842:0:0:0:0:
320,192,91842,128,0,92030:0:0:0:0:
64,192,92030,128,0,92311:0:0:0:50:bass.wav
192,192,92030,1,0,0:0:0:0:
320,192,92217,128,0,92311:0:0:0:0:
64,192,92405,1,0,0:0:0:0:
64,192,92592,1,0,0:0:0:50:bass.wav
448,192,92592,1,0,0:0:0:0:
64,192,92780,128,8,93061:0:0:0:100:clap.wav
320,192,92780,1,0,0:0:0:0:
448,192,92780,1,0,0:0:0:0:
192,192,92967,128,0,93061:0:0:0:0:
64,192,93155,128,0,93436:0:0:0:50:bass.wav
192,192,93155,1,0,0:0:0:0:
448,192,93342,128,0,93436:0:0:0:0:
448,192,93530,128,0,93717:0:0:0:0:
64,192,93717,128,0,93905:0:0:0:0:
192,192,93905,128,0,94092:0:0:0:50:bass.wav
448,192,93905,1,0,0:0:0:0:
320,192,94092,128,0,94280:0:0:0:0:
64,192,94280,128,8,94467:0:0:0:100:clap.wav
192,192,94280,1,0,0:0:0:0:
448,192,94280,1,0,0:0:0:0:
320,192,94467,1,2,0:0:0:0:
448,192,94467,1,0,0:0:0:0:
64,192,94655,128,0,94936:0:0:0:0:
448,192,94842,128,0,94936:0:0:0:0:
64,192,95030,1,0,0:0:0:50:bass.wav
448,192,95030,128,0,95311:0:0:0:0:
320,192,95217,128,0,95311:0:0:0:0:
192,192,95405,128,0,95592:0:0:0:0:
320,192,95592,128,0,95780:0:0:0:50:bass.wav
448,192,95592,1,0,0:0:0:0:
64,192,95780,128,8,95967:0:0:0:100:clap.wav
192,192,95780,1,0,0:0:0:0:
448,192,95780,1,0,0:0:0:0:
320,192,95967,128,0,96155:0:0:0:0:
192,192,96155,1,0,0:0:0:50:bass.wav
448,192,96155,128,0,96342:0:0:0:0:
64,192,96342,128,0,96530:0:0:0:0:
320,192,96530,1,0,0:0:0:0:
448,192,96530,128,0,96717:0:0:0:0:
192,192,96717,128,0,96905:0:0:0:0:
320,192,96905,1,2,0:0:0:0:
448,192,96905,1,0,0:0:0:0:
320,192,97092,1,2,0:0:0:0:
448,192,97092,1,0,0:0:0:50:bass.wav
64,192,97280,1,8,0:0:0:100:clap.wav
192,192,97280,1,0,0:0:0:0:
448,192,97280,128,0,97467:0:0:0:0:
64,192,97467,1,2,0:0:0:0:
192,192,97467,1,0,0:0:0:0:
192,192,97655,1,0,0:0:0:0:
448,192,97655,128,0,97936:0:0:0:0:
320,192,97748,1,0,0:0:0:0:
64,192,97842,1,0,0:0:0:0:
64,192,98030,1,0,0:0:0:50:bass.wav
448,192,98030,128,0,98311:0:0:0:0:
192,192,98217,128,0,98311:0:0:0:0:
320,192,98405,1,4,0:0:0:0:
448,192,98405,1,0,0:0:0:0:
64,192,98592,1,0,0:0:0:50:bass.wav
448,192,98592,1,0,0:0:0:0:
64,192,98780,1,8,0:0:0:100:clap.wav
192,192,98780,1,0,0:0:0:0:
448,192,98780,128,0,99061:0:0:0:0:
320,192,98967,128,0,99061:0:0:0:0:
320,192,99155,1,0,0:0:0:50:bass.wav
448,192,99155,128,0,99436:0:0:0:0:
192,192,99342,128,0,99436:0:0:0:0:
192,192,99530,128,0,99717:0:0:0:0:
448,192,99717,128,0,99905:0:0:0:0:
64,192,99905,128,4,100092:0:0:0:0:
192,192,99905,1,0,0:0:0:50:bass.wav
320,192,99905,1,0,0:0:0:0:
448,192,100092,128,0,100280:0:0:0:0:
64,192,100280,1,8,0:0:0:100:clap.wav
192,192,100280,1,0,0:0:0:0:
320,192,100280,128,0,100467:0:0:0:0:
192,192,100467,128,2,100655:0:0:0:0:
448,192,100467,1,0,0:0:0:0:
448,192,100655,128,0,100842:0:0:0:0:
64,192,100842,128,0,101030:0:0:0:0:
320,192,101030,1,0,0:0:0:50:bass.wav
448,192,101030,128,0,101311:0:0:0:0:
64,192,101217,128,0,101311:0:0:0:0:
64,192,101405,128,4,101592:0:0:0:0:
320,192,101405,1,0,0:0:0:0:
192,192,101592,128,0,101780:0:0:0:50:bass.wav
448,192,101592,1,0,0:0:0:0:
64,192,101780,1,8,0:0:0:100:clap.wav
320,192,101780,1,0,0:0:0:0:
448,192,101780,128,0,101967:0:0:0:0:
192,192,101967,128,0,102155:0:0:0:0:
320,192,102155,128,0,102342:0:0:0:50:bass.wav
448,192,102155,1,0,0:0:0:0:
64,192,102342,128,0,102530:0:0:0:0:
192,192,102530,1,0,0:0:0:0:
448,192,102530,128,0,102717:0:0:0:0:
320,192,102717,128,0,102905:0:0:0:0:
64,192,102905,1,6,0:0:0:0:
192,192,102905,1,0,0:0:0:50:bass.wav
192,192,103092,1,0,0:0:0:50:bass.wav
64,192,103280,128,8,103467:0:0:0:100:clap.wav
320,192,103280,1,0,0:0:0:0:
448,192,103280,1,0,0:0:0:0:
320,192,103467,1,2,0:0:0:0:
448,192,103467,1,0,0:0:0:0:
64,192,103655,128,0,103936:0:0:0:0:
320,192,103655,1,0,0:0:0:0:
192,192,103748,1,0,0:0:0:0:
448,192,103842,1,0,0:0:0:0:
64,192,104030,128,0,104311:0:0:0:50:bass.wav
192,192,104030,1,0,0:0:0:0:
320,192,104030,1,0,0:0:0:0:
320,192,104217,128,0,104311:0:0:0:0:
448,192,104217,128,0,104311:0:0:0:0:
64,192,104405,1,4,0:0:0:0:
448,192,104405,128,0,104592:0:0:0:0:
64,192,104592,1,0,0:0:0:50:bass.wav
320,192,104592,128,0,104780:0:0:0:0:
64,192,104780,128,8,105061:0:0:0:100:clap.wav
192,192,104780,1,0,0:0:0:0:
448,192,104780,1,0,0:0:0:0:
192,192,104967,128,0,105061:0:0:0:0:
320,192,104967,128,0,105061:0:0:0:0:
192,192,105155,1,0,0:0:0:50:bass.wav
320,192,105155,1,0,0:0:0:0:
448,192,105155,128,0,105436:0:0:0:0:
64,192,105342,128,0,105436:0:0:0:0:
320,192,105342,128,0,105436:0:0:0:0:
64,192,105530,128,0,105811:0:0:0:0:
448,192,105530,128,0,105811:0:0:0:0:
192,192,105717,128,0,105811:0:0:0:0:
64,192,105905,128,4,106186:0:0:0:0:
192,192,105905,128,0,106186:0:0:0:50:bass.wav
448,192,105905,1,0,0:0:0:0:
320,192,106092,128,0,106186:0:0:0:0:
64,192,106280,1,8,0:0:0:100:clap.wav
192,192,106280,1,0,0:0:0:0:
448,192,106280,128,0,106561:0:0:0:0:
64,192,106467,1,2,0:0:0:0:
320,192,106467,128,0,106561:0:0:0:0:
320,192,106655,128,0,106936:0:0:0:0:
448,192,106655,128,0,106936:0:0:0:0:
192,192,106842,128,0,106936:0:0:0:0:
64,192,107030,128,0,107311:0:0:0:50:bass.wav
320,192,107030,1,0,0:0:0:0:
448,192,107030,1,0,0:0:0:0:
192,192,107217,128,0,107311:0:0:0:0:
320,192,107217,128,0,107311:0:0:0:0:
64,192,107405,1,4,0:0:0:0:
448,192,107405,128,0,107686:0:0:0:0:
192,192,107592,1,0,0:0:0:50:bass.wav
320,192,107592,128,0,107686:0:0:0:0:
64,192,107780,128,8,108061:0:0:0:100:clap.wav
320,192,107780,1,0,0:0:0:0:
448,192,107780,1,0,0:0:0:0:
192,192,107967,128,0,108061:0:0:0:0:
64,192,108155,128,0,108436:0:0:0:50:bass.wav
192,192,108155,1,0,0:0:0:0:
448,192,108155,128,0,108436:0:0:0:0:
320,192,108342,128,0,108436:0:0:0:0:
64,192,108530,128,0,108623:0:0:0:0:
192,192,108530,128,0,108811:0:0:0:0:
320,192,108717,128,0,108811:0:0:0:0:
448,192,108717,128,0,108998:0:0:0:0:
64,192,108905,128,2,108998:0:0:0:0:
192,192,108905,128,4,108998:0:0:0:0:
64,192,109092,128,2,109467:0:0:0:0:
320,192,109092,128,0,109186:0:0:0:50:bass.wav
192,192,109280,128,8,109467:0:0:0:100:clap.wav
320,192,109280,1,0,0:0:0:0:
448,192,109280,1,0,0:0:0:0:
320,192,109467,1,2,0:0:0:0:
448,192,109467,1,0,0:0:0:0:
64,192,109655,128,0,109936:0:0:0:0:
448,192,109655,128,0,109936:0:0:0:0:
320,192,109748,1,0,0:0:0:0:
192,192,109842,1,0,0:0:0:0:
64,192,110030,128,0,110311:0:0:0:50:bass.wav
320,192,110030,1,0,0:0:0:0:
448,192,110030,1,0,0:0:0:0:
320,192,110217,128,0,110311:0:0:0:0:
448,192,110217,128,0,110311:0:0:0:0:
64,192,110405,1,4,0:0:0:0:
448,192,110405,128,0,110592:0:0:0:0:
64,192,110592,1,0,0:0:0:50:bass.wav
320,192,110592,128,0,110780:0:0:0:0:
64,192,110780,128,8,111061:0:0:0:100:clap.wav
192,192,110780,1,0,0:0:0:0:
448,192,110780,1,0,0:0:0:0:
192,192,110967,128,0,111061:0:0:0:0:
320,192,110967,128,0,111061:0:0:0:0:
192,192,111155,1,0,0:0:0:50:bass.wav
320,192,111155,1,0,0:0:0:0:
448,192,111155,128,0,111436:0:0:0:0:
64,192,111342,128,0,111436:0:0:0:0:
320,192,111342,128,0,111436:0:0:0:0:
64,192,111530,128,0,111811:0:0:0:0:
192,192,111530,128,0,111811:0:0:0:0:
448,192,111717,128,0,111811:0:0:0:0:
64,192,111905,1,4,0:0:0:0:
320,192,111905,128,0,112186:0:0:0:50:bass.wav
448,192,111905,128,0,112186:0:0:0:0:
192,192,112092,128,0,112186:0:0:0:0:
64,192,112280,1,8,0:0:0:100:clap.wav
192,192,112280,1,0,0:0:0:0:
448,192,112280,128,0,112561:0:0:0:0:
64,192,112467,1,2,0:0:0:0:
320,192,112467,128,0,112561:0:0:0:0:
64,192,112655,128,0,112936:0:0:0:0:
192,192,112655,128,0,112936:0:0:0:0:
320,192,112842,128,0,112936:0:0:0:0:
64,192,113030,128,2,113311:0:0:0:0:
448,192,113030,128,0,113311:0:0:0:0:
192,192,113217,128,0,113311:0:0:0:0:
64,192,113405,1,0,0:0:0:0:
448,192,113405,128,0,113686:0:0:0:0:
192,192,113592,1,2,0:0:0:0:
320,192,113592,128,0,113686:0:0:0:0:
64,192,113780,128,8,114061:0:0:0:100:clap.wav
320,192,113780,1,0,0:0:0:0:
448,192,113780,1,0,0:0:0:0:
192,192,113967,128,0,114061:0:0:0:0:
64,192,114155,128,2,114436:0:0:0:0:
448,192,114155,128,0,114436:0:0:0:0:
320,192,114342,128,0,114436:0:0:0:0:
64,192,114530,128,0,114717:0:0:0:0:
448,192,114717,128,0,114905:0:0:0:0:
192,192,114905,128,0,115092:0:0:0:0:
320,192,115092,128,0,115280:0:0:0:0:
448,192,115280,128,0,115467:0:0:0:0:
64,192,115655,128,0,116030:0:0:0:0:
448,192,115655,128,0,115811:0:0:0:0:
320,192,115811,1,0,0:0:0:0:
192,192,116030,1,0,0:0:0:50:bass.wav
320,192,116030,1,0,0:0:0:0:
448,192,116030,128,0,116405:0:0:0:0:
64,192,116217,1,0,0:0:0:0:
192,192,116311,1,0,0:0:0:0:
320,192,116405,1,0,0:0:0:0:
192,192,116498,1,0,0:0:0:0:
64,192,116592,1,0,0:0:0:50:bass.wav
320,192,116592,1,0,0:0:0:0:
448,192,116592,1,0,0:0:0:0:
64,192,116780,1,8,0:0:0:100:clap.wav
192,192,116780,128,0,117155:0:0:0:0:
448,192,116780,1,0,0:0:0:0:
320,192,116967,128,0,117155:0:0:0:0:
64,192,117155,1,0,0:0:0:50:bass.wav
448,192,117155,128,0,117717:0:0:0:0:
320,192,117342,128,0,117717:0:0:0:0:
192,192,117530,128,0,117717:0:0:0:0:
64,192,117717,1,0,0:0:0:0:
64,192,117905,128,0,118092:0:0:0:50:bass.wav
192,192,117905,1,0,0:0:0:0:
448,192,117905,128,0,118092:0:0:0:0:
320,192,118092,1,0,0:0:0:0:
64,192,118280,1,8,0:0:0:100:clap.wav
448,192,118280,128,0,118467:0:0:0:0:
64,192,118467,1,2,0:0:0:0:
192,192,118467,1,0,0:0:0:0:
448,192,118655,128,0,119030:0:0:0:0:
64,192,119030,128,0,119217:0:0:0:50:bass.wav
192,192,119030,1,0,0:0:0:0:
320,192,119030,1,0,0:0:0:0:
448,192,119217,128,0,119405:0:0:0:0:
320,192,119311,1,0,0:0:0:0:
64,192,119405,128,0,119592:0:0:0:0:
192,192,119498,1,0,0:0:0:0:
320,192,119592,1,0,0:0:0:50:bass.wav
448,192,119592,1,0,0:0:0:0:
64,192,119780,1,8,0:0:0:100:clap.wav
192,192,119780,128,0,119967:0:0:0:0:
448,192,119780,1,0,0:0:0:0:
448,192,119967,1,0,0:0:0:0:
64,192,120155,1,0,0:0:0:50:bass.wav
192,192,120155,1,0,0:0:0:0:
320,192,120155,128,0,120342:0:0:0:0:
64,192,120342,1,0,0:0:0:0:
192,192,120530,1,0,0:0:0:0:
448,192,120530,128,0,120717:0:0:0:0:
192,192,120717,1,0,0:0:0:0:
64,192,120905,1,0,0:0:0:50:bass.wav
320,192,120905,1,0,0:0:0:0:
448,192,120905,128,0,121280:0:0:0:0:
320,192,121092,128,0,121280:0:0:0:0:
64,192,121280,128,8,121467:0:0:0:100:clap.wav
192,192,121280,128,0,121467:0:0:0:0:
320,192,121467,1,0,0:0:0:50:bass.wav
448,192,121467,128,0,121655:0:0:0:0:
192,192,121655,128,0,122030:0:0:0:0:
320,192,121748,1,0,0:0:0:0:
448,192,121842,1,0,0:0:0:0:
64,192,122030,128,0,122405:0:0:0:50:bass.wav
320,192,122030,1,0,0:0:0:0:
448,192,122030,1,0,0:0:0:0:
320,192,122217,1,0,0:0:0:0:
448,192,122311,1,0,0:0:0:0:
192,192,122405,1,0,0:0:0:0:
320,192,122498,1,0,0:0:0:0:
64,192,122592,1,0,0:0:0:50:bass.wav
192,192,122592,1,0,0:0:0:0:
448,192,122592,1,0,0:0:0:0:
64,192,122780,1,8,0:0:0:100:clap.wav
320,192,122780,128,0,123155:0:0:0:0:
448,192,122780,1,0,0:0:0:0:
192,192,122967,128,0,123155:0:0:0:0:
64,192,123155,128,0,123717:0:0:0:50:bass.wav
448,192,123155,1,0,0:0:0:0:
192,192,123342,128,0,123717:0:0:0:0:
320,192,123530,128,0,123717:0:0:0:0:
448,192,123717,1,0,0:0:0:0:
64,192,123905,128,0,124092:0:0:0:50:bass.wav
192,192,123905,128,0,124092:0:0:0:0:
448,192,123905,128,0,124092:0:0:0:0:
320,192,124092,1,0,0:0:0:0:
64,192,124280,128,8,124467:0:0:0:100:clap.wav
448,192,124280,1,0,0:0:0:0:
320,192,124467,1,2,0:0:0:0:
448,192,124467,1,0,0:0:0:0:
64,192,124655,128,0,125030:0:0:0:0:
192,192,125030,1,0,0:0:0:50:bass.wav
320,192,125030,1,0,0:0:0:0:
448,192,125030,128,0,125217:0:0:0:0:
64,192,125217,128,0,125405:0:0:0:0:
192,192,125311,1,0,0:0:0:0:
448,192,125405,128,0,125592:0:0:0:0:
320,192,125498,1,0,0:0:0:0:
64,192,125592,1,0,0:0:0:50:bass.wav
192,192,125592,1,0,0:0:0:0:
64,192,125780,1,8,0:0:0:100:clap.wav
320,192,125780,128,0,125967:0:0:0:0:
448,192,125780,1,0,0:0:0:0:
64,192,125967,1,0,0:0:0:0:
192,192,126155,128,0,126342:0:0:0:50:bass.wav
320,192,126155,1,0,0:0:0:0:
448,192,126155,1,0,0:0:0:0:
448,192,126342,1,0,0:0:0:0:
64,192,126530,128,2,126717:0:0:0:0:
320,192,126530,1,0,0:0:0:0:
320,192,126717,1,2,0:0:0:0:
448,192,126717,1,0,0:0:0:0:
64,192,126905,1,2,0:0:0:0:
192,192,126905,1,0,0:0:0:0:
448,192,126905,128,0,127092:0:0:0:0:
64,192,127092,128,2,127280:0:0:0:0:
192,192,127092,1,0,0:0:0:0:
320,192,127280,1,2,0:0:0:0:
448,192,127280,1,0,0:0:0:0:
192,192,127373,1,2,0:0:0:0:
64,192,127467,1,2,0:0:0:0:
448,192,127467,1,0,0:0:0:0:
320,192,127561,1,2,0:0:0:0:
64,192,127655,1,2,0:0:0:0:
192,192,127655,1,0,0:0:0:0:
320,192,127748,1,2,0:0:0:0:
64,192,127842,1,2,0:0:0:0:
448,192,127842,1,0,0:0:0:0:
192,192,127936,1,2,0:0:0:0:
64,192,128030,128,2,128123:0:0:0:0:
320,192,128030,1,0,0:0:0:50:bass.wav
448,192,128030,128,0,128780:0:0:0:0:
192,192,128217,128,0,128311:0:0:0:0:
320,192,128311,128,0,128405:0:0:0:0:
64,192,128498,128,0,128592:0:0:0:0:
192,192,128592,128,0,128686:0:0:0:50:bass.wav
320,192,128592,1,0,0:0:0:0:
64,192,128780,128,8,128873:0:0:0:100:clap.wav
192,192,128780,128,0,128873:0:0:0:0:
320,192,128780,1,0,0:0:0:0:
448,192,128967,128,0,129155:0:0:0:0:
320,192,129061,128,0,129155:0:0:0:0:
64,192,129155,128,0,130092:0:0:0:50:bass.wav
192,192,129155,128,0,129248:0:0:0:0:
192,192,129342,128,0,129436:0:0:0:0:
448,192,129342,128,0,129530:0:0:0:0:
320,192,129530,128,0,129717:0:0:0:0:
192,192,129717,1,0,0:0:0:0:
320,192,129905,128,0,130092:0:0:0:50:bass.wav
448,192,129905,128,0,130092:0:0:0:0:
192,192,130092,1,0,0:0:0:0:
64,192,130280,128,8,130467:0:0:0:100:clap.wav
320,192,130280,1,0,0:0:0:0:
448,192,130280,1,0,0:0:0:0:
320,192,130467,1,2,0:0:0:0:
448,192,130467,128,0,130936:0:0:0:0:
64,192,130655,128,0,130936:0:0:0:0:
64,192,131030,128,0,131780:0:0:0:50:bass.wav
192,192,131030,1,0,0:0:0:0:
448,192,131030,1,0,0:0:0:0:
320,192,131217,128,0,131311:0:0:0:0:
192,192,131311,128,0,131405:0:0:0:0:
448,192,131498,128,0,131592:0:0:0:0:
192,192,131592,1,0,0:0:0:50:bass.wav
320,192,131592,128,0,131686:0:0:0:0:
192,192,131780,1,8,0:0:0:100:clap.wav
320,192,131780,128,0,131873:0:0:0:0:
448,192,131780,128,0,131873:0:0:0:0:
64,192,131967,128,0,132155:0:0:0:0:
192,192,132061,128,0,132155:0:0:0:0:
320,192,132155,128,0,132248:0:0:0:50:bass.wav
448,192,132155,128,0,132905:0:0:0:0:
192,192,132342,128,0,132436:0:0:0:0:
320,192,132342,128,0,132530:0:0:0:0:
64,192,132530,128,0,132717:0:0:0:0:
320,192,132717,1,0,0:0:0:0:
64,192,132905,128,2,133092:0:0:0:0:
192,192,132905,128,0,133092:0:0:0:0:
320,192,133092,1,2,0:0:0:0:
448,192,133092,1,0,0:0:0:50:bass.wav
64,192,133280,128,8,133467:0:0:0:100:clap.wav
192,192,133280,128,0,133467:0:0:0:0:
448,192,133280,1,0,0:0:0:0:
320,192,133467,1,2,0:0:0:0:
448,192,133467,128,0,133936:0:0:0:0:
64,192,133655,1,0,0:0:0:0:
192,192,133748,1,0,0:0:0:0:
320,192,133842,1,0,0:0:0:0:
64,192,134030,1,0,0:0:0:50:bass.wav
320,192,134030,1,0,0:0:0:0:
448,192,134030,128,0,134780:0:0:0:0:
192,192,134217,128,0,134311:0:0:0:0:
320,192,134311,128,0,134405:0:0:0:0:
64,192,134498,128,0,134592:0:0:0:0:
192,192,134592,128,0,134686:0:0:0:50:bass.wav
320,192,134592,1,0,0:0:0:0:
64,192,134780,128,8,134873:0:0:0:100:clap.wav
192,192,134780,128,0,134873:0:0:0:0:
320,192,134780,1,0,0:0:0:0:
448,192,134967,128,0,135155:0:0:0:0:
320,192,135061,128,0,135155:0:0:0:0:
64,192,135155,128,0,136092:0:0:0:50:bass.wav
192,192,135155,128,0,135248:0:0:0:0:
192,192,135342,128,0,135436:0:0:0:0:
448,192,135342,128,0,135530:0:0:0:0:
320,192,135530,128,0,135717:0:0:0:0:
192,192,135717,1,0,0:0:0:0:
320,192,135905,128,0,136092:0:0:0:50:bass.wav
448,192,135905,128,0,136092:0:0:0:0:
192,192,136092,1,0,0:0:0:0:
64,192,136280,128,8,136467:0:0:0:100:clap.wav
320,192,136280,1,0,0:0:0:0:
448,192,136280,1,0,0:0:0:0:
320,192,136467,1,2,0:0:0:0:
448,192,136467,128,0,136936:0:0:0:0:
64,192,136655,128,0,136936:0:0:0:0:
64,192,137030,128,0,137780:0:0:0:50:bass.wav
192,192,137030,1,0,0:0:0:0:
448,192,137030,1,0,0:0:0:0:
320,192,137217,128,0,137311:0:0:0:0:
192,192,137311,128,0,137405:0:0:0:0:
448,192,137498,128,0,137592:0:0:0:0:
192,192,137592,1,0,0:0:0:50:bass.wav
320,192,137592,128,0,137686:0:0:0:0:
192,192,137780,1,8,0:0:0:100:clap.wav
320,192,137780,128,0,137873:0:0:0:0:
448,192,137780,128,0,137873:0:0:0:0:
64,192,137967,128,0,138155:0:0:0:0:
192,192,138061,128,0,138155:0:0:0:0:
320,192,138155,128,0,138248:0:0:0:50:bass.wav
448,192,138155,128,0,138905:0:0:0:0:
192,192,138342,128,0,138436:0:0:0:0:
320,192,138342,128,0,138530:0:0:0:0:
64,192,138530,128,0,138717:0:0:0:0:
320,192,138717,1,0,0:0:0:0:
64,192,138905,128,2,139092:0:0:0:0:
192,192,138905,128,0,139092:0:0:0:50:bass.wav
320,192,139092,1,0,0:0:0:50:bass.wav
448,192,139092,1,0,0:0:0:0:
64,192,139280,128,8,139467:0:0:0:100:clap.wav
192,192,139280,128,0,139467:0:0:0:0:
448,192,139280,1,0,0:0:0:0:
320,192,139467,1,2,0:0:0:0:
448,192,139467,128,0,139936:0:0:0:0:
64,192,139655,1,0,0:0:0:0:
192,192,139748,1,0,0:0:0:0:
320,192,139842,1,0,0:0:0:0:
64,192,140030,128,0,140311:0:0:0:50:bass.wav
192,192,140030,1,0,0:0:0:0:
448,192,140030,1,0,0:0:0:0:
320,192,140217,128,0,140311:0:0:0:0:
192,192,140311,128,0,140405:0:0:0:0:
320,192,140405,128,0,140498:0:0:0:0:
448,192,140405,128,0,140498:0:0:0:0:
192,192,140498,128,0,140592:0:0:0:0:
64,192,140592,128,0,140780:0:0:0:50:bass.wav
448,192,140592,128,0,140686:0:0:0:0:
192,192,140780,1,8,0:0:0:100:clap.wav
320,192,140780,128,0,141061:0:0:0:0:
448,192,140780,1,0,0:0:0:0:
192,192,140967,128,0,141061:0:0:0:0:
64,192,141155,1,0,0:0:0:50:bass.wav
320,192,141155,1,0,0:0:0:0:
448,192,141155,128,0,141436:0:0:0:0:
64,192,141342,128,0,141436:0:0:0:0:
192,192,141342,128,0,141436:0:0:0:0:
64,192,141530,128,0,141811:0:0:0:0:
448,192,141530,128,0,141811:0:0:0:0:
192,192,141717,128,0,141811:0:0:0:0:
64,192,141905,128,0,142186:0:0:0:50:bass.wav
192,192,141905,128,0,142186:0:0:0:0:
448,192,141905,1,0,0:0:0:0:
320,192,142092,128,0,142186:0:0:0:0:
64,192,142280,1,8,0:0:0:100:clap.wav
192,192,142280,1,0,0:0:0:0:
448,192,142280,128,0,142561:0:0:0:0:
64,192,142467,1,2,0:0:0:0:
320,192,142467,128,0,142561:0:0:0:0:
320,192,142655,128,0,142936:0:0:0:0:
448,192,142655,128,0,142936:0:0:0:0:
192,192,142842,128,0,142936:0:0:0:0:
64,192,143030,128,0,143311:0:0:0:50:bass.wav
320,192,143030,1,0,0:0:0:0:
448,192,143030,1,0,0:0:0:0:
448,192,143217,128,0,143311:0:0:0:0:
192,192,143311,128,0,143405:0:0:0:0:
448,192,143405,128,0,143592:0:0:0:0:
320,192,143498,128,0,143592:0:0:0:0:
64,192,143592,128,0,143686:0:0:0:50:bass.wav
192,192,143592,128,0,143686:0:0:0:0:
64,192,143780,128,8,144061:0:0:0:100:clap.wav
320,192,143780,1,0,0:0:0:0:
448,192,143780,1,0,0:0:0:0:
192,192,143967,128,0,144061:0:0:0:0:
64,192,144155,128,0,144436:0:0:0:50:bass.wav
192,192,144155,1,0,0:0:0:0:
448,192,144155,128,0,144436:0:0:0:0:
320,192,144342,128,0,144436:0:0:0:0:
64,192,144530,128,0,144623:0:0:0:0:
192,192,144530,128,0,144811:0:0:0:0:
320,192,144717,128,0,144811:0:0:0:0:
448,192,144717,128,0,144998:0:0:0:0:
64,192,144905,128,2,144998:0:0:0:0:
192,192,144905,128,0,144998:0:0:0:0:
64,192,145092,128,2,145467:0:0:0:0:
320,192,145092,128,0,145186:0:0:0:50:bass.wav
192,192,145280,128,8,145467:0:0:0:100:clap.wav
320,192,145280,1,0,0:0:0:0:
448,192,145280,1,0,0:0:0:0:
448,192,145467,1,0,0:0:0:0:
64,192,145655,128,0,145936:0:0:0:0:
448,192,145655,128,0,145936:0:0:0:0:
320,192,145748,1,0,0:0:0:0:
192,192,145842,1,0,0:0:0:0:
64,192,146030,128,0,146311:0:0:0:50:bass.wav
320,192,146030,1,0,0:0:0:0:
448,192,146030,1,0,0:0:0:0:
320,192,146217,128,0,146311:0:0:0:0:
192,192,146311,128,0,146405:0:0:0:0:
64,192,146405,128,0,146498:0:0:0:0:
448,192,146405,128,0,146592:0:0:0:0:
320,192,146498,128,0,146592:0:0:0:0:
64,192,146592,128,0,146780:0:0:0:50:bass.wav
192,192,146592,128,0,146686:0:0:0:0:
192,192,146780,1,8,0:0:0:100:clap.wav
320,192,146780,1,0,0:0:0:0:
448,192,146780,128,0,147061:0:0:0:0:
64,192,146967,128,0,147061:0:0:0:0:
192,192,146967,128,0,147061:0:0:0:0:
64,192,147155,1,0,0:0:0:50:bass.wav
192,192,147155,1,0,0:0:0:0:
448,192,147155,128,0,147436:0:0:0:0:
64,192,147342,128,0,147436:0:0:0:0:
320,192,147342,128,0,147436:0:0:0:0:
64,192,147530,128,0,147811:0:0:0:0:
192,192,147530,128,0,147811:0:0:0:0:
448,192,147717,128,0,147811:0:0:0:0:
64,192,147905,1,0,0:0:0:50:bass.wav
320,192,147905,128,0,148186:0:0:0:0:
448,192,147905,128,0,148186:0:0:0:0:
192,192,148092,128,0,148186:0:0:0:0:
64,192,148280,1,8,0:0:0:100:clap.wav
192,192,148280,1,0,0:0:0:0:
448,192,148280,128,0,148561:0:0:0:0:
64,192,148467,1,2,0:0:0:0:
320,192,148467,128,0,148561:0:0:0:0:
64,192,148655,128,0,148936:0:0:0:0:
192,192,148655,128,0,148936:0:0:0:0:
320,192,148842,128,0,148936:0:0:0:0:
64,192,149030,128,0,149311:0:0:0:50:bass.wav
320,192,149030,1,0,0:0:0:0:
448,192,149030,128,0,149311:0:0:0:0:
192,192,149217,128,0,149311:0:0:0:0:
320,192,149311,128,0,149405:0:0:0:0:
64,192,149405,128,0,149592:0:0:0:0:
192,192,149498,128,0,149592:0:0:0:0:
320,192,149592,128,0,149686:0:0:0:50:bass.wav
448,192,149592,128,0,149686:0:0:0:0:
64,192,149780,1,8,0:0:0:100:clap.wav
192,192,149780,1,0,0:0:0:0:
448,192,149780,128,0,150061:0:0:0:0:
320,192,149967,128,0,150061:0:0:0:0:
64,192,150155,128,0,150436:0:0:0:50:bass.wav
320,192,150155,1,0,0:0:0:0:
448,192,150155,128,0,150436:0:0:0:0:
192,192,150342,128,0,150436:0:0:0:0:
64,192,150530,128,0,150717:0:0:0:0:
192,192,150530,128,0,150717:0:0:0:0:
448,192,150717,128,0,150998:0:0:0:0:
64,192,150905,1,2,0:0:0:0:
320,192,150905,128,0,150998:0:0:0:0:
64,192,151092,128,2,151467:0:0:0:0:
192,192,151092,1,0,0:0:0:50:bass.wav
448,192,151092,1,0,0:0:0:0:
192,192,151280,1,8,0:0:0:100:clap.wav
320,192,151280,1,0,0:0:0:0:
448,192,151280,128,0,151467:0:0:0:0:
64,192,151655,128,0,152030:0:0:0:0:
448,192,151655,128,0,152030:0:0:0:0:
