osu file format v14

[General]
AudioFilename: audio.ogg
AudioLeadIn: 0
PreviewTime: 49608
Countdown: 0
SampleSet: Soft
StackLeniency: 0.7
Mode: 3
LetterboxInBreaks: 0
SpecialStyle: 0
WidescreenStoryboard: 1

[Editor]
DistanceSpacing: 1
BeatDivisor: 2
GridSize: 32
TimelineZoom: 1.2

[Metadata]
Title:Baddie
TitleUnicode:Baddie
Artist:IVE
ArtistUnicode:아이브
Creator:Ilham
Version:Beginner
Source:
Tags:Slowpoke104 Chrisse Ainer KinoHimari IZ*ONE IZONE I'VE MINE 스타쉽엔터테인먼트 Starship Entertainment BIG Naughty 서동현 Seo Donghyun Perrie 라이언 전 Ryan Jhun Christopher Fin Dow Smith Lauren Aquilina Starsmith RISC 안유진 An Yujin 김가을 Kim Gaeul 나오이 레이 直井れい Naoi Rei 장원영 Jang Wonyoung 김지원 리즈 Kim Jiwon Liz 이현서 이서 Lee Hyunseo Leeseo Korean Pop K-Pop Kpop
BeatmapID:4371386
BeatmapSetID:2074009

[Difficulty]
HPDrainRate:6
CircleSize:4
OverallDifficulty:6
ApproachRate:5
SliderMultiplier:1.4
SliderTickRate:1

[Events]
//Background and Video events
0,0,"bg.jpg",0,0
//Break Periods
//Storyboard Layer 0 (Background)
//Storyboard Layer 1 (Fail)
//Storyboard Layer 2 (Pass)
//Storyboard Layer 3 (Foreground)
//Storyboard Layer 4 (Overlay)
//Storyboard Sound Samples
Sample,9905,0,"bass.wav",50
Sample,57905,0,"bass.wav",50
Sample,60905,0,"bass.wav",50
Sample,85092,0,"bass.wav",50
Sample,85655,0,"snare.wav",25
Sample,89030,0,"snare.wav",25
Sample,90155,0,"snare.wav",25
Sample,90530,0,"snare.wav",25
Sample,90905,0,"snare.wav",25
Sample,91280,0,"snare.wav",25
Sample,99905,0,"bass.wav",50
Sample,102905,0,"bass.wav",50
Sample,105905,0,"bass.wav",50
Sample,111905,0,"bass.wav",50
Sample,128030,0,"bass.wav",50
Sample,138905,0,"bass.wav",50

[TimingPoints]
530,375,4,2,1,50,1,0
50030,-100,4,2,1,50,0,1
62030,-100,4,2,1,50,0,0
92030,-100,4,2,1,50,0,1
114530,-100,4,2,1,50,0,0

[HitObjects]
192,192,530,128,2,905:0:0:0:0:
320,192,905,128,2,1280:0:0:0:0:
448,192,1280,128,2,1655:0:0:0:0:
64,192,1655,1,0,0:0:0:0:
320,192,2030,128,0,2405:0:0:0:50:bass.wav
64,192,2405,128,0,2780:0:0:0:0:
448,192,2780,128,8,3155:0:0:0:100:clap.wav
192,192,3155,128,0,3530:0:0:0:50:bass.wav
320,192,3905,1,0,0:0:0:50:bass.wav
192,192,4280,1,8,0:0:0:100:clap.wav
448,192,4467,128,2,5030:0:0:0:0:
64,192,5030,128,0,5405:0:0:0:50:bass.wav
320,192,5405,128,0,5780:0:0:0:0:
192,192,5780,128,8,6155:0:0:0:100:clap.wav
448,192,6155,128,0,6530:0:0:0:50:bass.wav
320,192,6905,1,2,0:0:0:0:
192,192,7280,1,8,0:0:0:100:clap.wav
192,192,7655,1,0,0:0:0:0:
448,192,8030,128,0,8405:0:0:0:50:bass.wav
64,192,8405,128,4,8780:0:0:0:0:
192,192,8780,128,8,9155:0:0:0:100:clap.wav
320,192,9155,128,0,9530:0:0:0:50:bass.wav
192,192,9905,1,4,0:0:0:0:
320,192,10280,1,8,0:0:0:100:clap.wav
64,192,10467,128,2,11030:0:0:0:0:
448,192,11030,128,0,11405:0:0:0:50:bass.wav
192,192,11405,128,4,11780:0:0:0:0:
320,192,11780,128,8,12155:0:0:0:100:clap.wav
448,192,12155,128,0,12530:0:0:0:50:bass.wav
64,192,12905,1,6,0:0:0:0:
320,192,13280,1,8,0:0:0:100:clap.wav
320,192,13655,1,0,0:0:0:0:
192,192,14030,128,0,14780:0:0:0:50:bass.wav
448,192,14780,1,8,0:0:0:0:
64,192,15155,128,0,15905:0:0:0:50:bass.wav
192,192,15905,128,0,16280:0:0:0:50:bass.wav
320,192,16280,1,8,0:0:0:0:
320,192,17030,128,0,17405:0:0:0:50:bass.wav
64,192,17592,1,0,0:0:0:50:bass.wav
448,192,17780,1,8,0:0:0:0:
192,192,18155,128,0,18905:0:0:0:50:bass.wav
448,192,18905,128,2,19280:0:0:0:0:
64,192,19280,128,8,19655:0:0:0:0:
448,192,19655,128,0,20030:0:0:0:0:
320,192,20030,128,0,20780:0:0:0:50:bass.wav
64,192,20780,1,8,0:0:0:0:
448,192,21155,128,0,21905:0:0:0:50:bass.wav
320,192,21905,128,0,22280:0:0:0:50:bass.wav
192,192,22280,1,8,0:0:0:0:
192,192,23030,128,0,23405:0:0:0:50:bass.wav
448,192,23592,1,0,0:0:0:50:bass.wav
64,192,23780,1,8,0:0:0:0:
320,192,24155,128,0,24905:0:0:0:50:bass.wav
64,192,24905,128,2,25280:0:0:0:0:
448,192,25280,128,8,25655:0:0:0:0:
64,192,25655,128,0,26030:0:0:0:0:
320,192,26030,128,0,26780:0:0:0:50:bass.wav
192,192,26780,1,8,0:0:0:0:
448,192,27155,128,0,27905:0:0:0:50:bass.wav
320,192,27905,128,0,28280:0:0:0:50:bass.wav
64,192,28280,1,8,0:0:0:0:
192,192,29030,128,0,29405:0:0:0:50:bass.wav
448,192,29592,1,0,0:0:0:50:bass.wav
64,192,29780,1,8,0:0:0:0:
320,192,30155,128,0,30905:0:0:0:50:bass.wav
64,192,30905,1,2,0:0:0:0:
448,192,31280,1,8,0:0:0:0:
192,192,31655,128,0,32030:0:0:0:0:
320,192,32030,1,0,0:0:0:50:bass.wav
64,192,32405,128,0,32780:0:0:0:0:
448,192,32780,1,8,0:0:0:0:
192,192,33155,128,0,33530:0:0:0:50:bass.wav
320,192,33530,1,0,0:0:0:0:
448,192,33905,128,0,34280:0:0:0:50:bass.wav
64,192,34280,1,8,0:0:0:0:
192,192,34655,128,0,35030:0:0:0:0:
448,192,35030,128,0,35405:0:0:0:50:bass.wav
64,192,35592,1,0,0:0:0:50:bass.wav
320,192,35780,1,8,0:0:0:0:
192,192,36155,128,0,36905:0:0:0:50:bass.wav
448,192,36905,1,2,0:0:0:0:
320,192,37280,1,8,0:0:0:0:
64,192,37655,1,0,0:0:0:0:
448,192,38030,128,0,38405:0:0:0:25:snare.wav
192,192,38405,1,0,0:0:0:25:snare.wav
64,192,38780,128,0,39155:0:0:0:25:snare.wav
320,192,39155,1,0,0:0:0:25:snare.wav
192,192,39530,128,0,39905:0:0:0:25:snare.wav
448,192,39905,128,0,40280:0:0:0:25:snare.wav
320,192,40280,128,0,40655:0:0:0:25:snare.wav
64,192,40655,128,0,41405:0:0:0:25:snare.wav
448,192,41405,128,0,42905:0:0:0:25:snare.wav
320,192,42905,1,0,0:0:0:25:snare.wav
192,192,43280,128,0,43655:0:0:0:25:snare.wav
448,192,43655,128,0,44030:0:0:0:25:snare.wav
64,192,44030,128,0,44405:0:0:0:25:snare.wav
320,192,44405,1,0,0:0:0:25:snare.wav
448,192,44780,128,0,45155:0:0:0:25:snare.wav
192,192,45155,1,0,0:0:0:25:snare.wav
320,192,45530,128,0,45905:0:0:0:25:snare.wav
64,192,45905,128,0,46280:0:0:0:25:snare.wav
192,192,46280,128,0,46655:0:0:0:25:snare.wav
448,192,46655,128,0,47405:0:0:0:25:snare.wav
64,192,47405,1,0,0:0:0:25:snare.wav
320,192,47780,128,0,48905:0:0:0:25:snare.wav
192,192,49655,1,0,0:0:0:0:
448,192,50030,128,0,50405:0:0:0:50:bass.wav
64,192,50405,128,0,50780:0:0:0:0:
192,192,50780,128,8,51155:0:0:0:100:clap.wav
320,192,51155,128,0,51530:0:0:0:50:bass.wav
192,192,51905,1,0,0:0:0:50:bass.wav
320,192,52280,1,8,0:0:0:100:clap.wav
64,192,52467,128,2,53030:0:0:0:0:
448,192,53030,128,0,53405:0:0:0:50:bass.wav
192,192,53405,128,0,53780:0:0:0:0:
320,192,53780,128,8,54155:0:0:0:100:clap.wav
448,192,54155,128,0,54530:0:0:0:50:bass.wav
64,192,54905,1,2,0:0:0:0:
320,192,55280,1,8,0:0:0:100:clap.wav
320,192,55655,1,0,0:0:0:0:
64,192,56030,128,0,56405:0:0:0:50:bass.wav
448,192,56405,128,4,56780:0:0:0:0:
320,192,56780,128,8,57155:0:0:0:100:clap.wav
192,192,57155,128,0,57530:0:0:0:50:bass.wav
320,192,57905,1,4,0:0:0:0:
192,192,58280,1,8,0:0:0:100:clap.wav
448,192,58467,128,2,59030:0:0:0:0:
64,192,59030,128,0,59405:0:0:0:50:bass.wav
320,192,59405,128,4,59780:0:0:0:0:
192,192,59780,128,8,60155:0:0:0:100:clap.wav
64,192,60155,128,0,60530:0:0:0:50:bass.wav
448,192,60905,1,6,0:0:0:0:
192,192,61280,1,8,0:0:0:100:clap.wav
192,192,61655,1,0,0:0:0:0:
448,192,62030,128,0,62780:0:0:0:50:bass.wav
64,192,62780,1,8,0:0:0:100:clap.wav
320,192,63155,128,0,63905:0:0:0:50:bass.wav
192,192,63905,128,0,64280:0:0:0:50:bass.wav
448,192,64280,1,8,0:0:0:100:clap.wav
64,192,65030,1,0,0:0:0:50:bass.wav
448,192,65592,1,0,0:0:0:50:bass.wav
192,192,65780,1,8,0:0:0:100:clap.wav
320,192,66155,128,0,66905:0:0:0:50:bass.wav
64,192,66905,128,2,67280:0:0:0:0:
448,192,67280,1,8,0:0:0:100:clap.wav
192,192,68030,128,0,68780:0:0:0:50:bass.wav
448,192,68780,1,8,0:0:0:100:clap.wav
64,192,69155,128,0,69905:0:0:0:50:bass.wav
448,192,69905,128,0,70280:0:0:0:50:bass.wav
192,192,70280,1,8,0:0:0:100:clap.wav
448,192,71030,1,0,0:0:0:50:bass.wav
320,192,71592,1,0,0:0:0:50:bass.wav
64,192,71780,1,8,0:0:0:100:clap.wav
448,192,72155,128,0,72905:0:0:0:50:bass.wav
192,192,72905,128,2,73280:0:0:0:0:
320,192,73280,1,8,0:0:0:100:clap.wav
448,192,74030,128,0,74592:0:0:0:50:bass.wav
64,192,74592,1,0,0:0:0:50:bass.wav
320,192,75155,128,0,75905:0:0:0:50:bass.wav
192,192,75905,128,0,76280:0:0:0:50:bass.wav
64,192,77030,128,0,77405:0:0:0:50:bass.wav
320,192,77592,1,0,0:0:0:50:bass.wav
192,192,77780,1,8,0:0:0:0:
448,192,78155,128,0,78905:0:0:0:50:bass.wav
192,192,78905,1,2,0:0:0:0:
320,192,79280,1,8,0:0:0:0:
64,192,80030,128,0,80592:0:0:0:50:bass.wav
448,192,80592,1,0,0:0:0:50:bass.wav
192,192,80780,1,8,0:0:0:0:
320,192,81155,128,0,81905:0:0:0:50:bass.wav
64,192,81905,128,0,82280:0:0:0:50:bass.wav
448,192,82280,1,8,0:0:0:0:
448,192,83030,128,0,83405:0:0:0:50:bass.wav
192,192,83592,1,0,0:0:0:50:bass.wav
320,192,83780,1,8,0:0:0:0:
64,192,84155,128,0,84530:0:0:0:50:bass.wav
448,192,84530,1,2,0:0:0:0:
320,192,84811,1,2,0:0:0:0:
192,192,85092,1,2,0:0:0:0:
448,192,85280,1,0,0:0:0:25:snare.wav
64,192,85655,128,2,86030:0:0:0:0:
320,192,86030,128,0,86780:0:0:0:25:snare.wav
192,192,86780,1,0,0:0:0:25:snare.wav
448,192,87155,1,0,0:0:0:25:snare.wav
64,192,87530,128,0,88280:0:0:0:25:snare.wav
320,192,88280,1,0,0:0:0:25:snare.wav
192,192,88655,1,0,0:0:0:25:snare.wav
448,192,89030,128,0,89592:0:0:0:50:bass.wav
64,192,89592,128,0,90155:0:0:0:50:bass.wav
320,192,90155,128,0,90530:0:0:0:50:bass.wav
192,192,90530,128,2,90905:0:0:0:0:
448,192,90905,128,2,91280:0:0:0:0:
64,192,91280,1,2,0:0:0:0:
320,192,91655,1,0,0:0:0:0:
64,192,92030,128,0,92405:0:0:0:50:bass.wav
448,192,92405,128,0,92780:0:0:0:0:
320,192,92780,128,8,93155:0:0:0:100:clap.wav
192,192,93155,128,0,93530:0:0:0:50:bass.wav
320,192,93905,1,0,0:0:0:50:bass.wav
192,192,94280,1,8,0:0:0:100:clap.wav
448,192,94467,128,2,95030:0:0:0:0:
64,192,95030,128,0,95405:0:0:0:50:bass.wav
320,192,95405,128,0,95780:0:0:0:0:
192,192,95780,128,8,96155:0:0:0:100:clap.wav
64,192,96155,128,0,96530:0:0:0:50:bass.wav
448,192,96905,1,2,0:0:0:0:
192,192,97280,1,8,0:0:0:100:clap.wav
192,192,97655,1,0,0:0:0:0:
448,192,98030,128,0,98405:0:0:0:50:bass.wav
64,192,98405,128,4,98780:0:0:0:0:
192,192,98780,128,8,99155:0:0:0:100:clap.wav
320,192,99155,128,0,99530:0:0:0:50:bass.wav
192,192,99905,1,4,0:0:0:0:
320,192,100280,1,8,0:0:0:100:clap.wav
64,192,100467,128,2,101030:0:0:0:0:
448,192,101030,128,0,101405:0:0:0:50:bass.wav
192,192,101405,128,4,101780:0:0:0:0:
320,192,101780,128,8,102155:0:0:0:100:clap.wav
448,192,102155,128,0,102530:0:0:0:50:bass.wav
64,192,102905,1,6,0:0:0:0:
320,192,103280,1,8,0:0:0:100:clap.wav
320,192,103655,1,0,0:0:0:0:
192,192,104030,128,0,104405:0:0:0:50:bass.wav
448,192,104405,1,4,0:0:0:0:
320,192,104592,1,0,0:0:0:50:bass.wav
64,192,104780,128,8,105155:0:0:0:100:clap.wav
448,192,105155,128,0,105530:0:0:0:50:bass.wav
320,192,105530,128,0,105905:0:0:0:0:
192,192,105905,128,4,106280:0:0:0:0:
448,192,106280,128,8,106655:0:0:0:100:clap.wav
64,192,106655,128,0,107030:0:0:0:0:
448,192,107030,128,0,107405:0:0:0:50:bass.wav
192,192,107405,128,4,107780:0:0:0:0:
320,192,107780,128,8,108155:0:0:0:100:clap.wav
448,192,108155,128,0,108530:0:0:0:50:bass.wav
64,192,108530,1,0,0:0:0:0:
320,192,108905,1,6,0:0:0:0:
192,192,109280,128,8,109655:0:0:0:100:clap.wav
448,192,109655,128,0,110030:0:0:0:0:
64,192,110030,128,0,110405:0:0:0:50:bass.wav
192,192,110405,1,4,0:0:0:0:
320,192,110592,1,0,0:0:0:50:bass.wav
448,192,110780,128,8,111155:0:0:0:100:clap.wav
64,192,111155,128,0,111530:0:0:0:50:bass.wav
192,192,111530,128,0,111905:0:0:0:0:
448,192,111905,128,4,112280:0:0:0:0:
320,192,112280,128,8,112655:0:0:0:100:clap.wav
192,192,112655,128,0,113030:0:0:0:0:
448,192,113030,128,2,113405:0:0:0:0:
64,192,113405,128,0,113780:0:0:0:0:
192,192,113780,128,8,114155:0:0:0:100:clap.wav
320,192,114155,128,2,114530:0:0:0:0:
64,192,114530,1,0,0:0:0:0:
448,192,114905,1,0,0:0:0:0:
320,192,115280,128,0,115655:0:0:0:0:
64,192,115655,128,0,116030:0:0:0:0:
448,192,116030,128,0,116592:0:0:0:50:bass.wav
192,192,116592,1,0,0:0:0:50:bass.wav
320,192,116780,1,8,0:0:0:100:clap.wav
64,192,117155,128,0,117530:0:0:0:50:bass.wav
192,192,117905,128,0,118280:0:0:0:50:bass.wav
320,192,118280,1,8,0:0:0:100:clap.wav
64,192,118655,128,0,119030:0:0:0:0:
448,192,119030,128,0,119405:0:0:0:50:bass.wav
192,192,119405,128,0,119780:0:0:0:0:
320,192,119780,128,8,120155:0:0:0:100:clap.wav
192,192,120155,128,0,120530:0:0:0:50:bass.wav
448,192,120530,128,0,120905:0:0:0:0:
64,192,120905,128,0,121280:0:0:0:50:bass.wav
320,192,121280,1,8,0:0:0:100:clap.wav
448,192,121655,128,0,122030:0:0:0:0:
64,192,122030,1,0,0:0:0:50:bass.wav
320,192,122592,1,0,0:0:0:50:bass.wav
192,192,122780,1,8,0:0:0:100:clap.wav
448,192,123155,128,0,123530:0:0:0:50:bass.wav
320,192,123905,128,0,124280:0:0:0:50:bass.wav
64,192,124280,1,8,0:0:0:100:clap.wav
448,192,124655,128,0,125030:0:0:0:0:
64,192,125030,128,0,125405:0:0:0:50:bass.wav
320,192,125405,128,0,125780:0:0:0:0:
192,192,125780,128,8,126155:0:0:0:100:clap.wav
320,192,126155,128,0,126530:0:0:0:50:bass.wav
64,192,126530,128,2,126905:0:0:0:0:
448,192,126905,128,2,127280:0:0:0:0:
192,192,127280,128,2,127655:0:0:0:0:
320,192,127655,128,2,128030:0:0:0:0:
448,192,128030,128,2,128780:0:0:0:0:
192,192,128780,1,8,0:0:0:100:clap.wav
320,192,129155,128,0,129905:0:0:0:50:bass.wav
64,192,129905,128,0,130280:0:0:0:50:bass.wav
448,192,130280,1,8,0:0:0:100:clap.wav
320,192,131030,1,0,0:0:0:50:bass.wav
64,192,131592,1,0,0:0:0:50:bass.wav
448,192,131780,1,8,0:0:0:100:clap.wav
192,192,132155,128,0,132905:0:0:0:50:bass.wav
320,192,132905,128,2,133280:0:0:0:0:
64,192,133280,1,8,0:0:0:100:clap.wav
192,192,134030,128,0,134780:0:0:0:50:bass.wav
320,192,134780,1,8,0:0:0:100:clap.wav
64,192,135155,128,0,135905:0:0:0:50:bass.wav
448,192,135905,128,0,136280:0:0:0:50:bass.wav
192,192,136280,1,8,0:0:0:100:clap.wav
64,192,137030,1,0,0:0:0:50:bass.wav
448,192,137592,1,0,0:0:0:50:bass.wav
192,192,137780,1,8,0:0:0:100:clap.wav
320,192,138155,128,0,138905:0:0:0:50:bass.wav
192,192,138905,128,2,139280:0:0:0:0:
448,192,139280,1,8,0:0:0:100:clap.wav
320,192,139655,1,0,0:0:0:0:
192,192,140030,128,0,140405:0:0:0:50:bass.wav
448,192,140405,128,0,140780:0:0:0:0:
64,192,140780,128,8,141155:0:0:0:100:clap.wav
320,192,141155,128,0,141530:0:0:0:50:bass.wav
448,192,141530,128,0,141905:0:0:0:0:
192,192,141905,128,0,142280:0:0:0:50:bass.wav
320,192,142280,128,8,142655:0:0:0:100:clap.wav
64,192,142655,128,0,143030:0:0:0:0:
448,192,143030,128,0,143405:0:0:0:50:bass.wav
192,192,143405,128,0,143780:0:0:0:0:
320,192,143780,128,8,144155:0:0:0:100:clap.wav
448,192,144155,128,0,144530:0:0:0:50:bass.wav
64,192,144530,1,0,0:0:0:0:
320,192,144905,1,2,0:0:0:0:
192,192,145280,128,8,145655:0:0:0:100:clap.wav
448,192,145655,128,0,146030:0:0:0:0:
64,192,146030,128,0,146405:0:0:0:50:bass.wav
320,192,146405,128,0,146780:0:0:0:0:
192,192,146780,128,8,147155:0:0:0:100:clap.wav
448,192,147155,128,0,147530:0:0:0:50:bass.wav
320,192,147530,128,0,147905:0:0:0:0:
64,192,147905,128,0,148280:0:0:0:50:bass.wav
448,192,148280,128,8,148655:0:0:0:100:clap.wav
192,192,148655,128,0,149030:0:0:0:0:
320,192,149030,128,0,149405:0:0:0:50:bass.wav
64,192,149405,128,0,149780:0:0:0:0:
192,192,149780,128,8,150155:0:0:0:100:clap.wav
448,192,150155,128,0,150530:0:0:0:50:bass.wav
64,192,150530,1,0,0:0:0:0:
320,192,150905,1,2,0:0:0:0:
192,192,151280,128,8,151655:0:0:0:100:clap.wav
448,192,151655,128,0,152030:0:0:0:0:
