osu file format v14

[General]
AudioFilename: audio.mp3
AudioLeadIn: 0
PreviewTime: 91544
Countdown: 0
SampleSet: Soft
StackLeniency: 0.7
Mode: 2
LetterboxInBreaks: 0
WidescreenStoryboard: 0

[Editor]
Bookmarks: 47616,66472,78580,88758,187864,195346,215723,248723,254715,277498,326056
DistanceSpacing: 1.8
BeatDivisor: 4
GridSize: 32
TimelineZoom: 2.839999

[Metadata]
Title:Mundo
TitleUnicode:Mundo
Artist:IV OF SPADES
ArtistUnicode:IV OF SPADES
Creator:Crowley
Version:Maging mundo ko.
Source:
Tags:4 Four Zild Benitez Blaster Silonga Badjao de Castro Unique Salonga Tagalog OPM Filipino Marathon
BeatmapID:1695659
BeatmapSetID:807997

[Difficulty]
HPDrainRate:6
CircleSize:5.6
OverallDifficulty:8.2
ApproachRate:8.2
SliderMultiplier:2
SliderTickRate:2

[Events]
//Background and Video events
0,0,"g.png",0,0
//Break Periods
2,127528,131100
2,319507,320935
2,326378,327753
2,329835,331128
2,333223,334610
2,340068,341467
//Storyboard Layer 0 (Background)
//Storyboard Layer 1 (Fail)
//Storyboard Layer 2 (Pass)
//Storyboard Layer 3 (Foreground)
//Storyboard Sound Samples

[TimingPoints]
3902,428.571428571429,4,2,0,5,1,0
6473,-100,4,2,0,10,0,0
6902,-100,4,2,0,20,0,0
7759,-100,4,2,0,25,0,0
8187,-100,4,2,0,30,0,0
8616,-100,4,2,0,35,0,0
9902,-100,4,2,0,15,0,0
10544,-100,4,2,0,5,0,0
10759,-100,4,2,1,50,0,0
11509,-100,4,2,2,40,0,0
11723,-100,4,2,1,50,0,0
14937,-100,4,2,2,40,0,0
15152,-100,4,2,1,50,0,0
18366,-100,4,2,2,40,0,0
18580,-100,4,2,1,50,0,0
19652,-100,4,2,3,40,0,0
19866,-100,4,2,1,50,0,0
21794,-100,4,2,2,40,0,0
22009,-100,4,2,1,50,0,0
23080,-100,4,2,3,40,0,0
23294,-100,4,2,1,50,0,0
25223,-100,4,2,2,40,0,0
25437,-100,4,2,1,50,0,0
28652,-100,4,2,2,40,0,0
28866,-100,4,2,1,50,0,0
32080,-100,4,2,2,40,0,0
32294,-100,4,2,1,50,0,0
33366,-100,4,2,3,40,0,0
33580,-100,4,2,1,50,0,0
35509,-100,4,2,2,40,0,0
35723,-100,4,2,1,50,0,0
36794,-100,4,2,3,40,0,0
37009,-100,4,2,1,50,0,0
37748,428.571428571429,4,2,1,50,1,0
38187,428.571428571429,4,2,1,50,1,0
41080,-100,4,2,2,40,0,0
41294,-100,4,2,1,50,0,0
45794,-100,4,2,2,40,0,0
46009,-100,4,2,1,50,0,0
47166,472.44094488189,4,2,1,50,1,0
47402,428.571428571429,4,2,1,50,1,0
48473,428.571428571429,4,2,1,50,1,0
49223,-100,4,2,2,40,0,0
49437,-100,4,2,1,50,0,0
50604,454.545454545455,4,2,1,50,1,0
50830,428.571428571429,4,2,1,50,1,0
51901,428.571428571429,4,2,1,50,1,0
58222,-100,4,2,2,40,0,0
58436,-100,4,2,1,50,0,0
59508,-100,4,2,2,40,0,0
59722,-100,4,2,1,50,0,0
62936,-100,4,2,2,40,0,0
63151,-100,4,2,1,50,0,0
65151,500,4,2,1,50,1,0
65401,428.571428571429,4,2,1,50,1,0
65615,428.571428571429,4,2,1,50,1,0
68579,461.538461538462,4,2,1,50,1,0
69043,428.571428571429,4,2,1,50,1,0
71936,-100,4,2,2,40,0,0
72151,-100,4,2,1,50,0,0
73222,-100,4,2,2,40,0,0
73436,-100,4,2,1,50,0,0
76651,-100,4,2,2,40,0,0
76865,-100,4,2,1,50,0,0
78025,468.75,4,2,1,50,1,0
78259,428.571428571429,4,2,1,50,1,0
79330,428.571428571429,4,2,1,50,1,0
85651,-100,4,2,2,40,0,0
85865,-100,4,2,1,50,0,0
86937,-100,4,2,2,40,0,0
87151,-100,4,2,1,50,0,0
88305,480,4,2,1,50,1,0
88544,428.571428571429,4,2,1,50,1,0
89615,428.571428571429,4,2,1,50,1,0
91757,400,4,2,1,50,1,0
91958,428.571428571429,4,2,1,50,1,0
92625,387.096774193548,4,2,1,50,1,0
93043,428.571428571429,4,2,1,50,1,1
93043,-100,4,2,1,50,0,1
93150,-100,4,2,1,50,0,0
98935,-100,4,2,2,50,0,0
99150,-100,4,2,1,50,0,0
104078,-100,4,2,2,50,0,0
104293,-100,4,2,1,50,0,0
104935,-100,4,2,3,50,0,0
105150,-100,4,2,1,50,0,0
112650,-100,4,2,2,50,0,0
112864,-100,4,2,1,50,0,0
122614,-133.333333333333,4,2,1,50,0,0
123444,428.571428571429,4,2,1,50,1,0
123900,428.571428571429,4,2,1,50,1,0
123900,-100,4,2,1,50,0,0
125828,-100,4,2,1,40,0,0
132900,-100,4,2,1,30,0,0
133328,-100,4,2,1,40,0,0
133543,-100,4,2,1,35,0,0
133757,-100,4,2,1,45,0,0
134185,-100,4,2,1,50,0,0
134935,-100,4,2,2,40,0,0
135150,-100,4,2,1,50,0,0
137145,428.571428571429,4,2,1,50,1,0
137400,428.571428571429,4,2,1,50,1,0
138364,-100,4,2,2,40,0,0
138578,-100,4,2,1,50,0,0
141042,428.571428571429,4,2,1,50,1,0
147364,-100,4,2,2,40,0,0
147578,-100,4,2,1,50,0,0
148650,-100,4,2,2,40,0,0
148864,-100,4,2,1,50,0,0
154756,-100,4,2,1,50,0,1
154863,-100,4,2,1,50,0,0
160650,-100,4,2,2,50,0,0
160864,-100,4,2,1,50,0,0
165793,-100,4,2,2,50,0,0
166007,-100,4,2,1,50,0,0
166650,-100,4,2,3,50,0,0
166864,-100,4,2,1,50,0,0
174364,-100,4,2,2,50,0,0
174578,-100,4,2,1,50,0,0
182185,-100,4,2,1,40,0,0
187304,480,4,2,1,40,1,0
187543,428.571428571429,4,2,1,40,1,0
189043,428.571428571429,4,2,1,40,1,0
189900,-133.333333333333,4,2,1,40,0,0
190757,-100,4,2,1,40,0,0
193971,-100,4,2,1,20,0,0
194185,-100,4,2,1,40,0,0
195036,413.793103448276,4,2,1,40,1,0
195471,428.571428571429,4,2,1,40,1,0
195792,-100,4,2,1,10,0,0
195900,428.571428571429,4,2,1,45,1,0
195900,-100,4,2,1,45,0,0
198455,428.571428571429,4,2,1,40,1,0
199328,428.571428571429,4,2,1,40,1,0
209614,-100,4,2,1,30,0,0
211328,-100,4,2,1,35,0,0
213042,-100,4,2,1,40,0,0
215173,413.793103448276,4,2,1,40,1,0
215793,434.782608695652,4,2,1,40,1,0
216473,428.571428571429,4,2,1,40,1,0
222794,-100,4,2,2,30,0,0
223008,-100,4,2,1,40,0,0
226651,-100,4,2,3,30,0,0
226865,-100,4,2,1,40,0,0
237031,428.571428571429,4,2,1,40,1,0
249015,454.545454545455,4,2,1,40,1,0
249242,428.571428571429,4,2,1,40,1,0
250759,427.86850174713,4,2,1,10,1,0
251186,-100,4,2,1,20,0,0
251293,-100,4,2,1,30,0,0
251400,-100,4,2,1,40,0,0
251614,-100,4,2,1,50,0,1
253295,427.86850174713,4,2,1,50,1,1
253754,427.86850174713,4,2,1,50,1,1
254074,-100,4,2,1,10,0,1
254155,480,4,2,1,50,1,1
254155,-100,4,2,1,50,0,1
254395,427.86850174713,4,2,1,50,1,1
255893,427.86850174713,4,2,1,50,1,1
264022,-100,4,2,1,50,0,0
264450,428.571428571429,4,2,1,50,1,1
264450,-90.9090909090909,4,2,1,50,0,1
270342,-90.9090909090909,4,2,2,50,0,1
270557,-90.9090909090909,4,2,1,50,0,1
276878,413.793103448276,4,2,1,50,1,1
276878,-90.9090909090909,4,2,1,50,0,1
277733,402.684563758389,4,2,1,50,1,1
277733,-90.9090909090909,4,2,1,50,0,1
278136,458.015267175573,4,2,1,50,1,1
278136,-90.00900090009,4,2,1,50,0,1
278592,428.571428571429,4,2,1,50,1,1
278592,-90.9918107370337,4,2,1,50,0,1
279878,428.571428571429,4,2,1,50,1,1
279878,-90.9090909090909,4,2,1,50,0,1
284056,-90.9090909090909,4,2,2,50,0,1
284270,-90.9090909090909,4,2,1,50,0,1
290485,-90.9090909090909,4,2,1,10,0,1
290592,-90.9090909090909,4,2,1,50,0,1
291449,-100,4,2,1,50,0,0
291878,-90.9090909090909,4,2,1,50,0,1
297770,-90.9090909090909,4,2,2,50,0,1
297985,-90.9090909090909,4,2,1,50,0,1
305056,-90.9090909090909,4,2,1,10,0,1
305163,-90.9090909090909,4,2,1,50,0,1
309471,428.571428571429,4,2,1,50,1,1
309471,-90.9090909090909,4,2,1,50,0,1
309878,428.571428571429,4,2,1,50,1,1
309878,-90.9090909090909,4,2,1,50,0,1
311485,-90.9090909090909,4,2,2,50,0,1
311699,-90.9090909090909,4,2,1,50,0,1
318020,-90.9090909090909,4,2,1,45,0,1
318449,-90.9090909090909,4,2,1,40,0,1
318878,-90.9090909090909,4,2,1,35,0,1
319306,-100,4,2,1,20,0,0
322735,-133.333333333333,4,2,1,20,0,0
326071,428.571428571429,4,2,1,20,1,0
326178,428.571428571429,4,2,1,20,1,0
329535,400,4,2,1,20,1,0
332935,352.941176470588,4,2,1,20,1,0
336464,428.571428571429,4,2,1,15,1,0
336464,-133.333333333333,4,2,1,15,0,0
337749,437.956204379562,4,2,1,15,1,0
337749,-133.333333333333,4,2,1,15,0,0
338624,-133.333333333333,4,2,1,20,0,0
339785,333.333333333333,4,2,1,20,1,0
339785,-133.333333333333,4,2,1,20,0,0
343285,428.571428571429,4,2,1,20,1,0
343285,-333.333333333333,4,2,1,20,0,0
346713,-333.333333333333,4,2,5,5,0,0

[Colours]
Combo1 : 255,128,128
Combo2 : 255,128,192
Combo3 : 255,128,255

[HitObjects]
256,192,4544,12,0,10544,0:0:0:0:
27,234,10759,6,0,L|139:232,2,100,6|0|2,0:0|0:0|0:0,0:0:0:0:
198,155,11402,2,0,P|265:220|191:300,1,200,2|0,0:0|0:0,0:0:0:0:
113,305,12044,1,0,0:0:0:0:
284,343,12259,6,0,L|497:341,1,200,2|0,0:0|0:0,0:0:0:0:
386,329,12902,1,4,0:0:0:0:
191,320,13116,2,0,P|135:305|205:220,1,200,2|0,0:0|0:0,0:0:0:0:
330,205,13759,2,0,L|334:306,1,100,10|0,0:0|0:0,0:0:0:0:
110,147,14187,6,0,L|-1:146,2,100,6|0|2,0:0|0:0|0:0,0:0:0:0:
285,217,14830,2,0,L|41:217,1,200,2|0,0:0|0:0,0:0:0:0:
193,201,15473,1,0,0:0:0:0:
383,196,15687,6,0,L|168:195,1,200,2|0,0:0|0:0,0:0:0:0:
56,195,16330,1,4,0:0:0:0:
249,317,16544,2,0,P|319:270|228:225,1,200,2|0,0:0|0:0,0:0:0:0:
112,213,17187,2,0,L|-5:215,1,100,10|0,0:0|0:0,0:0:0:0:
290,115,17616,6,0,L|295:259,1,100,6|0,0:0|0:0,0:0:0:0:
168,284,18044,1,2,0:0:0:0:
339,282,18259,2,0,P|381:240|293:160,1,200,2|0,0:0|0:0,0:0:0:0:
186,159,18902,1,0,0:0:0:0:
370,207,19116,6,2,L|254:211,1,100
459,141,19544,2,0,P|504:167|444:272,1,200,2|0,0:0|0:0,0:0:0:0:
342,278,20187,1,0,0:0:0:0:
233,278,20402,1,0,0:0:0:0:
358,190,20616,2,0,L|236:188,1,100,8|0,0:0|0:0,0:0:0:0:
108,103,21044,6,0,L|231:98,1,100,6|0,0:0|0:0,0:0:0:0:
325,94,21473,1,2,0:0:0:0:
145,44,21687,2,0,L|107:259,1,200,2|0,0:0|0:0,0:0:0:0:
233,244,22330,1,0,0:0:0:0:
75,336,22544,6,2,L|191:334,1,100
354,321,22973,2,0,P|400:284|310:193,1,200,2|0,0:0|0:0,0:0:0:0:
185,178,23616,1,0,0:0:0:0:
295,177,23830,1,0,0:0:0:0:
114,90,24044,2,0,L|108:213,1,100,10|0,0:0|0:0,0:0:0:0:
414,291,24473,6,0,L|314:294,2,100,6|0|2,0:0|0:0|0:0,0:0:0:0:
230,352,25116,2,0,L|448:345,1,200,2|0,0:0|0:0,0:0:0:0:
328,335,25759,1,0,0:0:0:0:
141,325,25973,6,0,P|131:246|242:188,1,200,2|0,0:0|0:0,0:0:0:0:
345,182,26616,1,4,0:0:0:0:
158,273,26830,2,0,P|97:232|186:175,1,200,2|0,0:0|0:0,0:0:0:0:
283,168,27473,1,10,0:0:0:0:
160,163,27687,1,0,0:0:0:0:
361,56,27902,6,0,L|468:56,2,100,2|0|2,0:0|0:0|0:0,0:0:0:0:
170,148,28544,2,0,B|266:113|247:184|373:141,1,200,2|0,0:0|0:0,0:0:0:0:
247,138,29187,1,0,0:0:0:0:
439,220,29402,6,0,L|228:221,1,200,2|0,0:0|0:0,0:0:0:0:
348,202,30044,1,4,0:0:0:0:
161,200,30259,2,0,P|119:151|237:108,1,200,2|0,0:0|0:0,0:0:0:0:
343,78,30902,2,0,L|353:195,1,100,10|0,0:0|0:0,0:0:0:0:
54,284,31330,6,0,L|174:284,1,100,6|0,0:0|0:0,0:0:0:0:
42,217,31759,1,2,0:0:0:0:
232,216,31973,2,0,P|292:194|220:115,1,200,2|0,0:0|0:0,0:0:0:0:
130,111,32616,1,0,0:0:0:0:
309,120,32830,6,0,L|315:234,1,100,2|2,0:0|0:0,0:0:0:0:
164,265,33259,2,0,L|365:261,1,200
245,243,33902,1,0,0:0:0:0:
435,315,34116,2,0,L|325:317,2,100,0|10|0,0:0|0:0|0:0,0:0:0:0:
259,360,34759,6,0,L|253:229,1,100,6|0,0:0|0:0,0:0:0:0:
379,255,35187,1,2,0:0:0:0:
187,235,35402,2,0,P|141:186|248:128,1,200,2|0,0:0|0:0,0:0:0:0:
317,109,36044,1,0,0:0:0:0:
504,173,36259,6,2,L|392:173,1,100
223,186,36687,2,0,L|426:184,1,200
314,171,37330,1,0,0:0:0:0:
455,165,37544,1,0,0:0:0:0:
277,104,37748,2,0,L|420:105,1,100,8|0,0:0|0:0,0:0:0:0:
94,358,38187,6,0,P|37:329|112:257,1,200,6|2,0:0|0:0,0:0:0:0:
353,253,39044,2,0,P|410:224|335:152,1,200,10|2,0:0|0:0,0:0:0:0:
101,156,39902,2,0,L|303:155,1,200,6|2,0:0|0:0,0:0:0:0:
212,142,40544,1,0,0:0:0:0:
15,83,40759,2,0,L|175:83,2,150,2|0|0,0:0|0:0|0:0,0:0:0:0:
206,7,41616,6,0,P|252:38|186:140,1,200,6|2,0:0|0:0,0:0:0:0:
22,193,42473,2,0,L|228:193,1,200,10|2,0:0|0:0,0:0:0:0:
126,179,43116,1,0,0:0:0:0:
316,172,43330,2,0,L|324:339,1,150,2|0,0:0|0:0,0:0:0:0:
84,361,43973,2,0,L|296:362,1,200
113,344,44616,2,0,L|6:340,1,100,10|0,0:0|0:0,0:0:0:0:
294,193,45044,6,0,L|160:192,2,100,6|0|2,0:0|0:0|0:0,0:0:0:0:
100,128,45687,2,0,P|47:151|132:225,1,200,2|0,0:0|0:0,0:0:0:0:
212,242,46330,1,0,0:0:0:0:
390,295,46544,6,0,L|155:296,1,200,2|0,0:0|0:0,0:0:0:0:
284,280,47166,1,4,0:0:0:0:
466,216,47402,2,0,P|491:275|377:348,1,200,2|0,0:0|0:0,0:0:0:0:
279,355,48044,1,10,0:0:0:0:
400,354,48259,1,0,0:0:0:0:
216,292,48473,6,0,L|334:293,2,100,6|0|2,0:0|0:0|0:0,0:0:0:0:
391,217,49116,2,0,L|152:215,1,200,2|0,0:0|0:0,0:0:0:0:
296,199,49759,1,0,0:0:0:0:
487,145,49973,6,0,L|248:145,1,200,2|0,0:0|0:0,0:0:0:0:
152,146,50604,1,4,0:0:0:0:
332,212,50830,2,0,P|396:183|325:114,1,200,2|0,0:0|0:0,0:0:0:0:
194,114,51473,2,0,L|87:113,1,100,10|0,0:0|0:0,0:0:0:0:
373,48,51902,6,0,P|451:29|480:155,1,200,6|2,0:0|0:0,0:0:0:0:
263,174,52759,2,0,P|185:155|156:281,1,200,10|2,0:0|0:0,0:0:0:0:
439,352,53616,2,0,P|486:323|410:232,1,200,6|2,0:0|0:0,0:0:0:0:
334,228,54259,1,0,0:0:0:0:
160,269,54472,2,0,L|370:270,1,200,0|8,0:0|0:0,0:0:0:0:
216,257,55115,1,0,0:0:0:0:
410,147,55330,6,0,P|484:98|427:18,1,200,6|2,0:0|0:0,0:0:0:0:
179,40,56187,2,0,L|385:40,1,200,10|2,0:0|0:0,0:0:0:0:
225,27,56793,1,0,0:0:0:0:
400,67,57044,2,0,L|212:67,1,133.333333333333,2|0,0:0|0:0,0:0:0:0:
455,20,57651,2,0,L|462:147,1,116.666666666667
268,182,58116,2,0,L|481:183,1,200,2|0,0:0|0:0,0:0:0:0:
198,355,58759,6,0,L|57:355,2,100,6|0|2,0:0|0:0|0:0,0:0:0:0:
57,300,59402,2,0,L|272:301,1,200,2|0,0:0|0:0,0:0:0:0:
152,284,60044,1,0,0:0:0:0:
314,284,60259,6,0,P|373:254|294:184,1,200,2|0,0:0|0:0,0:0:0:0:
183,180,60902,1,4,0:0:0:0:
337,232,61116,2,0,L|135:233,1,200,2|0,0:0|0:0,0:0:0:0:
248,213,61759,1,8,0:0:0:0:
360,197,61973,1,0,0:0:0:0:
190,162,62187,6,0,L|301:163,2,100,6|0|2,0:0|0:0|0:0,0:0:0:0:
15,162,62830,2,0,L|224:161,1,200,2|0,0:0|0:0,0:0:0:0:
326,163,63473,1,0,0:0:0:0:
160,257,63687,6,0,P|94:235|161:162,1,200,2|0,0:0|0:0,0:0:0:0:
258,159,64330,1,4,0:0:0:0:
437,161,64544,2,0,L|232:159,1,200,2|0,0:0|0:0,0:0:0:0:
428,132,65151,2,0,L|321:131,1,100,10|0,0:0|0:0,0:0:0:0:
28,337,65616,6,0,L|243:337,1,200,6|2,0:0|0:0,0:0:0:0:
484,337,66472,2,0,L|269:337,1,200,10|2,0:0|0:0,0:0:0:0:
30,255,67330,2,0,P|30:186|168:146,1,200,6|2,0:0|0:0,0:0:0:0:
232,131,67973,1,0,0:0:0:0:
406,145,68187,2,0,L|249:144,1,133.333333333333,2|0,0:0|0:0,0:0:0:0:
326,128,68579,2,0,L|438:128,1,100,8|0,0:0|0:0,0:0:0:0:
240,61,69044,6,0,L|231:264,1,200,6|2,0:0|0:0,0:0:0:0:
460,126,69900,2,0,L|469:329,1,200,10|2,0:0|0:0,0:0:0:0:
239,349,70757,2,0,P|172:329|236:253,1,200,6|2,0:0|0:0,0:0:0:0:
364,251,71373,1,0,0:0:0:0:
102,247,71829,2,0,P|39:178|116:132,1,200
402,119,72471,6,0,L|550:118,2,100,6|0|2,0:0|0:0|0:0,0:0:0:0:
217,121,73114,2,0,P|201:38|303:4,1,200,2|0,0:0|0:0,0:0:0:0:
410,3,73757,1,0,0:0:0:0:
235,157,73971,6,0,L|15:154,1,200,2|0,0:0|0:0,0:0:0:0:
158,207,74614,1,4,0:0:0:0:
328,264,74828,2,0,L|107:265,1,200,2|0,0:0|0:0,0:0:0:0:
282,315,75471,2,0,L|165:315,1,100,10|0,0:0|0:0,0:0:0:0:
370,251,75900,6,4,L|486:251,2,100,6|0|2,0:0|0:0|0:0,0:0:0:0:
190,298,76543,2,0,P|128:279|209:219,1,200,2|0,0:0|0:0,0:0:0:0:
331,215,77186,1,0,0:0:0:0:
159,269,77400,6,0,P|104:248|138:109,1,200,2|0,0:0|0:0,0:0:0:0:
233,124,78025,1,4,0:0:0:0:
431,186,78259,2,0,L|216:185,1,200,2|0,0:0|0:0,0:0:0:0:
415,165,78902,2,0,L|428:273,1,100,10|0,0:0|0:0,0:0:0:0:
105,364,79330,6,0,P|90:317|205:244,1,200,6|2,0:0|0:0,0:0:0:0:
421,249,80187,2,0,L|193:249,1,200,10|2,0:0|0:0,0:0:0:0:
450,155,81044,2,0,L|226:154,1,200,6|2,0:0|0:0,0:0:0:0:
352,135,81687,1,0,0:0:0:0:
174,133,81901,2,0,P|152:106|215:46,1,133.333333333333,2|0,0:0|0:0,0:0:0:0:
280,42,82330,1,8,0:0:0:0:
148,33,82544,1,0,0:0:0:0:
345,147,82759,6,0,L|351:355,1,200,6|2,0:0|0:0,0:0:0:0:
154,58,83616,2,0,L|148:266,1,200,10|2,0:0|0:0,0:0:0:0:
254,265,84259,1,0,0:0:0:0:
444,267,84473,2,0,L|217:266,1,200,6|2,0:0|0:0,0:0:0:0:
94,185,85116,2,0,L|324:186,2,200
365,85,86187,6,0,L|374:215,1,100,6|0,0:0|0:0,0:0:0:0:
238,235,86616,1,2,0:0:0:0:
390,288,86830,2,0,L|151:290,1,200,2|0,0:0|0:0,0:0:0:0:
291,270,87473,1,0,0:0:0:0:
115,271,87687,6,0,L|98:58,1,200,2|0,0:0|0:0,0:0:0:0:
210,62,88305,1,4,0:0:0:0:
371,117,88544,2,0,L|150:115,1,200,2|0,0:0|0:0,0:0:0:0:
301,91,89186,2,0,L|307:219,1,100,8|0,0:0|0:0,0:0:0:0:
162,245,89615,6,0,L|279:246,2,100,6|0|2,0:0|0:0|0:0,0:0:0:0:
315,170,90257,1,2,0:0:0:0:
33,141,90472,2,0,L|154:140,1,100,8|8,0:0|0:0,0:0:0:0:
284,182,90900,2,0,L|168:182,1,100,4|6,0:0|0:0,0:0:0:0:
344,104,91329,2,0,L|226:102,1,100,4|0,0:0|0:0,0:0:0:0:
43,193,91757,6,0,L|169:192,1,100,8|10,0:0|0:0,0:0:0:0:
411,334,92172,2,8,L|518:334,1,100
195,276,92625,2,8,L|76:275,1,100,10|8,0:0|0:0,0:0:0:0:
426,337,93044,6,0,P|493:300|405:242,1,200,6|0,0:1|0:0,0:0:0:0:
158,227,93900,2,0,L|370:228,1,200,12|0,0:0|0:0,0:0:0:0:
86,337,94757,2,0,P|19:300|107:242,1,200,4|0,0:0|0:0,0:0:0:0:
413,231,95614,1,12,0:0:0:0:
130,227,96043,1,4,0:0:0:0:
479,76,96471,6,0,L|505:188,1,100,4|0,0:0|0:0,0:0:0:0:
331,198,96900,2,0,L|214:194,1,100,2|0,0:0|0:0,0:0:0:0:
89,293,97328,2,0,L|205:288,1,100,14|0,0:0|0:0,0:0:0:0:
380,224,97757,2,0,L|263:220,1,100,2|0,0:0|0:0,0:0:0:0:
19,176,98185,6,0,L|259:176,1,200,4|0,0:0|0:0,0:0:0:0:
405,266,98828,2,0,L|182:265,1,200
337,243,99471,2,0,L|345:371,1,100
63,215,99900,6,0,L|299:215,1,200,4|0,0:0|0:0,0:0:0:0:
55,149,100757,1,12,0:0:0:0:
361,144,101185,2,0,L|382:362,1,200,0|4,0:0|0:0,0:0:0:0:
39,29,102043,2,0,L|18:247,1,200,0|12,0:0|0:0,0:0:0:0:
316,234,102900,1,4,0:0:0:0:
221,233,103114,1,0,0:0:0:0:
32,232,103328,6,0,L|263:233,1,200,6|2,0:0|0:0,0:0:0:0:
117,214,103971,2,0,P|69:176|142:87,1,200,2|0,0:0|0:0,0:0:0:0:
267,86,104614,1,0,0:0:0:0:
438,89,104828,6,0,L|219:88,1,200,2|0,0:0|0:0,0:0:0:0:
415,88,105471,2,0,P|476:155|413:221,1,200,2|12,0:0|0:0,0:0:0:0:
89,224,106328,2,0,L|200:223,1,100
496,337,106757,6,0,L|252:334,1,200,4|0,0:0|0:0,0:0:0:0:
16,337,107614,2,0,L|260:334,1,200,12|0,0:0|0:0,0:0:0:0:
481,240,108471,2,0,P|492:160|368:106,1,200,4|0,0:0|0:0,0:0:0:0:
121,99,109328,1,12,0:0:0:0:
402,97,109757,1,4,0:0:0:0:
95,93,110185,6,0,L|93:215,1,100,4|0,0:0|0:0,0:0:0:0:
257,224,110614,2,0,L|362:219,1,100,2|0,0:0|0:0,0:0:0:0:
171,338,111043,2,0,L|66:333,1,100,14|0,0:0|0:0,0:0:0:0:
277,246,111471,2,0,L|382:241,1,100,2|0,0:0|0:0,0:0:0:0:
71,262,111900,6,0,P|6:245|79:184,1,200,4|0,0:0|0:0,0:0:0:0:
181,176,112543,2,0,L|6:80,2,200
487,158,113614,6,0,L|502:365,1,200,4|0,0:0|0:0,0:0:0:0:
242,354,114471,1,12,0:0:0:0:
499,266,114900,2,0,L|286:260,1,200,0|4,0:0|0:0,0:0:0:0:
13,266,115757,2,0,L|226:260,1,200,0|12,0:0|0:0,0:0:0:0:
470,261,116614,1,4,0:0:0:0:
373,260,116828,1,0,0:0:0:0:
213,262,117043,6,0,L|205:137,1,100,4|0,0:0|0:0,0:0:0:0:
328,141,117471,2,0,L|106:141,2,200,0|12|0,0:0|0:0|0:0,0:0:0:0:
107,39,118757,2,0,L|92:247,1,200,4|0,0:0|0:0,0:0:0:0:
408,247,119614,1,12,0:0:0:0:
92,238,120043,1,0,0:0:0:0:
390,361,120471,6,0,P|451:344|305:216,1,400,6|8,0:0|0:0,0:0:0:0:
78,186,122614,2,0,L|328:186,1,225.000008583069,4|0,0:0|0:0,0:0:0:0:
477,187,123444,1,8,0:0:0:0:
197,348,123900,6,0,B|184:203|184:203|327:189|327:189|315:58,1,400,4|8,0:0|0:0,0:0:0:0:
102,69,125828,1,2,0:0:0:0:
219,76,126042,2,0,P|293:74|239:244,1,300,4|0,0:0|0:0,0:0:0:0:
97,257,126900,1,8,0:0:0:0:
360,346,127328,5,2,0:0:0:0:
221,295,132900,5,12,0:3:0:0:
293,296,133114,1,12,0:3:0:0:
143,235,133328,5,12,0:3:0:0:
127,153,133542,1,4,0:3:0:0:
445,126,133757,5,12,0:3:0:0:
324,124,133971,1,12,0:3:0:0:
47,208,134185,6,0,L|45:91,1,100,6|0,0:0|0:0,0:0:0:0:
146,93,134614,1,2,0:0:0:0:
324,142,134828,2,0,L|92:142,1,200,2|0,0:0|0:0,0:0:0:0:
233,122,135471,1,0,0:0:0:0:
413,106,135685,6,0,P|456:146|363:213,1,200,2|0,0:0|0:0,0:0:0:0:
235,219,136328,1,4,0:0:0:0:
421,338,136542,2,0,L|426:122,1,200
298,139,137145,1,10,0:0:0:0:
415,140,137400,1,0,0:0:0:0:
240,183,137614,5,6,0:0:0:0:
356,184,137828,1,0,0:0:0:0:
240,183,138042,1,2,0:0:0:0:
417,123,138257,2,0,P|465:157|394:253,1,200,2|0,0:0|0:0,0:0:0:0:
298,254,138900,1,0,0:0:0:0:
117,328,139114,6,2,L|326:326,1,200,2|0,0:0|0:0,0:0:0:0:
219,307,139757,1,4,0:0:0:0:
45,288,139971,1,2,0:0:0:0:
159,289,140185,2,0,P|218:260|144:182,1,200,0|10,0:0|0:0,0:0:0:0:
42,178,140828,1,0,0:0:0:0:
327,184,141042,6,0,P|408:134|346:60,1,200,6|2,0:0|0:0,0:0:0:0:
130,225,141900,2,0,P|49:175|111:101,1,200,10|2,0:0|0:0,0:0:0:0:
300,104,142757,2,0,L|501:98,1,200,2|6,0:0|0:0,0:0:0:0:
407,89,143400,1,0,0:0:0:0:
204,166,143614,2,0,P|158:145|201:105,1,125,2|0,0:0|0:0,0:0:0:0:
300,104,144042,1,8,0:0:0:0:
196,104,144257,1,0,0:0:0:0:
401,69,144471,6,0,P|407:149|285:193,1,200,6|2,0:0|0:0,0:0:0:0:
111,69,145328,2,0,P|105:149|227:193,1,200,10|2,0:0|0:0,0:0:0:0:
297,200,145971,1,0,0:0:0:0:
469,200,146185,1,2,0:0:0:0:
364,198,146400,2,0,L|359:306,1,100,0|6,0:0|0:0,0:0:0:0:
481,351,146828,2,0,L|255:351,2,200
205,274,147900,6,0,L|65:268,2,100,6|0|2,0:0|0:0|0:0,0:0:0:0:
25,218,148542,2,0,L|265:217,1,200,2|0,0:0|0:0,0:0:0:0:
348,215,149185,1,0,0:0:0:0:
157,165,149400,6,0,P|101:150|177:75,1,200,2|0,0:0|0:0,0:0:0:0:
296,61,150042,1,4,0:0:0:0:
468,113,150257,2,0,L|262:112,1,200
442,93,150900,2,0,L|447:236,1,100,10|0,0:0|0:0,0:0:0:0:
135,191,151328,6,0,L|4:187,2,100,6|0|2,0:0|0:0|0:0,0:0:0:0:
293,191,151971,1,2,0:0:0:0:
29,94,152185,2,0,L|28:206,1,100,10|2,0:0|0:0,0:0:0:0:
204,229,152614,2,0,L|73:230,1,100
382,338,153042,2,0,L|488:333,1,100,10|0,0:0|0:0,0:0:0:0:
210,273,153471,5,8,0:0:0:0:
59,267,153685,2,0,P|39:193|151:133,1,200,4|0,0:0|0:0,0:0:0:0:
450,328,154328,2,8,L|343:325,1,100
86,337,154757,6,0,P|19:300|107:242,1,200,6|0,0:1|0:0,0:0:0:0:
354,227,155613,2,0,L|142:228,1,200,12|0,0:0|0:0,0:0:0:0:
426,337,156470,2,0,P|493:300|405:242,1,200,4|0,0:0|0:0,0:0:0:0:
99,231,157327,1,12,0:0:0:0:
382,227,157756,1,4,0:0:0:0:
33,76,158184,6,0,L|10:189,1,100,4|0,0:0|0:0,0:0:0:0:
181,198,158614,2,0,L|298:194,1,100,2|0,0:0|0:0,0:0:0:0:
423,293,159042,2,0,L|307:288,1,100,14|0,0:0|0:0,0:0:0:0:
124,232,159470,2,0,L|241:228,1,100,2|0,0:0|0:0,0:0:0:0:
493,176,159899,6,0,L|253:176,1,200,4|0,0:0|0:0,0:0:0:0:
107,266,160542,2,0,L|330:265,1,200
175,243,161184,2,0,L|167:371,1,100
449,215,161613,6,0,L|213:215,1,200,4|0,0:0|0:0,0:0:0:0:
457,149,162470,1,12,0:0:0:0:
151,144,162899,2,0,L|130:362,1,200,0|4,0:0|0:0,0:0:0:0:
473,29,163757,2,0,L|494:247,1,200,0|12,0:0|0:0,0:0:0:0:
196,234,164613,1,4,0:0:0:0:
291,233,164827,1,0,0:0:0:0:
480,225,165042,6,0,L|249:226,1,200,6|2,0:0|0:0,0:0:0:0:
392,214,165684,2,0,P|440:176|367:87,1,200,2|0,0:0|0:0,0:0:0:0:
245,86,166327,1,0,0:0:0:0:
74,89,166542,6,0,L|293:88,1,200,2|0,0:0|0:0,0:0:0:0:
97,88,167184,2,0,P|36:157|110:221,1,200,2|12,0:0|0:0,0:0:0:0:
423,224,168042,2,0,L|312:223,1,100
16,337,168470,6,0,L|260:334,1,200,4|0,0:0|0:0,0:0:0:0:
496,337,169327,2,0,L|252:334,1,200,12|0,0:0|0:0,0:0:0:0:
31,240,170184,2,0,P|20:160|144:106,1,200,4|0,0:0|0:0,0:0:0:0:
391,99,171042,1,12,0:0:0:0:
110,97,171470,1,4,0:0:0:0:
417,93,171899,6,0,L|419:215,1,100,4|0,0:0|0:0,0:0:0:0:
255,224,172327,2,0,L|150:219,1,100,2|0,0:0|0:0,0:0:0:0:
341,338,172756,2,0,L|446:333,1,100,14|0,0:0|0:0,0:0:0:0:
235,246,173184,2,0,L|130:241,1,100,2|0,0:0|0:0,0:0:0:0:
441,262,173613,6,0,P|506:245|433:184,1,200,4|0,0:0|0:0,0:0:0:0:
296,177,174256,2,0,L|499:176,2,200
25,158,175327,6,0,L|10:365,1,200,4|0,0:0|0:0,0:0:0:0:
270,354,176184,1,12,0:0:0:0:
13,266,176613,2,0,L|226:260,1,200,0|4,0:0|0:0,0:0:0:0:
499,266,177470,2,0,L|286:260,1,200,0|12,0:0|0:0,0:0:0:0:
42,261,178327,1,4,0:0:0:0:
139,260,178543,1,0,0:0:0:0:
299,262,178756,6,0,L|307:137,1,100,4|0,0:0|0:0,0:0:0:0:
175,139,179184,2,0,L|397:139,2,200,0|12|0,0:0|0:0|0:0,0:0:0:0:
405,39,180471,2,0,L|420:247,1,200,4|8,0:0|0:3,0:0:0:0:
104,247,181327,1,12,0:0:0:0:
420,238,181756,1,8,0:0:0:0:
150,333,182185,6,2,L|48:333,1,100,6|2,0:0|0:0,0:0:0:0:
190,261,182614,2,0,L|415:256,2,200,0|6|0,0:0|0:0|0:0,0:0:0:0:
439,184,183900,2,0,P|487:218|410:333,1,200,6|0,0:0|0:0,0:0:0:0:
215,339,184757,1,6,0:0:0:0:
445,338,185185,1,0,0:0:0:0:
135,281,185614,5,6,0:0:0:0:
77,263,185828,1,2,0:0:0:0:
57,206,186042,1,0,0:0:0:0:
90,156,186256,1,0,0:0:0:0:
198,153,186471,5,6,0:0:0:0:
27,145,186685,1,2,0:0:0:0:
268,70,187304,1,6,0:0:0:0:
97,62,187543,1,2,0:0:0:0:
345,21,188185,1,6,0:0:0:0:
171,17,188400,1,2,0:0:0:0:
315,22,188614,2,0,L|425:24,1,100,0|2,0:0|0:0,0:0:0:0:
116,164,189043,6,0,L|105:301,1,100,6|2,0:0|0:0,0:0:0:0:
232,272,189471,2,0,L|243:409,1,100
75,260,189900,2,0,L|327:258,1,225.000008583069,6|0,0:0|0:0,0:0:0:0:
195,256,190757,2,0,P|140:228|213:154,1,200,6|0,0:0|0:0,0:0:0:0:
479,162,191614,1,6,0:0:0:0:
246,162,192042,1,0,0:0:0:0:
479,162,192471,5,6,0:0:0:0:
373,160,192685,1,2,0:0:0:0:
264,157,192900,1,0,0:0:0:0:
373,160,193114,1,0,0:0:0:0:
216,89,193328,5,6,0:0:0:0:
419,91,193542,2,0,L|307:91,1,100
143,91,193971,1,2,0:0:0:0:
319,91,194185,1,6,0:0:0:0:
69,173,194614,6,0,L|64:265,1,83.3333333333333,6|8,0:0|0:3,0:0:0:0:
64,272,194828,1,8,0:3:0:0:
237,349,195036,2,0,L|99:349,1,100,6|8,0:0|0:3,0:0:0:0:
422,297,195471,2,0,P|492:273|450:201,1,150,2|0,0:3|0:0,0:0:0:0:
244,188,195899,6,0,L|234:293,1,100,6|2,0:0|0:0,0:0:0:0:
352,321,196328,2,0,L|141:317,2,200,0|8|2,0:0|0:0|0:0,0:0:0:0:
214,298,197400,1,0,0:0:0:0:
393,298,197614,6,0,P|408:244|389:194,1,100,6|0,0:0|0:0,0:0:0:0:
263,107,198042,2,0,P|250:154|265:201,1,100,2|0,0:0|0:0,0:0:0:0:
415,196,198455,1,10,0:0:0:0:
317,195,198669,1,0,0:0:0:0:
205,193,198883,1,2,0:0:0:0:
317,195,199097,1,2,0:0:0:0:
28,126,199328,5,6,0:0:0:0:
213,125,199757,1,2,0:0:0:0:
108,125,199971,1,0,0:0:0:0:
272,67,200185,2,0,L|66:67,1,200,10|2,0:0|0:0,0:0:0:0:
341,17,201042,6,0,L|352:128,1,100,6|0,0:0|0:0,0:0:0:0:
179,150,201471,2,0,L|168:261,1,100,2|0,0:0|0:0,0:0:0:0:
361,338,201900,1,10,0:0:0:0:
426,281,202114,1,0,0:0:0:0:
408,196,202328,1,2,0:0:0:0:
325,170,202542,1,2,0:0:0:0:
109,207,202757,6,0,L|246:207,1,100,6|0,0:0|0:0,0:0:0:0:
367,292,203185,2,0,L|154:291,2,200,0|8|0,0:0|0:0|0:0,0:0:0:0:
81,375,204471,2,0,L|71:148,1,200,6|0,0:0|0:0,0:0:0:0:
294,174,205328,1,10,0:0:0:0:
42,174,205757,2,0,L|35:284,1,100,2|0,0:0|0:0,0:0:0:0:
33,313,206114,1,0,0:0:0:0:
163,133,206185,6,0,L|388:133,1,200,2|0,0:0|0:0,0:0:0:0:
241,203,206828,1,0,0:0:0:0:
133,219,207042,2,0,L|352:220,1,200,10|0,0:0|0:0,0:0:0:0:
220,207,207685,1,0,0:0:0:0:
70,195,207900,6,0,P|9:216|94:282,1,200,6|0,0:0|0:0,0:0:0:0:
330,368,208757,2,0,L|340:242,1,100,10|0,0:0|0:0,0:0:0:0:
161,253,209185,2,0,L|54:251,1,100,2|2,0:0|0:0,0:0:0:0:
388,257,209614,6,0,B|454:242|456:180|420:137|341:125|277:180|217:197|217:197|164:169|164:168|134:125|150:70|214:38|285:41|314:111|337:98,1,600,2|0,0:0|0:0,0:0:0:0:
409,89,211114,1,0,0:0:0:0:
228,241,211328,2,0,B|221:108|221:108|343:86|343:86|336:244|336:244|135:242,1,600,2|0,0:0|0:0,0:0:0:0:
263,234,212828,1,0,0:0:0:0:
446,288,213042,6,0,P|317:291|472:69,1,600,2|0,0:0|0:0,0:0:0:0:
341,68,214542,1,0,0:0:0:0:
156,66,214757,2,0,L|140:204,1,100,2|0,0:0|0:0,0:0:0:0:
291,162,215173,2,0,L|295:277,1,100,8|4,0:3|0:0,0:0:0:0:
101,297,215586,2,0,L|-4:308,1,100,8|8,0:3|0:3,0:0:0:0:
306,214,216010,2,4,L|430:210,1,100,4|4,0:3|0:3,0:3:0:0:
108,363,216473,6,0,L|96:256,1,100,6|0,0:0|0:0,0:0:0:0:
252,252,216901,1,2,0:0:0:0:
130,256,217115,1,2,0:0:0:0:
306,193,217329,1,10,0:0:0:0:
387,145,217543,1,0,0:0:0:0:
388,51,217757,1,2,0:0:0:0:
299,22,217973,1,2,0:0:0:0:
22,185,218186,6,0,L|138:183,1,100,2|0,0:0|0:0,0:0:0:0:
383,183,218615,2,0,P|500:137|452:-10,1,300,2|0,0:3|0:0,0:0:0:0:
281,93,219472,2,0,L|403:91,1,100,10|0,0:0|0:0,0:0:0:0:
104,215,219901,6,0,L|-14:214,1,100,6|0,0:0|0:0,0:0:0:0:
62,201,220222,1,0,0:0:0:0:
318,162,220329,2,0,L|322:278,1,100,2|2,0:0|0:0,0:0:0:0:
171,320,220758,1,10,0:0:0:0:
288,323,220972,1,0,0:0:0:0:
140,254,221186,1,0,0:0:0:0:
130,146,221401,1,2,0:0:0:0:
346,136,221615,2,0,L|407:134,2,50,2|0|0,0:0|0:0|0:0,0:0:0:0:
80,141,222043,6,0,L|79:253,1,100,6|0,0:0|0:0,0:0:0:0:
278,312,222472,2,0,P|331:267|194:145,1,300,2|0,0:3|0:0,0:0:0:0:
151,136,223222,1,0,0:0:0:0:
341,98,223329,6,0,L|459:96,1,100,6|0,0:0|0:0,0:0:0:0:
294,195,223758,2,0,L|397:195,1,100,2|2,0:0|0:0,0:0:0:0:
126,350,224186,2,0,L|122:249,1,100,10|0,0:0|0:0,0:0:0:0:
298,237,224472,1,2,0:0:0:0:
349,232,224615,2,0,L|345:131,1,100,2|0,0:0|0:0,0:0:0:0:
135,192,224936,1,2,0:0:0:0:
66,193,225044,6,0,P|18:164|105:88,1,200,2|4,0:0|0:0,0:0:0:0:
237,81,225686,2,0,L|286:83,1,50
121,166,225901,2,0,L|29:163,1,87.5,2|0,0:0|0:0,0:0:0:0:
119,156,226222,1,0,0:0:0:0:
306,262,226329,2,0,P|428:218|334:53,1,333.333333333333,10|2,0:0|0:0,0:0:0:0:
184,61,227187,6,0,L|98:66,2,66.6666666666667,2|0|0,0:0|0:0|0:0,0:0:0:0:
306,144,227615,2,0,L|392:149,2,66.6666666666667,10|2|2,0:0|0:0|0:0,0:0:0:0:
96,345,228044,2,0,P|48:313|99:259,1,133.333333333333,2|0,0:0|0:0,0:0:0:0:
276,235,228472,6,0,L|394:231,2,66.6666666666667,2|0|0,0:0|0:0|0:0,0:0:0:0:
395,298,228901,2,0,L|478:298,2,66.6666666666667,6|0|0,0:0|0:0|0:0,0:0:0:0:
175,357,229329,2,0,P|130:306|188:264,1,133.333333333333,2|0,0:0|0:0,0:0:0:0:
379,264,229758,2,0,L|482:265,1,100,10|0,0:0|0:0,0:0:0:0:
426,245,230043,1,2,0:0:0:0:
203,232,230187,6,0,P|145:202|197:138,1,133.333333333333,6|0,0:0|0:0,0:0:0:0:
293,144,230615,2,0,L|364:142,2,66.6666666666667,2|0|0,0:0|0:0|0:0,0:0:0:0:
163,146,231044,2,0,P|132:139|104:77,1,100,8|2,0:0|0:0,0:0:0:0:
163,73,231365,1,0,0:0:0:0:
363,186,231472,2,0,P|439:125|308:21,1,300,2|0,0:0|0:0,0:0:0:0:
160,50,232329,6,0,L|144:193,1,100,4|0,0:0|0:0,0:0:0:0:
318,176,232758,2,0,L|330:303,1,100,2|0,0:0|0:0,0:0:0:0:
56,341,233186,2,0,L|179:342,1,100,10|2,0:0|0:0,0:0:0:0:
212,342,233508,1,0,0:0:0:0:
407,352,233615,6,0,L|409:228,1,100,6|0,0:0|0:0,0:0:0:0:
345,246,233936,1,0,0:0:0:0:
269,241,234043,2,0,L|415:237,1,100,6|0,0:0|0:0,0:0:0:0:
73,119,234472,2,0,P|24:194|121:237,1,200,10|2,0:0|0:0,0:0:0:0:
206,247,235115,1,2,0:0:0:0:
469,360,235329,2,0,L|474:251,1,100,10|10,0:0|0:0,0:0:0:0:
171,297,235758,6,0,P|107:278|183:202,1,200,6|10,0:0|0:0,0:0:0:0:
307,198,236401,2,0,L|310:129,1,50,2|0,0:0|0:0,0:0:0:0:
110,126,236615,2,0,L|5:124,1,100,10|10,0:0|0:0,0:0:0:0:
286,204,237031,6,0,P|357:170|269:124,1,200,6|2,0:0|0:0,0:0:0:0:
188,113,237673,1,0,0:0:0:0:
371,102,237888,2,0,L|382:217,1,100,10|0,0:0|0:0,0:0:0:0:
199,301,238316,6,0,P|127:282|203:216,1,200,2|6,0:0|0:0,0:0:0:0:
287,206,238959,1,2,0:0:0:0:
229,205,239066,1,0,0:0:0:0:
160,204,239173,2,0,L|144:334,1,100,2|2,0:0|0:0,0:0:0:0:
342,357,239602,6,0,P|406:308|360:211,1,200,10|2,0:0|0:0,0:0:0:0:
244,211,240245,1,0,0:0:0:0:
409,278,240459,2,0,L|296:278,1,100,6|0,0:0|0:0,0:0:0:0:
137,355,240888,6,0,L|343:353,1,200,2|10,0:0|0:0,0:0:0:0:
205,342,241530,2,0,L|202:276,1,50
275,272,241745,2,0,L|146:267,1,100,2|0,0:0|0:0,0:0:0:0:
361,235,242173,6,0,P|436:193|341:158,1,200,6|2,0:0|0:0,0:0:0:0:
260,133,242816,1,0,0:0:0:0:
405,128,243030,2,0,L|412:264,1,100,10|0,0:0|0:0,0:0:0:0:
255,233,243459,2,0,L|251:363,1,100,2|0,0:0|0:0,0:0:0:0:
316,332,243780,1,0,0:0:0:0:
480,279,243888,6,0,L|370:275,1,100,6|0,0:0|0:0,0:0:0:0:
223,271,244316,1,2,0:0:0:0:
362,194,244530,2,0,L|364:251,1,50,2|0,0:0|0:0,0:0:0:0:
309,264,244745,2,0,L|416:262,1,100,10|0,0:0|0:0,0:0:0:0:
226,216,245173,2,0,L|119:213,1,100,2|2,0:0|0:0,0:0:0:0:
395,58,245602,5,6,0:0:0:0:
478,102,245816,1,0,0:0:0:0:
466,195,246030,1,2,0:0:0:0:
375,218,246244,1,2,0:0:0:0:
214,226,246459,2,0,L|321:223,1,100,10|0,0:0|0:0,0:0:0:0:
482,323,246888,2,0,L|375:320,1,100,2|2,0:0|0:0,0:0:0:0:
318,317,247209,1,0,0:0:0:0:
121,325,247316,6,0,L|117:197,1,100,6|0,0:0|0:0,0:0:0:0:
228,253,247745,2,0,L|232:125,1,100,6|0,0:0|0:0,0:0:0:0:
79,303,248173,2,0,L|38:186,1,100,6|0,0:0|0:0,0:0:0:0:
170,195,248602,2,0,L|215:84,1,100,6|0,0:0|0:0,0:0:0:0:
55,84,249015,6,0,L|161:84,1,100,10|0,0:0|0:0,0:0:0:0:
318,188,249456,2,0,L|453:184,1,100,10|0,0:0|0:0,0:0:0:0:
217,325,249884,2,0,L|86:329,1,100,10|4,0:0|0:0,0:0:0:0:
385,235,250313,2,0,L|504:227,1,100,10|8,0:0|0:0,0:0:0:0:
256,192,250759,12,0,251400,0:0:0:0:
67,181,251614,6,0,L|279:181,1,200,6|4,0:1|0:0,0:0:0:0:
38,75,252470,2,0,L|254:72,1,200,6|0,0:0|0:0,0:0:0:0:
39,75,253295,1,6,0:0:0:0:
299,19,253754,2,0,P|352:54|305:118,1,150
144,191,254155,6,0,L|35:192,1,100,6|0,0:0|0:0,0:0:0:0:
199,106,254608,1,2,0:0:0:0:
69,104,254822,1,2,0:0:0:0:
332,24,255036,2,0,L|207:24,1,100,6|0,0:0|0:0,0:0:0:0:
410,108,255464,1,2,0:0:0:0:
360,108,255571,1,2,0:0:0:0:
310,108,255678,1,2,0:0:0:0:
24,185,255892,6,0,L|127:186,1,100,6|0,0:0|0:0,0:0:0:0:
271,279,256320,2,0,L|145:280,1,100,2|0,0:0|0:0,0:0:0:0:
433,182,256748,2,0,L|437:292,1,100,6|0,0:0|0:0,0:0:0:0:
234,96,257176,1,2,0:0:0:0:
232,145,257283,1,2,0:0:0:0:
231,195,257390,1,2,0:0:0:0:
498,85,257604,5,6,0:0:0:0:
354,145,257818,2,0,L|353:206,1,50,2|0,0:0|0:0,0:0:0:0:
422,242,258032,2,0,L|487:241,1,50,2|0,0:0|0:0,0:0:0:0:
227,340,258246,5,2,0:0:0:0:
372,301,258460,2,0,L|437:303,1,50,6|0,0:0|0:0,0:0:0:0:
421,302,258674,2,0,L|370:301,1,50,2|0,0:0|0:0,0:0:0:0:
144,293,258888,5,2,0:0:0:0:
257,251,259102,2,0,L|316:251,1,50,2|0,0:0|0:0,0:0:0:0:
257,251,259316,2,0,L|200:249,1,50,6|0,0:0|0:0,0:0:0:0:
405,146,259530,5,2,0:0:0:0:
267,146,259744,2,0,L|191:146,1,50,2|0,0:0|0:0,0:0:0:0:
217,146,259958,2,0,L|296:148,1,50,2|0,0:0|0:0,0:0:0:0:
434,145,260172,5,6,0:0:0:0:
290,167,260386,2,0,L|225:168,1,50,2|0,0:0|0:0,0:0:0:0:
290,167,260599,2,0,L|354:170,1,50,2|0,0:0|0:0,0:0:0:0:
185,262,260813,2,0,L|100:262,1,50,2|0,0:0|0:0,0:0:0:0:
379,111,261027,6,0,L|386:220,1,100,6|0,0:0|0:0,0:0:0:0:
98,230,261455,2,0,L|91:344,1,100,2|0,0:0|0:0,0:0:0:0:
260,350,261883,2,0,L|371:347,1,100,6|0,0:0|0:0,0:0:0:0:
504,255,262311,2,0,L|393:252,1,100,2|0,0:0|0:0,0:0:0:0:
85,189,262738,2,0,L|78:83,1,100,6|0,0:0|0:0,0:0:0:0:
448,295,263166,5,8,0:3:0:0:
334,297,263380,1,8,0:3:0:0:
24,256,263594,1,8,0:3:0:0:
138,258,263808,1,8,0:3:0:0:
421,188,264022,1,8,0:3:0:0:
123,187,264236,1,8,0:3:0:0:
435,111,264450,6,0,P|491:140|437:259,1,220.000006713867,6|0,0:1|0:0,0:0:0:0:
175,362,265307,2,0,P|128:282|225:226,1,220.000006713867,12|0,0:0|0:0,0:0:0:0:
461,191,266164,2,0,P|502:150|402:66,1,220.000006713867,4|0,0:0|0:0,0:0:0:0:
143,59,267021,1,12,0:0:0:0:
429,57,267450,1,4,0:0:0:0:
99,63,267878,6,0,P|79:116|109:177,1,110.000003356934,4|0,0:0|0:0,0:0:0:0:
262,217,268307,2,0,L|386:212,1,110.000003356934,2|0,0:0|0:0,0:0:0:0:
194,309,268735,2,0,L|78:308,1,110.000003356934,14|0,0:0|0:0,0:0:0:0:
255,208,269164,2,2,L|136:206,1,110.000003356934,2|0,0:0|0:0,0:0:0:0:
434,51,269592,6,0,P|496:78|420:168,1,220.000006713867,4|0,0:0|0:0,0:0:0:0:
255,176,270235,2,0,L|482:175,1,220.000006713867
355,162,270878,2,0,L|474:161,1,110.000003356934
161,336,271307,6,0,P|106:328|123:199,1,220.000006713867,4|0,0:0|0:0,0:0:0:0:
349,202,272164,1,12,0:0:0:0:
73,69,272592,2,0,L|50:317,1,220.000006713867,0|4,0:0|0:0,0:0:0:0:
362,94,273450,2,4,L|385:342,1,220.000006713867,0|8,0:0|0:0,0:0:0:0:
110,320,274307,1,4,0:0:0:0:
221,320,274521,1,0,0:0:0:0:
33,271,274735,6,4,L|26:133,1,110.000003356934,4|0,0:0|0:0,0:0:0:0:
192,156,275164,2,0,L|436:156,2,220.000006713867,0|8|0,0:0|0:0|0:0,0:0:0:0:
487,62,276450,2,0,L|368:59,1,110.000003356934,4|4,0:0|0:0,0:0:0:0:
74,187,276878,2,0,L|196:185,1,110.000003356934,8|8,0:0|0:0,0:0:0:0:
475,350,277291,2,0,L|481:224,1,110.000003356934,8|4,0:0|0:0,0:0:0:0:
167,197,277733,1,8,0:0:0:0:
325,200,277934,1,4,0:0:0:0:
52,330,278136,6,0,P|43:244|187:177,1,221.400001300644,6|0,0:1|0:0,0:0:0:0:
394,192,279021,2,0,L|154:191,1,220.000006713867,12|0,0:0|0:0,0:0:0:0:
462,331,279878,2,0,P|471:245|343:191,1,220.000006713867,4|0,0:0|0:0,0:0:0:0:
119,187,280735,1,12,0:0:0:0:
412,189,281164,1,4,0:0:0:0:
86,177,281592,6,0,L|81:291,1,110.000003356934,4|0,0:0|0:0,0:0:0:0:
256,121,282021,2,0,L|366:120,1,110.000003356934,2|0,0:0|0:0,0:0:0:0:
197,196,282450,2,0,L|314:193,1,110.000003356934,14|0,0:0|0:0,0:0:0:0:
490,289,282878,2,0,L|373:286,1,110.000003356934,2|0,0:0|0:0,0:0:0:0:
81,355,283307,6,0,P|18:317|107:250,1,220.000006713867,4|0,0:0|0:0,0:0:0:0:
277,246,283950,2,0,L|49:246,2,220.000006713867
13,137,285021,6,0,L|277:138,1,220.000006713867,4|0,0:0|0:0,0:0:0:0:
14,71,285878,1,12,0:0:0:0:
314,66,286307,2,0,L|326:334,1,220.000006713867,0|4,0:0|0:0,0:0:0:0:
43,113,287164,2,0,L|31:381,1,220.000006713867,0|12,0:0|0:0,0:0:0:0:
299,334,288021,1,4,0:0:0:0:
189,331,288235,1,0,0:0:0:0:
345,264,288450,6,0,L|348:139,1,110.000003356934,4|0,0:0|0:0,0:0:0:0:
174,127,288878,2,0,L|430:128,2,220.000006713867,0|12|0,0:0|0:0|0:0,0:0:0:0:
444,66,290164,2,0,P|492:125|422:200,1,165.000005035401,4|0,0:0|0:0,0:0:0:0:
386,195,290592,2,0,L|501:195,1,110.000003356934,8|8,0:3|0:3,0:0:0:0:
201,314,291021,2,0,P|118:295|132:180,1,220.000006713867,4|0,0:0|0:0,0:0:0:0:
233,177,291664,1,0,0:0:0:0:
503,177,291878,5,6,0:1:0:0:
222,297,292307,2,0,L|474:296,2,220.000006713867,0|12|0,0:0|0:0|0:0,0:0:0:0:
476,129,293592,2,0,L|490:388,1,220.000006713867,4|0,0:0|0:0,0:0:0:0:
168,346,294450,1,12,0:0:0:0:
472,348,294878,1,8,0:3:0:0:
343,346,295092,1,8,0:3:0:0:
31,353,295307,6,0,L|26:237,1,110.000003356934,4|0,0:0|0:0,0:0:0:0:
210,216,295735,2,0,L|87:218,1,110.000003356934,2|0,0:0|0:0,0:0:0:0:
270,161,296164,2,12,L|276:44,1,110.000003356934,14|0,0:0|0:0,0:0:0:0:
100,217,296592,2,0,L|223:219,1,110.000003356934,2|0,0:0|0:0,0:0:0:0:
479,328,297020,6,0,L|254:328,1,220.000006713867,4|2,0:0|0:0,0:0:0:0:
388,320,297664,2,0,P|456:282|381:201,1,220.000006713867
233,201,298307,2,0,L|349:202,1,110.000003356934,8|4,0:3|0:3,0:0:0:0:
29,135,298735,5,4,0:0:0:0:
235,137,299164,2,0,L|457:140,2,220.000006713867,0|12|0,0:0|0:0|0:0,0:0:0:0:
481,43,300450,2,0,L|246:41,1,220.000006713867,4|0,0:0|0:0,0:0:0:0:
503,84,301307,1,12,0:0:0:0:
229,95,301735,1,0,0:0:0:0:
495,96,302164,6,0,L|501:222,1,110.000003356934,4|0,0:0|0:0,0:0:0:0:
323,286,302592,2,0,L|86:286,2,220.000006713867,0|12|0,0:0|0:0|0:0,0:0:0:0:
66,366,303878,2,0,P|14:340|88:235,1,220.000006713867,4|0,0:0|0:0,0:0:0:0:
321,238,304735,2,0,P|399:204|332:146,1,165.000005035401,12|0,0:0|0:0,0:0:0:0:
148,138,305164,2,0,L|17:138,1,110.000003356934,8|4,0:3|0:3,0:0:0:0:
354,64,305592,5,6,0:1:0:0:
123,113,306021,2,0,L|354:114,2,220.000006713867,0|12|0,0:0|0:0|0:0,0:0:0:0:
410,35,307307,2,0,P|471:71|386:179,1,220.000006713867,4|0,0:0|0:0,0:0:0:0:
99,186,308164,1,12,0:0:0:0:
410,184,308592,1,4,0:0:0:0:
80,342,309021,6,0,L|70:213,1,110.000003356934,4|0,0:0|0:0,0:0:0:0:
260,235,309471,2,0,L|372:232,1,110.000003356934,2|0,0:0|0:0,0:0:0:0:
181,197,309878,2,0,L|173:87,1,110.000003356934,14|0,0:0|0:0,0:0:0:0:
361,341,310307,2,0,L|369:231,1,110.000003356934,2|0,0:0|0:0,0:0:0:0:
44,220,310735,6,0,L|294:219,1,220.000006713867,4|2,0:0|0:0,0:0:0:0:
450,300,311378,2,0,L|196:300,2,220.000006713867
127,224,312450,5,6,0:1:0:0:
330,224,312878,2,0,P|405:194|407:60,2,220.000006713867,0|12|0,0:0|0:0|0:0,0:0:0:0:
45,296,314164,2,0,L|284:298,1,220.000006713867,4|0,0:0|0:0,0:0:0:0:
497,298,315021,1,12,0:0:0:0:
215,293,315450,1,0,0:0:0:0:
497,298,315878,6,0,L|368:298,1,110.000003356934,4|0,0:0|0:0,0:0:0:0:
173,355,316307,2,0,L|409:353,2,220.000006713867,0|12|0,0:0|0:0|0:0,0:0:0:0:
394,317,317592,2,0,L|403:95,1,220.000006713867,4|0,0:0|0:0,0:0:0:0:
205,99,318450,1,4,0:0:0:0:
362,99,318878,1,2,0:0:0:0:
111,95,319307,5,2,0:0:0:0:
111,95,322735,6,0,L|270:93,2,150.000005722046,2|0|0,0:0|0:0|0:0,0:0:0:0:
312,204,324021,2,0,P|377:182|293:33,1,300.000011444092,2|2,0:0|0:0,0:0:0:0:
101,51,326071,1,0,0:0:0:0:
99,33,326124,1,0,0:0:0:0:
97,12,326178,5,2,0:0:0:0:
411,51,329535,5,2,0:0:0:0:
412,42,329585,1,2,0:0:0:0:
413,33,329635,5,2,0:0:0:0:
101,51,332935,5,0,0:0:0:0:
99,33,332979,1,0,0:0:0:0:
97,12,333023,5,2,0:0:0:0:
108,68,336420,5,0,0:0:0:0:
114,82,336464,2,0,L|263:81,2,150,2|0|0,0:0|0:0|0:0,0:0:0:0:
352,160,337749,2,0,L|45:157,1,300.000011444092,2|2,0:0|0:0,0:0:0:0:
414,22,339785,1,2,0:0:0:0:
412,43,339826,1,0,0:0:0:0:
410,61,339868,5,0,0:0:0:0:
76,115,343285,5,0,0:0:0:0:
74,97,343338,1,0,0:0:0:0:
72,79,343392,2,0,P|141:72|64:288,1,464.999985809327,2|0,0:0|0:0,0:0:0:0:
