osu file format v14

[General]
AudioFilename: audio.mp3
AudioLeadIn: 0
PreviewTime: 41537
Countdown: 0
SampleSet: Soft
StackLeniency: 0.7
Mode: 0
LetterboxInBreaks: 0
WidescreenStoryboard: 0

[Editor]
Bookmarks: 10569,31214,72505,82827,93150,134440
DistanceSpacing: 1.6
BeatDivisor: 6
GridSize: 4
TimelineZoom: 1.2

[Metadata]
Title:Zeze
TitleUnicode:Zezé
Artist:IU
ArtistUnicode:아이유
Creator:iYiyo
Version:Climb up me
Source:
Tags:kpop k-pop korean pop
BeatmapID:1947870
BeatmapSetID:932978

[Difficulty]
HPDrainRate:6
CircleSize:4
OverallDifficulty:7
ApproachRate:8.2
SliderMultiplier:1.8
SliderTickRate:1

[Events]
//Background and Video events
0,0,"6046be2f1860b49f56f7edd2e2edfa0a.jpg",0,0
//Break Periods
2,72705,80817
//Storyboard Layer 0 (Background)
//Storyboard Layer 1 (Fail)
//Storyboard Layer 2 (Pass)
//Storyboard Layer 3 (Foreground)
//Storyboard Sound Samples

[TimingPoints]
247,645.161290322581,4,2,1,50,1,0
10569,-76.9230769230769,4,2,1,50,0,0
41537,-66.6666666666667,4,2,1,80,0,1
45408,-50,4,2,1,80,0,1
45730,-41.6666666666667,4,2,1,80,0,1
46053,-35.7142857142857,4,2,1,80,0,1
46376,-31.25,4,2,1,80,0,1
46698,-66.6666666666667,4,2,1,80,0,1
55730,-50,4,2,1,80,0,1
56053,-41.6666666666667,4,2,1,80,0,1
56376,-35.7142857142857,4,2,1,80,0,1
56698,-31.25,4,2,1,80,0,1
57021,-66.6666666666667,4,2,1,80,0,1
62182,-76.9230769230769,4,2,1,50,0,0
103472,-66.6666666666667,4,2,1,80,0,1
107343,-50,4,2,1,80,0,1
107666,-41.6666666666667,4,2,1,80,0,1
107988,-35.7142857142857,4,2,1,80,0,1
108311,-31.25,4,2,1,80,0,1
108634,-66.6666666666667,4,2,1,80,0,1
117666,-50,4,2,1,80,0,1
117988,-41.6666666666667,4,2,1,80,0,1
118311,-35.7142857142857,4,2,1,80,0,1
118634,-31.25,4,2,1,80,0,1
118956,-66.6666666666667,4,2,1,80,0,1
124117,-76.9230769230769,4,2,1,50,0,0
155085,-66.6666666666667,4,2,1,80,0,1
158956,-50,4,2,1,80,0,1
159279,-41.6666666666667,4,2,1,80,0,1
159601,-35.7142857142857,4,2,1,80,0,1
159924,-31.25,4,2,1,80,0,1
160247,-66.6666666666667,4,2,1,80,0,1
169279,-50,4,2,1,80,0,1
169601,-41.6666666666667,4,2,1,80,0,1
169924,-35.7142857142857,4,2,1,80,0,1
170247,-31.25,4,2,1,80,0,1
170569,-66.6666666666667,4,2,1,80,0,1
175730,-76.9230769230769,4,2,1,50,0,0

[Colours]
Combo1 : 255,255,255
Combo2 : 255,0,0
Combo3 : 192,192,192
Combo4 : 255,102,102

[HitObjects]
393,59,247,6,0,P|413:102|407:144,1,90
407,142,892,1,0,0:0:0:0:
80,149,1429,1,0,0:0:0:0:
80,149,1537,1,0,0:0:0:0:
22,240,1859,1,0,0:0:0:0:
120,284,2182,1,0,0:0:0:0:
454,209,2827,6,0,P|411:189|368:194,1,90
369,193,3472,1,0,0:0:0:0:
129,336,4010,1,0,0:0:0:0:
129,336,4117,1,0,0:0:0:0:
74,243,4333,1,0,0:0:0:0:
74,243,4440,1,0,0:0:0:0:
212,64,4763,1,0,0:0:0:0:
270,155,5085,1,0,0:0:0:0:
172,199,5408,5,0,0:0:0:0:
466,67,6053,2,0,P|485:109|480:152,1,90
270,155,6591,1,0,0:0:0:0:
270,155,6698,1,0,0:0:0:0:
326,247,7021,1,0,0:0:0:0:
223,280,7343,1,0,0:0:0:0:
317,30,7988,5,0,0:0:0:0:
46,67,8634,2,0,P|26:109|31:152,1,90
210,173,9171,1,0,0:0:0:0:
210,173,9279,1,0,0:0:0:0:
131,264,9494,5,0,0:0:0:0:
131,264,9601,1,0,0:0:0:0:
459,204,9924,1,0,0:0:0:0:
459,204,10247,1,0,0:0:0:0:
131,264,10569,6,0,P|170:284|212:278,1,77.9999964294435
213,269,10892,1,0,0:0:0:0:
336,129,11214,2,0,P|316:168|322:210,1,77.9999964294435
332,215,11537,1,0,0:0:0:0:
492,324,11752,1,0,0:0:0:0:
487,314,11859,2,0,L|398:331,1,77.9999964294435
400,322,12182,1,0,0:0:0:0:
131,264,12505,1,0,0:0:0:0:
427,58,12827,1,0,0:0:0:0:
447,160,13042,1,0,0:0:0:0:
434,174,13150,6,0,P|402:152|363:153,1,77.9999964294435
352,177,13472,2,0,P|320:155|281:156,1,77.9999964294435
262,177,13795,2,0,P|223:178|191:156,1,77.9999964294435
166,158,14117,1,0,0:0:0:0:
31,136,14333,1,0,0:0:0:0:
31,136,14440,1,0,0:0:0:0:
114,29,14655,5,0,0:0:0:0:
114,29,14763,1,0,0:0:0:0:
407,187,15086,1,0,0:0:0:0:
407,187,15408,1,0,0:0:0:0:
113,29,15730,6,0,P|149:13|186:19,1,77.9999964294435
199,33,16053,1,0,0:0:0:0:
324,112,16376,2,0,P|308:147|314:184,1,77.9999964294435
327,197,16699,1,0,0:0:0:0:
271,339,16913,1,0,0:0:0:0:
260,328,17021,2,0,L|170:338,1,77.9999964294435
171,329,17343,1,0,0:0:0:0:
196,130,17666,1,0,0:0:0:0:
505,128,17988,1,0,0:0:0:0:
467,258,18203,1,0,0:0:0:0:
465,269,18311,6,0,L|370:261,1,77.9999964294435
380,283,18634,2,0,L|285:275,1,77.9999964294435
291,261,18956,2,0,L|213:267,1,77.9999964294435
202,278,19279,1,0,0:0:0:0:
88,190,19494,1,0,0:0:0:0:
88,190,19601,1,0,0:0:0:0:
143,68,19816,5,0,0:0:0:0:
143,68,19924,1,0,0:0:0:0:
476,123,20247,1,0,0:0:0:0:
476,123,20569,1,0,0:0:0:0:
143,68,20892,6,0,B|181:81|181:81|217:72,1,77.9999964294435
225,59,21214,1,0,0:0:0:0:
476,123,21537,2,0,B|438:110|438:110|401:118,1,77.9999964294435
394,132,21859,1,0,0:0:0:0:
291,282,22074,1,0,0:0:0:0:
296,268,22182,2,0,L|196:263,1,77.9999964294435
218,280,22505,1,0,0:0:0:0:
65,168,22827,1,0,0:0:0:0:
181,68,23042,1,0,0:0:0:0:
185,78,23150,2,0,L|285:73,1,77.9999964294435
272,88,23472,6,0,L|372:83,1,77.9999964294435
363,99,23795,2,0,L|463:94,1,77.9999964294435
475,139,24117,2,0,L|397:142,2,77.9999964294435
309,306,24763,2,0,L|231:309,1,77.9999964294435
217,325,25085,5,0,0:0:0:0:
43,75,25408,1,0,0:0:0:0:
43,75,25730,1,0,0:0:0:0:
217,325,26053,5,0,0:0:0:0:
465,53,26591,1,0,0:0:0:0:
458,69,26698,2,0,L|469:148,1,77.9999964294435
458,156,27021,2,0,L|469:235,1,77.9999964294435
471,251,27343,1,0,0:0:0:0:
286,33,27988,2,0,L|275:112,1,77.9999964294435
286,120,28311,2,0,L|275:199,1,77.9999964294435
273,215,28633,1,0,0:0:0:0:
77,55,29279,2,0,L|88:134,1,77.9999964294435
77,142,29602,2,0,L|88:221,1,77.9999964294435
90,237,29924,5,0,0:0:0:0:
481,186,30247,1,0,0:0:0:0:
95,253,30569,1,0,0:0:0:0:
486,202,30892,1,0,0:0:0:0:
100,269,31214,1,0,0:0:0:0:
270,340,31537,5,0,0:0:0:0:
324,173,31752,1,0,0:0:0:0:
312,177,31859,2,0,P|275:190|237:184,1,77.9999964294435
241,171,32182,2,0,P|279:177|315:164,1,77.9999964294435
311,154,32505,1,0,0:0:0:0:
129,48,32827,1,0,0:0:0:0:
70,201,33150,2,0,B|76:241|64:264|64:264|77:242|116:227,1,116.999994644165
224,257,33687,1,0,0:0:0:0:
220,272,33795,6,0,P|257:260|296:265,1,77.9999964294435
332,293,34117,2,0,P|293:287|256:299,1,77.9999964294435
259,322,34440,1,0,0:0:0:0:
451,260,34763,1,0,0:0:0:0:
460,129,34978,1,0,0:0:0:0:
460,129,35085,1,0,0:0:0:0:
360,53,35300,5,0,0:0:0:0:
360,53,35408,1,0,0:0:0:0:
42,104,35730,1,0,0:0:0:0:
42,104,36053,1,0,0:0:0:0:
360,53,36376,5,0,0:0:0:0:
198,78,36698,1,0,0:0:0:0:
224,216,36913,1,0,0:0:0:0:
224,216,37021,2,0,B|301:232|301:232|325:200,1,116.999994644165
79,176,37558,1,0,0:0:0:0:
79,176,37666,2,0,L|73:267,1,77.9999964294435
104,301,37988,2,0,L|109:223,1,77.9999964294435
141,247,38311,1,0,0:0:0:0:
231,306,38526,1,0,0:0:0:0:
231,306,38634,2,0,P|269:297|307:303,1,77.9999964294435
377,339,38956,6,0,L|386:249,1,77.9999964294435
375,243,39279,1,0,0:0:0:0:
461,143,39494,1,0,0:0:0:0:
461,143,39601,1,0,0:0:0:0:
371,48,39924,1,0,0:0:0:0:
239,93,40139,1,0,0:0:0:0:
239,93,40247,5,0,0:0:0:0:
217,109,40354,1,0,0:0:0:0:
194,102,40462,1,0,0:0:0:0:
171,95,40569,1,0,0:0:0:0:
33,153,40892,1,0,0:0:0:0:
94,281,41214,1,0,0:0:0:0:
467,174,41537,5,0,0:0:0:0:
406,302,41859,2,0,P|344:277|280:296,1,135.000005149842
152,310,42397,2,0,P|213:334|277:315,1,135.000005149842
247,226,42827,2,0,P|197:245|215:194,1,135.000005149842
277,315,43365,2,0,P|213:334|152:310,1,135.000005149842
247,226,43795,1,0,0:0:0:0:
97,221,44010,1,0,0:0:0:0:
88,231,44117,6,0,L|101:142,1,90.0000034332277
94,121,44440,1,0,0:0:0:0:
183,40,44763,2,0,P|244:63|309:47,1,135.000005149842
450,116,45300,1,0,0:0:0:0:
443,145,45408,6,0,L|323:149,1,120
437,174,45730,2,0,L|293:178,1,143.999995605469
431,203,46053,2,0,L|263:208,1,167.999994873047
424,232,46376,2,0,L|232:238,1,192
153,51,46698,6,0,B|177:139|177:139|156:123|124:126,1,135.000005149842
28,166,47236,1,0,0:0:0:0:
28,166,47343,2,0,L|25:309,1,135.000005149842
132,313,47881,1,0,0:0:0:0:
145,322,47988,2,0,P|186:305|234:314,1,90.0000034332277
247,324,48311,1,0,0:0:0:0:
496,225,48634,1,0,0:0:0:0:
510,98,48849,1,0,0:0:0:0:
510,98,48956,1,0,0:0:0:0:
402,16,49171,1,0,0:0:0:0:
402,16,49279,6,0,B|325:68|325:68|271:37,1,135.000005149842
131,70,49816,1,0,0:0:0:0:
122,84,49924,2,0,B|135:180,1,90.0000034332277
113,177,50247,1,0,0:0:0:0:
135,354,50462,1,0,0:0:0:0:
148,338,50569,2,0,L|246:346,1,90.0000034332277
248,331,50892,2,0,L|346:339,1,90.0000034332277
349,324,51214,1,0,0:0:0:0:
280,163,51537,1,0,0:0:0:0:
437,96,51859,5,0,0:0:0:0:
337,338,52182,2,0,L|203:327,1,135.000005149842
56,284,52720,2,0,L|190:295,1,135.000005149842
261,257,53150,2,0,B|290:195|290:195|233:230,1,135.000005149842
56,284,53687,2,0,L|190:295,1,135.000005149842
261,257,54117,1,0,0:0:0:0:
413,303,54332,1,0,0:0:0:0:
403,314,54439,6,0,L|412:212,1,90.0000034332277
401,211,54762,1,0,0:0:0:0:
245,65,55085,2,0,P|303:96|368:76,1,135.000005149842
107,79,55623,1,0,0:0:0:0:
97,97,55730,6,0,L|131:221,1,120
87,115,56053,2,0,L|128:266,1,143.999995605469
77,133,56376,2,0,L|128:322,1,167.999994873047
67,151,56698,2,0,L|118:340,1,192
302,177,57021,6,0,B|214:201|214:201|231:180|233:148,1,135.000005149842
444,282,57665,2,0,P|379:301|315:283,1,135.000005149842
191,188,58203,1,0,0:0:0:0:
176,203,58311,2,0,P|132:202|91:220,1,90.0000034332277
93,239,58633,1,0,0:0:0:0:
50,87,58956,1,0,0:0:0:0:
203,14,59171,1,0,0:0:0:0:
203,14,59278,1,0,0:0:0:0:
373,28,59494,1,0,0:0:0:0:
373,28,59601,6,0,B|363:114|363:114|431:106,1,135.000005149842
371,307,60247,2,0,B|361:221|361:221|429:229,1,135.000005149842
234,317,60784,1,0,0:0:0:0:
221,301,60891,2,0,L|123:309,1,90.0000034332277
121,294,61214,2,0,L|23:302,1,90.0000034332277
20,287,61536,1,0,0:0:0:0:
33,87,61859,1,0,0:0:0:0:
221,144,62181,5,0,0:0:0:0:
409,101,62505,2,0,P|353:117|297:103,1,116.999994644165
95,159,63042,2,0,P|150:175|206:161,1,116.999994644165
221,144,63472,1,0,0:0:0:0:
300,293,63795,1,0,0:0:0:0:
458,201,64117,1,0,0:0:0:0:
221,144,64440,1,0,0:0:0:0:
63,236,64763,5,0,0:0:0:0:
300,293,65085,2,0,L|181:304,1,116.999994644165
458,201,65623,2,0,L|339:212,1,116.999994644165
327,204,66053,1,0,0:0:0:0:
225,81,66268,1,0,0:0:0:0:
225,81,66376,1,0,0:0:0:0:
67,127,66698,1,0,0:0:0:0:
225,81,67021,1,0,0:0:0:0:
327,204,67343,5,0,0:0:0:0:
125,340,67666,2,0,P|103:286|110:228,1,116.999994644165
47,34,68203,2,0,P|39:91|61:145,1,116.999994644165
75,147,68634,1,0,0:0:0:0:
221,55,68956,1,0,0:0:0:0:
367,154,69279,1,0,0:0:0:0:
215,247,69601,1,0,0:0:0:0:
367,154,69924,5,0,0:0:0:0:
509,255,70247,2,0,B|492:295|492:295|512:366,1,116.999994644165
293,203,70784,2,0,B|309:243|309:243|289:314,1,116.999994644165
282,299,71214,1,0,0:0:0:0:
99,350,71429,1,0,0:0:0:0:
99,350,71537,1,0,0:0:0:0:
39,170,71859,1,0,0:0:0:0:
222,119,72074,1,0,0:0:0:0:
222,119,72182,1,0,0:0:0:0:
405,68,72505,5,0,0:0:0:0:
475,141,81537,5,0,0:0:0:0:
445,289,81752,1,0,0:0:0:0:
445,289,81859,1,0,0:0:0:0:
70,219,82182,1,0,0:0:0:0:
445,289,82505,1,0,0:0:0:0:
70,219,82827,1,0,0:0:0:0:
352,272,83150,5,0,0:0:0:0:
382,124,83365,1,0,0:0:0:0:
382,124,83472,1,0,0:0:0:0:
202,167,83795,1,0,0:0:0:0:
232,315,84010,1,0,0:0:0:0:
232,315,84117,2,0,L|129:318,1,77.9999964294435
143,306,84440,2,0,L|40:309,1,77.9999964294435
49,301,84763,1,0,0:0:0:0:
34,172,84978,1,0,0:0:0:0:
34,172,85085,1,0,0:0:0:0:
119,67,85300,1,0,0:0:0:0:
119,67,85408,6,0,P|153:83|192:81,1,77.9999964294435
204,70,85730,2,0,P|242:67|277:84,1,77.9999964294435
285,101,86053,2,0,L|280:191,2,77.9999964294435
380,59,86698,2,0,L|375:149,1,77.9999964294435
386,157,87021,1,0,0:0:0:0:
91,240,87343,1,0,0:0:0:0:
91,240,87666,1,0,0:0:0:0:
386,157,87988,6,0,L|376:288,1,116.999994644165
128,71,88526,1,0,0:0:0:0:
113,88,88634,2,0,L|124:186,1,77.9999964294435
111,169,88956,2,0,L|122:267,1,77.9999964294435
129,258,89279,1,0,0:0:0:0:
275,217,89601,1,0,0:0:0:0:
392,312,89924,2,0,P|429:324|470:313,1,77.9999964294435
472,300,90247,2,0,P|434:310|398:299,1,77.9999964294435
400,283,90569,5,0,0:0:0:0:
442,136,90892,1,0,0:0:0:0:
309,62,91214,1,0,0:0:0:0:
193,161,91429,1,0,0:0:0:0:
193,161,91537,1,0,0:0:0:0:
43,133,91752,1,0,0:0:0:0:
43,133,91859,2,0,L|55:213,1,77.9999964294435
58,248,92182,5,0,0:0:0:0:
419,91,92505,1,0,0:0:0:0:
78,266,92827,1,0,0:0:0:0:
439,109,93150,1,0,0:0:0:0:
384,300,93472,5,0,0:0:0:0:
276,224,93687,1,0,0:0:0:0:
276,224,93795,2,0,P|237:218|200:227,1,77.9999964294435
193,240,94117,2,0,P|160:218|122:210,1,77.9999964294435
106,214,94440,1,0,0:0:0:0:
76,64,94763,1,0,0:0:0:0:
228,60,95085,2,0,B|255:70|268:92|268:92|256:69|262:29,1,116.999994644165
410,64,95623,1,0,0:0:0:0:
406,91,95730,6,0,L|427:197,1,77.9999964294435
435,173,96053,2,0,L|450:249,1,77.9999964294435
442,270,96375,1,0,0:0:0:0:
286,352,96698,1,0,0:0:0:0:
147,268,96913,1,0,0:0:0:0:
147,268,97020,1,0,0:0:0:0:
9,353,97235,5,0,0:0:0:0:
9,353,97343,1,0,0:0:0:0:
108,71,97665,1,0,0:0:0:0:
108,71,97988,1,0,0:0:0:0:
9,353,98311,5,0,0:0:0:0:
17,196,98633,1,0,0:0:0:0:
163,240,98848,1,0,0:0:0:0:
163,239,98956,2,0,P|217:219|273:231,1,116.999994644165
433,241,99493,1,0,0:0:0:0:
423,219,99601,2,0,L|428:141,1,77.9999964294435
412,136,99924,2,0,L|417:58,1,77.9999964294435
400,48,100246,1,0,0:0:0:0:
243,23,100462,1,0,0:0:0:0:
243,23,100569,2,0,L|248:100,1,77.9999964294435
263,132,100892,6,0,L|185:125,1,77.9999964294435
168,140,101214,1,0,0:0:0:0:
84,245,101429,1,0,0:0:0:0:
84,245,101536,1,0,0:0:0:0:
197,332,101859,1,0,0:0:0:0:
337,305,102074,1,0,0:0:0:0:
337,305,102182,5,0,0:0:0:0:
321,283,102289,1,0,0:0:0:0:
328,260,102397,1,0,0:0:0:0:
335,237,102504,1,0,0:0:0:0:
361,64,102827,1,0,0:0:0:0:
185,59,103149,1,0,0:0:0:0:
42,316,103472,5,0,0:0:0:0:
217,321,103795,2,0,P|182:280|172:333,1,135.000005149842
108,157,104333,2,0,P|143:197|153:144,1,135.000005149842
47,89,104763,2,0,P|17:150|33:214,1,135.000005149842
217,321,105300,2,0,P|182:280|172:333,1,135.000005149842
42,316,105730,1,0,0:0:0:0:
174,202,105945,1,0,0:0:0:0:
165,190,106053,6,0,P|207:202|251:195,1,90.0000034332277
258,182,106376,1,0,0:0:0:0:
416,73,106698,2,0,L|438:218,1,135.000005149842
348,330,107236,1,0,0:0:0:0:
336,314,107343,6,0,B|254:335|254:335|220:325,1,120
324,298,107666,2,0,B|223:323|223:323|184:312,1,143.999995605469
312,282,107988,2,0,B|189:313|189:313|149:302,1,167.999994873047
300,266,108311,2,0,B|152:303|152:303|114:292,1,192
3,189,108634,6,0,P|65:168|126:193,1,135.000005149842
248,172,109172,1,0,0:0:0:0:
248,172,109279,2,0,L|235:33,1,135.000005149842
393,21,109817,1,0,0:0:0:0:
403,36,109924,2,0,P|420:77|411:125,1,90.0000034332277
417,136,110247,1,0,0:0:0:0:
457,276,110570,1,0,0:0:0:0:
343,361,110785,1,0,0:0:0:0:
343,361,110892,1,0,0:0:0:0:
210,292,111107,1,0,0:0:0:0:
210,292,111215,6,0,P|155:328|89:319,1,135.000005149842
99,102,111752,1,0,0:0:0:0:
90,116,111860,2,0,B|103:212,1,90.0000034332277
81,209,112183,1,0,0:0:0:0:
219,78,112398,1,0,0:0:0:0:
232,62,112505,2,0,L|330:70,1,90.0000034332277
332,55,112828,2,0,L|430:63,1,90.0000034332277
433,48,113150,1,0,0:0:0:0:
478,209,113473,1,0,0:0:0:0:
330,276,113795,5,0,0:0:0:0:
433,48,114117,2,0,L|298:37,1,135.000005149842
154,72,114656,2,0,L|288:83,1,135.000005149842
330,154,115086,2,0,B|392:183|392:183|357:126,1,135.000005149842
154,72,115623,2,0,L|288:83,1,135.000005149842
330,154,116053,1,0,0:0:0:0:
417,310,116268,1,0,0:0:0:0:
428,320,116375,6,0,L|326:311,1,90.0000034332277
325,322,116698,1,0,0:0:0:0:
226,250,117021,2,0,L|92:272,1,135.000005149842
19,173,117559,1,0,0:0:0:0:
25,146,117666,6,0,B|104:161|104:161|140:146,1,120
31,119,117988,2,0,B|125:136|125:136|169:119,1,143.999995605469
37,92,118311,2,0,B|147:112|147:112|198:92,1,167.999994873047
43,65,118634,2,0,B|169:88|169:88|227:65,1,192
392,25,118956,6,0,P|366:85|387:148,1,135.000005149842
484,281,119601,2,0,L|333:271,1,135.000005149842
238,310,120139,1,0,0:0:0:0:
229,330,120247,2,0,L|129:341,1,90.0000034332277
151,322,120569,1,0,0:0:0:0:
77,192,120892,1,0,0:0:0:0:
125,48,121107,1,0,0:0:0:0:
125,48,121214,1,0,0:0:0:0:
282,49,121430,1,0,0:0:0:0:
282,49,121537,6,0,B|323:80|323:80|404:62,1,135.000005149842
509,188,122182,2,0,B|468:157|468:157|386:174,1,135.000005149842
277,290,122720,1,0,0:0:0:0:
252,296,122827,2,0,P|230:257|237:213,1,90.0000034332277
229,193,123150,2,0,P|185:186|146:207,1,90.0000034332277
134,227,123472,1,0,0:0:0:0:
172,65,123795,1,0,0:0:0:0:
347,65,124117,5,0,0:0:0:0:
439,298,124440,2,0,B|357:325|357:325|331:307,1,116.999994644165
73,298,124978,2,0,B|155:325|155:325|180:307,1,116.999994644165
185,295,125408,1,0,0:0:0:0:
199,120,125730,1,0,0:0:0:0:
374,131,126053,1,0,0:0:0:0:
185,295,126376,1,0,0:0:0:0:
360,306,126698,5,0,0:0:0:0:
374,131,127021,2,0,P|316:124|262:145,1,116.999994644165
40,153,127558,2,0,P|97:146|151:167,1,116.999994644165
159,182,127988,1,0,0:0:0:0:
289,320,128203,1,0,0:0:0:0:
289,320,128311,1,0,0:0:0:0:
463,247,128634,1,0,0:0:0:0:
289,320,128956,1,0,0:0:0:0:
159,182,129279,5,0,0:0:0:0:
299,46,129601,2,0,L|415:51,1,116.999994644165
395,197,130139,2,0,L|511:202,1,116.999994644165
504,216,130569,1,0,0:0:0:0:
361,337,130892,1,0,0:0:0:0:
180,289,131214,1,0,0:0:0:0:
142,106,131537,1,0,0:0:0:0:
307,20,131859,5,0,0:0:0:0:
388,226,132182,2,0,P|330:237|273:225,1,116.999994644165
65,290,132720,2,0,P|123:301|180:289,1,116.999994644165
182,277,133150,1,0,0:0:0:0:
134,81,133365,1,0,0:0:0:0:
134,81,133472,1,0,0:0:0:0:
378,81,133795,1,0,0:0:0:0:
330,277,134010,1,0,0:0:0:0:
330,277,134117,1,0,0:0:0:0:
256,47,134440,5,0,0:0:0:0:
490,159,134763,1,0,0:0:0:0:
485,297,135085,2,0,P|446:303|409:293,1,77.9999964294435
391,303,135408,2,0,P|353:313|315:307,1,77.9999964294435
298,293,135730,1,0,0:0:0:0:
127,334,136053,1,0,0:0:0:0:
37,207,136268,1,0,0:0:0:0:
61,202,136376,2,0,L|66:111,1,77.9999964294435
53,107,136698,1,0,0:0:0:0:
206,22,137021,5,0,0:0:0:0:
344,128,137343,1,0,0:0:0:0:
497,43,137666,2,0,L|491:172,1,116.999994644165
444,321,138203,1,0,0:0:0:0:
434,308,138311,2,0,L|344:323,1,77.9999964294435
343,313,138634,1,0,0:0:0:0:
210,198,138849,1,0,0:0:0:0:
210,198,138956,1,0,0:0:0:0:
63,294,139171,1,0,0:0:0:0:
63,294,139279,1,0,0:0:0:0:
210,198,139601,5,0,0:0:0:0:
343,313,139924,1,0,0:0:0:0:
489,217,140247,2,0,P|489:178|472:143,1,77.9999964294435
455,137,140569,2,0,P|455:98|472:63,1,77.9999964294435
473,47,140892,1,0,0:0:0:0:
300,15,141214,1,0,0:0:0:0:
133,70,141537,1,0,0:0:0:0:
306,102,141859,1,0,0:0:0:0:
473,47,142182,6,0,P|472:85|455:120,1,77.9999964294435
433,127,142505,1,0,0:0:0:0:
268,186,142827,2,0,P|268:224|285:259,1,77.9999964294435
308,266,143150,1,0,0:0:0:0:
99,341,143365,1,0,0:0:0:0:
99,341,143472,2,0,P|115:306|116:267,1,77.9999964294435
102,248,143795,1,0,0:0:0:0:
69,92,144117,2,0,B|124:117|124:117|181:103,1,116.999994644165
342,32,144763,5,0,0:0:0:0:
441,176,145086,1,0,0:0:0:0:
341,309,145408,2,0,P|302:315|265:305,1,77.9999964294435
254,299,145730,2,0,P|242:336|218:366,1,77.9999964294435
202,362,146053,1,0,0:0:0:0:
43,285,146376,1,0,0:0:0:0:
126,155,146591,1,0,0:0:0:0:
102,150,146699,2,0,L|97:59,1,77.9999964294435
110,55,147021,1,0,0:0:0:0:
282,19,147344,5,0,0:0:0:0:
448,74,147666,1,0,0:0:0:0:
309,181,147989,2,0,L|315:310,1,116.999994644165
167,340,148526,1,0,0:0:0:0:
157,327,148634,2,0,L|67:342,1,77.9999964294435
66,332,148957,1,0,0:0:0:0:
111,187,149172,1,0,0:0:0:0:
111,187,149279,1,0,0:0:0:0:
42,62,149494,1,0,0:0:0:0:
42,62,149602,1,0,0:0:0:0:
111,187,149924,5,0,0:0:0:0:
180,312,150247,1,0,0:0:0:0:
253,188,150569,2,0,P|291:187|327:201,1,77.9999964294435
341,214,150892,2,0,P|355:178|353:139,1,77.9999964294435
346,123,151215,1,0,0:0:0:0:
213,27,151537,1,0,0:0:0:0:
62,92,151860,1,0,0:0:0:0:
213,27,152182,1,0,0:0:0:0:
346,123,152505,6,0,P|347:161|333:197,1,77.9999964294435
180,231,153042,1,0,0:0:0:0:
180,231,153150,1,0,0:0:0:0:
74,268,153365,1,0,0:0:0:0:
74,268,153472,2,0,P|72:306|86:342,1,77.9999964294435
100,354,153795,1,0,0:0:0:0:
191,194,154010,1,0,0:0:0:0:
199,207,154117,2,0,P|237:216|276:215,1,77.9999964294435
287,203,154440,1,0,0:0:0:0:
464,148,154655,1,0,0:0:0:0:
450,156,154762,2,0,P|441:193|442:232,1,77.9999964294435
459,249,155085,5,0,0:0:0:0:
260,337,155408,2,0,B|174:317|174:317|158:337|134:339,1,135.000005149842
36,242,155945,2,0,B|122:262|122:262|138:242|161:239,1,135.000005149842
242,248,156376,2,0,P|224:186|160:159,1,135.000005149842
36,242,156913,2,0,B|122:262|122:262|138:242|161:239,1,135.000005149842
242,248,157344,1,0,0:0:0:0:
393,176,157559,1,0,0:0:0:0:
402,186,157666,6,0,L|389:97,1,90.0000034332277
396,76,157989,1,0,0:0:0:0:
248,24,158311,2,0,L|96:43,1,135.000005149842
26,151,158849,1,0,0:0:0:0:
32,178,158956,6,0,P|88:193|139:165,1,120
38,205,159279,2,0,P|105:223|166:189,1,143.999995605469
44,232,159601,2,0,P|123:254|194:213,1,167.999994873047
50,259,159924,2,0,P|140:284|221:238,1,192
234,78,160247,6,0,B|263:100|270:135|270:135|265:97|279:63,1,135.000005149842
441,36,160785,1,0,0:0:0:0:
441,36,160892,2,0,P|417:98|441:159,1,135.000005149842
471,296,161430,1,0,0:0:0:0:
458,305,161537,2,0,P|417:288|369:297,1,90.0000034332277
356,307,161860,1,0,0:0:0:0:
194,238,162183,1,0,0:0:0:0:
40,316,162398,1,0,0:0:0:0:
40,316,162505,1,0,0:0:0:0:
5,149,162720,1,0,0:0:0:0:
5,149,162828,6,0,P|60:184|126:176,1,135.000005149842
255,15,163365,1,0,0:0:0:0:
246,29,163473,2,0,B|259:125,1,90.0000034332277
237,122,163796,1,0,0:0:0:0:
459,87,164011,1,0,0:0:0:0:
475,100,164118,2,0,L|467:198,1,90.0000034332277
482,200,164441,2,0,L|474:298,1,90.0000034332277
489,301,164763,1,0,0:0:0:0:
341,205,165086,1,0,0:0:0:0:
195,301,165408,5,0,0:0:0:0:
40,349,165730,2,0,B|12:270|12:270|35:224,1,135.000005149842
191,177,166268,2,0,B|219:256|219:256|195:301,1,135.000005149842
161,375,166698,2,0,P|116:327|122:262,1,135.000005149842
191,177,167236,2,0,B|219:256|219:256|195:301,1,135.000005149842
161,375,167666,1,0,0:0:0:0:
413,303,167881,1,0,0:0:0:0:
403,314,167988,6,0,L|412:212,1,90.0000034332277
401,211,168311,1,0,0:0:0:0:
253,362,168634,2,0,L|233:212,1,135.000005149842
43,78,169172,1,0,0:0:0:0:
68,69,169279,6,0,P|121:84|136:153,1,120
93,60,169601,2,0,P|151:76|168:152,1,143.999995605469
118,51,169924,2,0,P|185:70|204:157,1,167.999994873047
143,42,170247,2,0,P|220:63|241:164,1,192
326,290,170569,6,0,B|353:278|391:283|391:283|356:276|334:247,1,135.000005149842
436,34,171214,2,0,P|460:98|437:163,1,135.000005149842
463,297,171752,1,0,0:0:0:0:
447,312,171860,2,0,P|405:327|362:315,1,90.0000034332277
364,336,172182,1,0,0:0:0:0:
235,215,172505,1,0,0:0:0:0:
77,291,172720,1,0,0:0:0:0:
77,291,172827,1,0,0:0:0:0:
1,128,173042,1,0,0:0:0:0:
1,128,173150,6,0,B|61:103|61:103|129:122,1,135.000005149842
362,209,173795,2,0,B|302:234|302:234|234:214,1,135.000005149842
87,59,174333,1,0,0:0:0:0:
71,72,174440,2,0,L|79:170,1,90.0000034332277
64,172,174763,2,0,L|72:270,1,90.0000034332277
57,273,175085,1,0,0:0:0:0:
220,337,175408,1,0,0:0:0:0:
335,238,175730,5,0,0:0:0:0:
202,139,176053,2,0,P|180:85|194:30,1,116.999994644165
88,227,176591,2,0,P|66:280|80:335,1,116.999994644165
94,333,177021,1,0,0:0:0:0:
256,268,177343,1,0,0:0:0:0:
410,352,177666,1,0,0:0:0:0:
406,177,177988,1,0,0:0:0:0:
256,268,178311,5,0,0:0:0:0:
252,93,178634,2,0,B|169:77|169:77|139:89,1,116.999994644165
144,265,179171,2,0,B|227:281|227:281|256:268,1,116.999994644165
261,282,179601,1,0,0:0:0:0:
252,93,179816,1,0,0:0:0:0:
252,93,179924,1,0,0:0:0:0:
70,129,180247,1,0,0:0:0:0:
79,318,180461,1,0,0:0:0:0:
79,318,180569,1,0,0:0:0:0:
261,282,180892,5,0,0:0:0:0:
446,37,181214,2,0,L|459:158,1,116.999994644165
386,318,181752,2,0,L|373:201,1,116.999994644165
387,212,182182,1,0,0:0:0:0:
238,97,182505,1,0,0:0:0:0:
81,199,182827,1,0,0:0:0:0:
238,97,183150,1,0,0:0:0:0:
387,212,183472,5,0,0:0:0:0:
230,314,183795,2,0,B|168:338|168:338|196:284,1,116.999994644165
105,275,184333,2,0,B|38:270|38:270|86:233,1,116.999994644165
72,228,184763,1,0,0:0:0:0:
304,257,184978,1,0,0:0:0:0:
304,257,185085,1,0,0:0:0:0:
163,76,185408,1,0,0:0:0:0:
395,47,185623,1,0,0:0:0:0:
395,47,185730,1,0,0:0:0:0:
191,244,186093,5,0,0:0:0:0:
