osu file format v14

[General]
AudioFilename: audio.mp3
AudioLeadIn: 0
PreviewTime: 56225
Countdown: 0
SampleSet: Soft
StackLeniency: 0.7
Mode: 0
LetterboxInBreaks: 0
WidescreenStoryboard: 1

[Editor]
Bookmarks: 23696,24219,75673
DistanceSpacing: 1.4
BeatDivisor: 4
GridSize: 4
TimelineZoom: 1

[Metadata]
Title:Nae Kkumeun Patissiere (TV Size)
TitleUnicode:내 꿈은 파티시엘 (TV Size)
Artist:IU
ArtistUnicode:아이유
Creator:Uta
Version:Easy
Source:꿈빛 파티시엘
Tags:夢色パティシエール opening op1 yumeiro _kotachi_ error- greenhue my angel range waifuiscute fluffy hair korean anime -keitaro
BeatmapID:1932818
BeatmapSetID:923174

[Difficulty]
HPDrainRate:2
CircleSize:3
OverallDifficulty:2
ApproachRate:3
SliderMultiplier:0.6
SliderTickRate:1

[Events]
//Background and Video events
0,0,"patissiere.jpg",0,0
//Break Periods
//Storyboard Layer 0 (Background)
//Storyboard Layer 1 (Fail)
//Storyboard Layer 2 (Pass)
//Storyboard Layer 3 (Foreground)
//Storyboard Sound Samples

[TimingPoints]
499,348.837209302326,4,2,1,40,1,0
8696,-100,4,2,1,60,0,0
50731,-100,4,2,1,65,0,0
56312,-100,4,2,1,70,0,1
76545,-100,4,2,1,60,0,1
77592,-100,4,2,1,60,0,0
83173,-100,4,2,1,40,0,0
85615,-100,4,2,1,30,0,0
89103,-100,4,2,1,5,0,0

[Colours]
Combo1 : 255,224,130
Combo2 : 138,255,197
Combo3 : 255,155,255
Combo4 : 193,132,255

[HitObjects]
174,265,3289,6,0,P|231:281|297:249,1,120,0|0,3:0|3:0,0:0:0:0:
358,218,4336,1,8,0:0:0:0:
412,286,4685,2,0,P|441:243|434:176,1,120,0|0,3:0|3:0,0:0:0:0:
379,61,6080,6,0,B|321:67|301:106|241:91,1,120,0|0,3:0|3:0,0:0:0:0:
181,79,7126,2,0,P|172:134|171:165,1,60,8|0,0:0|3:0,0:0:0:0:
168,268,8173,1,8,0:0:0:0:
67,339,8696,6,0,P|55:259|50:223,1,90,4|8,3:2|0:0,0:0:0:0:
51,165,9568,2,0,P|125:169|153:155,1,90,2|6,3:2|3:2,0:0:0:0:
267,119,10789,6,0,L|398:109,1,120,6|6,3:2|3:2,0:0:0:0:
351,224,12010,2,0,P|335:257|346:320,1,90,8|8,0:0|0:0,0:0:0:0:
424,319,12882,2,0,P|440:282|428:213,1,90,4|4,0:0|0:0,0:0:0:0:
273,95,14452,6,0,B|250:168|250:168|263:226,1,120,4|2,3:2|3:2,0:0:0:0:
268,294,15499,1,10,0:0:0:0:
193,331,15847,2,0,P|98:304|84:310,1,120,2|2,3:2|3:2,0:0:0:0:
10,189,17243,6,0,L|0:109,2,60,2|10|2,3:2|0:0|3:2,0:0:0:0:
79,235,18289,1,10,0:2:0:0:
146,184,18638,2,0,B|226:181|233:242|340:208,1,180,0|8,0:0|0:0,0:0:0:0:
391,169,20033,6,0,L|375:365,1,180,4|8,3:2|0:0,0:0:0:0:
291,327,21429,2,0,P|225:329|180:314,2,90,0|0|8,0:0|3:0|0:0,0:0:0:0:
328,251,22824,2,0,P|313:204|326:128,1,120,2|0,3:2|3:0,0:0:0:0:
423,62,24219,2,0,P|438:109|425:185,1,120,0|0,0:0|3:0,0:0:0:0:
328,251,25615,6,0,L|199:242,1,120,2|0,3:2|3:0,0:0:0:0:
87,191,27010,2,0,L|93:299,1,90,0|0,0:0|3:0,0:0:0:0:
232,339,28057,1,8,0:0:0:0:
307,302,28405,2,0,B|321:250|321:250|298:161,1,120,2|0,3:2|3:0,0:0:0:0:
246,65,29801,6,0,P|327:30|430:48,1,180,0|8,0:0|3:2,0:0:0:0:
495,69,31196,2,0,B|489:131|489:131|505:159|503:207,1,120,2|0,3:2|3:0,0:0:0:0:
401,282,32592,2,0,P|385:227|395:181,1,90,2|2,3:2|3:2,0:0:0:0:
449,50,33987,6,0,B|390:47|390:47|342:75|342:75|272:70,1,180,2|8,3:2|0:0,0:0:0:0:
213,15,35382,2,0,P|192:77|218:136,1,120,2|0,3:2|3:0,0:0:0:0:
327,168,36603,2,0,L|341:327,1,150,4|0,3:2|3:0,0:0:0:0:
260,342,37824,6,0,L|247:216,2,120,8|8|10,3:2|0:0|0:0,0:0:0:0:
176,334,39568,2,0,P|97:355|43:330,1,120,4|0,3:2|0:0,0:0:0:0:
2,231,40964,2,0,P|81:210|135:235,1,120,0|0,3:0|3:0,0:0:0:0:
247,258,42359,6,0,P|228:182|217:124,1,120,4|0,3:2|0:0,0:0:0:0:
206,21,43754,2,0,L|102:40,1,90,0|0,3:0|3:0,0:0:0:0:
15,136,45150,2,0,B|42:189|19:263|48:297|84:312|115:286|121:266|141:248|164:248,1,240,0|0,3:0|0:0,0:0:0:0:
192,192,46894,2,0,L|182:74,1,90,0|0,3:0|3:0,0:0:0:0:
57,40,47940,6,0,L|39:230,1,180,4|0,3:2|0:0,0:0:0:0:
8,297,49336,2,0,P|99:282|200:280,1,180,0|8,3:0|0:0,0:0:0:0:
265,250,50731,2,0,L|305:363,2,120,10|10|10,0:0|0:0|0:0,0:0:0:0:
185,155,52824,1,10,0:0:0:0:
270,47,53522,6,0,L|408:60,1,120,10|10,0:0|0:0,0:0:0:0:
510,130,54917,2,0,P|488:57|492:-4,1,120,10|10,0:0|3:0,0:0:0:0:
350,113,56312,6,0,P|354:189|330:297,1,180,6|10,3:2|0:0,0:0:0:0:
252,264,57708,2,0,P|195:273|156:292,1,90,4|2,3:2|3:2,0:0:0:0:
20,204,59103,2,0,L|13:333,2,120,6|2|2,3:2|3:2|3:2,0:0:0:0:
35,76,61196,2,0,B|80:63|80:63|135:71,1,90,2|4,3:2|3:2,0:0:0:0:
262,30,62243,6,0,P|312:37|426:60,1,150,8|4,0:0|3:2,0:0:0:0:
489,164,63638,2,0,P|482:214|459:328,1,150,8|4,0:0|3:2,0:0:0:0:
344,253,65033,2,0,P|232:245|188:254,1,150,8|0,0:0|3:0,0:0:0:0:
132,304,66254,2,0,L|40:300,1,90,0|8,3:0|0:0,0:0:0:0:
2,103,67475,6,0,P|89:123|179:120,1,180,6|10,3:2|0:0,0:0:0:0:
263,106,68871,2,0,P|318:93|357:74,1,90,2|2,3:2|3:2,0:0:0:0:
505,21,70266,2,0,L|512:150,2,120,6|2|2,0:0|3:2|3:2,0:0:0:0:
381,99,72359,2,0,B|368:144|368:144|374:186,1,90,2|4,3:2|3:2,0:0:0:0:
486,234,73406,6,0,P|501:160|504:85,1,150,12|4,0:0|3:2,0:0:0:0:
363,105,74975,2,0,P|313:98|233:84,1,120,4|4,0:0|0:0,0:0:0:0:
128,35,76196,2,0,P|160:154|153:273,1,240,8|8,0:0|0:0,0:0:0:0:
277,348,78638,6,0,B|339:328|339:328|403:337,1,120,6|0,3:2|3:0,0:0:0:0:
476,343,79685,1,8,0:0:0:0:
512,269,80033,2,0,L|499:137,1,120,2|2,3:2|3:2,0:0:0:0:
388,59,81429,6,0,L|394:-13,2,60,8|8|0,0:0|0:0|0:0,0:0:0:0:
251,86,82650,2,0,L|265:197,1,90,4|4,0:0|0:0,0:0:0:0:
228,323,84219,6,0,B|60:274|152:374|-25:348,1,240,4|2,0:0|0:0,0:0:0:0:
35,226,86138,1,2,0:0:0:0:
256,192,86836,12,0,89452,0:0:0:0:
