osu file format v14

[General]
AudioFilename: audio.mp3
AudioLeadIn: 0
PreviewTime: 108362
Countdown: 0
SampleSet: Soft
StackLeniency: 0.2
Mode: 0
LetterboxInBreaks: 0
WidescreenStoryboard: 0

[Editor]
Bookmarks: 627,9683,27775,45342,64022,82135,100248,118378
DistanceSpacing: 1
BeatDivisor: 3
GridSize: 8
TimelineZoom: 1.3

[Metadata]
Title:Drama
TitleUnicode:드라마
Artist:IU
ArtistUnicode:아이유
Creator:marci
Version:Normal
Source:
Tags:이지은 조각집 Pieces Lee Ji-eun Korean Ballad Pop jieun ji eun female vocalist vocals kpop k-pop
BeatmapID:3408305
BeatmapSetID:1668950

[Difficulty]
HPDrainRate:4
CircleSize:5
OverallDifficulty:4
ApproachRate:4.3
SliderMultiplier:1.2
SliderTickRate:1

[Events]
//Background and Video events
0,0,"bg.jpg",0,0
//Break Periods
2,64022,71796
//Storyboard Layer 0 (Background)
//Storyboard Layer 1 (Fail)
//Storyboard Layer 2 (Pass)
//Storyboard Layer 3 (Foreground)
//Storyboard Layer 4 (Overlay)
//Storyboard Sound Samples

[TimingPoints]
612,566.037735849057,4,2,1,45,1,0
8159,-100,4,2,1,35,0,0
8347,-100,4,2,1,45,0,0
27775,568.720379146919,4,2,1,45,1,0
32324,566.037735849057,4,2,1,45,1,0
62512,-100,4,2,1,35,0,0
62701,-100,4,2,1,45,0,0
77984,-100,4,2,1,40,0,0
78173,-100,4,2,1,45,0,0
78550,-100,4,2,1,40,0,0
78739,-100,4,2,1,45,0,0
79116,-100,4,2,1,40,0,0
79305,-100,4,2,1,45,0,0
79682,-100,4,2,1,40,0,0
79871,-100,4,2,1,45,0,0
95780,566.037735849057,4,2,1,45,1,0
96286,566.037735849057,4,2,1,45,1,8
97984,566.037735849057,4,2,1,45,1,0
98550,545.454545454546,4,2,1,45,1,8
99682,566.037735849057,4,2,1,45,1,8
100248,566.037735849057,4,2,1,45,1,0
116097,579.710144927536,4,2,1,45,1,0
117796,582.52427184466,4,2,1,45,1,0
118378,571.428571428571,4,2,1,45,1,0
118950,566.037735849057,4,2,1,45,1,0
119580,618.556701030928,4,2,1,45,1,0
120198,618.556701030928,4,2,1,45,1,0
120610,566.037735849057,4,2,1,45,1,0
120841,659.340659340659,4,2,1,45,1,0
121500,759.493670886076,4,2,1,45,1,0
122259,566.037735849057,4,2,1,45,1,0
122447,-100,4,2,1,5,0,0

[Colours]
Combo1 : 176,165,229
Combo2 : 122,102,213
Combo3 : 200,191,231
Combo4 : 166,148,222
Combo5 : 217,222,252

[HitObjects]
32,320,612,6,0,P|75:279|133:264,1,120,2|0,0:0|0:1,0:0:0:0:
171,340,1555,1,0,0:0:0:0:
171,340,1744,2,0,P|229:347|285:325,1,120,2|0,0:0|0:0,0:0:0:0:
401,297,2876,6,0,P|412:258|414:218,1,80,2|0,0:0|0:0,0:0:0:0:
379,198,3442,2,0,P|369:158|369:118,1,80,2|0,0:0|0:0,0:0:0:0:
393,87,4008,2,0,P|430:56|429:105,1,120,2|0,0:0|0:0,0:0:0:0:
318,60,5140,5,2,0:0:0:0:
200,35,5706,1,2,0:0:0:0:
168,150,6272,1,2,0:0:0:0:
286,175,6838,1,2,0:0:0:0:
226,279,7404,6,0,P|192:298|152:303,1,80,2|0,0:0|0:0,0:0:0:0:
121,276,7970,2,0,P|101:272|81:261,1,40,2|0,0:0|0:0,0:0:0:0:
27,205,8536,1,2,0:0:0:0:
131,146,9102,5,0,0:0:0:0:
247,117,9668,2,0,P|306:115|362:136,1,120,2|0,0:0|0:0,0:0:0:0:
422,197,10612,1,0,0:0:0:0:
422,197,10800,1,2,0:0:0:0:
390,313,11366,5,0,0:0:0:0:
323,354,11744,1,0,0:0:0:0:
323,354,11932,2,0,P|283:353|244:344,1,80,2|0,2:0|0:0,0:0:0:0:
228,307,12498,2,0,P|189:295|149:292,1,80,2|0,2:0|0:0,0:0:0:0:
113,307,13064,1,2,0:0:0:0:
176,206,13630,5,0,0:0:0:0:
165,130,14008,1,0,0:0:0:0:
165,130,14196,2,0,P|193:79|242:45,1,120,2|0,0:0|0:0,0:0:0:0:
324,64,15140,1,0,0:0:0:0:
324,64,15328,2,0,P|346:118|339:177,1,120,2|0,0:0|0:0,0:0:0:0:
290,241,16272,5,0,0:0:0:0:
290,241,16461,2,0,P|240:238|272:201,1,120,2|0,0:0|0:0,0:0:0:0:
354,200,17404,1,0,0:0:0:0:
354,200,17593,1,2,0:0:0:0:
441,274,18159,6,0,P|432:312|408:344,1,80
368,337,18725,2,0,P|313:360|253:362,1,120,2|0,0:0|0:0,0:0:0:0:
182,335,19669,1,0,0:0:0:0:
182,335,19857,2,0,P|151:283|150:224,1,120,2|0,0:0|0:0,0:0:0:0:
224,191,20800,5,0,0:0:0:0:
224,191,20989,2,0,P|217:150|201:114,1,80,2|0,2:0|0:0,0:0:0:0:
171,89,21555,2,0,P|191:54|219:26,1,80,2|0,2:0|0:0,0:0:0:0:
254,7,22121,1,2,0:0:0:0:
361,61,22687,5,0,0:0:0:0:
375,143,23064,1,0,0:0:0:0:
375,143,23253,2,0,P|355:199|319:246,1,120,2|0,0:0|0:0,0:0:0:0:
247,280,24196,1,0,0:0:0:0:
247,280,24385,2,0,P|187:285|129:272,1,120,2|0,0:0|0:0,0:0:0:0:
67,228,25328,5,0,0:0:0:0:
67,228,25517,2,0,B|22:137|128:73|102:-18,1,240,2|0,0:0|0:0,0:0:0:0:
26,15,27027,5,0,3:0:0:0:
26,15,27215,1,0,3:0:0:0:
87,117,27775,6,0,P|131:155|188:167,1,120,2|0,0:0|0:0,0:0:0:0:
163,244,28722,1,0,0:0:0:0:
163,244,28912,1,2,0:0:0:0:
277,208,29481,2,0,P|335:219|380:258,1,120,2|2,0:0|0:0,0:0:0:0:
451,161,30618,5,2,0:0:0:0:
381,132,30997,1,0,0:0:0:0:
381,132,31187,2,0,P|349:78|347:20,1,120,2|0,0:0|0:0,0:0:0:0:
278,120,32324,1,2,0:0:0:0:
227,11,32891,5,2,0:0:0:0:
163,58,33268,1,0,0:0:0:0:
163,58,33457,2,0,P|138:87|102:105,1,80,2|0,0:0|0:0,0:0:0:0:
112,143,34023,2,0,P|95:177|63:202,1,80,2|0,0:0|0:0,0:0:0:0:
80,237,34589,2,0,P|56:291|9:326,1,120,2|0,2:0|2:0,2:0:0:0:
73,379,35532,1,0,0:0:0:0:
73,379,35721,1,2,0:0:0:0:
185,337,36287,5,2,0:0:0:0:
296,381,36852,2,0,P|298:321|329:271,1,120,2|0,2:0|2:0,2:0:0:0:
321,194,37796,1,0,0:0:0:0:
321,194,37985,1,2,0:0:0:0:
414,118,38551,1,2,0:0:0:0:
296,92,39117,1,2,0:0:0:0:
179,122,39683,6,0,P|153:93|118:75,1,80,2|0,0:0|0:0,0:0:0:0:
138,40,40249,2,0,P|197:28|249:-1,1,120,2|0,0:0|0:0,0:0:0:0:
394,189,41947,6,0,P|430:203|470:205,1,80,2|0,0:0|0:0,0:0:0:0:
481,244,42513,2,0,P|452:271|436:308,1,80,2|0,0:0|0:0,0:0:0:0:
398,319,43079,2,0,P|358:317|321:302,1,80,2|0,0:0|0:0,0:0:0:0:
288,325,43645,2,0,B|214:291|136:295|110:331|56:342,1,240,2|0,0:0|0:0,0:0:0:0:
60,344,45343,5,0,0:0:0:0:
34,227,45908,2,0,P|62:175|106:134,1,120,2|0,0:0|0:0,0:0:0:0:
184,108,46852,1,0,0:0:0:0:
184,108,47040,1,2,0:0:0:0:
303,109,47608,6,0,P|339:126|366:156,1,80
363,195,48174,2,0,P|373:234|368:273,1,80,2|0,0:0|0:0,0:0:0:0:
342,302,48740,2,0,P|323:337|292:361,1,80,2|0,0:0|0:0,0:0:0:0:
257,382,49306,1,2,0:0:0:0:
140,353,49872,5,0,0:0:0:0:
84,301,50249,1,0,0:0:0:0:
84,301,50437,2,0,P|54:247|45:187,1,120,2|0,0:0|0:0,0:0:0:0:
117,152,51381,1,0,0:0:0:0:
117,152,51569,2,0,P|130:93|163:44,1,120,2|0,0:0|0:0,0:0:0:0:
245,32,52512,5,0,0:0:0:0:
245,32,52701,2,0,P|289:71|316:123,1,120,2|0,0:0|0:0,0:0:0:0:
336,206,53644,1,0,0:0:0:0:
336,206,53833,1,2,0:0:0:0:
217,187,54399,6,0,P|178:198|147:224,1,80
128,258,54966,1,2,0:0:0:0:
207,346,55532,2,0,P|238:368|277:378,1,80
308,352,56098,2,0,P|367:347|416:313,1,120,2|0,0:0|0:0,0:0:0:0:
444,240,57040,5,0,0:0:0:0:
444,240,57229,2,0,P|436:199|414:165,1,80,2|0,0:0|0:0,0:0:0:0:
376,172,57795,2,0,P|337:163|303:142,1,80,2|0,0:0|0:0,0:0:0:0:
274,114,58361,1,2,0:0:0:0:
198,24,58927,5,0,0:0:0:0:
128,61,59306,1,0,0:0:0:0:
128,61,59494,2,0,P|88:106|77:165,1,120,2|0,0:0|0:0,0:0:0:0:
114,238,60437,1,0,0:0:0:0:
114,238,60625,2,0,P|166:261|225:255,1,120,2|0,0:0|0:0,0:0:0:0:
303,225,61569,5,0,0:0:0:0:
303,225,61757,2,0,P|341:219|379:229,1,80,2|0,0:0|0:0,0:0:0:0:
379,270,62324,2,0,P|370:287|356:302,1,40,2|0,0:0|0:0,0:0:0:0:
286,341,62890,1,2,0:0:0:0:
479,347,73079,6,0,P|471:287|458:228,1,120,2|0,0:0|0:0,0:0:0:0:
348,180,74211,2,0,P|337:139|334:100,1,80,2|0,0:0|0:0,0:0:0:0:
332,62,74777,1,2,0:0:0:0:
257,50,75155,5,2,0:0:0:0:
257,50,75343,2,0,P|217:52|179:59,1,80,2|0,0:0|0:0,0:0:0:0:
139,71,75908,1,2,0:0:0:0:
91,181,76474,2,0,P|81:239|76:299,1,120,2|0,0:0|0:0,0:0:0:0:
176,366,77607,5,2,0:0:0:0:
258,356,77985,1,2,0:0:0:0:
258,356,78174,1,2,0:0:0:0:
333,326,78551,1,2,0:0:0:0:
333,326,78740,1,2,0:0:0:0:
396,277,79117,1,2,0:0:0:0:
396,277,79306,1,2,0:0:0:0:
443,213,79683,1,2,0:0:0:0:
443,213,79872,2,0,P|463:157|469:96,2,120,2|2|2,0:0|0:0|0:0,0:0:0:0:
314,10,82136,6,0,P|276:55|257:113,1,120,2|0,0:0|0:0,0:0:0:0:
188,80,83078,1,0,0:0:0:0:
188,80,83267,1,2,0:0:0:0:
223,194,83834,2,0,P|251:245|296:284,1,120,2|2,0:0|0:0,0:0:0:0:
177,293,84965,5,2,0:0:0:0:
60,321,85531,1,2,0:0:0:0:
74,201,86097,2,0,P|66:141|37:89,1,120,2|2,0:0|0:0,0:0:0:0:
145,141,87229,5,2,0:0:0:0:
170,220,87607,1,0,0:0:0:0:
170,220,87795,2,0,P|208:217|246:231,1,80,2|0,0:0|0:0,0:0:0:0:
276,206,88361,2,0,P|308:184|348:178,1,80,2|0,0:0|0:0,0:0:0:0:
374,147,88927,2,0,P|404:98|458:70,1,120,2|0,2:0|2:0,2:0:0:0:
492,0,89872,1,0,0:0:0:0:
492,0,90059,1,2,0:0:0:0:
375,26,90625,5,2,0:0:0:0:
256,7,91191,2,0,P|201:31|142:25,1,120,2|0,0:0|0:0,0:0:0:0:
123,105,92135,1,0,0:0:0:0:
123,105,92325,1,2,0:0:0:0:
242,101,92891,1,2,0:0:0:0:
169,196,93457,1,2,0:0:0:0:
53,232,94023,6,0,P|88:242|120:268,1,80,2|0,0:0|0:0,0:0:0:0:
160,277,94589,2,0,P|203:315|261:328,1,120,2|0,0:0|0:0,0:0:0:0:
497,276,96287,6,0,P|458:262|418:265,1,80,2|0,0:0|0:0,0:0:0:0:
396,232,96853,2,0,P|359:216|331:188,1,80,2|0,0:0|0:0,0:0:0:0:
294,203,97419,2,0,P|259:183|219:179,1,80,2|0,0:0|0:0,0:0:0:0:
198,145,97984,2,0,P|87:98|-1:19,1,235.8,2|2,0:0|0:0,0:0:0:0:
117,4,99682,5,0,0:0:0:0:
236,10,100248,2,0,P|292:29|338:68,1,120,2|0,0:0|2:0,0:0:0:0:
383,139,101191,1,0,0:0:0:0:
383,139,101380,1,2,0:0:0:0:
267,170,101946,6,0,P|234:192|211:225,1,80
228,261,102512,2,0,P|200:290|163:307,1,80,2|0,2:0|0:0,0:0:0:0:
127,293,103078,2,0,P|87:293|50:277,1,80,2|0,2:0|0:0,0:0:0:0:
30,242,103644,1,2,0:0:0:0:
1,125,104210,5,0,0:0:0:0:
44,59,104587,1,0,0:0:0:0:
44,59,104776,2,0,P|98:37|158:42,1,120,2|0,0:0|0:0,0:0:0:0:
208,110,105719,1,0,0:0:0:0:
208,110,105908,2,0,P|247:151|303:173,1,120,2|0,0:0|0:0,0:0:0:0:
379,139,106851,5,0,0:0:0:0:
379,139,107040,2,0,P|436:151|483:187,1,120,2|0,0:0|0:0,0:0:0:0:
512,266,107983,1,0,0:0:0:0:
512,266,108172,1,2,0:0:0:0:
395,296,108738,6,0,P|354:289|319:273,1,80,2|0,0:0|0:0,0:0:0:0:
288,246,109304,1,2,0:0:0:0:
233,139,109870,2,0,P|217:102|212:62,1,80
181,36,110436,2,0,P|144:3|138:52,1,120,2|0,0:0|0:0,0:0:0:0:
147,133,111380,5,0,0:0:0:0:
147,133,111568,2,0,P|145:172|134:210,1,80,2|0,2:0|0:0,0:0:0:0:
103,237,112134,2,0,P|91:275|89:315,1,80,2|0,2:0|0:0,0:0:0:0:
109,349,112700,1,2,0:0:0:0:
225,378,113266,5,0,0:0:0:0:
301,349,113644,1,0,0:0:0:0:
301,349,113832,2,0,P|329:296|328:236,1,120,2|0,0:0|0:0,0:0:0:0:
264,196,114776,1,0,0:0:0:0:
264,196,114964,2,0,P|242:140|249:81,1,120,2|0,0:0|0:0,0:0:0:0:
315,36,115908,5,0,0:0:0:0:
315,36,116097,2,0,P|368:62|427:67,2,120,2|2|2,0:0|0:0|0:0,0:0:0:0:
200,1,117796,6,0,P|160:2|121:14,1,80
87,34,118378,1,2,0:0:0:0:
203,78,118950,2,0,P|238:95|268:122,1,80
293,164,119580,1,2,0:0:0:0:
171,190,120198,2,0,P|146:221|129:258,1,80
119,305,120841,5,2,0:0:0:0:
253,369,121500,1,2,0:0:0:0:
423,384,122259,1,2,0:0:0:0:
256,192,122447,12,0,126787,0:0:0:0:
