osu file format v14

[General]
AudioFilename: audio.mp3
AudioLeadIn: 0
PreviewTime: 82369
Countdown: 0
SampleSet: Soft
StackLeniency: 0.6
Mode: 0
LetterboxInBreaks: 0
EpilepsyWarning: 1
WidescreenStoryboard: 1

[Editor]
DistanceSpacing: 2.3
BeatDivisor: 8
GridSize: 8
TimelineZoom: 3.303998

[Metadata]
Title:WANNABE
TitleUnicode:WANNABE
Artist:ITZY
ArtistUnicode:있지
Creator:jixxi
Version:UNTOUCHABLE
Source:
Tags:jordanlr7 fragmented pewdekz funnya hoki hokichi fanzhen0019 irreversible -m4x nabori korean pop kpop k-pop jyp jype entertainment 2nd mini album it'z me 예지 yeji 리아 lia 류진 ryujin 채령 chaeryoung 유나 yuna
BeatmapID:3785371
BeatmapSetID:1842942

[Difficulty]
HPDrainRate:6
CircleSize:4
OverallDifficulty:9
ApproachRate:9.6
SliderMultiplier:2
SliderTickRate:1

[Events]
//Background and Video events
0,0,"ryujin god.jpg",0,0
Video,0,"ITZY_WANNABE_M_V1080p_2.mp4"
//Break Periods
2,98921,100179
//Storyboard Layer 0 (Background)
//Storyboard Layer 1 (Fail)
//Storyboard Layer 2 (Pass)
//Storyboard Layer 3 (Foreground)
//Storyboard Layer 4 (Overlay)
//Storyboard Sound Samples

[TimingPoints]
2328,491.803278688525,4,2,1,50,1,0
3311,-250,4,2,2,50,0,0
3802,-250,4,2,2,5,0,0
4296,-250,4,2,2,50,0,0
5769,-250,4,2,2,5,0,0
6262,-250,4,2,2,50,0,0
7736,-250,4,2,2,5,0,0
8229,-250,4,2,2,50,0,0
11670,-250,4,2,2,5,0,0
12164,-250,4,2,2,50,0,0
13637,-250,4,2,2,5,0,0
14131,-250,4,2,2,50,0,0
16836,-250,4,2,2,5,0,0
17082,-250,4,2,2,55,0,0
18066,-50,4,2,1,60,0,0
18741,-50,4,2,1,5,0,0
18803,-100,4,2,1,60,0,0
18987,-100,4,2,1,5,0,0
19049,-50,4,2,1,60,0,0
19541,-100,4,2,1,60,0,0
20033,-50,4,2,1,60,0,0
20709,-50,4,2,1,5,0,0
20770,-50,4,2,1,60,0,0
21509,-100,4,2,1,60,0,0
22000,-50,4,2,1,60,0,0
22369,-100,4,2,1,60,0,0
23475,-80,4,2,1,60,0,0
23843,-80,4,2,1,5,0,0
23967,-66.6666666666667,4,2,1,60,0,0
24459,-50,4,2,1,60,0,0
24643,-50,4,2,1,5,0,0
24705,-50,4,2,1,60,0,0
25811,-66.6666666666667,4,2,1,60,0,0
25934,-83.3333333333333,4,2,1,70,0,0
26426,-66.6666666666667,4,2,1,70,0,0
26610,-66.6666666666667,4,2,1,5,0,0
26672,-66.6666666666667,4,2,1,70,0,0
26856,-66.6666666666667,4,2,1,5,0,0
26918,-83.3333333333333,4,2,1,70,0,0
29131,-100,4,2,1,70,0,0
29869,-50,4,2,1,70,0,0
30361,-83.3333333333333,4,2,1,70,0,0
31590,-66.6666666666667,4,2,1,70,0,0
32574,-83.3333333333333,4,2,1,70,0,0
33803,-100,4,2,1,60,0,0
35279,-1000,4,2,1,60,0,0
35647,-1000,4,2,1,5,0,0
35770,-166.666666666667,4,2,1,60,0,0
37000,-250,4,2,1,60,0,0
37737,-100,4,2,1,60,0,0
37859,-100,4,2,1,5,0,0
38475,-100,4,2,1,60,0,0
39213,-1000,4,2,1,60,0,0
39581,-1000,4,2,1,5,0,0
39705,-100,4,2,1,60,0,0
40688,-90.909090909091,4,2,1,60,0,0
41180,-33.3333333333333,4,2,1,60,0,0
41426,-30.7692307692308,4,2,1,60,0,0
41672,-500,4,2,1,65,0,0
42040,-500,4,2,1,5,0,0
42164,-500,4,2,1,65,0,0
43147,-100,4,2,1,65,0,0
43269,-100,4,2,1,5,0,0
43393,-100,4,2,1,65,0,0
43639,-500,4,2,1,65,0,0
44007,-500,4,2,1,5,0,0
44131,-500,4,2,1,65,0,0
44869,-90.909090909091,4,2,1,65,0,0
45606,-500,4,2,1,65,0,0
45974,-500,4,2,1,5,0,0
46098,-500,4,2,1,65,0,0
46590,-50,4,2,1,65,0,0
47082,-133.333333333333,4,2,1,65,0,0
47574,-50,4,2,1,60,0,0
49049,-500,4,2,1,60,0,0
49417,-500,4,2,1,5,0,0
49541,-52.6315789473684,4,2,1,75,0,1
50033,-76.9230769230769,4,2,1,75,0,1
50525,-83.3333333333333,4,2,1,75,0,1
51016,-90.9090909090909,4,2,1,75,0,1
51508,-52.6315789473684,4,2,1,75,0,1
52000,-76.9230769230769,4,2,1,75,0,1
53475,-52.6315789473684,4,2,1,75,0,1
53967,-76.9230769230769,4,2,1,75,0,1
54459,-83.3333333333333,4,2,1,75,0,1
54951,-90.9090909090909,4,2,1,75,0,1
55443,-52.6315789473684,4,2,1,75,0,1
56426,-50,4,2,1,75,0,1
56795,-76.9230769230769,4,2,1,75,0,1
57410,-52.6315789473684,4,2,1,75,0,1
57902,-76.9230769230769,4,2,1,75,0,1
58393,-83.3333333333333,4,2,1,75,0,1
58885,-90.9090909090909,4,2,1,75,0,1
59377,-50,4,2,1,75,0,1
59869,-76.9230769230769,4,2,1,75,0,1
61344,-52.6315789473684,4,2,1,75,0,1
62328,-76.9230769230769,4,2,1,75,0,1
63066,-333.333333333333,4,2,1,75,0,1
63250,-333.333333333333,4,2,1,5,0,1
63311,-52.6315789473684,4,2,1,75,0,1
64295,-62.5,4,2,1,75,0,1
64787,-62.5,4,2,1,75,0,0
65278,-62.5,4,2,1,75,0,1
65279,-52.6315789473684,4,2,1,75,0,1
65770,-76.9230769230769,4,2,1,75,0,1
66262,-83.3333333333333,4,2,1,75,0,1
66754,-90.9090909090909,4,2,1,75,0,1
67246,-76.9230769230769,4,2,1,75,0,1
69213,-66.6666666666667,4,2,1,75,0,1
71180,-100,4,2,1,75,0,1
71426,-52.6315789473684,4,2,1,75,0,1
72287,-71.4285714285714,4,2,1,75,0,1
73147,-52.6315789473684,4,2,1,75,0,1
73639,-76.9230769230769,4,2,1,75,0,1
74131,-83.3333333333333,4,2,1,75,0,1
74623,-90.9090909090909,4,2,1,75,0,1
75115,-76.9230769230769,4,2,1,75,0,1
79049,-333.333333333333,4,2,1,75,0,1
79233,-333.333333333333,4,2,1,5,0,1
79295,-333.333333333333,4,2,1,75,0,1
80033,-50,4,2,1,75,0,1
81016,-50,4,2,1,75,0,0
81385,-250,4,2,1,50,0,0
81692,-250,4,2,1,5,0,0
81754,-400,4,2,1,50,0,0
82061,-400,4,2,1,5,0,0
82123,-250.000000000001,4,2,1,50,0,0
82492,-200,4,2,1,50,0,0
83475,-100,4,2,1,60,0,0
84705,-58.8235294117647,4,2,1,60,0,0
84827,-58.8235294117647,4,2,1,5,0,0
84951,-58.8235294117647,4,2,1,60,0,0
85073,-58.8235294117647,4,2,1,5,0,0
85197,-58.8235294117647,4,2,1,60,0,0
85443,-52.6315789473684,4,2,1,60,0,0
85934,-200,4,2,1,60,0,0
87410,-100,4,2,1,60,0,0
88393,-58.8235294117647,4,2,1,60,0,0
89377,-66.6666666666667,4,2,1,60,0,0
90852,-333.333333333333,4,2,1,60,0,0
91282,-333.333333333333,4,2,1,5,0,0
91344,-250,4,2,1,60,0,0
92450,-250,4,2,1,5,0,0
92574,-333.333333333333,4,2,1,60,0,0
92758,-333.333333333333,4,2,1,5,0,0
92820,-50,4,2,1,60,0,0
94787,-133.333333333333,4,2,1,60,0,0
95401,-133.333333333333,4,2,1,5,0,0
95525,-333.333333333333,4,2,1,60,0,0
95709,-333.333333333333,4,2,1,5,0,0
95770,-66.6666666666667,4,2,1,60,0,0
96262,-55.5555555555556,4,2,1,60,0,0
96446,-55.5555555555556,4,2,1,5,0,0
96508,-55.5555555555556,4,2,1,60,0,0
96754,-100,4,2,1,60,0,0
97738,-50,4,2,1,60,0,0
100688,-100,4,2,1,50,0,0
101672,-57.1428571428571,4,2,1,50,0,0
102164,-50,4,2,1,50,0,0
102656,-57.1428571428571,4,2,1,70,0,0
103147,-76.9230769230769,4,2,1,70,0,0
103639,-71.4285714285714,4,2,1,70,0,0
105606,-50,4,2,1,70,0,0
107082,-57.1428571428571,4,2,1,70,0,0
108557,-76.9230769230769,4,2,1,70,0,0
108803,-66.6666666666667,4,2,1,70,0,0
109049,-76.9230769230769,4,2,1,70,0,0
109295,-66.6666666666667,4,2,1,70,0,0
110033,-83.3333333333333,4,2,1,70,0,0
110525,-57.1428571428571,4,2,1,70,0,0
111016,-83.3333333333333,4,2,1,70,0,0
111631,-100,4,2,1,70,0,0
112000,-50,4,2,1,70,0,0
112984,-83.3333333333333,4,2,1,70,0,0
113905,-83.3333333333333,4,2,1,5,0,0
113967,-333.333333333333,4,2,1,70,0,0
114335,-333.333333333333,4,2,1,5,0,0
114459,-50,4,2,1,75,0,1
114951,-76.9230769230769,4,2,1,75,0,1
115443,-83.3333333333333,4,2,1,75,0,1
115934,-90.9090909090909,4,2,1,75,0,1
116426,-50,4,2,1,75,0,1
116918,-76.9230769230769,4,2,1,75,0,1
118393,-50,4,2,1,75,0,1
118885,-76.9230769230769,4,2,1,75,0,1
119377,-83.3333333333333,4,2,1,75,0,1
119869,-90.9090909090909,4,2,1,75,0,1
120361,-50,4,2,1,75,0,1
121713,-71.4285714285714,4,2,1,75,0,1
122328,-52.6315789473684,4,2,1,75,0,1
122820,-76.9230769230769,4,2,1,75,0,1
123311,-83.3333333333333,4,2,1,75,0,1
123803,-90.9090909090909,4,2,1,75,0,1
124295,-50,4,2,1,75,0,1
124787,-76.9230769230769,4,2,1,75,0,1
126262,-50,4,2,1,75,0,1
127246,-76.9230769230769,4,2,1,75,0,1
127984,-333.333333333333,4,2,1,75,0,1
128168,-333.333333333333,4,2,1,5,0,1
128229,-50,4,2,1,75,0,1
129951,-500,4,2,1,75,0,1
130135,-500,4,2,1,5,0,1
130196,-500,4,2,1,60,0,0
130197,-50,4,2,1,60,0,0
130381,-50,4,2,1,5,0,0
130443,-50,4,2,1,60,0,0
131180,-100,4,2,1,60,0,0
131672,-45.4545454545455,4,2,1,60,0,0
132164,-50,4,2,1,60,0,0
132348,-50,4,2,1,5,0,0
132410,-50,4,2,1,60,0,0
133147,-100,4,2,1,60,0,0
133639,-45.4545454545455,4,2,1,60,0,0
134131,-41.6666666666667,4,2,1,60,0,0
134315,-41.6666666666667,4,2,1,5,0,0
134377,-200,4,2,1,60,0,0
134561,-200,4,2,1,5,0,0
134623,-200,4,2,1,60,0,0
134746,-50,4,2,1,60,0,0
135361,-66.6666666666667,4,2,1,60,0,0
135483,-66.6666666666667,4,2,1,5,0,0
135606,-57.1428571428571,4,2,1,60,0,0
135729,-57.1428571428571,4,2,1,5,0,0
135852,-200,4,2,1,60,0,0
136036,-200,4,2,1,5,0,0
136098,-50,4,2,1,60,0,0
136590,-41.6666666666667,4,2,1,60,0,0
137082,-66.6666666666667,4,2,1,60,0,0
137943,-66.6666666666667,4,2,1,60,0,0
138066,-41.6666666666667,4,2,1,65,0,0
138557,-66.6666666666667,4,2,1,65,0,0
138926,-100,4,2,1,65,0,0
139541,-50,4,2,1,65,0,0
140033,-55.5555555555556,4,2,1,65,0,0
140525,-66.6666666666667,4,2,1,65,0,0
140893,-100,4,2,1,65,0,0
141508,-50,4,2,1,65,0,0
142000,-45.4545454545455,4,2,1,65,0,0
142184,-45.4545454545455,4,2,1,5,0,0
142246,-45.4545454545455,4,2,1,65,0,0
142738,-100,4,2,1,65,0,0
143475,-50,4,2,1,65,0,0
143967,-40,4,2,1,65,0,0
144151,-40,4,2,1,5,0,0
144213,-40,4,2,1,65,0,0
144459,-83.3333333333333,4,2,1,65,0,0
144951,-43.4782608695652,4,2,1,65,0,0
145566,-333.333333333333,4,2,1,65,0,0
145873,-333.333333333333,4,2,1,5,0,0
145934,-36.3636363636364,4,2,1,65,0,0
146241,-36.3636363636364,4,2,1,5,0,0
146303,-50,4,2,1,65,0,0
146795,-400,4,2,1,65,0,0
147410,-30.3030303030303,4,2,1,65,0,0
147902,-40,4,2,1,65,0,0
148024,-40,4,2,1,5,0,0
148147,-41.6666666666667,4,2,1,65,0,0
148762,-333.333333333333,4,2,1,65,0,0
149377,-31.25,4,2,1,65,0,0
149869,-40,4,2,1,65,0,0
150729,-66.6666666666667,4,2,1,65,0,0
151098,-50,4,2,1,65,0,0
151344,-40,4,2,1,65,0,0
151590,-33.3333333333333,4,2,1,65,0,0
152819,-100,4,2,1,65,0,0
153803,-50,4,2,1,60,0,0
155770,-45.4545454545455,4,2,1,75,0,1
156262,-66.6666666666667,4,2,1,75,0,1
156754,-71.4285714285714,4,2,1,75,0,1
157246,-76.9230769230769,4,2,1,75,0,1
157738,-45.4545454545455,4,2,1,75,0,1
158229,-40,4,2,1,75,0,1
159213,-71.4285714285714,4,2,1,75,0,1
159705,-50,4,2,1,75,0,1
160197,-71.4285714285714,4,2,1,75,0,1
160688,-76.9230769230769,4,2,1,75,0,1
161180,-83.3333333333333,4,2,1,75,0,1
161672,-45.4545454545455,4,2,1,75,0,1
162656,-50,4,2,1,75,0,1
163025,-71.4285714285714,4,2,1,75,0,1
163639,-45.4545454545455,4,2,1,75,0,1
164131,-66.6666666666667,4,2,1,75,0,1
164623,-71.4285714285714,4,2,1,75,0,1
165115,-76.9230769230769,4,2,1,75,0,1
165606,-45.4545454545455,4,2,1,75,0,1
166098,-71.4285714285714,4,2,1,75,0,1
167574,-45.4545454545455,4,2,1,75,0,1
168557,-76.9230769230769,4,2,1,75,0,1
169295,-333.333333333333,4,2,1,75,0,1
169479,-333.333333333333,4,2,1,5,0,1
169541,-50,4,2,1,75,0,1
170525,-58.8235294117647,4,2,1,75,0,1
170893,-50,4,2,1,75,0,1
171016,-50,4,2,1,75,0,0
171508,-50,4,2,1,75,0,1
172000,-76.9230769230769,4,2,1,75,0,1
172492,-83.3333333333333,4,2,1,75,0,1
172984,-90.9090909090909,4,2,1,75,0,1
173475,-50,4,2,1,75,0,1
174951,-76.9230769230769,4,2,1,75,0,1
175443,-66.6666666666667,4,2,1,75,0,1
177410,-100,4,2,1,75,0,1
177656,-50,4,2,1,75,0,1
178516,-58.8235294117647,4,2,1,75,0,1
179377,-57.1428571428571,4,2,1,75,0,1
179869,-76.9230769230769,4,2,1,75,0,1
180361,-83.3333333333333,4,2,1,75,0,1
181344,-66.6666666666667,4,2,1,75,0,1
183311,-50,4,2,1,75,0,1
185279,-333.333333333333,4,2,1,75,0,1
185463,-333.333333333333,4,2,1,5,0,1
185525,-333.333333333333,4,2,1,75,0,1
186262,-43.4782608695652,4,2,1,75,0,1
186631,-38.4615384615385,4,2,1,75,0,1
187246,-333.333333333333,4,2,1,75,0,0
187676,-333.333333333333,4,2,1,5,0,0
187738,-333.333333333333,4,2,1,50,0,0

[Colours]
Combo1 : 106,206,247
Combo2 : 255,209,58
Combo3 : 166,245,146
Combo4 : 227,4,17
Combo5 : 174,29,251

[HitObjects]
438,26,2328,5,2,2:0:0:0:
464,112,2573,1,2,2:0:0:0:
464,112,3311,6,0,L|454:193,1,80,0|0,2:0|2:0,0:0:0:0:
64,139,4296,5,2,2:0:0:0:
33,214,4541,1,2,2:0:0:0:
33,214,5278,6,0,L|42:296,1,80,0|0,2:0|2:0,0:0:0:0:
328,200,6262,5,2,2:0:0:0:
345,269,6507,1,2,2:0:0:0:
345,269,7245,6,0,L|334:356,1,80,0|0,2:0|2:0,0:0:0:0:
224,384,8229,5,0,2:0:0:0:
172,328,8721,1,0,2:0:0:0:
203,258,9213,5,0,2:0:0:0:
268,216,9459,1,0,2:0:0:0:
243,146,9705,1,2,2:0:0:0:
243,146,9950,1,2,2:0:0:0:
203,30,10196,5,2,2:0:0:0:
117,56,10441,1,2,2:0:0:0:
117,56,11179,6,0,L|36:46,1,80,0|0,2:0|2:0,0:0:0:0:
322,140,12164,5,2,2:0:0:0:
397,171,12409,1,2,2:0:0:0:
396,171,13146,6,0,L|478:160,1,80,0|0,2:0|2:0,0:0:0:0:
291,344,14131,5,2,2:0:0:0:
222,361,14376,1,2,2:0:0:0:
256,192,14623,12,0,16836,2:0:0:0:
355,320,17082,6,0,P|352:306|350:286,1,26.6666666666667,2|0,3:0|2:0,0:0:0:0:
273,236,17328,2,0,P|275:249|277:269,1,26.6666666666667,2|0,3:0|2:0,0:0:0:0:
230,324,17819,1,0,2:0:0:0:
30,203,18066,6,0,P|138:182|232:168,1,200,0|2,1:0|2:0,0:0:0:0:
416,16,18557,6,0,P|339:24|309:113,1,150,0|0,3:0|2:0,0:0:0:0:
376,128,18803,2,0,P|414:124|429:79,1,75,0|0,2:0|2:0,0:0:0:0:
244,32,19049,2,0,P|229:120|320:180,1,200,0|2,3:0|2:0,0:0:0:0:
512,300,19418,1,0,2:0:0:0:
512,300,19541,2,0,P|451:289|397:281,1,100,0|0,3:0|2:0,0:0:0:0:
326,379,20033,6,0,P|317:268|309:174,1,200,4|0,3:0|2:0,0:0:0:0:
72,16,20525,6,0,P|149:24|179:113,1,150,2|0,2:0|2:0,0:0:0:0:
76,176,20770,1,0,3:0:0:0:
78,135,20893,1,2,2:0:0:0:
117,125,21016,1,0,2:0:0:0:
138,159,21139,1,0,3:0:0:0:
114,190,21262,1,2,2:0:0:0:
208,252,21385,1,0,2:0:0:0:
208,252,21509,2,0,P|269:241|323:233,1,100,2|4,2:0|3:0,0:0:0:0:
460,119,22000,6,0,P|394:126|367:173,1,100,4|0,3:1|2:0,0:0:0:0:
424,224,22246,1,0,2:0:0:0:
424,224,22369,2,0,P|457:220|470:196,1,50,2|0,2:0|2:0,0:0:0:0:
341,265,22615,1,0,2:0:0:0:
341,265,22738,2,0,P|329:243|306:235,1,50,0|0,3:0|2:0,0:0:0:0:
419,318,22984,6,0,P|405:348|420:371,1,50,2|0,2:0|2:0,0:0:0:0:
489,374,23229,2,0,P|502:343|487:320,1,50,0|0,3:0|2:0,0:0:0:0:
288,154,23475,6,0,P|253:162|233:192,1,62.5,2|0,2:0|2:0,0:0:0:0:
289,293,23721,2,0,P|323:285|344:255,1,62.5,2|0,2:0|2:0,0:0:0:0:
9,250,23967,6,0,B|39:235|67:275|72:281|76:287|98:320|151:299,1,150.000005722046,4|0,3:0|2:0,0:0:0:0:
203,252,24336,1,2,2:0:0:0:
120,224,24459,2,0,B|86:223|78:268|78:275|77:281|71:319|17:322,1,150,0|0,2:0|2:0,0:0:0:0:
101,384,24705,1,0,1:0:0:0:
124,376,24828,1,0,2:0:0:0:
165,303,24951,5,2,3:0:0:0:
211,284,25074,1,0,3:0:0:0:
254,295,25197,1,0,3:0:0:0:
279,325,25320,1,2,3:0:0:0:
287,358,25443,1,0,3:0:0:0:
271,383,25566,1,0,3:0:0:0:
246,381,25688,1,2,3:0:0:0:
234,370,25811,1,0,2:0:0:0:
263,288,25934,6,0,P|253:229|237:172,1,119.999996337891,4|0,1:0|2:0,0:0:0:0:
314,69,26303,1,0,2:0:0:0:
314,69,26426,2,0,P|332:122|347:177,1,112.500004291535,8|0,2:0|2:0,0:0:0:0:
446,201,26672,2,0,P|436:146|421:92,1,112.500004291535,4|0,3:0|2:0,0:0:0:0:
448,288,26918,6,0,P|470:323|458:283,1,119.999996337891,4|0,3:0|3:0,0:0:0:0:
343,180,27287,1,0,2:0:0:0:
229,332,27410,2,0,P|175:311|103:299,1,119.999996337891,8|0,2:0|2:0,0:0:0:0:
0,259,27779,5,0,2:0:0:0:
61,189,27902,2,0,P|90:194|119:203,1,59.9999981689454,8|0,3:0|2:0,0:0:0:0:
129,36,28147,5,0,2:0:0:0:
198,98,28270,2,0,P|227:92|255:83,1,59.9999981689454,2|0,2:0|2:0,0:0:0:0:
335,247,28516,5,0,2:0:0:0:
296,167,28639,1,2,3:1:0:0:
337,152,28761,1,0,2:0:0:0:
380,162,28884,1,0,2:0:0:0:
410,195,29007,1,0,2:0:0:0:
418,239,29131,6,0,P|425:268|432:308,1,50,2|0,3:0|2:0,0:0:0:0:
316,351,29377,2,0,P|337:330|368:304,1,50,8|0,2:0|2:0,0:0:0:0:
464,384,29623,2,0,P|435:375|397:361,1,50,4|0,3:0|2:0,0:0:0:0:
3,362,29869,6,0,P|61:348|207:323,1,200,4|0,1:0|2:0,0:0:0:0:
281,271,30238,1,0,2:0:0:0:
208,152,30361,2,0,P|186:117|198:157,1,119.999996337891,8|4,2:0|3:0,0:0:0:0:
120,240,30729,1,0,2:0:0:0:
8,144,30852,6,0,P|37:137|110:124,1,59.9999981689454,2|0,2:0|2:0,0:0:0:0:
160,8,31098,1,2,2:0:0:0:
212,64,31221,1,0,2:0:0:0:
281,32,31344,2,0,P|310:38|383:51,1,59.9999981689454,2|0,2:0|2:0,0:0:0:0:
456,116,31590,2,0,P|426:122|353:135,1,75.0000028610231,2|0,2:1|2:0,0:0:0:0:
368,240,31836,5,0,2:0:0:0:
428,288,31959,1,0,2:0:0:0:
404,360,32082,1,4,3:0:0:0:
332,384,32205,1,0,2:0:0:0:
280,328,32328,1,8,3:0:0:0:
256,316,32451,1,0,2:0:0:0:
232,304,32574,2,0,P|202:310|129:323,1,59.9999981689454,0|0,1:0|2:0,0:0:0:0:
16,48,32820,5,2,3:0:0:0:
93,45,32942,1,0,2:0:0:0:
147,100,33065,1,0,2:0:0:0:
143,178,33188,1,2,3:0:0:0:
232,304,33311,5,0,2:0:0:0:
283,306,33433,1,0,3:0:0:0:
320,268,33556,1,2,2:0:0:0:
317,216,33679,1,2,2:0:0:0:
80,328,33803,6,0,L|72:274,1,50,4|2,1:0|2:0,0:0:0:0:
411,129,34541,2,0,L|419:70,2,50,2|2|0,2:0|2:0|2:0,0:0:0:0:
256,16,35279,6,0,L|256:32,1,15,0|0,2:0|2:0,0:0:0:0:
146,278,35770,6,0,L|140:238,1,29.9999990844727,2|2,3:0|3:0,0:0:0:0:
328,185,36508,2,0,L|334:145,1,29.9999990844727,4|0,3:0|2:0,0:0:0:0:
136,55,37000,6,0,L|145:98,1,40,0|4,2:0|3:0,0:0:0:0:
60,88,37492,2,0,L|66:120,1,20,4|0,3:0|2:0,0:0:0:0:
211,235,37737,6,0,L|200:174,1,50,2|0,3:0|2:0,0:0:0:0:
408,257,38475,2,0,L|417:201,1,50,0|0,2:0|2:0,0:0:0:0:
256,31,39213,6,0,L|256:47,1,15,0|0,2:0|2:0,0:0:0:0:
415,207,39705,6,0,L|406:262,1,50,0|0,1:0|2:0,0:0:0:0:
322,360,39951,5,2,3:0:0:0:
267,361,40074,1,0,3:0:0:0:
237,328,40197,1,0,3:0:0:0:
235,295,40320,1,0,3:0:0:0:
244,275,40443,1,0,3:0:0:0:
250,266,40566,1,0,2:0:0:0:
254,263,40688,6,0,L|259:222,2,27.5000008392334,0|0|0,1:0|2:0|2:0,0:0:0:0:
126,325,40934,2,0,L|130:349,4,13.7500004196167,0|0|0|0|0,1:0|2:0|2:0|2:0|2:0,0:0:0:0:
22,136,41180,6,0,B|51:120|80:159|84:164|89:171|109:203|161:181,1,150.000005722046,2|0,2:1|3:0,0:0:0:0:
145,105,41426,2,0,B|105:101|94:153|91:162|89:169|81:213|17:214,1,162.500004649162,2|0,2:1|3:0,0:0:0:0:
322,360,41672,6,0,L|328:325,1,30,4|0,2:0|2:0,0:0:0:0:
332,304,42164,1,4,3:0:0:0:
396,252,42410,1,0,2:0:0:0:
332,144,42656,1,4,3:0:0:0:
332,144,42902,1,4,3:0:0:0:
392,84,43147,2,0,L|380:32,1,50,8|0,3:0|2:0,0:0:0:0:
280,216,43393,1,0,1:0:0:0:
116,298,43639,6,0,L|110:263,1,30,4|0,1:0|2:0,0:0:0:0:
106,245,44131,1,4,3:0:0:0:
196,188,44377,1,0,3:0:0:0:
104,84,44623,1,4,3:0:0:0:
104,84,44869,2,0,L|97:118,2,27.5000008392334,4|0|0,3:0|2:0|2:0,0:0:0:0:
4,176,45115,1,2,3:0:0:0:
196,36,45238,6,0,L|255:25,1,55.0000016784668,0|0,2:0|1:0,0:0:0:0:
512,253,45606,6,0,L|477:247,1,30,4|0,1:0|3:0,0:0:0:0:
460,243,46098,1,0,3:0:0:0:
208,280,46344,1,0,3:0:0:0:
168,345,46467,1,2,2:0:0:0:
248,368,46590,2,0,P|275:344|237:368,1,200,2|0,3:1|2:0,0:0:0:0:
295,144,47082,6,0,L|303:202,1,37.5000014305115,0|0,2:1|2:0,0:0:0:0:
221,218,47328,2,0,L|215:180,1,37.5000014305115,0|0,2:0|2:0,0:0:0:0:
256,56,47574,6,0,P|361:78|376:188,1,200,4|0,3:0|2:0,0:0:0:0:
144,264,47943,2,0,P|110:162|198:94,1,200,2|0,2:1|1:0,0:0:0:0:
356,272,48311,6,0,P|320:311|268:290,1,100,0|2,2:0|3:0,0:0:0:0:
272,288,48496,1,2,3:0:0:0:
272,288,48557,1,8,1:0:0:0:
447,100,48680,5,0,2:0:0:0:
512,215,48803,1,8,3:0:0:0:
487,299,48926,1,0,2:0:0:0:
412,356,49049,6,0,L|418:321,1,30,0|0,1:0|2:0,0:0:0:0:
342,76,49541,6,0,B|304:51|257:85|257:85|199:127|144:87,1,189.999994926453,4|0,1:0|2:0,0:0:0:0:
76,187,49910,1,0,2:0:0:0:
76,187,50033,2,0,P|107:205|154:192,1,64.9999970245363,8|0,2:0|3:0,0:0:0:0:
165,100,50279,2,0,P|134:82|87:95,1,64.9999970245363,0|0,3:0|3:0,0:0:0:0:
308,301,50525,6,0,P|339:283|351:235,1,59.9999981689454,4|0,3:0|2:0,0:0:0:0:
290,189,50771,2,0,P|258:206|246:254,1,59.9999981689454,2|0,2:0|2:0,0:0:0:0:
460,136,51016,6,0,P|460:103|428:72,1,55.0000016784668,8|0,2:0|2:0,0:0:0:0:
365,107,51262,2,0,P|365:140|397:171,1,55.0000016784668,0|0,3:0|2:0,0:0:0:0:
512,352,51508,6,0,B|463:326|463:326|326:378,1,189.999994926453,0|0,1:0|2:0,0:0:0:0:
281,291,51877,1,0,1:2:0:0:
131,345,52000,6,0,P|127:388|137:346,1,129.999994049073,0|0,2:0|1:0,0:0:0:0:
280,304,52369,1,0,2:0:0:0:
211,117,52492,5,0,3:0:0:0:
144,73,52614,1,0,2:0:0:0:
77,113,52737,1,0,3:0:0:0:
82,192,52860,1,0,2:0:0:0:
176,256,52984,6,0,P|178:232|172:255,1,64.9999970245363,8|0,2:0|2:0,0:0:0:0:
6,68,53229,2,0,P|-4:47|0:69,1,64.9999970245363,2|0,2:0|2:0,0:0:0:0:
360,6,53475,6,0,B|381:32|381:32|364:98|364:98|366:107|366:107|360:113|360:113|341:183,1,189.999994926453,4|0,2:0|2:0,0:0:0:0:
204,296,53844,1,0,2:0:0:0:
149,233,53967,6,0,P|179:212|239:231,1,64.9999970245363,8|0,2:0|3:0,0:0:0:0:
256,356,54213,2,0,P|225:376|165:357,1,64.9999970245363,0|0,3:0|3:0,0:0:0:0:
416,164,54459,6,0,P|452:171|480:226,1,59.9999981689454,2|0,3:0|2:0,0:0:0:0:
426,283,54705,2,0,P|389:275|361:220,1,59.9999981689454,0|0,3:0|2:0,0:0:0:0:
304,68,54951,6,0,P|315:103|282:155,1,55.0000016784668,2|0,3:2|2:0,0:0:0:0:
220,135,55197,2,0,P|209:100|242:48,1,55.0000016784668,4|0,2:0|2:0,0:0:0:0:
26,229,55443,6,0,P|105:221|143:321,1,189.999994926453,4|2,1:2|2:0,0:0:0:0:
80,352,55811,1,0,2:0:0:0:
362,185,55934,5,8,2:0:0:0:
294,233,56057,1,0,3:0:0:0:
372,263,56180,1,2,1:2:0:0:
411,13,56426,6,0,P|353:28|346:97,1,100,2|0,1:2|2:0,0:0:0:0:
246,14,56672,1,0,3:0:0:0:
443,152,56795,2,0,P|473:129|464:89,1,64.9999970245363,2|8,1:2|2:0,0:0:0:0:
311,311,57041,1,0,3:0:0:0:
294,233,57164,1,2,1:2:0:0:
171,305,57287,1,0,2:0:0:0:
438,384,57410,6,0,B|468:369|468:369|480:302|480:302|486:294|486:294|483:287|483:287|495:215,1,189.999994926453,4|0,1:0|2:0,0:0:0:0:
339,62,57779,1,0,2:0:0:0:
125,184,57902,6,0,P|49:164|29:161,1,64.9999970245363,8|0,2:0|3:0,0:0:0:0:
208,88,58147,2,0,P|284:108|304:111,1,64.9999970245363,0|0,3:0|3:0,0:0:0:0:
373,260,58393,6,0,P|449:240|469:237,1,59.9999981689454,4|0,3:0|2:0,0:0:0:0:
301,189,58638,2,0,P|225:209|205:212,1,59.9999981689454,2|0,2:0|2:0,0:0:0:0:
111,384,58885,6,0,P|35:364|15:361,1,55.0000016784668,8|0,2:0|3:0,0:0:0:0:
208,329,59131,2,0,P|284:349|304:352,1,55.0000016784668,0|0,3:0|3:0,0:0:0:0:
495,218,59377,6,0,B|424:201|424:201|389:209|389:209|272:182,1,200,0|0,1:0|2:0,0:0:0:0:
144,40,59746,1,0,1:0:0:0:
57,165,59869,6,0,P|53:208|63:166,1,129.999994049073,8|0,2:0|1:0,0:0:0:0:
138,271,60238,1,0,2:0:0:0:
252,106,60361,5,0,3:0:0:0:
324,78,60483,1,0,2:0:0:0:
393,113,60606,1,0,3:0:0:0:
415,188,60729,1,0,2:0:0:0:
332,259,60853,6,0,P|330:235|336:258,1,64.9999970245363,8|0,2:0|2:0,0:0:0:0:
476,83,61098,2,0,P|486:62|482:84,1,64.9999970245363,2|0,2:0|2:0,0:0:0:0:
57,165,61344,6,0,B|83:144|83:144|149:161|149:161|158:159|158:159|164:165|164:165|234:184,1,189.999994926453,4|2,2:0|3:0,0:0:0:0:
352,384,61713,1,0,2:0:0:0:
283,308,61836,2,0,B|242:290|201:332|201:332|152:383|91:354,1,189.999994926453,8|0,2:0|3:0,0:0:0:0:
2,277,62205,1,0,3:0:0:0:
215,123,62328,6,0,P|233:171|214:219,1,64.9999970245363,0|0,3:0|2:0,0:0:0:0:
128,205,62574,2,0,P|109:156|129:109,1,64.9999970245363,0|0,3:0|2:0,0:0:0:0:
307,10,62820,6,0,P|358:18|389:58,1,64.9999970245363,4|0,3:0|2:0,0:0:0:0:
325,118,63066,2,0,P|311:117|302:108,1,22.4999993133545,6|0,3:0|2:0,0:0:0:0:
342,239,63311,6,0,B|383:257|424:215|424:215|473:164|534:193,1,189.999994926453,4|0,2:0|2:0,0:0:0:0:
352,384,63680,1,8,3:0:0:0:
132,283,63803,5,8,2:0:0:0:
216,308,63926,1,0,3:0:0:0:
152,364,64049,1,4,3:0:0:0:
16,136,64172,5,0,3:0:0:0:
52,215,64295,2,0,P|45:256|42:306,1,80,2|0,2:0|2:0,0:0:0:0:
350,40,64541,5,0,2:0:0:0:
304,114,64664,2,0,P|311:155|314:205,1,80,2|8,2:0|2:0,0:0:0:0:
152,364,64910,5,0,2:0:0:0:
346,307,65033,1,2,2:0:0:0:
192,132,65156,1,0,2:0:0:0:
413,263,65279,6,0,P|309:237|309:376,1,284.999992389679,4|0,2:1|2:0,0:0:0:0:
151,262,65770,6,0,P|118:242|54:264,1,64.9999970245363,8|0,2:0|2:0,0:0:0:0:
64,336,66016,2,0,P|97:356|161:334,1,64.9999970245363,2|0,2:0|2:0,0:0:0:0:
382,180,66262,6,0,P|415:160|479:182,1,59.9999981689454,4|0,3:0|2:0,0:0:0:0:
466,241,66508,2,0,P|433:261|369:239,1,59.9999981689454,2|0,2:0|2:0,0:0:0:0:
200,64,66754,6,0,P|170:45|112:65,1,55.0000016784668,8|0,2:0|2:0,0:0:0:0:
127,116,67000,2,0,P|157:135|215:115,1,55.0000016784668,2|0,2:0|2:0,0:0:0:0:
380,36,67246,6,0,P|451:44|471:126,1,129.999994049073,4|0,3:2|2:0,0:0:0:0:
434,158,67615,1,2,2:3:0:0:
434,158,67738,2,0,P|372:155|337:103,1,129.999994049073,8|0,2:0|3:0,0:0:0:0:
267,209,68106,1,0,2:0:0:0:
120,145,68229,5,4,3:0:0:0:
38,164,68351,1,0,2:0:0:0:
24,247,68474,1,0,3:0:0:0:
91,298,68597,1,0,3:0:0:0:
192,296,68721,6,0,P|187:262|181:223,1,64.9999970245363,8|0,2:0|2:0,0:0:0:0:
312,312,68967,2,0,P|317:345|322:377,1,64.9999970245363,4|0,2:0|2:0,0:0:0:0:
434,158,69213,6,0,B|451:136|451:136|436:81|436:81|439:73|439:73|434:68|434:68|418:9,2,150.000005722046,0|0|8,1:0|3:0|2:0,0:0:0:0:
170,135,69951,1,4,2:0:0:0:
96,113,70074,1,0,2:0:0:0:
38,164,70197,2,0,B|19:185|19:185|34:241|34:241|32:249|32:249|38:254|38:254|53:313,2,150.000005722046,4|0|8,3:0|2:0|2:0,0:0:0:0:
234,360,70811,5,0,3:0:0:0:
230,262,70934,1,0,1:0:0:0:
147,313,71057,1,0,2:0:0:0:
392,224,71180,6,0,P|406:214|397:231,1,50,4|0,2:1|2:0,0:0:0:0:
396,332,71426,6,0,B|351:344|314:299|314:299|270:245|207:268,1,189.999994926453,0|8,3:0|2:0,0:0:0:0:
78,384,71795,1,0,3:0:0:0:
226,358,71918,1,2,2:0:0:0:
64,242,72041,1,0,3:0:0:0:
344,168,72164,5,0,1:0:0:0:
231,263,72287,2,0,P|267:267|303:274,1,69.9999978637696,0|0,3:0|3:0,0:0:0:0:
48,41,72533,5,0,1:0:0:0:
166,172,72656,2,0,P|130:166|94:161,1,69.9999978637696,8|0,2:0|3:0,0:0:0:0:
256,24,72902,5,0,1:0:0:0:
344,168,73025,1,0,3:0:0:0:
92,363,73147,6,0,P|142:279|111:371,1,284.999992389679,4|0,1:0|2:0,0:0:0:0:
339,256,73639,6,0,P|344:289|351:355,1,64.9999970245363,8|0,2:0|2:0,0:0:0:0:
437,347,73885,2,0,P|433:314|428:282,1,64.9999970245363,2|0,2:0|2:0,0:0:0:0:
168,173,74131,6,0,P|163:206|156:272,1,59.9999981689454,4|0,3:0|2:0,0:0:0:0:
69,264,74377,2,0,P|72:231|77:199,1,59.9999981689454,2|0,2:0|2:0,0:0:0:0:
312,58,74623,6,0,P|317:91|324:157,1,55.0000016784668,8|0,2:0|2:0,0:0:0:0:
410,160,74869,2,0,P|405:127|398:61,1,55.0000016784668,2|0,2:0|2:0,0:0:0:0:
288,249,75115,6,0,P|223:239|159:232,1,129.999994049073,4|0,3:2|2:0,0:0:0:0:
64,340,75484,1,2,2:3:0:0:
64,340,75606,2,0,P|128:347|192:356,1,129.999994049073,8|0,2:0|3:0,0:0:0:0:
268,328,75975,1,0,2:0:0:0:
440,368,76098,5,4,3:0:0:0:
501,310,76220,1,0,2:0:0:0:
471,231,76343,1,0,3:0:0:0:
388,220,76466,1,0,3:0:0:0:
287,248,76590,6,0,P|282:214|276:175,1,64.9999970245363,8|0,2:0|2:0,0:0:0:0:
166,154,76836,2,0,P|171:187|176:219,1,64.9999970245363,4|0,2:0|2:0,0:0:0:0:
366,35,77082,6,0,P|434:51|447:131,2,129.999994049073,0|0|8,1:0|3:0|2:0,0:0:0:0:
246,256,77820,1,4,2:0:0:0:
175,218,77943,1,0,2:0:0:0:
114,271,78065,2,0,P|46:255|33:175,2,129.999994049073,4|0|8,3:0|2:0|2:0,0:0:0:0:
316,299,78680,5,0,2:0:0:0:
246,256,78803,1,0,3:0:0:0:
209,329,78926,1,0,2:0:0:0:
428,184,79049,6,0,P|444:186|454:188,1,22.4999993133545,4|0,2:1|2:0,0:0:0:0:
366,35,79295,5,0,3:0:0:0:
320,144,79418,1,0,3:0:0:0:
224,72,79541,1,8,2:0:0:0:
139,378,79664,5,0,2:0:0:0:
278,300,79787,1,2,2:0:0:0:
111,191,79910,1,0,3:0:0:0:
289,384,80033,6,0,B|334:385|358:332|358:332|387:268|454:274,1,200,0|0,1:0|2:0,0:0:0:0:
40,168,80402,2,0,P|43:231|160:259,1,200,0|0,1:0|2:0,0:0:0:0:
366,35,80770,5,0,1:0:0:0:
228,147,80893,1,0,2:0:0:0:
440,273,81016,1,0,2:1:0:0:
440,273,81385,6,0,L|449:220,1,50,2|0,2:0|2:0,0:0:0:0:
326,173,81754,2,0,L|319:138,1,31.25,2|0,2:0|2:0,0:0:0:0:
431,101,82123,2,0,L|438:56,1,40,2|0,2:0|3:0,0:0:0:0:
272,16,82492,6,0,P|246:20|213:25,1,50,2|2,2:3|2:3,0:0:0:0:
0,384,82984,5,2,1:0:0:0:
0,384,83229,5,0,3:0:0:0:
132,324,83352,1,0,2:0:0:0:
32,264,83475,2,0,P|45:271|33:259,1,50,0|0,3:0|3:0,0:0:0:0:
440,272,83721,5,2,3:2:0:0:
305,212,83844,1,0,3:0:0:0:
416,160,83967,2,0,P|398:165|413:155,1,50,0|0,1:0|3:0,0:0:0:0:
96,64,84213,5,2,3:2:0:0:
168,176,84336,1,0,3:0:0:0:
224,80,84459,2,0,P|221:96|227:80,1,50,0|0,1:0|3:0,0:0:0:0:
367,292,84705,6,0,P|414:292|437:228,1,85.0000016212464,2|0,3:2|2:0,0:0:0:0:
413,196,84951,2,0,P|364:195|341:258,1,85.0000016212464,2|0,3:2|2:0,0:0:0:0:
74,228,85197,5,2,3:2:0:0:
71,248,85279,1,0,2:0:0:0:
65,269,85361,1,0,2:0:0:0:
61,287,85443,6,0,B|98:266|142:303|142:303|193:347|248:314,1,189.999994926453,4|4,2:0|3:0,0:0:0:0:
413,196,85811,1,0,3:0:0:0:
413,196,85934,2,0,B|389:184|389:184|375:204,2,50,0|0|4,1:0|3:0|1:2,0:0:0:0:
479,233,86672,1,2,2:0:0:0:
421,287,86795,1,2,2:0:0:0:
455,383,86918,5,4,2:1:0:0:
455,383,87164,5,2,3:2:0:0:
341,295,87287,1,2,2:0:0:0:
365,127,87410,2,0,P|359:144|359:126,1,50,2|0,2:0|2:0,0:0:0:0:
252,279,87656,5,2,3:2:0:0:
354,217,87779,1,2,2:0:0:0:
437,303,87902,2,0,P|443:290|432:303,1,50,2|0,1:2|2:0,0:0:0:0:
475,206,88147,5,0,3:0:0:0:
341,295,88270,1,0,3:0:0:0:
252,190,88393,2,0,B|218:171|180:203|180:203|135:242|87:213,2,170.000003242493,2|2|0,3:2|3:2|1:0,0:0:0:0:
445,64,89131,5,0,3:0:0:0:
469,87,89213,1,0,2:0:0:0:
473,120,89295,1,0,2:0:0:0:
463,152,89377,6,0,B|441:167|441:167|387:153|387:153|380:155|380:155|375:152|375:152|317:136,1,150.000005722046,4|0,1:2|2:0,0:0:0:0:
166,245,89746,1,0,3:0:0:0:
303,337,89869,6,0,P|310:295|319:243,1,75.0000028610231,0|0,1:0|2:0,0:0:0:0:
116,177,90115,1,0,3:0:0:0:
84,253,90238,1,0,1:0:0:0:
240,96,90361,5,0,2:0:0:0:
116,177,90484,1,0,1:0:0:0:
16,48,90606,1,0,1:0:0:0:
16,48,90852,6,0,P|41:41|68:35,1,52.4999983978272,2|0,1:0|2:0,0:0:0:0:
140,76,91344,6,0,P|137:88|134:101,1,20,4|0,3:0|2:0,0:0:0:0:
224,176,91590,2,0,P|227:188|230:201,1,20,2|0,2:1|2:0,0:0:0:0:
146,266,91836,2,0,P|143:278|140:291,1,20,4|0,3:0|2:0,0:0:0:0:
233,371,92082,6,0,P|233:350|228:369,1,60,2|0,2:1|2:0,0:0:0:0:
324,280,92574,2,0,P|320:295|319:303,1,22.4999993133545,2|0,2:0|2:0,0:0:0:0:
464,372,92820,6,0,B|486:343|486:343|468:272|468:272|470:263|470:263|464:256|464:256|443:181,1,200,8|4,3:0|3:0,0:0:0:0:
248,64,93188,2,0,P|282:122|261:58,1,200,4|4,3:0|3:0,0:0:0:0:
131,42,93557,5,4,2:0:0:0:
80,108,93680,1,0,2:0:0:0:
137,169,93803,2,0,B|159:209|120:255|120:255|73:309|108:367,2,200,2|4|2,1:2|3:0|2:1,0:0:0:0:
256,360,94541,5,0,3:0:0:0:
176,312,94664,1,0,3:0:0:0:
288,232,94787,6,0,L|326:223,1,37.5000014305115,4|0,1:0|2:0,0:0:0:0:
357,145,95033,2,0,L|383:174,1,37.5000014305115,2|0,2:0|2:0,0:0:0:0:
459,181,95279,2,0,L|447:219,1,37.5000014305115,2|0,2:0|2:0,0:0:0:0:
481,288,95525,6,0,L|463:302,1,22.4999993133545,2|0,2:0|2:0,0:0:0:0:
397,370,95770,6,0,P|361:359|339:330,1,75.0000028610231,10|0,2:0|3:0,0:0:0:0:
224,257,96016,2,0,P|216:221|231:188,1,75.0000028610231,2|0,2:0|3:0,0:0:0:0:
310,54,96262,6,0,P|310:8|304:54,1,134.999995880127,2|0,3:2|2:0,0:0:0:0:
382,172,96508,1,2,2:0:0:0:
474,109,96754,6,0,P|469:68|461:3,2,100,6|2|2,2:0|2:0|3:2,0:0:0:0:
324,223,97492,1,6,2:0:0:0:
257,281,97738,6,0,B|216:256|216:256|144:272,1,100,0|0,1:0|3:0,0:0:0:0:
301,384,97984,1,0,3:0:0:0:
402,298,98106,5,4,1:2:0:0:
257,281,98229,2,0,P|225:238|240:167,1,100,0|0,3:0|3:0,0:0:0:0:
471,128,98475,2,0,P|497:169|482:239,1,100,0|0,1:0|3:0,0:0:0:0:
274,19,98721,5,4,2:1:0:0:
4,275,100688,6,0,L|62:266,1,50,0|0,1:0|2:0,0:0:0:0:
99,187,100934,1,0,2:0:0:0:
89,173,101057,2,0,L|147:182,1,50,0|0,1:0|2:0,0:0:0:0:
214,244,101303,1,0,2:0:0:0:
208,264,101426,1,0,1:0:0:0:
201,284,101549,1,0,2:0:0:0:
284,354,101672,6,0,B|324:363|354:318|354:318|391:264|451:281,1,175.00000166893,0|0,1:0|3:0,0:0:0:0:
437,374,102041,1,2,2:0:0:0:
437,374,102164,2,0,B|390:372|370:315|370:315|347:246|277:247,1,200,0|0,3:0|3:0,0:0:0:0:
160,351,102533,1,2,2:0:0:0:
52,267,102656,6,0,B|21:221|21:221|60:111|60:111|58:96|58:96|68:86|68:86|112:-27,1,262.500002503395,4|0,2:1|2:0,0:0:0:0:
320,40,103147,6,0,P|349:60|349:103,1,64.9999970245363,8|0,2:0|2:0,0:0:0:0:
272,128,103393,2,0,P|243:108|243:65,1,64.9999970245363,8|0,3:0|2:0,0:0:0:0:
426,200,103639,6,0,P|464:210|504:222,1,69.9999978637696,0|0,1:0|2:0,0:0:0:0:
297,248,103885,2,0,P|258:237|219:226,1,69.9999978637696,2|0,2:0|2:0,0:0:0:0:
15,88,104131,6,0,P|41:65|89:68,1,69.9999978637696,4|0,3:0|2:0,0:0:0:0:
104,152,104377,2,0,P|78:175|30:172,1,69.9999978637696,2|0,2:0|2:0,0:0:0:0:
214,160,104623,6,0,P|223:196|233:248,1,69.9999978637696,4|0,3:0|2:0,0:0:0:0:
119,326,104869,1,2,2:0:0:0:
119,326,104992,2,0,P|122:281|143:260,1,69.9999978637696,4|0,3:0|2:0,0:0:0:0:
279,314,105238,1,0,2:0:0:0:
279,314,105361,2,0,P|279:348|259:376,1,69.9999978637696,8|0,3:0|2:0,0:0:0:0:
305,151,105606,6,0,B|349:134|389:179|389:179|437:233|501:205,1,200,10|0,2:0|1:0,0:0:0:0:
319,238,105975,1,0,2:0:0:0:
466,121,106098,2,0,B|418:120|396:176|396:176|369:244|299:239,1,200,4|4,3:0|3:0,0:0:0:0:
482,212,106467,1,0,2:0:0:0:
223,89,106590,6,0,P|274:1|244:99,1,300,4|0,1:0|2:0,0:0:0:0:
98,221,107082,2,0,P|147:297|119:211,1,262.500002503395,8|2,1:0|2:0,0:0:0:0:
311,378,107574,2,0,P|329:352|321:383,1,87.500000834465,0|0,1:0|2:0,0:0:0:0:
232,328,107820,1,0,2:0:0:0:
344,184,107943,5,0,2:0:0:0:
344,184,108066,2,0,P|391:184|427:230,1,87.500000834465,8|0,1:0|2:0,0:0:0:0:
393,285,108311,2,0,P|346:285|310:239,1,87.500000834465,4|0,3:0|2:0,0:0:0:0:
119,210,108557,6,0,P|108:163|95:125,1,64.9999970245363,4|0,3:0|2:0,0:0:0:0:
191,120,108803,2,0,P|203:159|212:199,1,75.0000028610231,4|0,3:0|2:0,0:0:0:0:
416,112,109049,6,0,P|427:65|440:27,1,64.9999970245363,8|0,1:0|2:0,0:0:0:0:
343,22,109295,2,0,P|331:61|322:101,1,75.0000028610231,2|0,1:0|2:0,0:0:0:0:
363,278,109541,5,4,1:0:0:0:
419,209,109664,2,0,P|446:241|450:282,1,75.0000028610231,0|0,2:0|2:0,0:0:0:0:
307,347,109910,1,2,3:0:0:0:
307,347,110033,2,0,P|280:315|276:274,1,59.9999981689454,0|0,2:0|2:0,0:0:0:0:
99,250,110279,6,0,B|131:250|131:250|151:227,1,59.9999981689454,2|2,2:0|2:0,0:0:0:0:
201,127,110525,2,0,B|77:87|77:87|-4:192,1,262.500002503395,4|2,1:0|2:0,0:0:0:0:
190,299,111016,2,0,P|211:335|207:376,1,59.9999981689454,8|0,2:0|2:0,0:0:0:0:
132,384,111262,2,0,P|110:347|114:306,1,59.9999981689454,0|2,2:0|2:0,0:0:0:0:
304,176,111508,5,0,1:0:0:0:
395,228,111631,2,0,P|416:216|439:186,1,50,0|0,2:0|2:0,0:0:0:0:
352,336,111877,5,2,2:0:0:0:
352,336,112000,2,0,B|306:349|270:300|270:300|227:242|161:265,1,200,8|0,1:0|2:0,0:0:0:0:
123,346,112369,1,0,2:0:0:0:
31,146,112492,6,0,B|67:121|67:121|155:152|155:152|167:150|167:150|175:158|175:158|266:194,1,200,2|0,1:0|2:0,0:0:0:0:
432,32,112861,1,2,1:0:0:0:
368,96,112984,2,0,P|361:62|353:25,1,59.9999981689454,0|4,2:0|3:0,0:0:0:0:
304,176,113229,2,0,P|311:210|319:247,1,59.9999981689454,2|2,1:0|3:0,0:0:0:0:
467,306,113475,5,0,1:0:0:0:
467,306,113598,2,0,P|431:285|390:289,1,59.9999981689454,4|2,3:0|1:0,0:0:0:0:
400,369,113844,2,0,P|414:380|426:380,1,29.9999990844727,0|0,2:0|2:0,0:0:0:0:
259,314,113967,6,0,L|269:363,1,44.999998626709,2|0,1:2|2:0,0:0:0:0:
0,259,114459,6,0,B|71:246|71:246|106:256|106:256|224:235,1,200,4|0,1:0|2:0,0:0:0:0:
355,37,114828,1,0,2:0:0:0:
355,37,114951,2,0,P|325:57|317:105,1,64.9999970245363,8|0,2:0|3:0,0:0:0:0:
402,147,115197,2,0,P|431:126|439:78,1,64.9999970245363,0|0,3:0|3:0,0:0:0:0:
178,185,115443,6,0,P|181:220|218:251,1,59.9999981689454,4|0,3:0|2:0,0:0:0:0:
282,202,115689,2,0,P|278:166|241:135,1,59.9999981689454,2|0,2:0|2:0,0:0:0:0:
288,368,115934,6,0,P|319:382|365:366,1,55.0000016784668,8|0,2:0|2:0,0:0:0:0:
358,289,116180,2,0,P|327:275|281:291,1,55.0000016784668,0|0,3:0|2:0,0:0:0:0:
456,207,116426,6,0,B|481:171|481:171|450:83|450:83|452:71|452:71|444:63|444:63|408:-28,1,200,0|0,1:0|2:0,0:0:0:0:
310,92,116795,1,0,1:2:0:0:
154,30,116918,6,0,P|150:-13|160:29,1,129.999994049073,0|0,2:0|1:0,0:0:0:0:
310,107,117287,1,0,2:0:0:0:
41,244,117410,5,0,3:0:0:0:
78,175,117532,1,0,2:0:0:0:
156,173,117655,1,0,3:0:0:0:
196,239,117778,1,0,3:0:0:0:
144,328,117902,6,0,P|142:304|148:327,1,64.9999970245363,8|0,2:0|2:0,0:0:0:0:
304,384,118147,2,0,P|310:361|310:384,1,64.9999970245363,2|0,2:0|2:0,0:0:0:0:
456,207,118393,6,0,B|412:192|375:238|375:238|329:294|265:269,1,200,4|0,2:0|2:0,0:0:0:0:
432,352,118762,1,0,2:0:0:0:
296,197,118885,6,0,P|305:129|307:113,1,64.9999970245363,8|0,2:0|3:0,0:0:0:0:
424,64,119131,2,0,P|415:132|413:148,1,64.9999970245363,0|0,3:0|3:0,0:0:0:0:
196,239,119377,6,0,P|187:171|185:155,1,59.9999981689454,2|0,3:0|2:0,0:0:0:0:
79,123,119623,2,0,P|88:191|90:207,1,59.9999981689454,0|0,3:0|2:0,0:0:0:0:
273,328,119869,6,0,P|282:260|284:244,1,55.0000016784668,2|0,3:2|2:0,0:0:0:0:
368,272,120115,2,0,P|359:340|357:356,1,55.0000016784668,0|0,2:0|2:0,0:0:0:0:
86,182,120361,6,0,P|37:180|11:303,1,200,2|2,1:2|2:0,0:0:0:0:
100,355,120729,1,0,3:0:0:0:
195,68,120852,5,8,2:0:0:0:
242,200,120975,1,0,3:0:0:0:
377,163,121098,1,2,1:2:0:0:
238,280,121344,6,0,P|295:265|315:201,1,100,2|0,1:2|3:0,0:0:0:0:
360,326,121590,1,0,3:0:0:0:
199,140,121713,2,0,P|172:167|169:203,1,69.9999978637696,2|8,1:2|2:0,0:0:0:0:
399,254,121959,5,0,3:0:0:0:
242,200,122082,1,2,1:2:0:0:
341,84,122205,1,0,2:0:0:0:
485,331,122328,6,0,B|419:343|419:343|387:334|387:334|279:354,1,189.999994926453,4|0,1:0|2:0,0:0:0:0:
149,294,122697,1,0,2:0:0:0:
80,352,122820,6,0,P|134:384|167:379,1,64.9999970245363,8|0,2:0|3:0,0:0:0:0:
216,240,123066,2,0,P|161:207|128:212,1,64.9999970245363,0|0,3:0|3:0,0:0:0:0:
403,272,123311,6,0,P|459:241|470:210,1,59.9999981689454,4|0,3:0|2:0,0:0:0:0:
415,163,123557,2,0,P|359:194|348:225,1,59.9999981689454,2|0,2:0|2:0,0:0:0:0:
115,143,123803,6,0,P|98:120|91:94,1,55.0000016784668,8|0,2:0|3:0,0:0:0:0:
174,42,124049,2,0,P|190:64|197:90,1,55.0000016784668,0|0,3:0|3:0,0:0:0:0:
245,239,124295,6,0,B|287:251|322:203|322:203|365:144|414:162,1,200,0|0,1:0|2:0,0:0:0:0:
198,91,124664,1,0,1:0:0:0:
55,229,124787,6,0,P|51:272|61:230,1,129.999994049073,0|0,2:0|1:0,0:0:0:0:
197,110,125156,1,0,2:0:0:0:
394,231,125279,5,0,3:0:0:0:
469,221,125401,1,0,2:0:0:0:
500,149,125524,1,0,3:0:0:0:
451,88,125647,1,0,3:0:0:0:
352,87,125771,6,0,P|358:64|343:83,1,64.9999970245363,8|0,2:0|2:0,0:0:0:0:
224,143,126016,2,0,P|226:119|220:142,1,64.9999970245363,2|0,2:0|2:0,0:0:0:0:
33,297,126262,6,0,B|69:272|69:272|157:303|157:303|169:301|169:301|177:309|177:309|268:345,1,200,4|2,2:0|3:0,0:0:0:0:
309,376,126631,1,0,3:0:0:0:
469,221,126754,6,0,B|433:246|433:246|345:215|345:215|333:217|333:217|325:209|325:209|234:173,1,200,8|0,2:0|3:0,0:0:0:0:
164,222,127123,1,0,3:0:0:0:
312,81,127246,6,0,P|354:94|411:107,1,64.9999970245363,8|0,3:0|2:0,0:0:0:0:
200,104,127492,2,0,P|158:91|101:78,1,64.9999970245363,0|0,3:0|2:0,0:0:0:0:
288,247,127738,6,0,P|334:224|382:239,1,64.9999970245363,10|0,2:0|2:0,0:0:0:0:
364,325,127984,2,0,P|351:332|339:330,1,22.4999993133545,2|0,2:0|2:0,0:0:0:0:
367,147,128229,6,0,B|410:146|432:201|432:201|458:269|510:265,1,200,4|0,2:0|2:0,0:0:0:0:
267,363,128598,1,8,3:0:0:0:
126,198,128721,5,8,2:0:0:0:
196,271,128844,1,0,3:0:0:0:
95,294,128967,1,4,3:0:0:0:
0,87,129090,1,0,3:0:0:0:
256,192,129213,5,2,2:0:0:0:
256,192,129582,1,2,2:0:0:0:
256,192,129951,2,0,L|253:206,1,15,2|0,2:0|2:0,0:0:0:0:
216,319,130197,6,0,B|223:301|223:301|118:284|118:284|127:321,1,150,4|0,3:1|2:0,0:0:0:0:
162,375,130443,1,0,3:0:0:0:
179,221,130566,1,0,3:0:0:0:
36,277,130688,1,8,2:1:0:0:
40,281,130934,6,0,P|55:213|67:176,1,100,0|0,3:0|3:0,0:0:0:0:
97,49,131180,2,0,P|84:79|101:50,1,100,0|0,3:0|2:0,0:0:0:0:
176,139,131549,1,2,2:3:0:0:
277,145,131672,6,0,B|252:181|252:181|282:269|282:269|281:281|281:281|289:289|289:289|325:380,1,220.000006713867,8|2,2:1|2:3,0:0:0:0:
347,240,132164,6,0,B|311:228|311:228|253:247|253:247|164:218,1,150,4|0,3:0|2:0,0:0:0:0:
142,159,132410,1,0,3:0:0:0:
185,81,132533,1,2,2:3:0:0:
277,89,132656,1,8,2:1:0:0:
277,89,132901,6,0,P|330:142|387:137,1,100,2|0,2:3|3:0,0:0:0:0:
453,54,133147,2,0,P|455:21|447:54,1,100,0|0,3:0|2:0,0:0:0:0:
493,158,133516,1,2,2:3:0:0:
413,286,133639,6,0,P|363:285|415:284,1,220.000006713867,8|0,2:1|3:0,0:0:0:0:
315,104,134131,6,0,B|273:96|243:142|243:142|207:202|160:190,1,179.999994506836,4|0,3:1|2:0,0:0:0:0:
120,256,134377,6,0,P|104:265|79:265,1,37.5,0|0,3:0|2:0,0:0:0:0:
33,214,134623,1,8,2:1:0:0:
157,106,134746,2,0,B|186:88|240:149|240:149|283:198|329:181,1,200,0|0,2:0|3:0,0:0:0:0:
434,55,135115,1,0,3:0:0:0:
434,55,135361,6,0,P|407:49|433:58,1,75.0000028610231,0|2,3:0|2:3,0:0:0:0:
278,123,135606,2,0,P|260:148|281:128,1,87.500000834465,8|0,2:1|2:0,0:0:0:0:
261,269,135852,2,0,P|269:281|268:266,1,37.5,2|0,2:3|2:0,0:0:0:0:
118,312,136098,6,0,P|62:289|129:296,1,200,8|0,3:0|2:0,0:0:0:0:
210,354,136467,1,0,2:0:0:0:
384,194,136590,6,0,P|457:156|390:205,1,239.999992675781,8|0,2:1|2:0,0:0:0:0:
285,278,136959,1,0,2:0:0:0:
349,122,137082,6,0,P|339:84|332:36,1,75.0000028610231,4|0,3:0|2:0,0:0:0:0:
224,160,137328,1,0,2:0:0:0:
173,56,137451,1,0,3:0:0:0:
46,170,137574,5,8,2:1:0:0:
124,222,137697,1,0,1:0:0:0:
218,242,137820,1,0,2:0:0:0:
310,201,137943,2,0,L|346:193,1,37.5000014305115,0|0,1:0|2:0,0:0:0:0:
264,352,138066,6,0,B|194:332|194:332|101:362|101:362|3:330,1,239.999992675781,4|0,3:1|3:0,0:0:0:0:
36,46,138434,5,0,2:0:0:0:
36,46,138557,2,0,P|60:7|111:-2,1,75.0000028610231,8|0,2:1|2:0,0:0:0:0:
137,65,138803,1,0,3:0:0:0:
137,65,138926,2,0,P|112:91|72:95,1,50,0|0,3:0|2:0,0:0:0:0:
99,95,139295,5,0,2:0:0:0:
189,150,139418,1,2,2:3:0:0:
260,59,139541,6,0,P|297:11|273:74,1,200,8|2,2:1|2:3,0:0:0:0:
329,328,140033,6,0,P|253:333|218:267,1,134.999995880127,4|0,3:0|2:0,0:0:0:0:
144,352,140279,1,0,3:0:0:0:
0,257,140402,1,0,2:0:0:0:
0,257,140525,2,0,L|19:165,1,75.0000028610231,8|0,2:1|2:0,0:0:0:0:
104,224,140770,1,0,3:0:0:0:
104,224,140893,2,0,L|93:275,1,50,0|0,3:0|2:0,0:0:0:0:
93,272,141262,5,0,2:0:0:0:
186,234,141385,1,2,2:3:0:0:
202,119,141508,6,0,P|157:77|192:136,1,200,8|2,2:1|2:3,0:0:0:0:
465,185,142000,6,0,B|448:161|448:161|468:102|468:102|467:94|467:94|472:89|472:89|496:28,1,165.000005035401,4|0,3:1|2:0,0:0:0:0:
375,0,142246,1,0,3:0:0:0:
312,55,142369,1,0,2:0:0:0:
233,64,142492,1,8,2:1:0:0:
233,64,142738,6,0,P|243:89|257:128,1,50,2|2,2:0|2:0,0:0:0:0:
424,320,142984,1,4,3:0:0:0:
331,292,143106,1,0,3:0:0:0:
262,363,143229,2,0,P|257:345|255:360,1,50,0|0,3:0|3:0,0:0:0:0:
9,280,143475,6,0,B|53:283|78:228|78:228|108:163|175:170,1,200,8|2,2:1|2:3,0:0:0:0:
272,192,143844,1,0,3:0:0:0:
163,255,143967,2,0,B|111:273|72:218|72:218|37:173|-4:185,1,187.5,4|0,3:1|2:0,0:0:0:0:
39,69,144213,5,0,3:0:0:0:
103,9,144336,1,0,2:0:0:0:
187,31,144459,6,0,P|216:40|234:67,1,59.9999981689454,8|0,2:1|2:0,0:0:0:0:
187,125,144705,2,0,P|157:115|139:88,1,59.9999981689454,0|0,3:0|3:0,0:0:0:0:
440,8,144951,6,0,B|418:71|418:71|447:159|447:159|409:278,1,230.000004386902,0|0,3:2|2:0,0:0:0:0:
331,277,145320,1,0,2:0:0:0:
456,376,145443,1,8,2:1:0:0:
456,376,145566,6,0,L|465:337,1,37.4999988555909,0|0,2:0|2:0,0:0:0:0:
184,304,145934,6,0,B|156:317|156:317|211:375|211:375|266:134,1,343.750003278256,4|0,1:0|2:0,0:0:0:0:
112,56,146303,2,0,P|62:103|122:67,1,200,0|0,3:0|2:0,0:0:0:0:
224,64,146672,5,8,2:1:0:0:
224,64,146795,2,0,L|253:70,1,25,0|0,2:0|2:0,0:0:0:0:
472,272,147164,1,0,3:0:0:0:
448,263,147246,1,0,2:0:0:0:
424,256,147328,1,0,2:0:0:0:
395,246,147410,6,0,P|341:238|196:214,2,165.000001573563,10|0|0,2:1|2:0|3:0,0:0:0:0:
342,355,147902,6,0,B|326:329|326:329|265:318|265:318|258:313|258:313|253:313|253:313|186:302,1,125,4|0,1:0|2:0,0:0:0:0:
50,67,148147,2,0,B|74:106|74:106|166:122|166:122|177:130|177:130|185:130|185:130|287:147,1,239.999992675781,0|0,2:0|2:0,0:0:0:0:
328,16,148639,5,8,2:1:0:0:
328,16,148762,2,0,L|335:48,1,29.9999990844727,0|0,2:0|2:0,0:0:0:0:
48,248,149131,1,0,3:0:0:0:
176,293,149254,1,0,3:0:0:0:
136,186,149377,6,0,B|148:142|148:142|126:77|126:77|159:-17,2,160,10|0|0,2:1|3:0|3:0,0:0:0:0:
72,368,149746,1,0,2:0:0:0:
353,298,149869,6,0,P|385:377|333:308,1,250,4|0,1:0|2:0,0:0:0:0:
339,123,150238,1,0,3:0:0:0:
339,123,150606,5,8,2:1:0:0:
339,123,150729,2,0,P|371:103|438:117,1,75.0000028610231,2|0,2:0|2:0,0:0:0:0:
464,160,150975,1,2,2:3:0:0:
110,140,151098,6,0,P|77:152|107:132,1,100,0|2,2:0|2:0,0:0:0:0:
208,248,151344,2,0,P|187:283|202:243,1,125,8|0,2:1|3:0,0:0:0:0:
361,318,151590,2,0,P|378:363|350:320,1,150.000005722046,0|0,3:0|3:0,0:0:0:0:
506,72,151836,5,4,3:1:0:0:
486,177,152697,5,2,2:0:0:0:
413,307,152819,2,0,L|422:267,2,25,2|0|0,3:2|2:0|2:0,0:0:0:0:
264,227,153066,5,0,1:0:0:0:
187,262,153188,1,0,1:0:0:0:
115,220,153311,2,0,L|139:201,1,25,8|0,2:1|2:0,0:0:0:0:
108,136,153434,1,0,3:0:0:0:
174,83,153557,1,0,1:0:0:0:
252,116,153680,1,0,3:0:0:0:
413,307,153803,6,0,P|471:217|403:128,1,200,4|0,3:0|2:0,0:0:0:0:
211,234,154172,2,0,P|255:327|366:314,1,200,4|0,3:0|2:0,0:0:0:0:
330,82,154540,6,0,P|273:83|251:135,1,100,4|0,3:0|3:0,0:0:0:0:
259,131,154725,1,0,2:0:0:0:
259,131,154786,1,8,1:0:0:0:
370,220,155033,5,2,2:0:0:0:
264,266,155156,1,0,2:0:0:0:
128,184,155279,1,2,2:0:0:0:
137,165,155525,1,2,2:3:0:0:
179,42,155770,6,0,B|225:26|264:74|264:74|313:134|381:108,1,220.000006713867,4|0,1:0|2:0,0:0:0:0:
441,20,156139,1,0,2:0:0:0:
441,20,156262,2,0,P|392:24|363:55,1,75.0000028610231,8|0,2:0|2:0,0:0:0:0:
420,165,156508,2,0,P|468:160|497:129,1,75.0000028610231,2|0,2:0|2:0,0:0:0:0:
187,166,156754,6,0,P|166:210|179:250,1,69.9999978637696,0|0,1:0|2:0,0:0:0:0:
273,247,157000,2,0,P|293:202|280:162,1,69.9999978637696,2|0,2:0|2:0,0:0:0:0:
382,324,157246,6,0,P|410:364|451:372,1,64.9999970245363,8|0,2:0|3:0,0:0:0:0:
489,304,157492,2,0,P|461:264|420:256,1,64.9999970245363,2|0,2:0|2:0,0:0:0:0:
281,384,157738,6,0,B|226:374|226:374|163:312|163:312|36:293,1,220.000006713867,0|0,1:0|2:0,0:0:0:0:
0,133,158106,1,4,1:2:0:0:
168,229,158229,6,0,B|218:250|273:195|273:195|339:127|400:157,1,250,0|4,2:0|1:2,0:0:0:0:
447,258,158598,1,0,2:0:0:0:
198,10,158721,5,0,3:0:0:0:
189,83,158843,1,0,2:0:0:0:
180,155,158966,1,2,2:0:0:0:
168,229,159089,1,0,3:0:0:0:
120,318,159213,6,0,P|118:292|125:317,1,69.9999978637696,8|0,2:0|2:0,0:0:0:0:
301,384,159459,2,0,P|298:357|305:382,1,69.9999978637696,2|0,2:0|2:0,0:0:0:0:
470,136,159705,6,0,P|360:152|365:245,1,200,4|0,2:0|3:0,0:0:0:0:
396,317,160074,1,0,3:0:0:0:
111,111,160197,6,0,P|68:122|3:136,1,69.9999978637696,8|0,2:0|3:0,0:0:0:0:
219,162,160443,2,0,P|252:152|286:144,1,69.9999978637696,2|0,2:0|3:0,0:0:0:0:
429,204,160688,6,0,P|471:215|537:229,1,64.9999970245363,0|0,1:0|2:0,0:0:0:0:
329,260,160934,2,0,P|295:250|261:242,1,64.9999970245363,2|0,2:3|2:0,0:0:0:0:
96,304,161180,6,0,P|76:337|93:379,1,59.9999981689454,8|0,2:0|2:0,0:0:0:0:
162,371,161426,2,0,P|182:338|165:296,1,59.9999981689454,4|0,2:0|2:0,0:0:0:0:
0,171,161672,6,0,B|32:197|32:197|115:176|115:176|126:178|126:178|133:171|133:171|221:147,1,220.000006713867,4|2,2:1|2:0,0:0:0:0:
283,41,162041,1,2,2:0:0:0:
429,202,162164,5,8,2:0:0:0:
325,166,162287,1,0,3:0:0:0:
342,273,162410,1,2,1:2:0:0:
85,21,162656,6,0,P|137:50|140:117,1,100,2|0,1:2|3:0,0:0:0:0:
215,8,162902,1,0,3:0:0:0:
11,147,163025,2,0,P|-9:114|-3:78,1,69.9999978637696,2|8,1:2|2:0,0:0:0:0:
136,280,163270,5,0,3:0:0:0:
184,184,163393,1,2,1:2:0:0:
70,97,163516,1,0,2:0:0:0:
254,313,163639,6,0,B|310:304|310:304|373:242|373:242|500:223,1,220.000006713867,4|0,1:0|2:0,0:0:0:0:
208,60,164008,1,0,2:0:0:0:
208,60,164131,2,0,P|159:69|134:104,1,75.0000028610231,8|0,2:0|2:0,0:0:0:0:
192,205,164377,2,0,P|238:192|263:157,1,75.0000028610231,2|0,2:0|2:0,0:0:0:0:
389,198,164623,6,0,P|434:214|454:251,1,69.9999978637696,0|0,1:0|2:0,0:0:0:0:
386,316,164869,2,0,P|340:298|320:260,1,69.9999978637696,2|0,2:0|2:0,0:0:0:0:
174,296,165115,6,0,P|152:340|166:378,1,64.9999970245363,8|0,2:0|3:0,0:0:0:0:
236,379,165361,2,0,P|257:334|243:296,1,64.9999970245363,0|0,3:0|3:0,0:0:0:0:
0,259,165606,6,0,B|44:283|100:236|100:236|167:177|222:210,1,220.000006713867,0|0,1:0|3:0,0:0:0:0:
18,146,165975,1,0,1:0:0:0:
168,43,166098,6,0,P|172:-2|161:42,1,139.999995727539,8|0,2:0|1:0,0:0:0:0:
29,135,166467,1,0,2:0:0:0:
255,320,166590,5,0,3:0:0:0:
272,245,166712,1,0,2:0:0:0:
275,168,166835,1,2,2:0:0:0:
263,90,166960,1,0,3:0:0:0:
235,10,167082,6,0,B|203:5|203:5|164:37,1,69.9999978637696,8|0,2:0|2:0,0:0:0:0:
352,120,167328,2,0,B|384:126|384:126|423:95,1,69.9999978637696,2|0,2:0|2:0,0:0:0:0:
0,250,167574,6,0,P|125:268|121:351,1,220.000006713867,4|2,2:0|2:0,0:0:0:0:
56,384,167943,1,0,2:0:0:0:
250,314,168066,6,0,B|260:258|260:258|223:177|223:177|249:52,1,220.000006713867,10|0,2:0|3:0,0:0:0:0:
182,26,168434,1,0,2:0:0:0:
48,189,168557,6,0,P|96:171|144:190,1,64.9999970245363,2|0,3:2|2:0,0:0:0:0:
130,265,168803,2,0,P|81:284|34:264,1,64.9999970245363,2|0,3:2|2:0,0:0:0:0:
328,187,169049,6,0,P|297:145|303:95,1,64.9999970245363,10|0,2:0|2:0,0:0:0:0:
391,97,169295,2,0,P|400:107|400:120,1,22.4999993133545,2|0,2:0|2:0,0:0:0:0:
257,27,169541,6,0,B|212:11|174:58|174:58|128:114|63:90,1,200,6|2,2:0|2:0,0:0:0:0:
7,25,169910,1,0,3:0:0:0:
251,256,170033,5,10,1:2:0:0:
196,138,170156,1,0,3:0:0:0:
318,94,170279,1,2,2:0:0:0:
82,358,170402,5,0,3:0:0:0:
127,275,170525,2,0,P|117:248|121:277,1,85.0000016212464,2|0,1:2|3:0,0:0:0:0:
395,320,170770,5,2,2:0:0:0:
328,192,170893,2,0,P|339:160|335:194,1,100,2|8,1:2|2:0,0:0:0:0:
277,334,171139,5,2,2:0:0:0:
433,151,171262,1,2,1:2:0:0:
209,62,171385,1,0,2:0:0:0:
461,225,171508,6,0,P|510:174|365:114,1,300,4|0,2:1|3:0,0:0:0:0:
166,322,172000,6,0,P|128:320|88:265,1,64.9999970245363,8|0,2:0|2:0,0:0:0:0:
133,224,172246,2,0,P|171:226|211:281,1,64.9999970245363,2|0,2:0|2:0,0:0:0:0:
355,202,172492,6,0,P|383:200|412:159,1,59.9999981689454,4|0,3:0|2:0,0:0:0:0:
368,108,172738,2,0,P|339:109|310:150,1,59.9999981689454,2|0,2:0|2:0,0:0:0:0:
125,43,172984,6,0,P|110:75|135:130,1,55.0000016784668,8|0,2:0|2:0,0:0:0:0:
203,113,173229,2,0,P|218:81|193:26,1,55.0000016784668,2|0,2:0|2:0,0:0:0:0:
13,153,173475,6,0,B|39:185|39:185|18:268|18:268|20:279|20:279|13:286|13:286|-11:374,1,200,4|0,3:2|2:0,0:0:0:0:
160,376,173844,1,2,2:3:0:0:
160,376,173967,2,0,B|134:344|134:344|155:261|155:261|153:250|153:250|160:243|160:243|184:155,1,200,8|0,2:0|3:0,0:0:0:0:
289,89,174336,1,0,3:0:0:0:
434,207,174459,5,4,3:0:0:0:
471,281,174581,1,0,3:0:0:0:
417,346,174704,1,0,3:0:0:0:
335,327,174827,1,0,3:0:0:0:
240,248,174951,6,0,P|246:214|251:174,1,64.9999970245363,8|0,2:0|2:0,0:0:0:0:
361,155,175197,2,0,P|357:188|352:220,1,64.9999970245363,4|0,2:0|2:0,0:0:0:0:
80,296,175443,6,0,B|91:241|91:241|83:213|83:213|100:122,2,150.000005722046,0|0|8,1:0|3:0|2:0,0:0:0:0:
480,96,176180,1,4,2:0:0:0:
512,168,176303,1,0,2:0:0:0:
454,221,176426,2,0,B|444:276|444:276|452:304|452:304|435:395,2,150.000005722046,4|0|8,3:0|2:0|2:0,0:0:0:0:
264,80,177041,5,0,3:0:0:0:
361,155,177164,1,0,1:0:0:0:
240,200,177287,1,0,1:0:0:0:
208,16,177410,6,0,P|190:10|204:21,1,50,4|0,2:1|2:0,0:0:0:0:
33,12,177656,6,0,B|79:6|107:58|107:58|142:119|209:107,1,200,0|8,3:0|2:0,0:0:0:0:
112,280,178025,1,0,3:0:0:0:
240,200,178148,1,2,2:0:0:0:
45,121,178271,1,0,3:0:0:0:
304,296,178393,5,0,1:0:0:0:
361,155,178516,2,0,P|359:125|354:155,1,85.0000016212464,0|0,3:0|3:0,0:0:0:0:
150,370,178761,5,0,1:0:0:0:
84,207,178885,2,0,P|76:181|88:207,1,85.0000016212464,8|0,2:0|3:0,0:0:0:0:
276,367,179131,5,0,1:0:0:0:
387,262,179254,1,0,3:0:0:0:
181,77,179377,6,0,P|226:154|198:71,1,262.500002503395,4|0,1:0|3:0,0:0:0:0:
267,302,179869,6,0,P|272:335|279:401,1,64.9999970245363,8|0,2:0|2:0,0:0:0:0:
387,262,180115,2,0,P|383:229|378:197,1,64.9999970245363,2|0,2:0|2:0,0:0:0:0:
141,196,180361,6,0,P|112:190|72:224,1,59.9999981689454,4|0,3:0|2:0,0:0:0:0:
98,295,180606,2,0,P|126:300|166:266,1,59.9999981689454,2|0,2:0|2:0,0:0:0:0:
352,100,180852,6,0,P|381:100|414:140,1,59.9999981689454,8|0,2:0|2:0,0:0:0:0:
378,197,181098,2,0,P|349:197|316:157,1,59.9999981689454,2|0,2:0|2:0,0:0:0:0:
114,22,181344,6,0,B|74:82|74:82|95:191,1,150.000005722046,4|0,3:2|2:0,0:0:0:0:
216,193,181713,1,2,2:3:0:0:
216,193,181836,2,0,B|255:132|255:132|234:23,1,150.000005722046,8|0,2:0|3:0,0:0:0:0:
136,256,182205,1,0,3:0:0:0:
352,100,182328,5,4,3:0:0:0:
422,80,182450,1,0,3:0:0:0:
474,132,182573,1,0,3:0:0:0:
455,204,182696,1,0,3:0:0:0:
360,248,182820,6,0,P|346:270|352:244,1,75.0000028610231,8|0,2:0|2:0,0:0:0:0:
475,349,183066,2,0,P|461:372|466:346,1,75.0000028610231,4|0,2:0|2:0,0:0:0:0:
249,351,183311,6,0,B|206:369|164:326|164:326|113:274|51:304,2,200,0|0|8,1:0|3:0|2:0,0:0:0:0:
344,80,184049,1,4,2:0:0:0:
296,136,184172,1,0,2:0:0:0:
332,196,184295,2,0,B|374:214|416:171|416:171|467:119|529:149,2,200,4|0|8,3:0|2:0|2:0,0:0:0:0:
114,99,184910,5,0,2:0:0:0:
182,59,185033,1,0,3:0:0:0:
226,125,185155,1,0,3:0:0:0:
162,168,185279,6,0,L|159:190,1,22.4999993133545,4|0,2:1|2:0,0:0:0:0:
253,275,185525,5,0,3:0:0:0:
323,198,185647,1,0,3:0:0:0:
403,220,185770,1,8,2:0:0:0:
430,276,185893,1,0,2:0:0:0:
423,317,186016,1,2,2:0:0:0:
414,336,186139,1,0,3:0:0:0:
398,348,186262,6,0,P|397:273|390:349,1,230.000004386902,0|0,1:0|2:0,0:0:0:0:
85,206,186631,2,0,P|38:141|89:204,1,259.999988098145,0|0,1:0|2:0,0:0:0:0:
299,0,187000,5,0,1:0:0:0:
255,191,187123,1,0,2:0:0:0:
209,381,187246,6,0,L|222:325,1,52.4999983978272,4|0,2:1|2:0,0:0:0:0:
168,256,187738,5,0,2:0:0:0:
255,191,187984,1,0,2:0:0:0:
342,125,188229,2,0,L|390:135,2,44.999998626709,0|0|0,2:0|2:0|2:0,0:0:0:0:
256,80,189274,5,0,2:0:0:0:
