osu file format v14

[General]
AudioFilename: audio.mp3
AudioLeadIn: 0
PreviewTime: 64372
Countdown: 0
SampleSet: Soft
StackLeniency: 0.6
Mode: 0
LetterboxInBreaks: 0
WidescreenStoryboard: 1

[Editor]
Bookmarks: 16497,48497,54997,67187,87247
DistanceSpacing: 0.9
BeatDivisor: 8
GridSize: 32
TimelineZoom: 4.199998

[Metadata]
Title:THAT'S A NO NO (Cut Ver.)
TitleUnicode:THAT’S A NO NO (Cut Ver.)
Artist:ITZY
ArtistUnicode:ITZY
Creator:Skymin
Version:NORMAL
Source:
Tags:Itz It'z me 예지 Yeji 리아 Lia 류진 Ryujin 채령 Chaeryoung 유나 Yuna jypentertainment korean Kpop K-pop pop Dailycare morinaga
BeatmapID:3267249
BeatmapSetID:1446416

[Difficulty]
HPDrainRate:3
CircleSize:3.4
OverallDifficulty:4.5
ApproachRate:5.5
SliderMultiplier:1.9
SliderTickRate:1

[Events]
//Background and Video events
0,0,"wp6055913-ryujin-wannabe-wallpapers.jpg",0,0
//Break Periods
//Storyboard Layer 0 (Background)
//Storyboard Layer 1 (Fail)
//Storyboard Layer 2 (Pass)
//Storyboard Layer 3 (Foreground)
//Storyboard Layer 4 (Overlay)
//Storyboard Sound Samples

[TimingPoints]
454,500,4,2,1,60,1,0
48454,-100,4,2,1,80,0,0
64454,-90.9090909090909,4,2,1,80,0,1
80454,-100,4,2,1,80,0,0

[Colours]
Combo1 : 255,211,81
Combo2 : 27,86,175
Combo3 : 60,179,98
Combo4 : 120,173,222

[HitObjects]
0,216,16454,6,0,B|-40:288|21:341|21:341|74:332,1,190,6|10,3:2|0:2,0:0:0:0:
154,317,17204,1,2,3:2:0:0:
203,247,17454,2,0,P|213:201|196:154,2,95,2|2|10,3:2|0:0|0:0,0:0:0:0:
327,364,18454,5,2,3:2:0:0:
397,314,18704,1,2,0:0:0:0:
411,229,18954,2,0,P|387:187|371:143,1,95,10|0,0:0|3:0,0:0:0:0:
310,83,19454,2,0,P|319:31|346:-2,2,95,2|2|10,3:2|0:0|0:0,0:0:0:0:
161,144,20454,6,0,P|90:151|23:178,1,142.5,6|2,3:2|3:2,0:0:0:0:
0,209,20954,2,0,B|-15:253|-15:253|2:307,1,95,10|0,0:0|3:0,0:0:0:0:
72,255,21454,2,0,P|143:262|210:289,1,142.5,2|2,3:2|3:2,0:0:0:0:
246,309,21954,2,0,B|291:324|291:324|335:308,1,95,8|0,0:0|3:2,0:0:0:0:
417,334,22454,5,2,3:2:0:0:
493,296,22704,1,2,0:0:0:0:
504,211,22954,2,0,L|510:159,2,47.5,10|2|0,0:0|0:0|3:2,0:0:0:0:
420,192,23454,2,0,P|374:191|334:220,1,95,2|0,3:2|0:0,0:0:0:0:
254,191,23954,2,0,P|169:222|103:159,1,190,10|2,0:0|3:1,0:0:0:0:
37,315,24954,6,0,L|143:306,1,95,10|2,0:0|3:2,0:0:0:0:
206,348,25454,2,0,L|214:297,2,47.5,2|0|2,3:2|0:0|0:2,0:0:0:0:
291,344,25954,2,0,L|298:297,2,47.5,10|0|2,0:2|0:0|0:2,0:0:0:0:
375,326,26454,5,2,3:1:0:0:
483,193,26954,2,0,L|465:96,1,95,10|2,0:0|3:2,0:0:0:0:
382,80,27454,2,0,L|323:64,2,47.5,2|0|2,3:2|0:0|0:0,0:0:0:0:
337,153,27954,2,0,L|382:165,2,47.5,10|0|2,0:2|0:0|0:0,0:0:0:0:
255,126,28454,1,2,3:1:0:0:
163,270,28954,6,0,P|134:232|92:211,1,95,10|2,0:0|3:2,0:0:0:0:
9,194,29454,2,0,L|-1:240,2,47.5,2|0|2,3:2|0:0|0:0,0:0:0:0:
67,131,29954,1,10,0:0:0:0:
46,47,30204,1,2,3:2:0:0:
128,69,30454,6,0,L|221:53,1,95,2|2,3:2|0:0,0:0:0:0:
261,129,30954,2,0,L|167:144,1,95,10|2,0:0|3:2,0:0:0:0:
126,219,31454,5,2,3:2:0:0:
190,275,31704,1,2,0:0:0:0:
255,219,31954,1,10,0:2:0:0:
322,275,32204,1,2,0:0:0:0:
386,219,32454,6,0,P|376:289|391:358,2,142.5,2|2|2,0:2|0:2|0:2,0:0:0:0:
425,142,33454,1,2,0:0:0:0:
364,81,33704,2,0,B|274:47|277:130|181:85,1,190,2|2,0:0|0:0,0:0:0:0:
128,151,34454,6,0,P|68:188|0:175,2,142.5,2|2|2,0:0|0:0|0:0,0:0:0:0:
181,85,35454,1,2,0:0:0:0:
256,125,35704,2,0,P|242:235|238:320,1,190,2|2,0:0|0:0,0:0:0:0:
156,341,36454,6,0,B|113:351|113:351|15:323,2,142.5,2|2|2,0:0|0:0|0:0,0:0:0:0:
238,314,37454,1,2,0:0:0:0:
302,258,37704,2,0,P|385:272|491:255,1,190,2|2,0:0|0:0,0:0:0:0:
479,170,38454,5,14,0:1:0:0:
387,79,38829,1,10,0:1:0:0:
300,173,39204,1,10,0:1:0:0:
302,258,39454,6,0,L|195:258,1,95,10|2,0:1|0:0,0:0:0:0:
167,333,39954,1,2,0:0:0:0:
81,333,40204,1,2,0:0:0:0:
174,189,40704,6,0,L|70:189,2,95,10|10|2,0:2|0:2|0:0,0:0:0:0:
224,119,41454,1,2,0:0:0:0:
143,89,41704,2,0,P|130:43|143:-2,2,95,10|10|2,0:2|0:2|0:0,0:0:0:0:
224,119,42454,6,0,L|366:119,2,142.5,10|10|10,0:1|0:1|0:1,0:0:0:0:
174,189,43454,1,10,0:1:0:0:
255,319,43954,1,2,0:0:0:0:
89,277,44454,5,2,0:2:0:0:
12,315,44704,2,0,P|2:269|19:225,2,95,10|10|2,0:2|0:2|0:0,0:0:0:0:
84,360,45454,1,2,0:0:0:0:
89,277,45704,2,0,P|135:266|181:277,1,95,10|10,0:2|0:2,0:0:0:0:
255,319,46204,1,2,0:0:0:0:
327,273,46454,5,14,0:2:0:0:
257,165,46829,1,10,0:2:0:0:
328,58,47204,1,10,0:2:0:0:
408,87,47454,2,0,L|422:181,1,95,8|2,0:0|0:0,0:0:0:0:
435,265,47954,2,0,L|449:359,1,95,2|2,0:2|0:2,0:0:0:0:
363,360,48454,6,0,B|254:379|294:305|168:321,1,190,6|8,3:2|0:0,0:0:0:0:
164,235,49204,1,2,0:1:0:0:
236,189,49454,2,0,P|246:142|236:96,1,95,2|2,3:1|0:1,0:0:0:0:
161,55,49954,2,0,P|150:101|160:147,1,95,10|2,0:1|0:1,0:0:0:0:
164,235,50454,6,0,L|9:218,2,142.5,6|2|2,1:2|0:0|0:1,0:0:0:0:
185,317,51454,2,0,P|241:265|202:161,1,190,2|8,3:1|0:1,0:0:0:0:
334,48,52454,6,0,B|384:72|435:63|435:63|470:78|498:122,1,190,6|8,3:2|0:0,0:0:0:0:
502,206,53204,1,2,0:1:0:0:
467,288,53454,2,0,P|418:274|361:299,1,95,2|2,3:1|0:1,0:0:0:0:
332,359,53954,2,0,P|381:373|438:348,1,95,10|2,0:1|0:1,0:0:0:0:
377,286,54454,6,0,L|391:189,1,95,6|2,1:2|0:0,0:0:0:0:
306,180,54954,2,0,L|292:274,1,95,2|2,1:2|0:0,0:0:0:0:
276,358,55454,1,2,1:2:0:0:
190,345,55704,1,2,0:0:0:0:
206,261,55954,2,0,L|219:166,1,95,2|2,1:2|0:2,0:0:0:0:
231,82,56454,6,0,P|148:50|36:43,1,190,6|8,3:2|0:0,0:0:0:0:
51,127,57204,1,2,0:1:0:0:
122,174,57454,2,0,L|103:271,1,95,2|2,3:1|0:1,0:0:0:0:
18,261,57954,2,0,L|-1:358,1,95,10|2,0:1|0:1,0:0:0:0:
85,356,58454,6,0,P|155:356|238:322,2,142.5,6|2|2,1:2|0:0|0:1,0:0:0:0:
103,267,59454,1,2,3:1:0:0:
255,190,59954,1,8,0:2:0:0:
378,308,60454,6,0,P|382:211|439:127,1,190,6|8,3:2|0:0,0:0:0:0:
498,82,61204,1,2,0:1:0:0:
444,15,61454,2,0,L|345:7,1,95,2|2,3:1|0:1,0:0:0:0:
325,89,61954,2,0,L|226:81,1,95,10|2,0:1|0:1,0:0:0:0:
160,130,62454,6,0,P|170:177|158:235,1,95,6|2,1:2|0:0,0:0:0:0:
91,269,62954,2,0,P|83:315|93:361,1,95,2|2,1:2|0:2,0:0:0:0:
172,328,63454,1,2,1:2:0:0:
254,348,63704,1,0,3:2:0:0:
301,276,63954,1,2,1:2:0:0:
383,299,64204,1,0,3:2:0:0:
475,281,64454,6,0,L|459:390,2,104.500003189087,2|2|10,1:1|0:0|0:0,0:0:0:0:
429,198,65204,2,0,L|474:173,1,52.2500015945435,2|2,0:0|0:0,0:0:0:0:
497,132,65454,2,0,L|512:26,2,104.500003189087,2|10|10,1:1|0:1|0:1,0:0:0:0:
309,110,66454,6,0,P|258:121|208:108,1,104.500003189087,6|2,1:2|0:0,0:0:0:0:
190,64,66829,1,2,0:0:0:0:
190,64,66954,2,0,P|139:54|88:67,1,104.500003189087,10|2,0:2|0:0,0:0:0:0:
26,137,67454,2,0,P|-5:85|1:37,2,104.500003189087,2|10|10,1:1|0:1|0:1,0:0:0:0:
72,319,68454,6,0,L|185:296,1,104.500003189087,6|2,3:2|0:0,0:0:0:0:
261,331,68954,2,0,L|369:310,1,104.500003189087,10|2,0:2|0:0,0:0:0:0:
455,291,69454,1,2,3:2:0:0:
434,199,69704,1,2,0:0:0:0:
341,217,69954,2,0,L|237:238,1,104.500003189087,10|2,0:0|0:0,0:0:0:0:
174,167,70454,6,0,P|146:210|147:265,2,104.500003189087,6|2|10,3:2|0:0|0:2,0:0:0:0:
256,121,71204,1,2,0:0:0:0:
348,102,71454,2,0,P|375:58|377:5,2,104.500003189087,6|2|10,3:2|3:2|0:2,0:0:0:0:
160,117,72454,6,0,L|142:3,2,104.500003189087,6|2|10,1:2|0:0|0:0,0:0:0:0:
241,164,73204,2,0,L|199:211,1,52.2500015945435,2|2,0:0|0:0,0:0:0:0:
182,244,73454,2,0,L|199:360,2,104.500003189087,2|10|10,1:1|0:1|0:1,0:0:0:0:
49,377,74454,6,0,P|67:313|60:255,1,104.500003189087,6|2,1:2|0:0,0:0:0:0:
45,232,74829,1,2,0:0:0:0:
45,232,74954,2,0,P|29:187|31:129,1,104.500003189087,10|2,0:2|0:0,0:0:0:0:
116,92,75454,2,0,P|84:46|26:35,2,104.500003189087,2|10|10,1:1|0:1|0:1,0:0:0:0:
145,277,76454,6,0,L|263:291,1,104.500003189087,6|2,3:2|0:0,0:0:0:0:
295,297,76829,1,2,0:0:0:0:
295,297,76954,2,0,L|399:308,1,104.500003189087,10|2,0:2|0:0,0:0:0:0:
492,321,77454,1,2,3:2:0:0:
503,227,77704,1,2,0:2:0:0:
409,220,77954,2,0,L|305:209,1,104.500003189087,10|2,0:2|0:0,0:0:0:0:
318,115,78454,6,0,P|328:66|311:8,2,104.500003189087,6|2|6,3:2|0:2|3:2,0:0:0:0:
223,117,79204,1,2,3:2:0:0:
168,193,79454,2,0,P|158:242|175:300,2,104.500003189087,6|2|10,3:2|0:2|3:2,0:0:0:0:
318,115,80454,6,0,B|358:55|435:80|435:80|426:151,1,190,6|8,3:2|0:0,0:0:0:0:
410,220,81204,1,2,0:1:0:0:
324,214,81454,2,0,B|271:204|239:254,1,95,2|2,3:1|0:1,0:0:0:0:
278,327,81954,2,0,B|331:337|363:287,1,95,10|2,0:1|0:1,0:0:0:0:
410,220,82454,6,0,P|473:255|483:329,2,142.5,6|2|2,1:2|0:0|0:1,0:0:0:0:
324,214,83454,1,2,3:1:0:0:
257,371,83954,1,8,0:1:0:0:
99,305,84454,6,0,P|55:221|43:127,1,190,6|8,3:2|0:0,0:0:0:0:
82,50,85204,1,2,0:1:0:0:
163,81,85454,2,0,L|270:71,1,95,2|2,3:1|0:1,0:0:0:0:
336,105,85954,2,0,L|443:95,1,95,10|2,0:1|0:1,0:0:0:0:
439,181,86454,6,0,L|339:190,1,95,6|2,1:2|0:0,0:0:0:0:
264,157,86954,2,0,L|164:166,1,95,2|2,1:2|0:0,0:0:0:0:
163,81,87454,1,2,1:2:0:0:
78,90,87704,1,2,0:0:0:0:
88,176,87954,2,0,L|97:279,1,95,2|2,1:2|0:2,0:2:0:0:
35,330,88454,6,0,P|122:350|177:278,1,190,6|8,3:2|0:0,0:0:0:0:
195,195,89204,1,2,0:1:0:0:
280,199,89454,2,0,P|328:202|371:226,1,95,2|2,3:1|0:1,0:0:0:0:
352,308,89954,2,0,P|303:304|260:280,1,95,10|2,0:1|0:1,0:0:0:0:
177,278,90454,6,0,P|116:280|38:346,2,142.5,6|2|2,1:2|0:0|0:1,0:0:0:0:
263,282,91454,1,2,3:1:0:0:
245,111,91954,1,8,0:1:0:0:
387,19,92454,6,0,B|356:144|356:144|382:215,1,190,6|8,3:2|0:0,0:0:0:0:
440,261,93204,1,2,0:1:0:0:
394,333,93454,2,0,P|357:359|303:353,1,95,2|2,3:1|0:1,0:0:0:0:
247,297,93954,2,0,P|283:270|337:276,1,95,10|2,0:1|0:1,0:0:0:0:
378,202,94454,6,0,P|351:165|357:111,1,95,6|2,1:2|0:0,0:0:0:0:
436,94,94954,2,0,P|462:132|459:178,1,95,2|2,1:2|0:0,0:0:0:0:
440,261,95454,1,2,1:2:0:0:
394,333,95704,1,2,3:2:0:0:
331,273,95954,2,0,L|227:273,1,95,2|2,3:2|3:2,0:2:0:0:
