osu file format v14

[General]
AudioFilename: audio.mp3
AudioLeadIn: 0
PreviewTime: 64372
Countdown: 0
SampleSet: Soft
StackLeniency: 0.6
Mode: 0
LetterboxInBreaks: 0
WidescreenStoryboard: 1

[Editor]
Bookmarks: 16497,48497,54997,67187,87247
DistanceSpacing: 1.5
BeatDivisor: 8
GridSize: 32
TimelineZoom: 4.199998

[Metadata]
Title:THAT'S A NO NO (Cut Ver.)
TitleUnicode:THAT’S A NO NO (Cut Ver.)
Artist:ITZY
ArtistUnicode:ITZY
Creator:Skymin
Version:HARD
Source:
Tags:Itz It'z me 예지 Yeji 리아 Lia 류진 Ryujin 채령 Chaeryoung 유나 Yuna jypentertainment korean Kpop K-pop pop Dailycare morinaga
BeatmapID:3268265
BeatmapSetID:1446416

[Difficulty]
HPDrainRate:5
CircleSize:4.1
OverallDifficulty:6
ApproachRate:7.8
SliderMultiplier:2.1
SliderTickRate:1

[Events]
//Background and Video events
0,0,"wp6055913-ryujin-wannabe-wallpapers.jpg",0,0
//Break Periods
//Storyboard Layer 0 (Background)
//Storyboard Layer 1 (Fail)
//Storyboard Layer 2 (Pass)
//Storyboard Layer 3 (Foreground)
//Storyboard Layer 4 (Overlay)
//Storyboard Sound Samples

[TimingPoints]
454,500,4,2,1,60,1,0
32454,-125,4,2,1,60,0,0
38079,-100,4,2,1,60,0,0
48454,-100,4,2,1,80,0,0
64454,-100,4,2,1,80,0,1
80454,-100,4,2,1,80,0,0

[Colours]
Combo1 : 255,211,81
Combo2 : 27,86,175
Combo3 : 60,179,98
Combo4 : 120,173,222

[HitObjects]
401,162,16454,6,0,B|448:179|448:179|476:225,1,105,6|0,3:2|0:0,0:0:0:0:
469,304,16829,1,2,3:2:0:0:
469,304,16954,2,0,P|471:335|462:356,2,52.5,10|2|2,0:0|0:0|3:2,0:0:0:0:
322,244,17454,5,2,3:2:0:0:
322,244,17579,1,2,0:0:0:0:
322,244,17704,2,0,L|253:244,1,52.5,2|0,0:0|0:0,0:0:0:0:
289,320,17954,2,0,L|405:319,1,105,10|0,0:0|0:0,0:0:0:0:
400,161,18454,5,6,3:2:0:0:
400,161,18579,1,2,0:0:0:0:
400,161,18704,2,0,P|395:134|398:109,1,52.5,2|0,0:0|0:0,0:0:0:0:
351,45,18954,2,0,L|277:51,1,52.5,10|2,0:0|0:0,0:0:0:0:
256,115,19204,2,0,L|182:121,1,52.5,2|2,3:2|0:0,0:0:0:0:
138,75,19454,5,2,3:2:0:0:
138,75,19579,1,2,0:0:0:0:
138,75,19704,2,0,P|132:40|141:14,1,52.5,2|0,0:2|0:0,0:0:0:0:
59,4,19954,2,0,P|50:55|63:106,1,105,10|0,0:0|3:0,0:0:0:0:
3,251,20454,6,0,P|71:261|100:301,1,105,6|0,3:2|0:0,0:0:0:0:
152,338,20829,1,2,3:2:0:0:
225,308,20954,2,0,L|277:301,1,52.5,10|0,0:0|0:0,0:0:0:0:
348,334,21204,2,0,L|400:327,1,52.5,2|0,3:2|0:0,0:0:0:0:
477,344,21454,6,0,P|488:251|499:218,1,105,2|0,3:2|0:0,0:0:0:0:
445,176,21829,1,2,3:2:0:0:
489,111,21954,2,0,P|495:85|492:60,1,52.5,10|0,0:0|0:0,0:0:0:0:
417,30,22204,2,0,P|410:55|413:80,1,52.5,2|0,3:2|0:0,0:0:0:0:
367,145,22454,6,0,L|263:161,1,105,2|0,3:2|0:0,0:0:0:0:
188,133,22829,1,2,0:2:0:0:
188,133,22954,2,0,L|130:141,2,52.5,10|2|2,0:0|0:0|3:2,0:0:0:0:
312,229,23454,2,0,L|369:219,2,52.5,2|2|2,3:2|0:0|0:0,0:0:0:0:
194,335,23954,2,0,P|91:348|59:310,1,157.5,10|0,0:0|0:0,0:0:0:0:
42,237,24454,5,2,3:1:0:0:
277,27,24954,2,0,L|385:33,1,105,10|2,0:0|3:2,0:0:0:0:
241,105,25454,2,0,L|133:99,1,105,2|2,3:2|0:2,0:0:0:0:
132,178,25829,1,0,0:0:0:0:
132,178,25954,2,0,L|240:184,1,105,10|2,0:2|0:2,0:0:0:0:
277,27,26454,5,2,3:1:0:0:
493,256,26954,2,0,L|481:371,1,105,10|2,0:0|0:0,0:0:0:0:
424,213,27454,2,0,L|436:98,1,105,2|2,3:2|0:0,0:0:0:0:
356,97,27829,1,0,0:0:0:0:
356,97,27954,2,0,L|345:201,1,105,10|2,0:2|0:0,0:0:0:0:
492,256,28454,5,2,3:1:0:0:
182,316,28954,2,0,P|135:339|83:337,1,105,10|2,0:0|0:2,0:0:0:0:
61,180,29454,1,2,3:2:0:0:
61,180,29579,1,2,0:0:0:0:
61,180,29704,2,0,L|72:252,1,52.5,2|0,0:0|0:0,0:0:0:0:
147,240,29954,2,0,L|130:136,1,105,10|2,0:0|3:2,0:0:0:0:
266,55,30454,5,2,3:2:0:0:
113,15,30704,1,2,0:0:0:0:
266,55,30954,2,0,L|322:48,2,52.5,10|2|2,0:0|0:0|3:2,0:0:0:0:
327,199,31454,6,0,P|312:238|302:306,1,105,2|2,3:2|0:0,0:0:0:0:
180,199,31954,2,0,P|195:160|205:92,1,105,10|2,0:2|0:0,0:0:0:0:
87,202,32454,6,0,P|99:272|87:332,2,126,2|2|2,0:2|0:2|0:2,0:0:0:0:
127,82,33454,1,2,0:0:0:0:
180,199,33704,2,0,L|357:199,1,168,2|2,0:0|0:0,0:0:0:0:
446,276,34454,6,0,L|307:277,2,126,2|2|2,0:0|0:0|0:0,0:0:0:0:
348,199,35454,1,2,0:0:0:0:
473,199,35704,2,0,P|496:120|468:42,1,168,2|2,0:0|0:0,0:0:0:0:
344,68,36454,6,0,P|287:54|218:69,2,126,2|2|2,0:0|0:0|0:0,0:0:0:0:
344,196,37454,1,2,0:0:0:0:
219,212,37704,2,0,P|134:209|83:212,1,126,2|0,0:0|0:0,0:0:0:0:
44,273,38204,2,0,L|49:298,2,26.25,2|2|2,0:0|0:0|0:0,0:0:0:0:
93,211,38454,6,0,L|113:162,1,52.5,14|0,0:1|0:0,0:0:0:0:
54,16,38829,2,0,L|85:57,1,52.5,10|0,0:1|0:0,0:0:0:0:
242,80,39204,2,0,L|189:86,1,52.5,10|0,0:1|0:0,0:0:0:0:
203,164,39454,5,10,0:1:0:0:
203,164,39579,2,0,L|307:152,1,105,2|2,0:2|0:2,0:0:0:0:
385,142,39954,1,2,0:1:0:0:
295,12,40204,2,0,L|190:23,1,105,2|2,0:1|0:2,0:0:0:0:
36,54,40704,6,0,P|20:79|15:103,1,52.5,10|0,0:2|0:0,0:0:0:0:
32,177,40954,1,10,0:2:0:0:
32,177,41079,2,0,L|83:186,1,52.5,2|0,0:0|0:0,0:0:0:0:
143,134,41329,2,0,P|163:179|126:255,1,131.25,2|0,0:0|0:0,0:0:0:0:
124,288,41704,2,0,L|18:288,2,105,10|10|2,0:2|0:2|0:0,0:0:0:0:
271,343,42454,6,0,L|325:343,1,52.5,10|0,0:1|0:0,0:0:0:0:
388,298,42704,1,2,0:0:0:0:
388,298,42829,2,0,L|442:298,1,52.5,10|0,0:1|0:0,0:0:0:0:
440,223,43079,1,2,0:0:0:0:
440,223,43204,2,0,L|494:223,1,52.5,10|0,0:1|0:0,0:0:0:0:
492,144,43454,6,0,L|439:144,1,52.5,10|2,0:1|0:2,0:0:0:0:
290,194,43829,2,0,P|271:146|286:96,1,105,2|0,0:0|0:0,0:0:0:0:
350,144,44204,1,2,0:2:0:0:
238,33,44454,6,0,L|178:26,1,52.5,2|0,0:2|0:0,0:0:0:0:
124,76,44704,2,0,L|64:69,1,52.5,10|0,0:2|0:0,0:0:0:0:
64,148,44954,1,10,0:2:0:0:
64,148,45079,2,0,L|116:154,1,52.5,2|0,0:0|0:0,0:0:0:0:
184,192,45329,6,0,P|121:207|84:259,1,131.25,2|0,0:0|0:0,0:0:0:0:
47,274,45704,2,0,L|59:380,2,105,10|10|2,0:2|0:2|0:0,0:0:0:0:
64,148,46454,5,14,0:2:0:0:
252,346,46829,1,10,0:2:0:0:
448,148,47204,1,10,0:2:0:0:
230,214,47454,1,8,0:0:0:0:
230,214,47579,6,0,L|114:214,1,105,2|2,0:1|0:2,0:0:0:0:
83,146,47954,2,0,L|74:95,1,52.5,2|0,0:1|0:0,0:0:0:0:
26,194,48204,2,0,L|35:245,1,52.5,2|0,0:1|0:0,0:0:0:0:
1,314,48454,6,0,P|53:318|95:289,1,105,6|0,3:2|0:0,0:0:0:0:
125,216,48829,1,2,0:0:0:0:
125,216,48954,2,0,L|115:162,2,52.5,8|2|0,0:0|0:0|0:1,0:0:0:0:
251,311,49454,6,0,L|247:363,1,52.5,2|0,3:1|0:0,0:0:0:0:
325,373,49704,2,0,L|329:321,1,52.5,2|0,0:1|0:0,0:0:0:0:
297,248,49954,2,0,L|301:196,1,52.5,10|0,0:1|0:0,0:0:0:0:
376,201,50204,2,0,L|372:253,1,52.5,2|0,0:1|0:0,0:0:0:0:
407,323,50454,6,0,P|477:279|509:202,1,157.5,6|2,1:2|0:0,0:0:0:0:
495,134,50954,1,10,0:0:0:0:
495,121,51079,1,2,0:0:0:0:
495,108,51204,2,0,L|495:39,1,52.5,2|0,0:1|0:0,0:0:0:0:
416,52,51454,6,0,P|366:36|316:51,1,105,2|0,3:1|0:0,0:0:0:0:
255,99,51829,1,2,0:0:0:0:
183,131,51954,2,0,P|133:145|83:130,1,105,8|0,0:1|0:0,0:0:0:0:
2,266,52454,6,0,L|13:161,1,105,6|0,3:2|0:0,0:0:0:0:
22,82,52829,1,2,0:0:0:0:
22,82,52954,2,0,L|31:18,2,52.5,8|2|0,0:0|0:0|0:1,0:0:0:0:
183,131,53454,6,0,L|234:120,1,52.5,2|0,3:1|0:0,0:0:0:0:
311,102,53704,2,0,L|362:91,1,52.5,2|0,0:1|0:0,0:0:0:0:
377,168,53954,2,0,L|325:178,1,52.5,10|0,0:1|0:0,0:0:0:0:
248,197,54204,2,0,L|196:207,1,52.5,2|0,0:1|0:0,0:0:0:0:
155,274,54454,6,0,P|122:234|123:182,1,105,6|0,1:2|0:0,0:0:0:0:
44,185,54829,1,2,0:0:0:0:
44,185,54954,2,0,P|51:160|52:134,1,52.5,2|0,1:2|0:0,0:0:0:0:
8,67,55204,2,0,P|0:41|-1:15,1,52.5,2|0,0:0|0:0,0:0:0:0:
76,29,55454,5,2,1:2:0:0:
89,28,55579,1,2,0:0:0:0:
102,28,55704,2,0,L|158:28,1,52.5,2|0,0:0|0:0,0:0:0:0:
204,88,55954,2,0,B|279:88|279:88|304:72,1,105,2|0,1:2|0:2,0:0:0:0:
426,171,56454,6,0,P|462:207|470:258,1,105,6|0,3:2|0:0,0:0:0:0:
455,335,56829,1,2,0:0:0:0:
455,335,56954,2,0,L|515:330,2,52.5,8|2|0,0:0|0:0|0:1,0:0:0:0:
324,247,57454,6,0,L|271:251,1,52.5,2|0,3:1|0:0,0:0:0:0:
254,328,57704,2,0,L|194:333,1,52.5,2|0,0:1|0:0,0:0:0:0:
196,253,57954,2,0,L|143:257,1,52.5,10|0,0:1|0:0,0:0:0:0:
126,334,58204,2,0,L|66:339,1,52.5,2|0,0:1|0:0,0:0:0:0:
66,258,58454,6,0,P|41:185|64:111,1,157.5,6|2,1:2|0:0,0:0:0:0:
81,34,58954,1,10,0:0:0:0:
94,34,59079,1,2,0:0:0:0:
107,34,59204,2,0,L|176:33,1,52.5,2|0,0:1|0:0,0:0:0:0:
203,98,59454,6,0,P|253:80|302:97,1,105,2|0,3:1|0:0,0:0:0:0:
255,159,59829,1,2,0:0:0:0:
210,224,59954,2,0,P|259:239|307:220,1,105,8|0,0:2|0:0,0:0:0:0:
387,83,60454,6,0,B|450:92|450:92|481:123,1,105,6|0,3:2|0:0,0:0:0:0:
415,167,60829,1,2,0:0:0:0:
415,167,60954,2,0,L|400:225,2,52.5,8|2|0,0:0|0:0|0:1,0:0:0:0:
256,164,61454,6,0,L|241:222,1,52.5,2|0,3:1|0:0,0:0:0:0:
165,200,61704,2,0,L|150:258,1,52.5,2|0,0:1|0:0,0:0:0:0:
222,288,61954,2,0,L|207:346,1,52.5,10|0,0:1|0:0,0:0:0:0:
131,324,62204,2,0,L|116:382,1,52.5,2|0,0:1|0:0,0:0:0:0:
43,346,62454,6,0,P|7:310|-1:259,1,105,6|0,1:2|0:0,0:0:0:0:
13,181,62829,1,2,0:0:0:0:
13,181,62954,2,0,P|44:166|60:145,1,52.5,2|0,1:2|0:0,0:0:0:0:
74,75,63204,2,0,P|98:84|116:103,1,52.5,2|0,0:2|0:2,0:0:0:0:
131,181,63454,5,2,1:2:0:0:
207,43,63704,1,2,3:2:0:0:
277,183,63954,1,2,1:2:0:0:
353,45,64204,1,2,3:2:0:0:
423,185,64454,6,0,P|446:141|454:84,2,105,2|2|10,1:1|0:0|0:0,0:0:0:0:
384,337,65204,1,2,0:0:0:0:
311,366,65329,1,2,0:0:0:0:
250,315,65454,2,0,L|256:258,1,52.5,2|0,1:1|0:0,0:0:0:0:
192,214,65704,2,0,L|198:157,1,52.5,10|0,0:1|0:0,0:0:0:0:
269,128,65954,2,0,L|275:71,1,52.5,10|0,0:1|0:0,0:0:0:0:
49,3,66454,6,0,P|42:29|49:54,1,52.5,6|0,1:2|0:0,0:0:0:0:
119,89,66704,1,2,0:0:0:0:
119,89,66829,1,2,0:0:0:0:
59,141,66954,2,0,P|65:167|58:192,1,52.5,10|0,0:2|0:0,0:0:0:0:
4,248,67204,1,2,0:0:0:0:
4,248,67329,1,2,0:0:0:0:
70,290,67454,6,0,L|122:283,1,52.5,2|0,1:1|0:0,0:0:0:0:
181,335,67704,2,0,L|233:328,1,52.5,10|0,0:1|0:0,0:0:0:0:
281,266,67954,2,0,L|333:259,1,52.5,10|0,0:1|0:0,0:0:0:0:
433,44,68454,6,0,B|409:78|409:78|414:115,1,78.75,6|0,3:2|0:0,0:0:0:0:
441,143,68704,2,0,L|512:162,1,52.5,2|0,0:0|0:0,0:0:0:0:
507,234,68954,2,0,B|510:275|510:275|487:305,1,78.75,10|0,0:2|0:0,0:0:0:0:
450,316,69204,2,0,L|378:296,1,52.5,2|0,0:0|0:0,0:0:0:0:
333,258,69454,5,2,3:2:0:0:
194,333,69704,1,2,0:0:0:0:
118,194,69954,1,10,0:0:0:0:
256,119,70204,1,2,0:0:0:0:
174,252,70454,6,0,P|126:272|75:262,2,105,6|2|10,3:2|0:0|0:2,0:0:0:0:
174,252,71204,1,2,0:0:0:0:
338,252,71454,2,0,P|386:272|437:262,2,105,6|2|10,3:2|3:2|0:2,0:0:0:0:
338,252,72204,1,0,3:2:0:0:
256,119,72454,6,0,L|256:7,2,105,6|2|10,1:2|0:0|0:0,0:0:0:0:
174,252,73204,1,2,0:0:0:0:
137,321,73329,1,2,0:0:0:0:
196,372,73454,2,0,L|258:363,1,52.5,2|0,1:1|0:0,0:0:0:0:
297,303,73704,2,0,L|359:294,1,52.5,10|0,0:1|0:0,0:0:0:0:
415,337,73954,2,0,L|477:328,1,52.5,10|0,0:1|0:0,0:0:0:0:
503,96,74454,6,0,L|471:42,1,52.5,6|0,1:2|0:0,0:0:0:0:
411,4,74704,1,2,0:0:0:0:
411,4,74829,1,2,0:0:0:0:
352,57,74954,2,0,L|325:102,1,52.5,10|0,0:2|0:0,0:0:0:0:
258,143,75204,1,2,0:0:0:0:
258,143,75329,1,2,0:0:0:0:
194,96,75454,6,0,L|126:101,1,52.5,2|0,1:1|0:0,0:0:0:0:
124,177,75704,2,0,L|56:182,1,52.5,10|0,0:1|0:0,0:0:0:0:
71,260,75954,2,0,L|3:265,1,52.5,10|0,0:1|0:0,0:0:0:0:
233,362,76454,6,0,B|273:361|273:361|304:383,1,78.75,6|0,3:2|0:0,0:0:0:0:
339,364,76704,2,0,L|350:295,1,52.5,2|0,0:0|0:0,0:0:0:0:
403,257,76954,2,0,B|371:234|371:234|331:235,1,78.75,10|0,0:2|0:0,0:0:0:0:
295,219,77204,2,0,L|277:148,1,52.5,2|0,0:0|0:0,0:0:0:0:
324,102,77454,5,2,3:2:0:0:
458,183,77704,1,2,0:2:0:0:
458,25,77954,1,10,0:2:0:0:
324,102,78204,2,0,L|221:103,1,78.75,2|0,0:2|0:0,0:0:0:0:
205,102,78454,6,0,P|167:46|172:7,2,105,6|2|6,3:2|0:2|3:2,0:0:0:0:
205,102,79204,1,2,3:2:0:0:
310,219,79454,2,0,P|348:275|343:314,2,105,6|2|10,3:2|0:3|3:2,0:0:0:0:
310,219,80204,1,0,3:2:0:0:
211,342,80454,6,0,L|98:359,1,105,6|0,3:2|0:0,0:0:0:0:
35,325,80829,1,2,0:0:0:0:
35,325,80954,2,0,L|25:388,2,52.5,8|2|0,0:0|0:0|0:1,0:0:0:0:
181,266,81454,6,0,L|120:274,1,52.5,2|0,3:1|0:0,0:0:0:0:
115,194,81704,2,0,L|167:187,1,52.5,2|0,0:1|0:0,0:0:0:0:
227,135,81954,2,0,L|288:127,1,52.5,10|0,0:1|0:0,0:0:0:0:
293,207,82204,2,0,L|240:213,1,52.5,2|0,0:1|0:0,0:0:0:0:
181,265,82454,6,0,P|178:341|242:381,1,157.5,6|2,1:2|0:0,0:0:0:0:
251,302,82954,1,10,0:0:0:0:
264,300,83079,1,2,0:0:0:0:
278,297,83204,2,0,L|330:290,1,52.5,2|0,0:1|0:0,0:0:0:0:
374,355,83454,6,0,P|380:302|398:253,1,105,2|0,3:1|0:0,0:0:0:0:
446,191,83829,1,2,0:0:0:0:
387,137,83954,2,0,P|368:87|362:35,1,105,8|0,0:1|0:0,0:0:0:0:
271,151,84454,6,0,P|227:179|176:173,1,105,6|0,3:2|0:0,0:0:0:0:
99,153,84829,1,2,0:0:0:0:
99,153,84954,2,0,L|36:163,2,52.5,8|2|0,0:0|0:0|0:1,0:0:0:0:
219,51,85454,6,0,L|210:103,1,52.5,2|0,3:1|0:0,0:0:0:0:
271,151,85704,2,0,L|262:203,1,52.5,2|0,0:1|0:0,0:0:0:0:
186,224,85954,2,0,L|177:276,1,52.5,10|0,0:1|0:0,0:0:0:0:
238,324,86204,2,0,L|229:376,1,52.5,2|0,0:1|0:0,0:0:0:0:
152,352,86454,6,0,L|35:344,1,105,6|0,1:2|0:0,0:0:0:0:
72,269,86829,1,2,0:0:0:0:
72,269,86954,2,0,L|188:276,1,105,2|2,1:2|0:0,0:0:0:0:
335,275,87454,6,0,L|440:269,1,105,2|0,1:2|0:0,0:0:0:0:
464,345,87829,1,2,0:0:0:0:
464,345,87954,2,0,L|359:351,1,105,2|2,1:2|0:2,0:0:0:0:
254,231,88454,6,0,P|271:182|306:144,1,105,6|0,3:2|0:0,0:0:0:0:
301,65,88829,1,2,0:0:0:0:
301,65,88954,2,0,L|260:24,2,52.5,8|2|0,0:0|0:0|0:1,0:0:0:0:
457,51,89454,6,0,L|452:113,1,52.5,2|0,3:1|0:0,0:0:0:0:
387,147,89704,2,0,L|382:209,1,52.5,2|0,0:1|0:0,0:0:0:0:
452,236,89954,2,0,L|447:298,1,52.5,10|0,0:1|0:0,0:0:0:0:
382,332,90204,2,0,L|377:394,1,52.5,2|0,0:1|0:0,0:0:0:0:
299,377,90454,6,0,P|221:366|135:360,1,157.5,6|2,1:2|0:0,0:0:0:0:
67,383,90954,1,10,0:0:0:0:
62,371,91079,1,2,0:0:0:0:
57,359,91204,2,0,L|37:304,1,52.5,2|0,0:1|0:0,0:0:0:0:
113,284,91454,6,0,P|151:238|196:207,1,105,2|0,3:1|0:0,0:0:0:0:
253,167,91829,1,2,0:0:0:0:
324,211,91954,2,0,P|366:243|399:284,1,105,8|0,0:1|0:0,0:0:0:0:
501,164,92454,6,0,P|459:132|426:91,1,105,6|0,3:2|0:0,0:0:0:0:
348,83,92829,1,2,0:0:0:0:
348,83,92954,2,0,L|365:23,2,52.5,8|2|0,0:0|0:0|0:1,0:0:0:0:
188,109,93454,6,0,L|112:116,1,52.5,2|0,3:1|0:0,0:0:0:0:
147,191,93704,2,0,L|199:186,1,52.5,2|0,0:1|0:0,0:0:0:0:
262,138,93954,2,0,L|314:133,1,52.5,10|0,0:1|0:0,0:0:0:0:
324,211,94204,2,0,L|271:215,1,52.5,2|0,0:1|0:0,0:0:0:0:
265,294,94454,6,0,L|157:307,1,105,6|0,1:2|0:0,0:0:0:0:
42,203,94954,2,0,L|150:190,1,105,2|2,1:2|0:0,0:0:0:0:
265,294,95454,5,0,1:2:0:0:
262,138,95704,1,2,3:2:0:0:
408,194,95954,1,2,3:2:0:0:
405,38,96204,1,2,3:2:0:0:
