osu file format v14

[General]
AudioFilename: audio.mp3
AudioLeadIn: 0
PreviewTime: 49168
Countdown: 0
SampleSet: Normal
StackLeniency: 0.7
Mode: 1
LetterboxInBreaks: 0
WidescreenStoryboard: 0

[Editor]
DistanceSpacing: 0.8
BeatDivisor: 4
GridSize: 4
TimelineZoom: 2.5

[Metadata]
Title:Klouz of Reveria
TitleUnicode:Klouz of Revəria
Artist:ITSUHA.
ArtistUnicode:ITSUHA.
Creator:Charlotte
Version:Cdh's Oni
Source:
Tags:JUDYDANNY cdhsausageboy 404 AccNotFound Nardoxyribonucleic
BeatmapID:1393044
BeatmapSetID:657616

[Difficulty]
HPDrainRate:6
CircleSize:6
OverallDifficulty:6
ApproachRate:5
SliderMultiplier:1.4
SliderTickRate:1

[Events]
//Background and Video events
0,0,"BG1.jpg",0,-40
//Break Periods
//Storyboard Layer 0 (Background)
//Storyboard Layer 1 (Fail)
//Storyboard Layer 2 (Pass)
//Storyboard Layer 3 (Foreground)
//Storyboard Sound Samples

[TimingPoints]
1206,300,4,1,0,80,1,0
49206,-100,4,1,0,90,0,1
68406,-100,4,1,0,80,0,0
106806,-100,4,1,0,90,0,1
121206,-100,4,1,0,80,0,0

[HitObjects]
260,172,1205,5,12,0:0:0:0:
336,184,6005,1,8,0:0:0:0:
236,172,7055,1,0,0:0:0:0:
236,172,7205,1,8,0:0:0:0:
236,172,7955,1,0,0:0:0:0:
236,172,8030,1,0,0:0:0:0:
236,172,8105,1,0,0:0:0:0:
236,172,8255,1,0,0:0:0:0:
236,172,8405,1,8,0:0:0:0:
212,132,8855,1,0,0:0:0:0:
128,196,9005,1,8,0:0:0:0:
160,176,9455,1,0,0:0:0:0:
352,180,9605,1,8,0:0:0:0:
352,180,9905,1,8,0:0:0:0:
208,164,10205,1,8,0:0:0:0:
276,216,10355,1,0,0:0:0:0:
184,128,10431,1,0,0:0:0:0:
472,220,10505,1,8,0:0:0:0:
472,220,10655,1,8,0:0:0:0:
364,208,10805,1,0,0:0:0:0:
280,196,11105,1,8,0:0:0:0:
228,188,11255,1,0,0:0:0:0:
228,188,11330,1,0,0:0:0:0:
228,188,11405,1,0,0:0:0:0:
228,188,11555,1,0,0:0:0:0:
300,208,11705,1,8,0:0:0:0:
300,208,11855,1,8,0:0:0:0:
272,172,12005,1,0,0:0:0:0:
84,208,12305,1,8,0:0:0:0:
288,180,12455,1,0,0:0:0:0:
280,188,12605,1,8,0:0:0:0:
280,188,12680,1,8,0:0:0:0:
280,168,12755,1,0,0:0:0:0:
280,168,12905,1,0,0:0:0:0:
280,168,13055,1,0,0:0:0:0:
180,200,13205,1,8,0:0:0:0:
120,152,13505,1,0,0:0:0:0:
124,160,13655,1,8,0:0:0:0:
320,188,13805,1,8,0:0:0:0:
320,188,13880,1,8,0:0:0:0:
320,188,13955,1,8,0:0:0:0:
228,148,14105,1,0,0:0:0:0:
320,152,14255,1,8,0:0:0:0:
80,264,14405,1,0,0:0:0:0:
256,180,14705,1,0,0:0:0:0:
256,180,14855,1,0,0:0:0:0:
296,168,15005,1,8,0:0:0:0:
384,164,15080,1,0,0:0:0:0:
232,232,15155,1,8,0:0:0:0:
248,192,15230,1,8,0:0:0:0:
280,188,15305,1,0,0:0:0:0:
280,188,15455,1,0,0:0:0:0:
424,208,15605,1,8,0:0:0:0:
308,128,15905,1,0,0:0:0:0:
424,208,16055,1,8,0:0:0:0:
308,128,16355,1,0,0:0:0:0:
424,208,16505,1,8,0:0:0:0:
308,128,16805,1,0,0:0:0:0:
424,208,16955,1,8,0:0:0:0:
308,128,17255,1,0,0:0:0:0:
424,208,17405,1,8,0:0:0:0:
308,128,17555,1,0,0:0:0:0:
308,128,17705,1,8,0:0:0:0:
308,128,17855,1,0,0:0:0:0:
184,236,18005,1,8,0:0:0:0:
216,180,18155,1,0,0:0:0:0:
216,180,18305,1,0,0:0:0:0:
216,180,18455,1,0,0:0:0:0:
184,236,18605,1,8,0:0:0:0:
216,180,18755,1,0,0:0:0:0:
216,180,18905,1,0,0:0:0:0:
216,180,19055,1,0,0:0:0:0:
328,232,19205,1,12,0:0:0:0:
328,232,19430,1,12,0:0:0:0:
328,232,19655,1,12,0:0:0:0:
344,160,19805,1,8,0:0:0:0:
344,160,19855,1,8,0:0:0:0:
344,160,19905,1,8,0:0:0:0:
344,160,19955,1,8,0:0:0:0:
240,160,20405,1,4,0:0:0:0:
344,176,20855,1,0,0:0:0:0:
312,188,21155,1,8,0:0:0:0:
136,120,21455,1,0,0:0:0:0:
136,120,21605,1,0,0:0:0:0:
324,156,21756,1,8,0:0:0:0:
328,172,22055,1,0,0:0:0:0:
256,180,22205,1,8,0:0:0:0:
256,180,22355,1,8,0:0:0:0:
376,172,22655,1,8,0:0:0:0:
376,172,22805,1,8,0:0:0:0:
176,212,23105,1,0,0:0:0:0:
352,180,23255,1,8,0:0:0:0:
352,180,23555,1,8,0:0:0:0:
272,160,23705,1,0,0:0:0:0:
372,204,23855,1,8,0:0:0:0:
372,204,24005,1,8,0:0:0:0:
288,192,24155,1,0,0:0:0:0:
256,176,24305,1,0,0:0:0:0:
232,168,24455,1,8,0:0:0:0:
228,176,24755,1,8,0:0:0:0:
268,208,24905,1,0,0:0:0:0:
272,200,25205,1,0,0:0:0:0:
280,200,25505,1,0,0:0:0:0:
188,176,25655,1,8,0:0:0:0:
164,188,25955,1,0,0:0:0:0:
320,204,26105,1,8,0:0:0:0:
320,204,26255,1,8,0:0:0:0:
236,216,26405,1,0,0:0:0:0:
376,184,26705,1,8,0:0:0:0:
340,196,26855,1,0,0:0:0:0:
192,252,27155,1,8,0:0:0:0:
420,188,27455,1,8,0:0:0:0:
504,188,27605,1,8,0:0:0:0:
472,204,27755,1,0,0:0:0:0:
220,256,28055,1,8,0:0:0:0:
220,256,28355,1,8,0:0:0:0:
152,232,28505,1,0,0:0:0:0:
344,212,28655,1,8,0:0:0:0:
344,212,28805,1,8,0:0:0:0:
344,212,29105,1,8,0:0:0:0:
208,236,29255,1,0,0:0:0:0:
184,208,29555,1,8,0:0:0:0:
392,200,29705,1,0,0:0:0:0:
392,200,29855,1,0,0:0:0:0:
272,252,30005,1,0,0:0:0:0:
136,232,30155,1,8,0:0:0:0:
136,232,30230,1,8,0:0:0:0:
276,184,30305,1,0,0:0:0:0:
276,184,30455,1,8,0:0:0:0:
244,200,30605,1,0,0:0:0:0:
260,188,30755,1,0,0:0:0:0:
484,176,30830,1,8,0:0:0:0:
468,172,30905,1,0,0:0:0:0:
116,176,31055,1,8,0:0:0:0:
136,176,31205,1,0,0:0:0:0:
136,176,31280,1,0,0:0:0:0:
316,172,31355,1,8,0:0:0:0:
268,216,31655,1,8,0:0:0:0:
336,200,31805,1,0,0:0:0:0:
336,200,31880,1,0,0:0:0:0:
232,188,31955,1,8,0:0:0:0:
288,184,32105,1,0,0:0:0:0:
344,144,32255,1,8,0:0:0:0:
344,144,32330,1,8,0:0:0:0:
344,144,32405,1,8,0:0:0:0:
356,180,32705,1,8,0:0:0:0:
356,180,32855,1,8,0:0:0:0:
320,184,33005,1,0,0:0:0:0:
244,180,33155,1,8,0:0:0:0:
320,184,33305,1,0,0:0:0:0:
368,172,33455,1,8,0:0:0:0:
244,216,33530,1,8,0:0:0:0:
360,172,33605,1,8,0:0:0:0:
356,180,33905,1,8,0:0:0:0:
356,180,34055,1,0,0:0:0:0:
320,184,34205,1,0,0:0:0:0:
244,180,34355,1,0,0:0:0:0:
368,172,34505,1,8,0:0:0:0:
352,176,34580,1,8,0:0:0:0:
360,172,34655,1,8,0:0:0:0:
352,176,34730,1,8,0:0:0:0:
168,208,34805,1,0,0:0:0:0:
240,224,35105,1,8,0:0:0:0:
236,268,35255,1,0,0:0:0:0:
236,268,35330,1,0,0:0:0:0:
236,268,35405,1,0,0:0:0:0:
296,172,35555,1,8,0:0:0:0:
432,200,35705,1,8,0:0:0:0:
408,192,35855,1,0,0:0:0:0:
424,184,36005,1,0,0:0:0:0:
248,180,36305,1,8,0:0:0:0:
356,192,36455,1,0,0:0:0:0:
340,180,36530,1,0,0:0:0:0:
340,180,36605,1,0,0:0:0:0:
400,184,36755,1,8,0:0:0:0:
368,192,36905,1,0,0:0:0:0:
156,216,37055,1,0,0:0:0:0:
208,220,37205,1,0,0:0:0:0:
208,216,37355,1,0,0:0:0:0:
208,212,37430,1,0,0:0:0:0:
208,212,37505,1,0,0:0:0:0:
216,200,37655,1,0,0:0:0:0:
216,200,37805,1,0,0:0:0:0:
216,200,37955,1,0,0:0:0:0:
216,200,38030,1,0,0:0:0:0:
216,192,38105,1,0,0:0:0:0:
96,208,38255,1,8,0:0:0:0:
172,192,38405,1,8,0:0:0:0:
176,176,38555,1,0,0:0:0:0:
212,172,38630,1,0,0:0:0:0:
456,160,38705,1,8,0:0:0:0:
176,176,38855,1,0,0:0:0:0:
212,172,38930,1,0,0:0:0:0:
456,160,39005,1,8,0:0:0:0:
176,176,39155,1,0,0:0:0:0:
212,172,39230,1,0,0:0:0:0:
456,160,39305,1,8,0:0:0:0:
260,156,39380,1,0,0:0:0:0:
332,176,39455,1,8,0:0:0:0:
168,216,39605,1,4,0:0:0:0:
64,216,39905,1,8,0:0:0:0:
148,192,40055,1,0,0:0:0:0:
164,176,40355,1,8,0:0:0:0:
256,240,40805,1,4,0:0:0:0:
64,216,41105,1,8,0:0:0:0:
148,192,41255,1,0,0:0:0:0:
164,176,41555,1,8,0:0:0:0:
356,168,41705,1,8,0:0:0:0:
52,160,41855,1,0,0:0:0:0:
168,216,42005,1,4,0:0:0:0:
64,216,42305,1,8,0:0:0:0:
148,192,42455,1,0,0:0:0:0:
296,172,42605,1,8,0:0:0:0:
364,176,42755,1,0,0:0:0:0:
284,168,42830,1,8,0:0:0:0:
112,200,42980,1,0,0:0:0:0:
460,184,43055,1,8,0:0:0:0:
256,240,43205,1,4,0:0:0:0:
64,216,43505,1,8,0:0:0:0:
148,192,43655,1,0,0:0:0:0:
328,172,43730,1,0,0:0:0:0:
136,200,43805,1,8,0:0:0:0:
144,224,43955,1,0,0:0:0:0:
144,216,44030,1,0,0:0:0:0:
296,172,44105,1,8,0:0:0:0:
176,220,44255,1,0,0:0:0:0:
188,216,44330,1,0,0:0:0:0:
280,240,44405,1,8,0:0:0:0:
464,180,44555,1,0,0:0:0:0:
224,188,44705,1,8,0:0:0:0:
348,224,44855,1,0,0:0:0:0:
368,216,44930,1,0,0:0:0:0:
284,184,45005,1,8,0:0:0:0:
224,240,45155,1,0,0:0:0:0:
400,172,45305,1,8,0:0:0:0:
80,192,45505,1,0,0:0:0:0:
392,184,45605,1,8,0:0:0:0:
228,144,45805,1,0,0:0:0:0:
168,176,45905,1,8,0:0:0:0:
88,124,46005,1,0,0:0:0:0:
268,176,46105,1,0,0:0:0:0:
312,188,46205,1,8,0:0:0:0:
284,172,46305,1,0,0:0:0:0:
284,172,46405,1,0,0:0:0:0:
312,188,46505,1,8,0:0:0:0:
284,172,46605,1,0,0:0:0:0:
284,172,46705,1,0,0:0:0:0:
200,176,46805,1,8,0:0:0:0:
220,220,48005,1,8,0:0:0:0:
312,176,48230,1,8,0:0:0:0:
300,172,48455,1,0,0:0:0:0:
300,172,48680,1,0,0:0:0:0:
300,172,48905,1,8,0:0:0:0:
300,172,48980,1,8,0:0:0:0:
300,172,49055,1,0,0:0:0:0:
300,172,49130,1,0,0:0:0:0:
300,172,49205,1,8,0:0:0:0:
236,208,49355,1,0,0:0:0:0:
236,208,49430,1,0,0:0:0:0:
212,184,49505,1,8,0:0:0:0:
428,188,49655,1,8,0:0:0:0:
128,172,49805,1,0,0:0:0:0:
372,152,49880,1,0,0:0:0:0:
168,168,49955,1,0,0:0:0:0:
432,184,50105,1,8,0:0:0:0:
40,152,50405,1,8,0:0:0:0:
344,184,50555,1,0,0:0:0:0:
344,184,50630,1,0,0:0:0:0:
260,216,50705,1,8,0:0:0:0:
260,216,50855,1,8,0:0:0:0:
400,180,51005,1,0,0:0:0:0:
320,180,51080,1,8,0:0:0:0:
312,176,51155,1,0,0:0:0:0:
356,204,51305,1,8,0:0:0:0:
112,176,51605,1,8,0:0:0:0:
276,184,51755,1,0,0:0:0:0:
276,184,51830,1,0,0:0:0:0:
276,184,51905,1,0,0:0:0:0:
424,196,52055,1,8,0:0:0:0:
280,184,52205,1,0,0:0:0:0:
300,188,52280,1,0,0:0:0:0:
296,184,52355,1,0,0:0:0:0:
384,200,52505,1,8,0:0:0:0:
384,200,52655,1,8,0:0:0:0:
376,208,52805,1,8,0:0:0:0:
376,208,52955,1,8,0:0:0:0:
376,208,53030,1,8,0:0:0:0:
244,200,53105,1,0,0:0:0:0:
264,192,53255,1,0,0:0:0:0:
128,184,53405,1,8,0:0:0:0:
40,192,53705,1,8,0:0:0:0:
296,172,53855,1,0,0:0:0:0:
180,160,54005,1,0,0:0:0:0:
180,160,54155,1,0,0:0:0:0:
208,160,54230,1,0,0:0:0:0:
240,184,54305,1,8,0:0:0:0:
240,184,54455,1,8,0:0:0:0:
156,232,54605,1,0,0:0:0:0:
376,220,54680,1,0,0:0:0:0:
200,184,54755,1,0,0:0:0:0:
384,184,54905,1,0,0:0:0:0:
244,220,55055,1,8,0:0:0:0:
168,268,55205,1,0,0:0:0:0:
384,184,55430,1,8,0:0:0:0:
180,224,55655,1,0,0:0:0:0:
400,140,55955,1,0,0:0:0:0:
208,108,56031,1,0,0:0:0:0:
360,200,56105,1,0,0:0:0:0:
276,192,56255,1,8,0:0:0:0:
276,192,56405,1,8,0:0:0:0:
304,172,56555,1,8,0:0:0:0:
304,172,56630,1,8,0:0:0:0:
176,192,56705,1,0,0:0:0:0:
184,236,56855,1,8,0:0:0:0:
176,248,57155,1,0,0:0:0:0:
176,240,57305,1,0,0:0:0:0:
336,184,57455,1,8,0:0:0:0:
412,164,57530,1,0,0:0:0:0:
376,184,57605,1,8,0:0:0:0:
372,216,57755,1,8,0:0:0:0:
340,220,57830,1,0,0:0:0:0:
372,216,57980,1,8,0:0:0:0:
340,220,58055,1,0,0:0:0:0:
332,172,58205,1,8,0:0:0:0:
392,208,58355,1,0,0:0:0:0:
248,216,58430,1,8,0:0:0:0:
256,216,58580,1,8,0:0:0:0:
304,248,58655,1,0,0:0:0:0:
384,220,58805,1,8,0:0:0:0:
176,220,59105,1,12,0:0:0:0:
428,188,59255,1,8,0:0:0:0:
128,172,59405,1,0,0:0:0:0:
372,152,59480,1,0,0:0:0:0:
168,168,59555,1,0,0:0:0:0:
432,184,59705,1,8,0:0:0:0:
40,152,60005,1,8,0:0:0:0:
344,184,60155,1,0,0:0:0:0:
344,184,60230,1,0,0:0:0:0:
260,216,60305,1,8,0:0:0:0:
260,216,60455,1,8,0:0:0:0:
400,180,60605,1,0,0:0:0:0:
320,180,60680,1,8,0:0:0:0:
312,176,60755,1,0,0:0:0:0:
200,196,60905,1,0,0:0:0:0:
200,196,60980,1,0,0:0:0:0:
200,196,61055,1,0,0:0:0:0:
66,145,61131,1,0,0:0:0:0:
112,176,61205,1,8,0:0:0:0:
276,184,61355,1,0,0:0:0:0:
276,184,61430,1,8,0:0:0:0:
276,184,61505,1,0,0:0:0:0:
424,196,61655,1,8,0:0:0:0:
280,184,61805,1,0,0:0:0:0:
300,188,61880,1,0,0:0:0:0:
296,184,61955,1,0,0:0:0:0:
384,200,62105,1,8,0:0:0:0:
384,200,62255,1,8,0:0:0:0:
376,208,62405,1,8,0:0:0:0:
376,208,62555,1,8,0:0:0:0:
376,208,62630,1,8,0:0:0:0:
244,200,62705,1,0,0:0:0:0:
128,184,62855,1,8,0:0:0:0:
184,124,63005,1,0,0:0:0:0:
184,124,63155,1,0,0:0:0:0:
40,192,63305,1,8,0:0:0:0:
180,160,63605,1,0,0:0:0:0:
180,160,63755,1,0,0:0:0:0:
208,160,63830,1,0,0:0:0:0:
240,184,63905,1,8,0:0:0:0:
240,184,64055,1,8,0:0:0:0:
244,220,64130,1,8,0:0:0:0:
156,232,64205,1,0,0:0:0:0:
200,184,64355,1,8,0:0:0:0:
384,184,64505,1,0,0:0:0:0:
376,220,64655,1,8,0:0:0:0:
212,120,64805,1,0,0:0:0:0:
180,160,64955,1,0,0:0:0:0:
208,160,65030,1,0,0:0:0:0:
240,184,65105,1,8,0:0:0:0:
240,184,65255,1,8,0:0:0:0:
244,220,65330,1,8,0:0:0:0:
156,232,65405,1,0,0:0:0:0:
200,184,65555,1,8,0:0:0:0:
384,184,65705,1,0,0:0:0:0:
376,220,65855,1,0,0:0:0:0:
276,216,66005,1,0,0:0:0:0:
288,176,66155,1,0,0:0:0:0:
288,176,66230,1,0,0:0:0:0:
288,176,66305,1,0,0:0:0:0:
288,176,66455,1,0,0:0:0:0:
428,200,66605,1,8,0:0:0:0:
428,200,66755,1,8,0:0:0:0:
428,200,66830,1,8,0:0:0:0:
428,200,66905,1,8,0:0:0:0:
428,200,67055,1,8,0:0:0:0:
484,224,67205,1,0,0:0:0:0:
396,232,67355,1,8,0:0:0:0:
312,168,67655,1,0,0:0:0:0:
416,200,67805,1,8,0:0:0:0:
416,200,67955,1,8,0:0:0:0:
456,204,68105,1,0,0:0:0:0:
452,208,68255,1,0,0:0:0:0:
256,192,68405,12,0,70505,0:0:0:0:
412,192,70805,5,8,0:0:0:0:
292,188,72005,5,0,0:0:0:0:
144,232,72605,1,8,0:0:0:0:
280,216,73205,1,4,0:0:0:0:
272,176,74405,1,8,0:0:0:0:
288,224,75605,1,4,0:0:0:0:
300,208,76205,1,8,0:0:0:0:
108,244,76805,1,0,0:0:0:0:
268,188,77105,1,8,0:0:0:0:
304,184,77405,1,0,0:0:0:0:
304,184,77555,1,0,0:0:0:0:
304,184,77705,1,0,0:0:0:0:
408,200,77855,1,8,0:0:0:0:
352,172,78005,1,0,0:0:0:0:
292,200,78305,1,8,0:0:0:0:
372,192,78455,1,0,0:0:0:0:
372,192,78530,1,0,0:0:0:0:
372,192,78605,1,0,0:0:0:0:
372,192,78755,1,0,0:0:0:0:
416,184,78905,1,8,0:0:0:0:
416,184,79055,1,8,0:0:0:0:
188,208,79205,1,0,0:0:0:0:
264,196,79355,1,0,0:0:0:0:
248,216,79430,1,0,0:0:0:0:
364,160,79505,1,8,0:0:0:0:
272,212,79655,1,8,0:0:0:0:
512,184,79805,1,0,0:0:0:0:
260,168,80105,1,8,0:0:0:0:
256,128,80405,1,0,0:0:0:0:
8,160,80705,1,8,0:0:0:0:
300,176,80780,1,8,0:0:0:0:
200,212,80855,1,0,0:0:0:0:
312,196,81005,1,0,0:0:0:0:
312,196,81155,1,0,0:0:0:0:
328,212,81305,1,8,0:0:0:0:
324,216,81455,1,8,0:0:0:0:
128,248,81605,1,0,0:0:0:0:
128,248,81680,1,0,0:0:0:0:
176,232,81755,1,8,0:0:0:0:
176,232,81830,1,8,0:0:0:0:
428,208,81905,1,0,0:0:0:0:
352,192,82055,1,8,0:0:0:0:
264,228,82205,1,0,0:0:0:0:
248,192,82505,1,8,0:0:0:0:
8,168,82805,1,0,0:0:0:0:
404,196,83105,1,8,0:0:0:0:
312,224,83255,1,0,0:0:0:0:
312,224,83330,1,0,0:0:0:0:
312,224,83405,1,0,0:0:0:0:
312,224,83555,1,0,0:0:0:0:
248,208,83705,1,8,0:0:0:0:
248,208,83855,1,8,0:0:0:0:
212,176,84005,1,0,0:0:0:0:
212,176,84155,1,0,0:0:0:0:
212,176,84230,1,0,0:0:0:0:
432,160,84305,1,8,0:0:0:0:
212,176,84455,1,0,0:0:0:0:
212,176,84530,1,0,0:0:0:0:
432,160,84605,1,8,0:0:0:0:
392,168,84905,1,0,0:0:0:0:
392,212,85205,1,8,0:0:0:0:
332,184,85505,1,8,0:0:0:0:
332,184,85580,1,8,0:0:0:0:
332,200,85655,1,0,0:0:0:0:
332,200,85805,1,0,0:0:0:0:
336,200,85955,1,0,0:0:0:0:
76,240,86105,1,8,0:0:0:0:
120,232,86255,1,8,0:0:0:0:
316,208,86405,1,0,0:0:0:0:
316,208,86480,1,0,0:0:0:0:
316,208,86555,1,0,0:0:0:0:
316,208,86630,1,0,0:0:0:0:
128,160,86705,1,8,0:0:0:0:
288,212,86855,1,0,0:0:0:0:
316,208,87005,1,8,0:0:0:0:
352,172,87605,1,4,0:0:0:0:
292,200,87905,1,8,0:0:0:0:
372,192,88055,1,0,0:0:0:0:
372,192,88130,1,0,0:0:0:0:
372,192,88205,1,0,0:0:0:0:
372,192,88355,1,0,0:0:0:0:
416,184,88505,1,8,0:0:0:0:
416,184,88655,1,8,0:0:0:0:
188,208,88805,1,0,0:0:0:0:
264,196,88955,1,0,0:0:0:0:
248,216,89030,1,0,0:0:0:0:
364,160,89105,1,8,0:0:0:0:
272,212,89255,1,8,0:0:0:0:
512,184,89405,1,0,0:0:0:0:
139,139,89556,1,0,0:0:0:0:
260,168,89705,1,8,0:0:0:0:
302,234,89856,1,8,0:0:0:0:
256,128,90005,1,0,0:0:0:0:
8,160,90305,1,8,0:0:0:0:
300,176,90380,1,8,0:0:0:0:
200,212,90455,1,0,0:0:0:0:
312,196,90605,1,0,0:0:0:0:
312,196,90755,1,0,0:0:0:0:
328,212,90905,1,8,0:0:0:0:
324,216,91055,1,8,0:0:0:0:
128,248,91205,1,0,0:0:0:0:
128,248,91280,1,0,0:0:0:0:
176,232,91355,1,8,0:0:0:0:
176,232,91430,1,8,0:0:0:0:
428,208,91505,1,0,0:0:0:0:
352,192,91655,1,8,0:0:0:0:
264,228,91805,1,0,0:0:0:0:
121,139,91956,1,0,0:0:0:0:
248,192,92105,1,8,0:0:0:0:
8,168,92405,1,4,0:0:0:0:
404,196,92705,1,8,0:0:0:0:
312,224,92855,1,0,0:0:0:0:
312,224,92930,1,0,0:0:0:0:
312,224,93005,1,0,0:0:0:0:
312,224,93155,1,0,0:0:0:0:
248,208,93305,1,8,0:0:0:0:
212,176,93605,1,4,0:0:0:0:
432,160,93905,1,8,0:0:0:0:
212,176,94055,1,0,0:0:0:0:
172,160,94130,1,0,0:0:0:0:
432,160,94205,1,8,0:0:0:0:
172,160,94355,1,0,0:0:0:0:
360,232,94505,5,8,0:0:0:0:
392,212,94805,1,8,0:0:0:0:
208,108,95105,1,0,0:0:0:0:
248,244,95405,1,8,0:0:0:0:
248,244,95705,1,8,0:0:0:0:
220,168,96005,1,0,0:0:0:0:
228,220,96305,1,8,0:0:0:0:
236,136,96605,2,0,L|424:256,1,210
216,196,97205,1,4,0:0:0:0:
216,212,97430,1,8,0:0:0:0:
212,212,97655,1,8,0:0:0:0:
212,212,97880,1,8,0:0:0:0:
404,172,98105,1,8,0:0:0:0:
460,188,98255,1,0,0:0:0:0:
364,180,98405,1,8,0:0:0:0:
216,212,98630,1,8,0:0:0:0:
212,212,98855,1,8,0:0:0:0:
212,212,99080,1,8,0:0:0:0:
404,172,99305,1,8,0:0:0:0:
460,188,99455,1,0,0:0:0:0:
364,180,99605,1,8,0:0:0:0:
216,212,99830,1,0,0:0:0:0:
212,212,100055,1,8,0:0:0:0:
212,212,100280,1,8,0:0:0:0:
460,188,100505,1,0,0:0:0:0:
404,172,100655,1,8,0:0:0:0:
364,180,100805,1,8,0:0:0:0:
216,212,101030,1,8,0:0:0:0:
212,212,101255,1,0,0:0:0:0:
212,212,101405,1,8,0:0:0:0:
404,172,101705,1,8,0:0:0:0:
460,188,101855,1,0,0:0:0:0:
300,172,102005,1,4,0:0:0:0:
308,180,102455,1,4,0:0:0:0:
308,176,102905,1,4,0:0:0:0:
308,180,103355,5,4,0:0:0:0:
308,176,103805,1,4,0:0:0:0:
308,180,104105,1,4,0:0:0:0:
344,212,104405,5,12,0:0:0:0:
200,180,105606,1,0,0:0:0:0:
320,168,106205,5,12,0:0:0:0:
320,168,106505,1,12,0:0:0:0:
148,188,106805,1,4,0:0:0:0:
176,280,106955,1,0,0:0:0:0:
176,280,107030,1,0,0:0:0:0:
56,268,107105,1,8,0:0:0:0:
192,248,107255,1,0,0:0:0:0:
192,248,107330,1,0,0:0:0:0:
192,248,107480,1,0,0:0:0:0:
192,248,107555,1,0,0:0:0:0:
308,192,107705,1,8,0:0:0:0:
336,208,107855,1,0,0:0:0:0:
328,184,108005,1,8,0:0:0:0:
328,184,108155,1,0,0:0:0:0:
328,180,108230,1,0,0:0:0:0:
280,240,108305,1,8,0:0:0:0:
408,204,108455,1,0,0:0:0:0:
408,204,108530,1,0,0:0:0:0:
408,204,108680,1,0,0:0:0:0:
424,204,108755,1,8,0:0:0:0:
300,252,108905,1,0,0:0:0:0:
300,252,108980,1,0,0:0:0:0:
300,252,109055,1,0,0:0:0:0:
452,192,109205,1,8,0:0:0:0:
424,208,109356,1,8,0:0:0:0:
348,216,109431,1,8,0:0:0:0:
368,204,109506,1,0,0:0:0:0:
348,216,109655,1,0,0:0:0:0:
102,169,109731,1,0,0:0:0:0:
240,215,109881,1,0,0:0:0:0:
220,172,109956,1,8,0:0:0:0:
100,264,110105,1,0,0:0:0:0:
100,264,110180,1,0,0:0:0:0:
100,264,110255,1,0,0:0:0:0:
220,232,110405,1,8,0:0:0:0:
212,224,110555,1,8,0:0:0:0:
324,192,110630,1,0,0:0:0:0:
212,224,110780,1,8,0:0:0:0:
324,192,110855,1,0,0:0:0:0:
260,184,111005,1,0,0:0:0:0:
260,184,111155,1,0,0:0:0:0:
360,176,111305,1,8,0:0:0:0:
348,172,111455,1,8,0:0:0:0:
208,212,111605,1,0,0:0:0:0:
208,212,111755,1,0,0:0:0:0:
208,212,111830,1,0,0:0:0:0:
348,164,111905,1,8,0:0:0:0:
248,180,112055,1,0,0:0:0:0:
232,180,112130,1,8,0:0:0:0:
380,196,112280,1,8,0:0:0:0:
200,188,112355,1,0,0:0:0:0:
288,200,112505,1,0,0:0:0:0:
288,200,112655,1,8,0:0:0:0:
208,212,112805,1,0,0:0:0:0:
208,212,112955,1,0,0:0:0:0:
208,212,113030,1,0,0:0:0:0:
348,164,113105,1,8,0:0:0:0:
248,180,113255,1,0,0:0:0:0:
232,180,113330,1,8,0:0:0:0:
380,196,113480,1,8,0:0:0:0:
200,188,113555,1,0,0:0:0:0:
288,200,113705,1,0,0:0:0:0:
288,200,113855,1,8,0:0:0:0:
192,116,114005,1,0,0:0:0:0:
192,116,114155,1,0,0:0:0:0:
192,116,114230,1,0,0:0:0:0:
192,116,114380,1,0,0:0:0:0:
192,116,114455,1,0,0:0:0:0:
288,200,114605,1,8,0:0:0:0:
288,200,114755,1,8,0:0:0:0:
288,200,114830,1,8,0:0:0:0:
288,200,114980,1,8,0:0:0:0:
288,200,115055,1,8,0:0:0:0:
408,184,115205,1,0,0:0:0:0:
408,184,115355,1,0,0:0:0:0:
260,216,115430,1,0,0:0:0:0:
332,216,115505,1,8,0:0:0:0:
332,216,115655,1,8,0:0:0:0:
300,176,115805,1,0,0:0:0:0:
300,176,115880,1,0,0:0:0:0:
320,172,115955,1,8,0:0:0:0:
320,172,116030,1,8,0:0:0:0:
432,204,116105,1,0,0:0:0:0:
326,207,116255,1,0,0:0:0:0:
256,192,116405,12,8,119706,0:0:0:0:
208,272,119855,5,8,0:0:0:0:
208,272,120155,1,8,0:0:0:0:
208,272,120305,1,8,0:0:0:0:
208,272,120455,1,8,0:0:0:0:
208,272,120605,1,8,0:0:0:0:
208,272,120755,1,8,0:0:0:0:
208,272,120905,1,8,0:0:0:0:
412,164,121055,1,12,0:0:0:0:
