osu file format v14

[General]
AudioFilename: audio.mp3
AudioLeadIn: 0
PreviewTime: 49168
Countdown: 0
SampleSet: Normal
StackLeniency: 0.7
Mode: 1
LetterboxInBreaks: 0
WidescreenStoryboard: 0

[Editor]
Bookmarks: 10806,15606,16056,16506,16956,17406,17706,18006,20406,30006,38406,39606,44406,46806,48006,49206,68406,78006,94806,97206,106806,116406
DistanceSpacing: 0.8
BeatDivisor: 4
GridSize: 4
TimelineZoom: 1.7

[Metadata]
Title:Klouz of Reveria
TitleUnicode:Klouz of Revəria
Artist:ITSUHA.
ArtistUnicode:ITSUHA.
Creator:Charlotte
Version:404's Muzukashii
Source:
Tags:JUDYDANNY cdhsausageboy 404 AccNotFound Nardoxyribonucleic
BeatmapID:1397621
BeatmapSetID:657616

[Difficulty]
HPDrainRate:6
CircleSize:6
OverallDifficulty:5
ApproachRate:5
SliderMultiplier:1.4
SliderTickRate:1

[Events]
//Background and Video events
0,0,"BG1.jpg",0,-40
//Break Periods
//Storyboard Layer 0 (Background)
//Storyboard Layer 1 (Fail)
//Storyboard Layer 2 (Pass)
//Storyboard Layer 3 (Foreground)
//Storyboard Sound Samples

[TimingPoints]
1206,300,4,1,0,80,1,0
49206,-100,4,1,0,90,0,1
68406,-100,4,1,0,80,0,0
106806,-100,4,1,0,90,0,1
121206,-100,4,1,0,80,0,0

[HitObjects]
376,192,1206,5,12,0:0:0:0:
376,204,6006,1,12,0:0:0:0:
376,204,7056,1,4,0:0:0:0:
376,204,7206,1,12,0:0:0:0:
280,184,7956,1,8,0:0:0:0:
144,156,8031,1,8,0:0:0:0:
280,184,8106,1,8,0:0:0:0:
280,184,8256,1,8,0:0:0:0:
280,184,8406,1,4,0:0:0:0:
280,184,9006,1,4,0:0:0:0:
280,184,9606,1,12,0:0:0:0:
280,184,9906,1,12,0:0:0:0:
280,184,10206,1,0,0:0:0:0:
280,184,10356,1,8,0:0:0:0:
280,184,10506,1,0,0:0:0:0:
280,184,10806,1,4,0:0:0:0:
72,152,11106,1,0,0:0:0:0:
216,140,11256,1,8,0:0:0:0:
72,152,11556,1,8,0:0:0:0:
72,152,11706,1,0,0:0:0:0:
72,152,12006,1,8,0:0:0:0:
72,152,12306,1,0,0:0:0:0:
216,160,12456,1,0,0:0:0:0:
72,152,12606,1,8,0:0:0:0:
72,152,13206,1,0,0:0:0:0:
72,152,13506,1,0,0:0:0:0:
216,160,13656,1,8,0:0:0:0:
72,152,13956,1,8,0:0:0:0:
72,152,14106,1,0,0:0:0:0:
72,152,14406,1,8,0:0:0:0:
72,152,14706,1,0,0:0:0:0:
216,160,14856,1,0,0:0:0:0:
72,152,15006,1,8,0:0:0:0:
216,160,15231,1,0,0:0:0:0:
72,152,15306,1,0,0:0:0:0:
216,160,15456,1,0,0:0:0:0:
372,160,15606,1,12,0:0:0:0:
372,160,16056,1,12,0:0:0:0:
372,160,16506,1,12,0:0:0:0:
372,160,16956,1,12,0:0:0:0:
372,160,17406,1,12,0:0:0:0:
372,160,17706,1,12,0:0:0:0:
372,160,18006,1,0,0:0:0:0:
168,104,18156,1,0,0:0:0:0:
168,104,18306,1,0,0:0:0:0:
156,168,18456,1,0,0:0:0:0:
168,104,18606,1,0,0:0:0:0:
168,104,18756,1,0,0:0:0:0:
168,104,18906,1,0,0:0:0:0:
168,104,19206,1,8,0:0:0:0:
292,156,19431,1,8,0:0:0:0:
292,156,19656,1,8,0:0:0:0:
292,156,19806,1,8,0:0:0:0:
276,152,20406,1,4,0:0:0:0:
272,176,20856,1,8,0:0:0:0:
272,176,21156,1,8,0:0:0:0:
272,176,21456,1,8,0:0:0:0:
47,133,21606,1,0,0:0:0:0:
152,176,21756,1,8,0:0:0:0:
152,176,22056,1,0,0:0:0:0:
152,176,22206,1,8,0:0:0:0:
152,176,22356,1,8,0:0:0:0:
152,200,22806,1,0,0:0:0:0:
220,120,23106,1,0,0:0:0:0:
220,120,23256,1,8,0:0:0:0:
220,120,23556,1,0,0:0:0:0:
174,178,23706,1,0,0:0:0:0:
174,178,23856,1,0,0:0:0:0:
152,200,24006,1,8,0:0:0:0:
220,128,24156,1,8,0:0:0:0:
8,156,24306,1,0,0:0:0:0:
220,128,24456,1,8,0:0:0:0:
220,128,24756,1,0,0:0:0:0:
220,128,24906,1,0,0:0:0:0:
152,200,25206,1,8,0:0:0:0:
228,124,25656,1,8,0:0:0:0:
232,124,25956,1,0,0:0:0:0:
228,124,26106,1,8,0:0:0:0:
228,124,26256,1,8,0:0:0:0:
152,200,26406,1,0,0:0:0:0:
228,124,26706,1,8,0:0:0:0:
232,124,26856,1,0,0:0:0:0:
228,124,27156,1,8,0:0:0:0:
228,124,27456,1,8,0:0:0:0:
152,200,27606,1,0,0:0:0:0:
228,124,28056,1,0,0:0:0:0:
228,124,28356,1,0,0:0:0:0:
228,124,28506,1,8,0:0:0:0:
232,124,28656,1,8,0:0:0:0:
152,200,28806,1,8,0:0:0:0:
200,112,29106,1,8,0:0:0:0:
200,112,29256,1,0,0:0:0:0:
200,112,29706,1,8,0:0:0:0:
40,168,30006,1,4,0:0:0:0:
296,152,30306,1,0,0:0:0:0:
320,120,30456,1,8,0:0:0:0:
296,152,30756,1,8,0:0:0:0:
296,152,31056,1,8,0:0:0:0:
120,92,31206,1,0,0:0:0:0:
296,152,31356,1,8,0:0:0:0:
296,152,31656,1,8,0:0:0:0:
200,168,31806,1,0,0:0:0:0:
296,152,31956,1,0,0:0:0:0:
296,152,32106,1,8,0:0:0:0:
296,152,32406,1,8,0:0:0:0:
296,152,32706,1,8,0:0:0:0:
296,152,32856,1,0,0:0:0:0:
296,152,33156,1,0,0:0:0:0:
220,104,33456,1,0,0:0:0:0:
296,152,33606,1,8,0:0:0:0:
220,112,33756,1,0,0:0:0:0:
296,152,33906,1,8,0:0:0:0:
296,152,34056,1,0,0:0:0:0:
296,152,34506,1,8,0:0:0:0:
296,152,34806,1,4,0:0:0:0:
296,160,35106,1,8,0:0:0:0:
296,160,35256,1,0,0:0:0:0:
296,160,35556,1,8,0:0:0:0:
296,160,35856,1,0,0:0:0:0:
296,160,36006,1,12,0:0:0:0:
296,160,36306,1,8,0:0:0:0:
296,160,36456,1,0,0:0:0:0:
296,160,36756,1,8,0:0:0:0:
296,160,37056,1,8,0:0:0:0:
296,160,37206,1,0,0:0:0:0:
124,160,37356,1,0,0:0:0:0:
296,160,37506,1,0,0:0:0:0:
296,160,37656,1,0,0:0:0:0:
296,160,37806,1,8,0:0:0:0:
296,160,37956,1,8,0:0:0:0:
296,160,38106,1,8,0:0:0:0:
296,160,38256,1,8,0:0:0:0:
296,160,38406,1,0,0:0:0:0:
248,140,38556,1,8,0:0:0:0:
248,140,38631,1,8,0:0:0:0:
248,140,38706,1,8,0:0:0:0:
236,128,38856,1,0,0:0:0:0:
152,52,39156,1,8,0:0:0:0:
152,52,39456,1,8,0:0:0:0:
152,52,39606,1,0,0:0:0:0:
196,164,39906,1,0,0:0:0:0:
196,164,40056,1,0,0:0:0:0:
172,128,40506,1,0,0:0:0:0:
208,200,40656,1,8,0:0:0:0:
212,200,40731,1,8,0:0:0:0:
256,112,40806,1,8,0:0:0:0:
208,200,41106,1,0,0:0:0:0:
208,200,41256,1,0,0:0:0:0:
240,120,41706,1,8,0:0:0:0:
208,200,41856,1,0,0:0:0:0:
228,120,41931,1,0,0:0:0:0:
240,120,42006,1,0,0:0:0:0:
168,132,42306,1,0,0:0:0:0:
168,132,42456,1,0,0:0:0:0:
292,140,42606,1,8,0:0:0:0:
168,132,42831,1,8,0:0:0:0:
292,140,43056,1,8,0:0:0:0:
292,140,43206,1,0,0:0:0:0:
172,128,43506,1,0,0:0:0:0:
292,140,43656,1,0,0:0:0:0:
288,144,43731,1,0,0:0:0:0:
292,140,43806,1,0,0:0:0:0:
284,144,43956,1,8,0:0:0:0:
280,148,44106,1,8,0:0:0:0:
280,144,44406,1,0,0:0:0:0:
368,208,44706,1,0,0:0:0:0:
368,208,45006,1,0,0:0:0:0:
368,208,45306,1,0,0:0:0:0:
264,172,45506,1,0,0:0:0:0:
368,208,45606,1,8,0:0:0:0:
380,200,45906,1,0,0:0:0:0:
264,172,46106,1,0,0:0:0:0:
264,172,46206,1,8,0:0:0:0:
264,172,46506,1,8,0:0:0:0:
264,172,46606,1,8,0:0:0:0:
220,88,46706,1,8,0:0:0:0:
220,88,46806,1,0,0:0:0:0:
252,240,48006,1,8,0:0:0:0:
252,240,48231,1,8,0:0:0:0:
252,240,48456,1,0,0:0:0:0:
252,240,48681,1,0,0:0:0:0:
252,240,48906,1,8,0:0:0:0:
248,236,48981,1,8,0:0:0:0:
248,236,49056,1,8,0:0:0:0:
248,236,49206,1,4,0:0:0:0:
232,224,49506,1,0,0:0:0:0:
232,224,49656,1,8,0:0:0:0:
24,152,49956,1,0,0:0:0:0:
232,224,50106,1,8,0:0:0:0:
144,200,50256,1,8,0:0:0:0:
228,228,50406,1,0,0:0:0:0:
228,232,50706,1,8,0:0:0:0:
228,232,50856,1,0,0:0:0:0:
128,200,51156,1,8,0:0:0:0:
228,228,51306,1,0,0:0:0:0:
192,192,51456,1,8,0:0:0:0:
232,256,51606,1,0,0:0:0:0:
176,136,51906,1,8,0:0:0:0:
232,256,52056,1,0,0:0:0:0:
232,256,52356,1,0,0:0:0:0:
232,256,52506,1,8,0:0:0:0:
232,256,52806,1,0,0:0:0:0:
232,256,53031,1,0,0:0:0:0:
232,256,53256,1,0,0:0:0:0:
232,256,53406,1,8,0:0:0:0:
232,256,54006,1,0,0:0:0:0:
216,252,54306,1,8,0:0:0:0:
216,252,54456,1,0,0:0:0:0:
84,152,54756,1,0,0:0:0:0:
216,252,54906,1,8,0:0:0:0:
212,252,55206,1,4,0:0:0:0:
216,252,55431,1,12,0:0:0:0:
216,252,55656,1,4,0:0:0:0:
216,252,55956,1,0,0:0:0:0:
212,252,56031,1,0,0:0:0:0:
212,252,56106,1,0,0:0:0:0:
216,252,56256,1,8,0:0:0:0:
232,160,56406,1,0,0:0:0:0:
216,252,56706,1,12,0:0:0:0:
216,252,57306,1,8,0:0:0:0:
88,196,57456,1,0,0:0:0:0:
88,196,57531,1,0,0:0:0:0:
88,196,57606,1,0,0:0:0:0:
88,196,57831,1,0,0:0:0:0:
88,196,58056,1,0,0:0:0:0:
88,196,58206,1,8,0:0:0:0:
144,176,58806,1,0,0:0:0:0:
156,144,59106,1,12,0:0:0:0:
184,228,59556,1,8,0:0:0:0:
124,144,59706,1,0,0:0:0:0:
124,144,60006,1,0,0:0:0:0:
264,152,60306,1,0,0:0:0:0:
124,144,60456,1,8,0:0:0:0:
228,156,60756,1,0,0:0:0:0:
124,144,60906,1,8,0:0:0:0:
196,96,61056,1,8,0:0:0:0:
124,144,61206,1,0,0:0:0:0:
124,144,61506,1,8,0:0:0:0:
124,144,61656,1,0,0:0:0:0:
248,172,61956,1,0,0:0:0:0:
124,144,62106,1,8,0:0:0:0:
196,104,62256,1,0,0:0:0:0:
124,144,62406,1,8,0:0:0:0:
124,144,62706,1,0,0:0:0:0:
168,188,62856,1,8,0:0:0:0:
124,144,63006,1,0,0:0:0:0:
240,184,63156,1,8,0:0:0:0:
124,144,63306,1,8,0:0:0:0:
124,144,63606,1,0,0:0:0:0:
200,120,63906,1,8,0:0:0:0:
312,192,64056,1,0,0:0:0:0:
312,192,64356,1,8,0:0:0:0:
312,192,64506,1,0,0:0:0:0:
80,152,64656,1,8,0:0:0:0:
184,168,64806,1,0,0:0:0:0:
184,168,65106,1,8,0:0:0:0:
188,116,65256,1,0,0:0:0:0:
184,168,65556,1,8,0:0:0:0:
184,168,65706,1,8,0:0:0:0:
180,172,66006,1,0,0:0:0:0:
180,172,66231,1,0,0:0:0:0:
184,172,66456,1,0,0:0:0:0:
184,172,66606,1,8,0:0:0:0:
180,172,66831,1,8,0:0:0:0:
180,172,67056,1,8,0:0:0:0:
180,172,67206,1,0,0:0:0:0:
184,172,67356,1,8,0:0:0:0:
184,172,67656,1,0,0:0:0:0:
180,172,67806,1,8,0:0:0:0:
180,172,68106,1,8,0:0:0:0:
256,192,68406,12,0,70506,0:0:0:0:
168,276,70806,5,8,0:0:0:0:
172,276,72006,1,0,0:0:0:0:
172,276,72606,1,8,0:0:0:0:
172,276,73206,1,4,0:0:0:0:
160,176,74406,1,4,0:0:0:0:
144,176,75606,1,4,0:0:0:0:
148,176,76206,1,4,0:0:0:0:
152,176,76806,1,12,0:0:0:0:
152,176,77106,1,12,0:0:0:0:
152,176,77406,1,8,0:0:0:0:
152,176,77556,1,8,0:0:0:0:
152,176,77706,1,8,0:0:0:0:
152,176,78006,1,4,0:0:0:0:
188,120,78306,1,8,0:0:0:0:
272,144,78456,1,8,0:0:0:0:
188,120,78606,1,0,0:0:0:0:
116,132,78756,1,8,0:0:0:0:
268,128,78831,1,8,0:0:0:0:
188,120,78906,1,8,0:0:0:0:
188,120,79206,1,0,0:0:0:0:
188,120,79506,1,8,0:0:0:0:
188,120,79806,1,0,0:0:0:0:
192,140,80406,1,8,0:0:0:0:
196,144,80706,1,0,0:0:0:0:
264,128,80856,1,0,0:0:0:0:
196,144,81006,1,8,0:0:0:0:
120,168,81156,1,0,0:0:0:0:
120,168,81231,1,0,0:0:0:0:
196,144,81306,1,0,0:0:0:0:
200,144,81606,1,8,0:0:0:0:
200,144,81906,1,0,0:0:0:0:
200,144,82206,1,8,0:0:0:0:
200,144,82806,1,0,0:0:0:0:
200,144,83106,1,8,0:0:0:0:
286,142,83256,1,0,0:0:0:0:
286,142,83331,1,0,0:0:0:0:
200,144,83406,1,0,0:0:0:0:
188,112,83556,1,0,0:0:0:0:
200,144,83706,1,8,0:0:0:0:
200,144,84006,1,0,0:0:0:0:
200,144,84306,1,8,0:0:0:0:
200,144,84606,1,8,0:0:0:0:
200,144,85206,1,8,0:0:0:0:
200,144,85506,1,0,0:0:0:0:
288,143,85656,1,8,0:0:0:0:
288,143,85731,1,8,0:0:0:0:
192,176,85806,1,8,0:0:0:0:
120,200,85956,1,0,0:0:0:0:
200,144,86106,1,8,0:0:0:0:
200,144,86406,1,0,0:0:0:0:
200,144,86706,1,8,0:0:0:0:
200,144,87006,1,0,0:0:0:0:
240,160,87081,1,0,0:0:0:0:
96,184,87156,1,0,0:0:0:0:
96,184,87306,1,8,0:0:0:0:
96,184,87606,1,4,0:0:0:0:
224,92,87906,1,8,0:0:0:0:
287,143,88056,1,8,0:0:0:0:
224,92,88206,1,0,0:0:0:0:
224,92,88356,1,8,0:0:0:0:
285,146,88431,1,8,0:0:0:0:
224,92,88506,1,8,0:0:0:0:
224,92,88806,1,0,0:0:0:0:
224,92,89106,1,8,0:0:0:0:
224,92,89406,1,0,0:0:0:0:
224,92,90006,1,8,0:0:0:0:
224,92,90306,1,0,0:0:0:0:
282,146,90456,1,8,0:0:0:0:
224,92,90606,1,0,0:0:0:0:
224,92,90756,1,8,0:0:0:0:
282,146,90831,1,8,0:0:0:0:
224,92,90906,1,8,0:0:0:0:
224,92,91206,1,0,0:0:0:0:
224,92,91506,1,8,0:0:0:0:
224,92,91806,1,0,0:0:0:0:
224,92,92406,1,4,0:0:0:0:
224,92,92706,1,8,0:0:0:0:
272,129,92856,1,0,0:0:0:0:
272,129,92931,1,0,0:0:0:0:
228,88,93006,1,0,0:0:0:0:
228,88,93156,1,0,0:0:0:0:
228,88,93306,1,8,0:0:0:0:
228,88,93606,1,4,0:0:0:0:
228,88,93906,1,8,0:0:0:0:
228,88,94206,1,8,0:0:0:0:
152,224,94806,1,4,0:0:0:0:
156,224,96006,1,8,0:0:0:0:
156,224,96606,1,0,0:0:0:0:
156,224,96681,1,0,0:0:0:0:
156,224,96756,1,0,0:0:0:0:
156,224,96906,1,8,0:0:0:0:
156,224,97206,1,4,0:0:0:0:
276,192,97656,1,8,0:0:0:0:
276,192,98406,1,0,0:0:0:0:
276,192,98856,1,8,0:0:0:0:
276,192,99606,1,8,0:0:0:0:
276,192,100056,1,0,0:0:0:0:
68,184,100806,1,8,0:0:0:0:
68,184,101031,1,8,0:0:0:0:
68,184,101256,1,0,0:0:0:0:
68,184,101406,1,8,0:0:0:0:
68,184,102006,1,4,0:0:0:0:
64,188,102456,1,4,0:0:0:0:
64,188,102906,1,4,0:0:0:0:
64,188,103356,1,4,0:0:0:0:
64,188,103806,1,12,0:0:0:0:
64,188,104106,1,12,0:0:0:0:
64,188,104406,1,4,0:0:0:0:
272,140,105606,2,0,B|236:120|232:124|220:144|220:152|236:164|256:172|276:184|280:184|312:168|324:152|324:128|316:120|308:120|300:120|284:128|280:136|272:144,1,210
236,224,106206,1,8,0:0:0:0:
240,228,106506,1,8,0:0:0:0:
236,216,106806,1,4,0:0:0:0:
236,216,107106,1,0,0:0:0:0:
236,216,107256,1,8,0:0:0:0:
236,216,107556,1,0,0:0:0:0:
236,216,107706,1,8,0:0:0:0:
224,140,107856,1,8,0:0:0:0:
236,216,108006,1,0,0:0:0:0:
236,216,108306,1,8,0:0:0:0:
236,216,108456,1,0,0:0:0:0:
236,216,108756,1,8,0:0:0:0:
236,216,108906,1,0,0:0:0:0:
224,144,109056,1,8,0:0:0:0:
236,216,109206,1,8,0:0:0:0:
236,216,109506,1,8,0:0:0:0:
236,216,109656,1,0,0:0:0:0:
236,216,109956,1,8,0:0:0:0:
236,216,110106,1,0,0:0:0:0:
224,136,110256,1,0,0:0:0:0:
236,216,110406,1,8,0:0:0:0:
236,216,110706,1,0,0:0:0:0:
236,216,110856,1,0,0:0:0:0:
236,216,111006,1,8,0:0:0:0:
240,216,111156,1,8,0:0:0:0:
240,216,111306,1,8,0:0:0:0:
240,216,111606,1,0,0:0:0:0:
240,216,111906,1,0,0:0:0:0:
240,216,112056,1,8,0:0:0:0:
240,216,112356,1,8,0:0:0:0:
240,216,112506,1,0,0:0:0:0:
68,192,112656,1,8,0:0:0:0:
240,216,112806,1,0,0:0:0:0:
240,216,113106,1,8,0:0:0:0:
240,216,113256,1,0,0:0:0:0:
240,216,113556,1,8,0:0:0:0:
240,216,113706,1,8,0:0:0:0:
140,192,114006,1,0,0:0:0:0:
136,136,114231,1,0,0:0:0:0:
136,136,114456,1,0,0:0:0:0:
136,136,114606,1,8,0:0:0:0:
136,136,114831,1,8,0:0:0:0:
136,136,115056,1,8,0:0:0:0:
136,136,115206,1,0,0:0:0:0:
180,128,115356,1,8,0:0:0:0:
180,128,115431,1,8,0:0:0:0:
180,128,115506,1,8,0:0:0:0:
180,128,115656,1,0,0:0:0:0:
240,148,115806,1,8,0:0:0:0:
240,148,115956,1,8,0:0:0:0:
240,148,116106,1,8,0:0:0:0:
240,148,116256,1,8,0:0:0:0:
256,192,116406,12,0,119856,0:0:0:0:
296,276,120156,5,12,0:0:0:0:
296,276,120306,1,12,0:0:0:0:
296,276,120456,1,12,0:0:0:0:
296,276,120606,1,12,0:0:0:0:
296,276,120756,1,12,0:0:0:0:
296,276,120906,1,12,0:0:0:0:
296,276,121056,1,12,0:0:0:0:
