osu file format v14

[General]
AudioFilename: audio.mp3
AudioLeadIn: 0
PreviewTime: 49168
Countdown: 0
SampleSet: Normal
StackLeniency: 0.7
Mode: 1
LetterboxInBreaks: 0
WidescreenStoryboard: 0

[Editor]
DistanceSpacing: 0.8
BeatDivisor: 4
GridSize: 4
TimelineZoom: 2.5

[Metadata]
Title:Klouz of Reveria
TitleUnicode:Klouz of Revəria
Artist:ITSUHA.
ArtistUnicode:ITSUHA.
Creator:Charlotte
Version:Reveria
Source:
Tags:JUDYDANNY cdhsausageboy 404 AccNotFound Nardoxyribonucleic
BeatmapID:1392900
BeatmapSetID:657616

[Difficulty]
HPDrainRate:6
CircleSize:5
OverallDifficulty:7
ApproachRate:5
SliderMultiplier:1.4
SliderTickRate:1

[Events]
//Background and Video events
0,0,"BG1.jpg",0,-40
//Break Periods
//Storyboard Layer 0 (Background)
//Storyboard Layer 1 (Fail)
//Storyboard Layer 2 (Pass)
//Storyboard Layer 3 (Foreground)
//Storyboard Sound Samples

[TimingPoints]
1206,300,4,1,0,80,1,0
21606,-133.333333333333,4,1,0,80,0,0
30006,-100,4,1,0,80,0,0
49206,-100,4,1,0,90,0,1
68406,-100,4,1,0,80,0,0
106806,-100,4,1,0,90,0,1
121206,-100,4,1,0,80,0,0

[HitObjects]
264,192,1206,5,0,0:0:0:0:
264,192,1356,1,8,0:0:0:0:
264,192,1431,1,8,0:0:0:0:
264,192,1506,1,0,0:0:0:0:
264,192,1656,1,8,0:0:0:0:
264,192,1806,1,0,0:0:0:0:
264,192,1956,1,0,0:0:0:0:
264,192,2031,1,0,0:0:0:0:
264,192,2106,1,8,0:0:0:0:
264,192,2256,1,8,0:0:0:0:
264,192,2406,1,0,0:0:0:0:
264,192,2631,1,8,0:0:0:0:
264,192,2706,1,0,0:0:0:0:
264,192,2856,1,8,0:0:0:0:
264,192,3006,1,0,0:0:0:0:
264,192,3231,1,8,0:0:0:0:
264,192,3306,1,0,0:0:0:0:
264,192,3456,1,8,0:0:0:0:
264,192,3606,1,8,0:0:0:0:
264,192,3756,1,8,0:0:0:0:
264,192,3831,1,0,0:0:0:0:
264,192,3906,1,0,0:0:0:0:
264,192,4056,1,8,0:0:0:0:
264,192,4206,1,8,0:0:0:0:
264,192,4356,1,0,0:0:0:0:
264,192,4506,1,8,0:0:0:0:
264,192,4581,1,8,0:0:0:0:
264,200,4656,1,0,0:0:0:0:
264,200,4806,1,8,0:0:0:0:
264,200,4956,1,0,0:0:0:0:
264,200,5031,1,0,0:0:0:0:
264,200,5106,1,8,0:0:0:0:
264,204,5256,1,0,0:0:0:0:
264,204,5406,1,8,0:0:0:0:
264,200,5481,1,0,0:0:0:0:
264,200,5556,1,8,0:0:0:0:
264,200,5631,1,8,0:0:0:0:
264,200,5706,1,0,0:0:0:0:
264,200,5781,1,0,0:0:0:0:
264,200,5856,1,8,0:0:0:0:
264,200,6006,1,4,0:0:0:0:
264,204,6156,1,8,0:0:0:0:
264,204,6231,1,8,0:0:0:0:
264,204,6306,1,0,0:0:0:0:
264,204,6456,1,8,0:0:0:0:
264,200,6606,1,0,0:0:0:0:
256,196,6756,1,0,0:0:0:0:
256,196,6831,1,0,0:0:0:0:
256,196,6906,1,8,0:0:0:0:
260,200,7056,1,4,0:0:0:0:
260,200,7206,1,4,0:0:0:0:
256,200,7431,1,8,0:0:0:0:
256,200,7506,1,0,0:0:0:0:
256,196,7656,1,8,0:0:0:0:
256,196,7806,1,0,0:0:0:0:
252,192,7956,1,8,0:0:0:0:
252,192,8031,1,8,0:0:0:0:
256,200,8106,1,0,0:0:0:0:
260,200,8181,1,0,0:0:0:0:
256,196,8256,1,8,0:0:0:0:
256,196,8406,1,4,0:0:0:0:
256,196,8556,1,0,0:0:0:0:
256,196,8631,1,0,0:0:0:0:
256,196,8706,1,8,0:0:0:0:
256,200,8856,1,8,0:0:0:0:
252,192,9006,1,4,0:0:0:0:
256,196,9156,1,8,0:0:0:0:
256,196,9231,1,0,0:0:0:0:
248,196,9306,1,8,0:0:0:0:
248,196,9456,1,8,0:0:0:0:
252,196,9606,1,0,0:0:0:0:
252,196,9681,1,0,0:0:0:0:
252,196,9756,1,8,0:0:0:0:
252,196,9831,1,0,0:0:0:0:
252,192,9906,1,8,0:0:0:0:
252,192,9981,1,8,0:0:0:0:
256,196,10056,1,0,0:0:0:0:
256,196,10131,1,8,0:0:0:0:
256,196,10206,1,0,0:0:0:0:
256,192,10281,1,0,0:0:0:0:
256,192,10356,1,8,0:0:0:0:
252,196,10406,1,0,0:0:0:0:
260,200,10456,1,0,0:0:0:0:
256,196,10506,1,8,0:0:0:0:
252,196,10581,1,0,0:0:0:0:
252,196,10656,1,0,0:0:0:0:
252,196,10731,1,8,0:0:0:0:
260,196,10806,1,0,0:0:0:0:
256,196,10956,1,8,0:0:0:0:
256,196,11031,1,8,0:0:0:0:
256,196,11106,1,0,0:0:0:0:
256,196,11256,1,8,0:0:0:0:
252,196,11406,1,0,0:0:0:0:
252,196,11556,1,0,0:0:0:0:
252,196,11631,1,8,0:0:0:0:
248,196,11706,1,8,0:0:0:0:
256,196,11856,1,8,0:0:0:0:
256,196,12006,1,0,0:0:0:0:
256,196,12231,1,8,0:0:0:0:
252,196,12306,1,0,0:0:0:0:
252,196,12456,1,8,0:0:0:0:
252,196,12606,1,0,0:0:0:0:
252,192,12681,1,0,0:0:0:0:
256,196,12831,1,8,0:0:0:0:
252,196,12906,1,0,0:0:0:0:
252,196,13056,1,8,0:0:0:0:
252,196,13206,1,0,0:0:0:0:
252,196,13356,1,8,0:0:0:0:
252,196,13431,1,8,0:0:0:0:
252,196,13506,1,0,0:0:0:0:
264,192,13656,1,8,0:0:0:0:
264,192,13806,1,0,0:0:0:0:
264,192,13881,1,8,0:0:0:0:
264,192,14031,1,8,0:0:0:0:
260,196,14106,1,0,0:0:0:0:
264,192,14181,1,0,0:0:0:0:
264,200,14256,1,8,0:0:0:0:
264,200,14406,1,0,0:0:0:0:
264,200,14556,1,8,0:0:0:0:
264,200,14631,1,8,0:0:0:0:
264,200,14706,1,0,0:0:0:0:
264,204,14856,1,8,0:0:0:0:
264,204,15006,1,0,0:0:0:0:
264,200,15081,1,8,0:0:0:0:
264,200,15156,1,8,0:0:0:0:
264,200,15231,1,0,0:0:0:0:
264,200,15306,1,8,0:0:0:0:
264,200,15381,1,0,0:0:0:0:
264,200,15456,1,8,0:0:0:0:
264,200,15606,1,4,0:0:0:0:
264,204,15756,1,8,0:0:0:0:
264,204,15831,1,8,0:0:0:0:
264,204,15906,1,8,0:0:0:0:
264,204,16056,1,4,0:0:0:0:
264,200,16206,1,8,0:0:0:0:
256,196,16281,1,8,0:0:0:0:
256,196,16356,1,8,0:0:0:0:
256,196,16506,1,4,0:0:0:0:
260,200,16656,1,8,0:0:0:0:
256,196,16806,1,0,0:0:0:0:
256,196,16881,1,8,0:0:0:0:
260,200,16956,1,0,0:0:0:0:
256,196,17106,1,8,0:0:0:0:
256,200,17256,1,0,0:0:0:0:
256,196,17406,1,0,0:0:0:0:
256,196,17481,1,8,0:0:0:0:
264,200,17631,1,8,0:0:0:0:
260,200,17706,1,0,0:0:0:0:
264,200,17781,1,8,0:0:0:0:
264,200,17856,1,8,0:0:0:0:
260,200,17931,1,0,0:0:0:0:
260,200,18006,1,8,0:0:0:0:
264,204,18156,1,0,0:0:0:0:
264,200,18231,1,0,0:0:0:0:
264,204,18306,1,0,0:0:0:0:
264,204,18456,1,0,0:0:0:0:
264,204,18606,1,8,0:0:0:0:
264,204,18756,1,0,0:0:0:0:
264,204,18831,1,0,0:0:0:0:
264,204,18906,1,8,0:0:0:0:
256,192,18981,1,8,0:0:0:0:
264,204,19056,1,0,0:0:0:0:
264,200,19206,1,12,0:0:0:0:
264,196,19431,1,4,0:0:0:0:
264,200,19656,1,4,0:0:0:0:
268,200,19806,1,8,0:0:0:0:
268,200,19856,1,8,0:0:0:0:
268,200,19906,1,8,0:0:0:0:
268,200,19956,1,8,0:0:0:0:
256,200,20006,1,8,0:0:0:0:
256,200,20056,1,8,0:0:0:0:
256,200,20106,1,0,0:0:0:0:
260,196,20406,1,4,0:0:0:0:
248,192,21606,1,8,0:0:0:0:
252,192,22806,1,0,0:0:0:0:
244,200,24006,1,8,0:0:0:0:
256,192,24606,1,0,0:0:0:0:
248,200,25206,1,8,0:0:0:0:
256,188,26406,1,8,0:0:0:0:
256,188,27606,1,8,0:0:0:0:
256,188,28806,1,0,0:0:0:0:
256,188,29406,1,8,0:0:0:0:
256,188,30006,1,0,0:0:0:0:
256,188,30156,1,0,0:0:0:0:
256,188,30231,1,0,0:0:0:0:
256,188,30306,1,8,0:0:0:0:
256,188,30456,1,8,0:0:0:0:
256,188,30606,1,0,0:0:0:0:
256,188,30756,1,8,0:0:0:0:
256,188,30831,1,8,0:0:0:0:
256,188,30906,1,0,0:0:0:0:
256,188,31056,1,8,0:0:0:0:
256,188,31206,1,0,0:0:0:0:
256,188,31356,1,0,0:0:0:0:
256,188,31431,1,8,0:0:0:0:
256,188,31506,1,8,0:0:0:0:
256,188,31656,1,0,0:0:0:0:
256,188,31806,1,8,0:0:0:0:
256,188,31881,1,8,0:0:0:0:
256,188,31956,1,0,0:0:0:0:
256,188,32031,1,0,0:0:0:0:
256,188,32106,1,8,0:0:0:0:
256,188,32256,1,8,0:0:0:0:
256,188,32406,1,0,0:0:0:0:
256,188,32556,1,0,0:0:0:0:
256,188,32631,1,0,0:0:0:0:
256,188,32706,1,8,0:0:0:0:
252,192,32856,1,0,0:0:0:0:
256,188,33006,1,8,0:0:0:0:
256,188,33081,1,0,0:0:0:0:
252,184,33156,1,0,0:0:0:0:
256,188,33306,1,8,0:0:0:0:
256,188,33456,1,8,0:0:0:0:
256,188,33606,1,0,0:0:0:0:
256,188,33756,1,0,0:0:0:0:
256,188,33831,1,8,0:0:0:0:
256,188,33906,1,8,0:0:0:0:
252,192,34056,1,0,0:0:0:0:
256,188,34206,1,8,0:0:0:0:
256,188,34281,1,8,0:0:0:0:
252,184,34356,1,0,0:0:0:0:
256,188,34431,1,8,0:0:0:0:
256,188,34506,1,8,0:0:0:0:
256,188,34656,1,8,0:0:0:0:
256,188,34806,1,4,0:0:0:0:
256,184,34956,1,8,0:0:0:0:
256,184,35031,1,8,0:0:0:0:
256,188,35106,1,0,0:0:0:0:
256,188,35256,1,8,0:0:0:0:
256,188,35406,1,0,0:0:0:0:
256,188,35556,1,8,0:0:0:0:
256,188,35631,1,0,0:0:0:0:
256,188,35706,1,0,0:0:0:0:
256,184,35856,1,8,0:0:0:0:
256,188,36006,1,4,0:0:0:0:
256,184,36156,1,8,0:0:0:0:
256,184,36231,1,8,0:0:0:0:
256,188,36306,1,0,0:0:0:0:
256,188,36456,1,8,0:0:0:0:
256,188,36606,1,0,0:0:0:0:
256,188,36756,1,8,0:0:0:0:
256,188,36831,1,8,0:0:0:0:
256,188,36906,1,0,0:0:0:0:
256,184,36981,1,8,0:0:0:0:
256,188,37056,1,0,0:0:0:0:
256,184,37206,1,8,0:0:0:0:
256,188,37356,1,8,0:0:0:0:
256,188,37431,1,8,0:0:0:0:
256,188,37506,1,0,0:0:0:0:
256,188,37656,1,8,0:0:0:0:
256,188,37806,1,8,0:0:0:0:
256,188,37881,1,0,0:0:0:0:
256,188,37956,1,8,0:0:0:0:
256,184,38031,1,8,0:0:0:0:
256,184,38106,1,0,0:0:0:0:
256,184,38181,1,0,0:0:0:0:
256,188,38256,1,8,0:0:0:0:
256,180,38406,1,0,0:0:0:0:
256,188,38481,1,0,0:0:0:0:
256,188,38556,1,8,0:0:0:0:
256,188,38606,1,8,0:0:0:0:
256,188,38656,1,8,0:0:0:0:
256,188,38706,1,0,0:0:0:0:
256,188,38781,1,0,0:0:0:0:
256,188,38856,1,8,0:0:0:0:
256,184,39006,1,0,0:0:0:0:
256,184,39081,1,0,0:0:0:0:
256,184,39156,1,8,0:0:0:0:
256,188,39206,1,8,0:0:0:0:
256,184,39256,1,8,0:0:0:0:
256,184,39306,1,0,0:0:0:0:
256,188,39356,1,0,0:0:0:0:
256,188,39406,1,0,0:0:0:0:
256,188,39456,1,8,0:0:0:0:
256,184,39531,1,8,0:0:0:0:
256,184,39606,1,0,0:0:0:0:
256,188,39831,1,8,0:0:0:0:
256,188,39906,1,0,0:0:0:0:
256,184,40056,1,8,0:0:0:0:
260,184,40206,1,0,0:0:0:0:
264,184,40281,1,0,0:0:0:0:
264,188,40356,1,8,0:0:0:0:
264,188,40431,1,0,0:0:0:0:
264,188,40506,1,8,0:0:0:0:
268,192,40581,1,8,0:0:0:0:
264,188,40656,1,0,0:0:0:0:
264,184,40806,1,4,0:0:0:0:
268,184,41031,1,8,0:0:0:0:
268,184,41106,1,8,0:0:0:0:
272,184,41256,1,0,0:0:0:0:
272,184,41406,1,8,0:0:0:0:
268,184,41481,1,0,0:0:0:0:
268,184,41556,1,8,0:0:0:0:
268,184,41631,1,8,0:0:0:0:
268,184,41706,1,0,0:0:0:0:
268,184,41781,1,8,0:0:0:0:
268,184,41856,1,0,0:0:0:0:
268,184,42006,1,4,0:0:0:0:
272,184,42231,1,8,0:0:0:0:
268,184,42306,1,0,0:0:0:0:
256,184,42456,1,8,0:0:0:0:
260,184,42606,1,0,0:0:0:0:
264,184,42681,1,0,0:0:0:0:
264,188,42756,1,8,0:0:0:0:
264,188,42831,1,0,0:0:0:0:
264,188,42906,1,8,0:0:0:0:
268,192,42981,1,8,0:0:0:0:
264,188,43056,1,0,0:0:0:0:
264,184,43206,1,4,0:0:0:0:
268,184,43356,1,8,0:0:0:0:
268,184,43431,1,8,0:0:0:0:
268,184,43506,1,8,0:0:0:0:
272,184,43656,1,0,0:0:0:0:
268,184,43731,1,8,0:0:0:0:
272,184,43806,1,8,0:0:0:0:
272,184,43881,1,0,0:0:0:0:
268,184,43956,1,8,0:0:0:0:
268,184,44006,1,0,0:0:0:0:
272,184,44056,1,0,0:0:0:0:
268,184,44106,1,8,0:0:0:0:
268,184,44181,1,0,0:0:0:0:
268,184,44256,1,8,0:0:0:0:
268,184,44306,1,8,0:0:0:0:
268,184,44356,1,8,0:0:0:0:
268,184,44406,1,0,0:0:0:0:
264,188,44481,1,0,0:0:0:0:
264,188,44556,1,8,0:0:0:0:
264,188,44631,1,0,0:0:0:0:
264,188,44706,1,8,0:0:0:0:
264,188,44781,1,8,0:0:0:0:
268,184,44856,1,0,0:0:0:0:
268,184,44931,1,8,0:0:0:0:
268,184,45006,1,0,0:0:0:0:
268,184,45081,1,8,0:0:0:0:
268,184,45156,1,8,0:0:0:0:
268,184,45231,1,0,0:0:0:0:
268,184,45306,1,8,0:0:0:0:
268,184,45406,1,8,0:0:0:0:
264,188,45506,1,0,0:0:0:0:
268,184,45606,1,8,0:0:0:0:
268,184,45706,1,0,0:0:0:0:
268,184,45806,1,0,0:0:0:0:
268,184,45906,1,8,0:0:0:0:
268,184,46006,1,0,0:0:0:0:
268,184,46106,1,8,0:0:0:0:
268,184,46206,1,0,0:0:0:0:
268,184,46306,1,8,0:0:0:0:
268,184,46406,1,8,0:0:0:0:
268,184,46506,1,0,0:0:0:0:
268,184,46606,1,0,0:0:0:0:
268,184,46706,1,8,0:0:0:0:
268,184,46806,1,4,0:0:0:0:
256,192,48006,1,12,0:0:0:0:
256,192,48231,1,0,0:0:0:0:
256,192,48456,1,0,0:0:0:0:
256,192,48681,1,0,0:0:0:0:
256,192,48906,1,8,0:0:0:0:
256,192,48981,1,0,0:0:0:0:
256,192,49056,1,8,0:0:0:0:
256,192,49131,1,8,0:0:0:0:
256,192,49206,1,0,0:0:0:0:
260,192,49356,1,0,0:0:0:0:
256,192,49431,1,0,0:0:0:0:
256,192,49506,1,8,0:0:0:0:
256,192,49656,1,0,0:0:0:0:
256,192,49731,1,8,0:0:0:0:
256,192,49881,1,0,0:0:0:0:
256,192,49956,1,8,0:0:0:0:
256,192,50031,1,8,0:0:0:0:
256,192,50106,1,0,0:0:0:0:
256,192,50181,1,0,0:0:0:0:
260,192,50256,1,8,0:0:0:0:
260,192,50406,1,0,0:0:0:0:
256,192,50556,1,8,0:0:0:0:
256,192,50631,1,0,0:0:0:0:
256,192,50706,1,8,0:0:0:0:
256,192,50856,1,0,0:0:0:0:
256,192,50931,1,0,0:0:0:0:
256,192,51081,1,8,0:0:0:0:
256,192,51156,1,8,0:0:0:0:
256,192,51231,1,8,0:0:0:0:
256,192,51306,1,0,0:0:0:0:
256,192,51381,1,0,0:0:0:0:
260,192,51456,1,8,0:0:0:0:
256,192,51606,1,0,0:0:0:0:
256,192,51756,1,8,0:0:0:0:
256,192,51831,1,8,0:0:0:0:
256,192,51906,1,0,0:0:0:0:
256,192,52056,1,8,0:0:0:0:
256,192,52206,1,8,0:0:0:0:
256,192,52281,1,8,0:0:0:0:
256,192,52356,1,0,0:0:0:0:
260,192,52431,1,0,0:0:0:0:
256,192,52506,1,8,0:0:0:0:
256,192,52581,1,0,0:0:0:0:
256,192,52656,1,8,0:0:0:0:
256,192,52806,1,0,0:0:0:0:
260,196,52956,1,8,0:0:0:0:
260,196,53031,1,0,0:0:0:0:
256,192,53181,1,0,0:0:0:0:
256,192,53256,1,8,0:0:0:0:
256,196,53406,1,8,0:0:0:0:
256,192,53481,1,8,0:0:0:0:
256,192,53556,1,0,0:0:0:0:
260,192,53631,1,8,0:0:0:0:
260,192,53706,1,0,0:0:0:0:
260,196,53856,1,8,0:0:0:0:
260,196,54006,1,0,0:0:0:0:
264,192,54156,1,8,0:0:0:0:
264,196,54231,1,8,0:0:0:0:
264,196,54306,1,0,0:0:0:0:
256,192,54456,1,8,0:0:0:0:
260,192,54606,1,0,0:0:0:0:
264,196,54681,1,8,0:0:0:0:
264,196,54756,1,8,0:0:0:0:
264,196,54831,1,0,0:0:0:0:
268,200,54906,1,8,0:0:0:0:
268,200,54981,1,0,0:0:0:0:
268,200,55056,1,8,0:0:0:0:
264,196,55206,1,4,0:0:0:0:
268,196,55431,1,12,0:0:0:0:
272,196,55656,1,4,0:0:0:0:
252,196,55806,1,0,0:0:0:0:
252,196,55881,1,0,0:0:0:0:
256,192,55956,1,8,0:0:0:0:
264,196,56006,1,8,0:0:0:0:
256,192,56056,1,8,0:0:0:0:
260,192,56106,1,0,0:0:0:0:
260,196,56256,1,8,0:0:0:0:
256,192,56406,1,0,0:0:0:0:
256,192,56556,1,0,0:0:0:0:
256,192,56631,1,8,0:0:0:0:
256,192,56781,1,8,0:0:0:0:
256,192,56856,1,8,0:0:0:0:
256,192,56931,1,0,0:0:0:0:
256,192,57006,1,0,0:0:0:0:
256,192,57081,1,8,0:0:0:0:
256,192,57156,1,0,0:0:0:0:
260,196,57231,1,0,0:0:0:0:
252,188,57306,1,8,0:0:0:0:
252,188,57456,1,8,0:0:0:0:
252,188,57531,1,8,0:0:0:0:
252,188,57606,1,0,0:0:0:0:
248,200,57756,1,0,0:0:0:0:
248,188,57831,1,0,0:0:0:0:
248,196,57981,1,0,0:0:0:0:
248,188,58056,1,8,0:0:0:0:
252,204,58206,1,0,0:0:0:0:
252,188,58281,1,0,0:0:0:0:
248,196,58356,1,8,0:0:0:0:
252,188,58431,1,0,0:0:0:0:
248,196,58581,1,0,0:0:0:0:
252,188,58656,1,8,0:0:0:0:
252,188,58806,1,8,0:0:0:0:
256,192,59106,1,12,0:0:0:0:
256,192,59256,1,0,0:0:0:0:
256,192,59331,1,8,0:0:0:0:
256,192,59481,1,0,0:0:0:0:
256,192,59556,1,0,0:0:0:0:
256,192,59631,1,8,0:0:0:0:
256,192,59706,1,0,0:0:0:0:
256,192,59781,1,0,0:0:0:0:
260,192,59856,1,8,0:0:0:0:
260,192,60006,1,0,0:0:0:0:
256,192,60156,1,8,0:0:0:0:
256,192,60231,1,0,0:0:0:0:
256,192,60306,1,8,0:0:0:0:
256,192,60456,1,0,0:0:0:0:
256,192,60531,1,8,0:0:0:0:
256,192,60681,1,0,0:0:0:0:
256,192,60756,1,8,0:0:0:0:
256,192,60831,1,8,0:0:0:0:
256,192,60906,1,0,0:0:0:0:
256,192,60981,1,0,0:0:0:0:
260,192,61056,1,8,0:0:0:0:
256,192,61131,1,0,0:0:0:0:
256,192,61206,1,8,0:0:0:0:
256,192,61356,1,8,0:0:0:0:
256,192,61431,1,0,0:0:0:0:
256,192,61581,1,0,0:0:0:0:
256,192,61656,1,8,0:0:0:0:
256,192,61806,1,0,0:0:0:0:
256,192,61881,1,8,0:0:0:0:
256,192,61956,1,0,0:0:0:0:
260,192,62031,1,0,0:0:0:0:
256,192,62106,1,8,0:0:0:0:
256,192,62181,1,8,0:0:0:0:
256,192,62256,1,0,0:0:0:0:
256,192,62331,1,0,0:0:0:0:
256,192,62406,1,8,0:0:0:0:
256,192,62556,1,8,0:0:0:0:
256,192,62631,1,8,0:0:0:0:
256,192,62781,1,0,0:0:0:0:
256,192,62856,1,8,0:0:0:0:
256,192,63006,1,0,0:0:0:0:
256,192,63156,1,0,0:0:0:0:
256,192,63231,1,0,0:0:0:0:
256,192,63306,1,8,0:0:0:0:
256,192,63381,1,0,0:0:0:0:
256,192,63456,1,8,0:0:0:0:
256,192,63606,1,0,0:0:0:0:
256,192,63756,1,0,0:0:0:0:
256,192,63831,1,8,0:0:0:0:
256,192,63981,1,8,0:0:0:0:
256,192,64056,1,8,0:0:0:0:
256,192,64131,1,0,0:0:0:0:
256,192,64206,1,8,0:0:0:0:
256,192,64356,1,0,0:0:0:0:
256,192,64431,1,8,0:0:0:0:
256,192,64506,1,0,0:0:0:0:
256,192,64581,1,0,0:0:0:0:
256,192,64656,1,8,0:0:0:0:
256,192,64806,1,0,0:0:0:0:
256,192,64956,1,0,0:0:0:0:
256,192,65031,1,8,0:0:0:0:
256,192,65181,1,8,0:0:0:0:
256,192,65256,1,0,0:0:0:0:
256,192,65331,1,8,0:0:0:0:
256,192,65406,1,8,0:0:0:0:
256,192,65481,1,0,0:0:0:0:
256,192,65556,1,8,0:0:0:0:
256,192,65706,1,8,0:0:0:0:
256,192,65781,1,0,0:0:0:0:
256,192,65856,1,8,0:0:0:0:
256,192,65931,1,8,0:0:0:0:
256,192,66006,1,0,0:0:0:0:
256,192,66156,1,0,0:0:0:0:
256,192,66231,1,0,0:0:0:0:
256,192,66306,1,8,0:0:0:0:
256,192,66456,1,8,0:0:0:0:
256,192,66606,1,0,0:0:0:0:
256,192,66681,1,0,0:0:0:0:
252,188,66756,1,8,0:0:0:0:
252,188,66806,1,8,0:0:0:0:
252,188,66856,1,8,0:0:0:0:
252,188,66906,1,0,0:0:0:0:
256,192,66981,1,0,0:0:0:0:
252,188,67056,1,8,0:0:0:0:
252,188,67106,1,0,0:0:0:0:
252,188,67156,1,0,0:0:0:0:
252,188,67206,1,8,0:0:0:0:
244,188,67356,1,0,0:0:0:0:
244,188,67431,1,8,0:0:0:0:
248,184,67506,1,0,0:0:0:0:
240,184,67581,1,0,0:0:0:0:
244,188,67656,1,8,0:0:0:0:
252,188,67806,1,8,0:0:0:0:
252,188,67881,1,0,0:0:0:0:
252,188,67956,1,8,0:0:0:0:
252,188,68031,1,8,0:0:0:0:
252,188,68106,1,0,0:0:0:0:
252,188,68181,1,0,0:0:0:0:
252,188,68256,1,8,0:0:0:0:
252,188,68406,1,4,0:0:0:0:
256,192,68481,12,0,70656,0:0:0:0:
256,192,70806,5,0,0:0:0:0:
256,188,72006,1,0,0:0:0:0:
256,188,72606,1,8,0:0:0:0:
244,192,73206,1,4,0:0:0:0:
260,196,74406,1,4,0:0:0:0:
256,200,75606,1,4,0:0:0:0:
256,200,76206,1,4,0:0:0:0:
256,200,76806,1,0,0:0:0:0:
256,200,77106,1,0,0:0:0:0:
256,200,77406,1,8,0:0:0:0:
256,200,77556,1,0,0:0:0:0:
256,200,77631,1,8,0:0:0:0:
260,200,77706,1,0,0:0:0:0:
256,200,77856,1,8,0:0:0:0:
256,188,78006,1,0,0:0:0:0:
256,188,78156,1,0,0:0:0:0:
256,188,78231,1,0,0:0:0:0:
256,188,78306,1,8,0:0:0:0:
256,188,78456,1,0,0:0:0:0:
256,188,78606,1,8,0:0:0:0:
256,188,78681,1,0,0:0:0:0:
256,188,78756,1,8,0:0:0:0:
256,188,78831,1,8,0:0:0:0:
256,188,78906,1,0,0:0:0:0:
256,188,78981,1,0,0:0:0:0:
256,188,79056,1,8,0:0:0:0:
256,188,79206,1,0,0:0:0:0:
256,188,79356,1,8,0:0:0:0:
256,188,79431,1,8,0:0:0:0:
256,188,79506,1,8,0:0:0:0:
256,188,79656,1,8,0:0:0:0:
256,188,79806,1,0,0:0:0:0:
256,188,80106,1,8,0:0:0:0:
256,188,80256,1,8,0:0:0:0:
256,188,80406,1,0,0:0:0:0:
256,188,80556,1,0,0:0:0:0:
256,188,80631,1,0,0:0:0:0:
256,188,80706,1,8,0:0:0:0:
252,192,80856,1,0,0:0:0:0:
256,188,81006,1,8,0:0:0:0:
256,188,81081,1,8,0:0:0:0:
252,184,81156,1,0,0:0:0:0:
256,188,81231,1,0,0:0:0:0:
256,188,81306,1,8,0:0:0:0:
256,188,81381,1,0,0:0:0:0:
256,188,81456,1,8,0:0:0:0:
256,188,81606,1,0,0:0:0:0:
256,188,81756,1,0,0:0:0:0:
256,188,81831,1,8,0:0:0:0:
256,188,81906,1,0,0:0:0:0:
256,188,82056,1,8,0:0:0:0:
252,192,82206,1,0,0:0:0:0:
256,188,82506,1,8,0:0:0:0:
256,188,82656,1,8,0:0:0:0:
256,188,82806,1,0,0:0:0:0:
256,184,82956,1,0,0:0:0:0:
256,184,83031,1,0,0:0:0:0:
256,188,83106,1,8,0:0:0:0:
256,188,83256,1,0,0:0:0:0:
256,188,83406,1,8,0:0:0:0:
256,188,83481,1,0,0:0:0:0:
256,188,83556,1,8,0:0:0:0:
256,188,83631,1,8,0:0:0:0:
256,188,83706,1,0,0:0:0:0:
256,188,83781,1,0,0:0:0:0:
256,184,83856,1,8,0:0:0:0:
256,184,83931,1,8,0:0:0:0:
256,188,84006,1,0,0:0:0:0:
256,184,84156,1,0,0:0:0:0:
256,184,84231,1,8,0:0:0:0:
256,188,84306,1,8,0:0:0:0:
256,188,84456,1,8,0:0:0:0:
256,188,84606,1,0,0:0:0:0:
256,184,84681,1,0,0:0:0:0:
256,188,84756,1,8,0:0:0:0:
256,188,84831,1,8,0:0:0:0:
256,188,84906,1,0,0:0:0:0:
256,188,84981,1,8,0:0:0:0:
256,184,85056,1,8,0:0:0:0:
256,184,85206,1,0,0:0:0:0:
256,188,85356,1,8,0:0:0:0:
256,188,85431,1,8,0:0:0:0:
256,188,85506,1,0,0:0:0:0:
256,188,85581,1,0,0:0:0:0:
256,188,85656,1,8,0:0:0:0:
256,188,85806,1,0,0:0:0:0:
256,188,85881,1,0,0:0:0:0:
256,188,85956,1,0,0:0:0:0:
256,184,86031,1,0,0:0:0:0:
256,184,86106,1,8,0:0:0:0:
256,184,86181,1,8,0:0:0:0:
256,188,86256,1,0,0:0:0:0:
256,188,86331,1,0,0:0:0:0:
256,188,86406,1,8,0:0:0:0:
256,188,86556,1,0,0:0:0:0:
256,188,86706,1,8,0:0:0:0:
256,184,87006,1,8,0:0:0:0:
256,184,87081,1,0,0:0:0:0:
256,184,87156,1,0,0:0:0:0:
256,188,87231,1,0,0:0:0:0:
256,188,87306,1,8,0:0:0:0:
256,188,87381,1,8,0:0:0:0:
256,188,87456,1,0,0:0:0:0:
256,188,87606,1,0,0:0:0:0:
256,188,87756,1,0,0:0:0:0:
256,188,87831,1,0,0:0:0:0:
256,188,87906,1,8,0:0:0:0:
256,188,88056,1,0,0:0:0:0:
256,188,88206,1,8,0:0:0:0:
256,188,88281,1,0,0:0:0:0:
256,188,88356,1,8,0:0:0:0:
256,188,88431,1,8,0:0:0:0:
256,188,88506,1,0,0:0:0:0:
256,188,88581,1,8,0:0:0:0:
256,188,88656,1,8,0:0:0:0:
256,188,88806,1,0,0:0:0:0:
256,188,88956,1,8,0:0:0:0:
256,188,89031,1,0,0:0:0:0:
256,188,89106,1,0,0:0:0:0:
256,188,89256,1,8,0:0:0:0:
256,188,89406,1,0,0:0:0:0:
256,188,89706,1,8,0:0:0:0:
256,188,89856,1,8,0:0:0:0:
256,188,90006,1,0,0:0:0:0:
256,188,90156,1,0,0:0:0:0:
256,188,90231,1,0,0:0:0:0:
256,188,90306,1,8,0:0:0:0:
252,192,90456,1,0,0:0:0:0:
256,188,90606,1,8,0:0:0:0:
256,188,90681,1,0,0:0:0:0:
252,184,90756,1,0,0:0:0:0:
256,188,90831,1,8,0:0:0:0:
256,188,90906,1,8,0:0:0:0:
256,188,90981,1,0,0:0:0:0:
256,188,91056,1,8,0:0:0:0:
256,188,91206,1,0,0:0:0:0:
256,188,91356,1,0,0:0:0:0:
256,188,91431,1,8,0:0:0:0:
256,188,91506,1,0,0:0:0:0:
256,188,91656,1,8,0:0:0:0:
252,192,91806,1,0,0:0:0:0:
256,188,92106,1,8,0:0:0:0:
256,188,92256,1,8,0:0:0:0:
256,188,92406,1,0,0:0:0:0:
256,184,92556,1,0,0:0:0:0:
256,184,92631,1,0,0:0:0:0:
256,188,92706,1,8,0:0:0:0:
256,188,92856,1,0,0:0:0:0:
256,188,93006,1,8,0:0:0:0:
256,188,93081,1,0,0:0:0:0:
256,188,93156,1,8,0:0:0:0:
256,188,93231,1,8,0:0:0:0:
256,188,93306,1,0,0:0:0:0:
256,188,93381,1,8,0:0:0:0:
256,184,93456,1,8,0:0:0:0:
256,184,93531,1,0,0:0:0:0:
256,188,93606,1,8,0:0:0:0:
256,184,93756,1,0,0:0:0:0:
256,184,93831,1,8,0:0:0:0:
256,188,93906,1,0,0:0:0:0:
256,188,93981,1,0,0:0:0:0:
256,188,94056,1,8,0:0:0:0:
256,188,94206,1,8,0:0:0:0:
256,184,94281,1,0,0:0:0:0:
256,188,94356,1,8,0:0:0:0:
256,188,94431,1,8,0:0:0:0:
256,188,94506,1,0,0:0:0:0:
256,188,94581,1,0,0:0:0:0:
256,184,94656,1,8,0:0:0:0:
256,184,94806,1,0,0:0:0:0:
256,188,94956,1,8,0:0:0:0:
256,188,95031,1,8,0:0:0:0:
256,188,95106,1,0,0:0:0:0:
256,188,95181,1,0,0:0:0:0:
256,188,95256,1,8,0:0:0:0:
256,188,95406,1,0,0:0:0:0:
256,188,95481,1,0,0:0:0:0:
256,188,95556,1,8,0:0:0:0:
256,184,95631,1,0,0:0:0:0:
256,184,95706,1,8,0:0:0:0:
256,184,95781,1,8,0:0:0:0:
256,188,95856,1,0,0:0:0:0:
256,188,95931,1,0,0:0:0:0:
256,188,96006,1,8,0:0:0:0:
256,188,96156,1,0,0:0:0:0:
256,188,96306,1,8,0:0:0:0:
256,192,96606,1,0,0:0:0:0:
252,192,96681,1,0,0:0:0:0:
256,192,96756,1,0,0:0:0:0:
256,188,96831,1,0,0:0:0:0:
256,188,96906,1,8,0:0:0:0:
256,188,96981,1,8,0:0:0:0:
256,188,97056,1,8,0:0:0:0:
256,188,97131,1,8,0:0:0:0:
256,188,97206,1,0,0:0:0:0:
256,180,97431,1,8,0:0:0:0:
256,188,97656,1,0,0:0:0:0:
252,192,97881,1,0,0:0:0:0:
252,192,98106,1,8,0:0:0:0:
252,192,98256,1,8,0:0:0:0:
256,188,98406,1,0,0:0:0:0:
256,180,98631,1,8,0:0:0:0:
256,188,98856,1,0,0:0:0:0:
252,192,99081,1,0,0:0:0:0:
252,192,99306,1,0,0:0:0:0:
252,192,99456,1,8,0:0:0:0:
252,192,99606,1,0,0:0:0:0:
256,192,99756,1,8,0:0:0:0:
256,192,99831,1,8,0:0:0:0:
256,192,99906,1,0,0:0:0:0:
256,192,100056,1,8,0:0:0:0:
256,192,100206,1,8,0:0:0:0:
256,192,100281,1,0,0:0:0:0:
256,192,100356,1,0,0:0:0:0:
256,192,100506,1,8,0:0:0:0:
256,192,100656,1,8,0:0:0:0:
256,192,100806,1,0,0:0:0:0:
260,196,101031,1,0,0:0:0:0:
256,192,101256,1,8,0:0:0:0:
256,192,101406,1,0,0:0:0:0:
260,192,101556,1,0,0:0:0:0:
256,192,101631,1,8,0:0:0:0:
260,196,101856,1,8,0:0:0:0:
260,196,102006,1,4,0:0:0:0:
264,192,102156,1,8,0:0:0:0:
264,196,102231,1,8,0:0:0:0:
264,196,102306,1,8,0:0:0:0:
256,192,102456,1,4,0:0:0:0:
264,196,102606,1,8,0:0:0:0:
264,196,102681,1,8,0:0:0:0:
264,196,102756,1,0,0:0:0:0:
268,200,102906,1,8,0:0:0:0:
268,200,102981,1,0,0:0:0:0:
268,200,103056,1,8,0:0:0:0:
264,196,103131,1,8,0:0:0:0:
264,196,103206,1,0,0:0:0:0:
264,192,103356,1,0,0:0:0:0:
268,200,103431,1,8,0:0:0:0:
264,196,103581,1,0,0:0:0:0:
264,196,103656,1,8,0:0:0:0:
264,192,103806,1,4,0:0:0:0:
268,200,103956,1,0,0:0:0:0:
264,192,104031,1,0,0:0:0:0:
268,200,104106,1,8,0:0:0:0:
272,196,104256,1,0,0:0:0:0:
268,200,104406,1,12,0:0:0:0:
256,192,105606,1,0,0:0:0:0:
256,192,105756,1,8,0:0:0:0:
256,192,105831,1,0,0:0:0:0:
256,192,105906,1,8,0:0:0:0:
256,192,105981,1,8,0:0:0:0:
256,192,106056,1,0,0:0:0:0:
256,192,106131,1,0,0:0:0:0:
256,192,106206,1,8,0:0:0:0:
256,192,106281,1,8,0:0:0:0:
256,192,106356,1,8,0:0:0:0:
256,192,106431,1,0,0:0:0:0:
256,192,106506,1,8,0:0:0:0:
256,192,106806,1,0,0:0:0:0:
260,192,106956,1,0,0:0:0:0:
256,192,107031,1,0,0:0:0:0:
256,192,107106,1,8,0:0:0:0:
256,192,107256,1,0,0:0:0:0:
256,192,107331,1,8,0:0:0:0:
256,192,107481,1,0,0:0:0:0:
256,192,107556,1,8,0:0:0:0:
256,192,107631,1,8,0:0:0:0:
256,192,107706,1,8,0:0:0:0:
256,192,107781,1,0,0:0:0:0:
260,192,107856,1,8,0:0:0:0:
260,192,108006,1,0,0:0:0:0:
256,192,108156,1,8,0:0:0:0:
256,192,108231,1,0,0:0:0:0:
256,192,108306,1,8,0:0:0:0:
256,192,108456,1,0,0:0:0:0:
256,192,108531,1,0,0:0:0:0:
256,192,108681,1,8,0:0:0:0:
256,192,108756,1,8,0:0:0:0:
256,192,108831,1,8,0:0:0:0:
256,192,108906,1,0,0:0:0:0:
256,192,108981,1,0,0:0:0:0:
260,192,109056,1,8,0:0:0:0:
256,192,109131,1,8,0:0:0:0:
256,192,109206,1,0,0:0:0:0:
256,192,109356,1,8,0:0:0:0:
256,192,109431,1,8,0:0:0:0:
256,192,109506,1,0,0:0:0:0:
256,192,109581,1,0,0:0:0:0:
256,192,109656,1,8,0:0:0:0:
256,192,109806,1,0,0:0:0:0:
256,192,109881,1,8,0:0:0:0:
256,192,109956,1,8,0:0:0:0:
260,192,110031,1,0,0:0:0:0:
256,192,110106,1,8,0:0:0:0:
256,192,110181,1,0,0:0:0:0:
256,192,110256,1,8,0:0:0:0:
264,192,110331,1,8,0:0:0:0:
256,192,110406,1,0,0:0:0:0:
260,196,110556,1,8,0:0:0:0:
260,196,110631,1,0,0:0:0:0:
256,192,110706,1,0,0:0:0:0:
256,192,110781,1,0,0:0:0:0:
256,192,110856,1,8,0:0:0:0:
256,196,111006,1,8,0:0:0:0:
256,192,111081,1,0,0:0:0:0:
256,192,111156,1,0,0:0:0:0:
260,192,111231,1,8,0:0:0:0:
260,192,111306,1,8,0:0:0:0:
260,192,111381,1,0,0:0:0:0:
260,196,111456,1,8,0:0:0:0:
260,196,111531,1,8,0:0:0:0:
260,196,111606,1,0,0:0:0:0:
264,192,111756,1,0,0:0:0:0:
264,196,111831,1,8,0:0:0:0:
264,196,111906,1,0,0:0:0:0:
256,192,112056,1,8,0:0:0:0:
260,192,112206,1,0,0:0:0:0:
264,196,112281,1,0,0:0:0:0:
264,196,112356,1,8,0:0:0:0:
264,196,112431,1,0,0:0:0:0:
268,200,112506,1,8,0:0:0:0:
268,200,112581,1,8,0:0:0:0:
268,200,112656,1,0,0:0:0:0:
280,200,112731,1,8,0:0:0:0:
264,196,112806,1,0,0:0:0:0:
268,196,112956,1,8,0:0:0:0:
272,196,113031,1,8,0:0:0:0:
252,196,113106,1,0,0:0:0:0:
264,196,113256,1,8,0:0:0:0:
256,188,113406,1,0,0:0:0:0:
252,196,113481,1,8,0:0:0:0:
256,192,113556,1,8,0:0:0:0:
256,192,113631,1,0,0:0:0:0:
260,192,113706,1,8,0:0:0:0:
260,192,113781,1,0,0:0:0:0:
260,192,113856,1,8,0:0:0:0:
260,192,113931,1,8,0:0:0:0:
260,192,114006,1,0,0:0:0:0:
260,192,114156,1,8,0:0:0:0:
260,192,114231,1,0,0:0:0:0:
256,192,114306,1,0,0:0:0:0:
260,192,114381,1,0,0:0:0:0:
260,192,114456,1,8,0:0:0:0:
256,192,114531,1,0,0:0:0:0:
256,192,114606,1,8,0:0:0:0:
260,192,114681,1,0,0:0:0:0:
260,192,114756,1,0,0:0:0:0:
260,192,114831,1,8,0:0:0:0:
252,192,114906,1,0,0:0:0:0:
260,192,114981,1,0,0:0:0:0:
260,192,115056,1,8,0:0:0:0:
260,192,115131,1,0,0:0:0:0:
256,192,115206,1,8,0:0:0:0:
260,192,115356,1,8,0:0:0:0:
256,192,115406,1,8,0:0:0:0:
260,192,115456,1,8,0:0:0:0:
256,192,115506,1,0,0:0:0:0:
256,192,115581,1,0,0:0:0:0:
260,192,115656,1,8,0:0:0:0:
256,192,115706,1,0,0:0:0:0:
260,192,115756,1,0,0:0:0:0:
256,192,115806,1,8,0:0:0:0:
260,192,115881,1,0,0:0:0:0:
260,192,115956,1,8,0:0:0:0:
260,192,116006,1,8,0:0:0:0:
256,192,116056,1,8,0:0:0:0:
256,192,116106,1,0,0:0:0:0:
260,192,116181,1,0,0:0:0:0:
260,192,116256,1,8,0:0:0:0:
260,192,116406,1,4,0:0:0:0:
256,192,116556,12,0,120006,0:0:0:0:
256,192,120156,5,4,0:0:0:0:
256,192,120306,1,4,0:0:0:0:
256,192,120456,1,12,0:0:0:0:
256,192,120606,1,12,0:0:0:0:
256,192,120756,1,4,0:0:0:0:
256,192,120906,1,4,0:0:0:0:
256,192,121056,1,4,0:0:0:0:
