osu file format v14

[General]
AudioFilename: edit.mp3
AudioLeadIn: 0
PreviewTime: 56708
Countdown: 0
SampleSet: Soft
StackLeniency: 0.5
Mode: 0
LetterboxInBreaks: 0
WidescreenStoryboard: 1

[Editor]
Bookmarks: 948,7469,15817,22078,24165,40860,57556,65839,74252,82531,90944,99292,105553,106596,107640,113118,172599,176252,176773,181469,185121,201817,218512,223991
DistanceSpacing: 2
BeatDivisor: 4
GridSize: 32
TimelineZoom: 3.899998

[Metadata]
Title:Yuudachi no Ribbon
TitleUnicode:夕立のりぼん
Artist:ITO KASHITARO
ArtistUnicode:伊東歌詞太郎
Creator:Milan-
Version:Rain
Source:
Tags:appleeaterx utaite みきとP MikitoP
BeatmapID:1024480
BeatmapSetID:479811

[Difficulty]
HPDrainRate:6
CircleSize:4.3
OverallDifficulty:9.5
ApproachRate:9.6
SliderMultiplier:1.7
SliderTickRate:2

[Events]
//Background and Video events
0,0,"hhhh.jpg",0,0
//Break Periods
//Storyboard Layer 0 (Background)
//Storyboard Layer 1 (Fail)
//Storyboard Layer 2 (Pass)
//Storyboard Layer 3 (Foreground)
//Storyboard Sound Samples

[TimingPoints]
424,260.869565217391,4,2,19,50,1,0
684,-200,4,2,19,50,0,0
945,260.869565217391,6,2,19,55,1,0
945,-166.666666666667,6,2,19,55,0,0
5640,-142.857142857143,6,2,19,55,0,0
6031,-125,6,2,19,55,0,0
6423,260.869565217391,4,2,19,55,1,0
6423,-200,4,2,19,55,0,0
6683,-100,4,2,19,45,0,0
7466,-94.3396226415094,4,2,19,70,0,0
23118,-111.111111111111,4,2,19,70,0,0
24162,-125,4,2,19,60,0,0
40596,-111.111111111111,4,2,19,60,0,0
40857,-125,4,2,19,60,0,0
55466,-125,4,2,19,70,0,0
56509,-76.9230769230769,4,2,19,70,0,0
56770,-166.666666666667,4,2,19,55,0,0
57031,-166.666666666667,4,2,19,45,0,0
57292,-166.666666666667,4,2,19,55,0,0
57392,-166.666666666667,4,2,19,65,0,0
57553,-85.4700854700855,4,2,19,77,0,1
70075,-85.4700854700855,4,2,19,55,0,1
70175,-85.4700854700855,4,2,19,77,0,1
70596,-85.4700854700855,4,2,19,60,0,1
70696,-85.4700854700855,4,2,19,77,0,1
71118,-85.4700854700855,4,2,19,65,0,1
71218,-85.4700854700855,4,2,19,77,0,1
71640,-85.4700854700855,4,2,19,70,0,1
71740,-85.4700854700855,4,2,19,77,0,1
74118,-85.4700854700855,4,2,19,77,0,0
74249,-85.4700854700855,4,2,19,87,0,1
86770,-85.4700854700855,4,2,19,55,0,1
86870,-85.4700854700855,4,2,19,87,0,1
87292,-85.4700854700855,4,2,19,70,0,1
87392,-85.4700854700855,4,2,19,87,0,1
89901,-85.4700854700855,4,2,19,75,0,1
90031,-95.2380952380952,4,2,19,87,0,1
90096,-95.2380952380952,4,2,19,20,0,1
90291,-105.263157894737,4,2,19,87,0,1
90357,-105.263157894737,4,2,19,20,0,1
90552,-125,4,2,19,87,0,1
90618,-125,4,2,19,20,0,1
90814,-85.4700854700855,4,2,19,87,0,1
90879,-85.4700854700855,4,2,19,20,0,1
90944,-94.3396226415094,4,2,19,77,0,0
95118,-94.3396226415094,4,2,19,87,0,0
99292,-94.3396226415094,4,2,19,77,0,0
106596,-125,4,2,19,77,0,0
106727,-95.2380952380952,4,2,19,77,0,0
106792,-95.2380952380952,4,2,19,20,0,0
106988,-105.263157894737,4,2,19,77,0,0
107053,-105.263157894737,4,2,19,20,0,0
107249,-125,4,2,19,77,0,0
107314,-125,4,2,19,20,0,0
107509,-85.4700854700855,4,2,19,77,0,0
107575,-85.4700854700855,4,2,19,20,0,0
107640,260.869565217391,6,2,19,70,1,0
107640,-200,6,2,19,70,0,0
112335,-166.666666666667,6,2,19,70,0,0
112726,-142.857142857143,6,2,19,70,0,0
114683,-100,6,2,19,5,0,0

[Colours]
Combo1 : 149,177,206
Combo2 : 245,121,99
Combo3 : 252,240,158
Combo4 : 121,192,251

[HitObjects]
136,175,684,6,0,L|143:137,2,21.25,2|0|2,0:0|0:0|0:0,0:0:0:0:
102,261,945,6,0,L|207:241,1,101.999996887207,10|2,3:2|0:0,0:0:0:0:
101,342,1336,2,0,L|206:322,1,101.999996887207,10|2,0:0|0:0,0:0:0:0:
410,282,1727,6,0,L|262:311,1,127.499996109009,10|0,3:2|0:0,0:0:0:0:
284,306,2118,1,10,0:0:0:0:
410,196,2249,1,8,0:0:0:0:
410,196,2510,6,0,L|309:215,1,101.999996887207,10|2,3:2|0:0,0:0:0:0:
417,110,2901,2,0,L|316:129,1,101.999996887207,10|2,0:0|0:0,0:0:0:0:
106,176,3292,6,0,L|231:151,1,127.499996109009,10|0,3:2|0:0,0:0:0:0:
231,151,3684,1,8,0:0:0:0:
67,100,3814,1,8,0:0:0:0:
67,100,4075,6,0,P|109:77|128:20,1,101.999996887207,10|2,3:2|0:0,0:0:0:0:
207,75,4466,2,0,L|307:55,1,101.999996887207,8|2,0:0|0:0,0:0:0:0:
407,145,4858,2,0,P|346:130|292:161,1,127.499996109009,10|0,3:2|0:0,0:0:0:0:
292,161,5249,1,8,0:0:0:0:
466,213,5379,1,8,0:0:0:0:
466,213,5640,6,0,L|450:340,1,118.999996368408,10|2,3:2|0:0,0:0:0:0:
363,222,6031,6,0,L|346:360,1,136,6|2,3:2|0:0,0:0:0:0:
407,145,6423,5,6,3:2:0:0:
407,145,7466,6,0,P|341:138|287:177,1,135.150000206223,6|0,3:2|0:0,0:0:0:0:
281,197,7727,2,0,L|292:289,1,90.1000001374817,8|0,0:0|0:0,0:0:0:0:
196,171,7988,1,0,3:0:0:0:
374,241,8118,1,0,3:0:0:0:
215,333,8249,1,8,0:0:0:0:
281,197,8379,6,0,B|206:184|206:184|165:204|165:204|71:191,1,180.200000274963,2|0,3:2|3:0,0:0:0:0:
53,101,8770,2,0,L|151:114,1,90.1000001374817,8|0,0:0|0:0,0:0:0:0:
189,290,9031,2,0,L|55:272,1,135.150000206223,0|0,3:0|0:0,0:0:0:0:
37,280,9292,2,0,P|13:317|17:369,1,90.1000001374817,8|0,0:0|0:0,0:0:0:0:
139,195,9553,6,0,B|152:129|152:129|126:89|126:89|140:25,2,180.200000274963,2|8|0,3:2|0:0|3:0,0:0:0:0:
217,69,10205,1,0,3:0:0:0:
61,158,10336,1,8,0:0:0:0:
223,239,10466,6,0,L|413:225,1,180.200000274963,2|0,3:2|3:0,0:0:0:0:
481,354,10857,2,0,P|437:351|401:325,1,90.1000001374817,8|0,0:0|0:0,0:0:0:0:
475,163,11118,1,0,3:0:0:0:
317,252,11249,1,0,3:0:0:0:
371,57,11379,2,0,P|384:99|386:144,1,90.1000001374817,8|0,0:0|0:0,0:0:0:0:
305,266,11640,6,0,L|130:249,1,135.150000206223,2|0,3:2|0:0,0:0:0:0:
152,258,11901,2,0,P|138:215|136:170,1,90.1000001374817,8|0,0:0|0:0,0:0:0:0:
219,31,12162,1,0,3:0:0:0:
233,186,12292,1,0,3:0:0:0:
74,103,12422,1,8,0:0:0:0:
233,186,12553,6,0,L|426:168,1,180.200000274963,2|0,3:2|3:0,0:0:0:0:
466,270,12944,2,0,L|365:261,1,90.1000001374817,8|0,0:0|0:0,0:0:0:0:
248,95,13205,2,0,L|388:82,1,135.150000206223,0|0,3:0|0:0,0:0:0:0:
401,89,13466,2,0,P|428:57|436:8,1,90.1000001374817,8|0,0:0|0:0,0:0:0:0:
286,180,13727,6,0,B|276:233|276:233|299:310,1,135.150000206223,2|0,3:2|0:0,0:0:0:0:
288,328,13988,2,0,P|326:317|381:311,1,90.1000001374817,8|0,0:0|0:0,0:0:0:0:
272,168,14249,1,0,3:0:0:0:
214,381,14379,1,0,3:0:0:0:
364,226,14509,2,0,P|389:222|441:223,1,45.0500000687408,8|0,0:0|0:0,0:0:0:0:
151,315,14640,6,0,P|63:310|4:245,1,180.200000274963,6|0,3:2|3:0,0:0:0:0:
130,126,15031,2,0,P|129:170|110:211,1,90.1000001374817,8|0,0:0|0:0,0:0:0:0:
57,57,15292,5,0,3:0:0:0:
211,237,15422,1,8,0:0:0:0:
26,146,15553,1,8,0:0:0:0:
216,17,15683,1,8,0:0:0:0:
109,218,15814,6,0,P|171:191|237:200,1,135.150000206223,6|0,3:2|0:0,0:0:0:0:
251,214,16075,2,0,P|294:225|338:218,1,90.1000001374817,8|0,0:0|0:0,0:0:0:0:
298,127,16336,1,0,3:0:0:0:
460,238,16466,1,0,3:0:0:0:
305,312,16596,1,8,0:0:0:0:
409,146,16727,6,0,P|439:229|396:305,1,180.200000274963,2|0,3:2|3:0,0:0:0:0:
207,299,17118,2,0,L|297:306,1,90.1000001374817,8|0,0:0|0:0,0:0:0:0:
267,174,17379,2,0,L|127:182,1,135.150000206223,0|0,3:0|0:0,0:0:0:0:
114,188,17640,2,0,P|90:151|85:107,1,90.1000001374817,8|0,0:0|0:0,0:0:0:0:
207,299,17901,6,0,L|14:287,2,180.200000274963,2|8|0,3:2|0:0|3:0,0:0:0:0:
267,174,18553,1,0,3:0:0:0:
305,355,18683,1,8,0:0:0:0:
267,174,18814,6,0,P|295:91|375:54,1,180.200000274963,2|0,3:2|3:0,0:0:0:0:
439,222,19205,2,0,P|394:228|351:218,1,90.1000001374817,8|0,0:0|0:0,0:0:0:0:
473,121,19466,1,0,3:0:0:0:
492,311,19596,1,0,3:0:0:0:
351,217,19727,2,0,P|395:210|438:220,1,90.1000001374817,8|0,0:0|0:0,0:0:0:0:
305,355,19988,6,0,L|163:344,1,135.150000206223,2|0,3:2|0:0,0:0:0:0:
154,351,20249,2,0,L|57:341,1,90.1000001374817,8|0,0:0|0:0,0:0:0:0:
171,193,20509,1,0,3:0:0:0:
51,350,20640,1,0,3:0:0:0:
69,176,20770,1,8,0:0:0:0:
218,270,20901,6,0,L|406:260,1,180.200000274963,2|0,3:2|3:0,0:0:0:0:
309,85,21292,2,0,P|297:113|296:176,1,90.1000001374817,8|0,0:0|0:0,0:0:0:0:
431,352,21553,5,8,0:0:0:0:
396,141,21683,1,8,0:0:0:0:
333,289,21814,1,8,0:3:0:0:
396,141,21944,1,8,0:0:0:0:
218,270,22075,5,6,3:2:0:0:
218,270,23118,6,0,L|284:262,1,38.2499988327027,10|0,0:0|0:0,0:0:0:0:
453,231,23249,1,0,3:0:0:0:
453,231,23509,5,2,3:2:0:0:
365,257,23770,1,2,3:2:0:0:
331,339,24031,2,0,L|338:380,1,38.2499988327027,2|0,3:2|0:0,0:0:0:0:
453,231,24162,6,0,L|426:92,2,136,6|8|0,3:2|0:0|3:0,0:0:0:0:
425,322,24814,1,0,3:0:0:0:
327,172,24944,1,8,0:0:0:0:
364,257,25075,2,0,P|298:261|245:221,1,136,2|0,3:2|3:0,0:0:0:0:
180,91,25466,2,0,L|173:159,1,68,8|0,0:0|0:0,0:0:0:0:
100,220,25727,2,0,L|107:288,1,68,0|0,3:0|3:0,0:0:0:0:
42,82,25988,2,0,L|35:150,1,68,8|0,0:0|0:0,0:0:0:0:
106,287,26249,6,0,P|149:254|252:271,2,136,0|8|0,3:2|0:0|3:0,0:0:0:0:
185,340,26901,1,0,3:0:0:0:
319,212,27031,1,8,0:0:0:0:
241,267,27162,2,0,P|222:207|236:107,1,136,2|0,3:2|3:0,0:0:0:0:
363,61,27553,2,0,P|344:89|318:110,1,68,8|0,0:0|0:0,0:0:0:0:
225,134,27814,2,0,L|145:124,1,68,0|0,3:0|3:0,0:0:0:0:
319,212,28075,2,0,L|430:198,1,102,8|0,0:0|0:0,0:0:0:0:
434,203,28336,6,0,P|458:265|436:328,2,136,2|8|0,3:2|0:0|3:0,0:0:0:0:
319,212,28988,1,0,3:0:0:0:
411,45,29118,1,8,0:0:0:0:
361,126,29249,2,0,L|219:115,1,136,2|0,3:2|3:0,0:0:0:0:
92,43,29640,2,0,L|10:55,1,68,8|0,0:0|0:0,0:0:0:0:
116,184,29901,2,0,P|130:153|136:120,1,68,0|0,3:0|3:0,0:0:0:0:
9,160,30162,2,0,L|26:240,1,68,8|0,0:0|0:0,0:0:0:0:
138,333,30422,6,0,P|82:296|17:307,2,136,2|8|0,3:2|0:0|3:0,0:0:0:0:
216,278,31075,1,0,3:0:0:0:
267,344,31205,2,0,L|261:178,1,136,8|0,0:0|0:0,0:0:0:0:
345,274,31596,1,0,3:0:0:0:
179,180,31727,2,0,P|194:150|221:129,1,68,8|0,0:0|0:0,0:0:0:0:
384,131,31988,2,0,L|317:135,1,68,0|0,3:0|3:0,0:0:0:0:
174,38,32249,2,0,L|276:48,1,102,8|0,0:0|0:0,0:0:0:0:
290,53,32509,6,0,L|357:49,1,68,6|0,3:2|0:0,0:0:0:0:
154,122,32770,2,0,L|242:131,1,68,8|0,0:0|0:0,0:0:0:0:
77,186,33031,2,0,P|59:154|59:105,1,68,0|0,3:0|3:0,0:0:0:0:
168,211,33292,2,0,P|174:260|150:304,1,102,8|0,0:0|0:0,0:0:0:0:
136,311,33553,5,2,3:2:0:0:
258,214,33683,1,0,3:0:0:0:
188,377,33814,2,0,L|274:371,1,68,8|0,0:0|0:0,0:0:0:0:
312,295,34075,2,0,L|379:299,1,68,0|0,3:0|3:0,0:0:0:0:
258,214,34336,1,8,0:0:0:0:
371,191,34466,1,0,0:0:0:0:
258,214,34596,6,0,B|214:207|214:207|169:230|108:195,2,136,2|8|0,3:2|0:0|3:0,0:0:0:0:
175,127,35249,1,0,3:0:0:0:
80,119,35379,2,0,P|73:88|78:42,1,68,8|0,0:0|3:0,0:0:0:0:
216,44,35640,5,2,3:2:0:0:
175,127,35770,1,0,3:0:0:0:
270,121,35901,2,0,L|351:106,1,68,8|0,0:0|0:0,0:0:0:0:
477,60,36162,2,0,L|411:48,1,68,0|0,3:0|3:0,0:0:0:0:
324,194,36422,2,0,L|431:175,1,102,8|0,0:0|0:0,0:0:0:0:
437,169,36683,6,0,P|467:208|456:292,2,136,2|8|0,3:2|0:0|3:0,0:0:0:0:
360,111,37336,1,0,3:0:0:0:
284,279,37466,1,8,0:0:0:0:
324,194,37596,2,0,P|271:189|177:194,1,136,2|0,3:2|3:0,0:0:0:0:
67,263,37988,2,0,P|43:262|-2:250,1,68,8|0,0:0|0:0,0:0:0:0:
84,112,38249,2,0,L|97:179,1,68,0|0,3:0|3:0,0:0:0:0:
142,337,38509,2,0,L|155:271,1,68,8|0,0:0|0:0,0:0:0:0:
225,100,38770,5,2,3:2:0:0:
225,100,38901,1,0,0:0:0:0:
182,185,39031,2,0,L|267:173,2,68,8|0|0,0:0|3:0|0:0,0:0:0:0:
314,119,39422,1,8,0:0:0:0:
370,259,39553,2,0,L|262:254,1,102,2|0,3:2|0:0,0:0:0:0:
256,264,39814,5,10,0:0:0:0:
399,159,39944,1,8,0:0:0:0:
194,198,40075,1,8,0:0:0:0:
350,342,40205,1,8,0:0:0:0:
141,267,40336,1,8,0:0:0:0:
314,119,40466,1,8,0:0:0:0:
253,347,40596,5,8,0:3:0:0:
172,117,40727,2,0,L|180:166,1,38.2499988327027,8|0,0:0|0:0,0:0:0:0:
308,265,40857,6,0,P|245:247|186:277,2,136,6|8|0,3:2|0:0|3:0,0:0:0:0:
350,342,41509,1,0,3:0:0:0:
354,180,41640,1,8,0:0:0:0:
408,257,41770,2,0,P|444:205|428:121,1,136,2|0,3:2|3:0,0:0:0:0:
287,74,42162,2,0,L|355:84,1,68,8|0,0:0|0:0,0:0:0:0:
260,166,42422,2,0,L|192:156,1,68,0|0,3:0|3:0,0:0:0:0:
354,180,42683,2,0,P|361:209|352:257,1,68,8|0,0:0|0:0,0:0:0:0:
266,333,42944,6,0,L|424:319,2,136,2|8|0,3:2|0:0|3:0,0:0:0:0:
171,346,43596,1,0,3:0:0:0:
241,201,43727,1,8,0:0:0:0:
166,259,43857,2,0,L|324:245,1,136,2|0,3:2|3:0,0:0:0:0:
433,151,44249,2,0,P|402:164|379:189,1,68,8|0,0:0|0:0,0:0:0:0:
385,283,44509,2,0,L|406:361,1,68,0|0,3:0|3:0,0:0:0:0:
288,240,44770,2,0,L|294:114,1,102,8|0,0:0|0:0,0:0:0:0:
301,125,45031,6,0,P|292:59|242:15,2,136,2|8|0,3:2|0:0|3:0,0:0:0:0:
206,108,45683,1,0,3:0:0:0:
288,240,45814,1,8,0:0:0:0:
201,201,45944,2,0,L|65:193,1,136,2|0,3:2|3:0,0:0:0:0:
155,286,46336,2,0,L|87:279,1,68,8|0,0:0|0:0,0:0:0:0:
223,378,46596,2,0,L|155:371,1,68,0|0,3:0|3:0,0:0:0:0:
321,303,46857,2,0,L|253:296,1,68,8|0,0:0|0:0,0:0:0:0:
373,116,47118,6,0,P|408:172|404:239,2,136,2|8|0,3:2|0:0|3:0,0:0:0:0:
319,195,47770,1,0,3:0:0:0:
247,131,47901,2,0,L|107:127,1,136,8|0,0:0|0:0,0:0:0:0:
183,50,48292,1,0,3:0:0:0:
104,212,48422,2,0,L|199:214,1,68,8|0,0:0|0:0,0:0:0:0:
183,50,48683,2,0,L|96:47,1,68,0|0,3:0|3:0,0:0:0:0:
247,131,48944,2,0,L|372:117,1,102,8|0,0:0|0:0,0:0:0:0:
363,123,49205,6,0,P|381:79|378:38,1,68,6|0,3:2|0:0,0:0:0:0:
386,219,49466,2,0,P|429:200|456:169,1,68,8|0,0:0|0:0,0:0:0:0:
512,323,49727,2,0,P|485:301|453:291,1,68,0|0,3:0|3:0,0:0:0:0:
358,305,49988,2,0,P|305:304|268:268,1,102,8|0,0:0|0:0,0:0:0:0:
270,258,50249,5,2,0:0:0:0:
288,384,50379,1,0,3:0:0:0:
178,246,50509,2,0,L|192:330,1,68,8|0,0:0|0:0,0:0:0:0:
297,168,50770,2,0,L|311:84,1,68,0|0,3:0|3:0,0:0:0:0:
270,258,51031,1,8,0:0:0:0:
197,116,51162,2,0,L|203:159,1,34,0|0,0:0|0:0,0:0:0:0:
270,258,51292,6,0,P|329:258|388:195,2,136,2|8|0,3:2|0:0|3:0,0:0:0:0:
176,240,51944,1,0,3:0:0:0:
121,318,52075,2,0,P|97:295|83:248,1,68,8|2,0:0|3:2,0:0:0:0:
220,347,52336,5,2,0:0:0:0:
176,240,52466,1,0,3:0:0:0:
220,347,52596,2,0,L|312:335,1,68,8|0,0:0|0:0,0:0:0:0:
312,191,52857,2,0,P|285:212|271:243,1,68,0|0,3:0|3:0,0:0:0:0:
390,365,53118,2,0,L|381:255,1,102,8|0,0:0|0:0,0:0:0:0:
403,245,53379,6,0,L|414:391,2,136,2|8|0,3:2|0:0|3:0,0:0:0:0:
496,226,54031,1,0,3:0:0:0:
312,191,54162,1,8,0:0:0:0:
398,152,54292,2,0,P|352:100|274:103,1,136,2|0,3:2|3:0,0:0:0:0:
245,203,54683,2,0,L|312:191,1,68,8|0,0:0|0:0,0:0:0:0:
479,298,54944,2,0,L|412:285,1,68,0|0,3:0|3:0,0:0:0:0:
224,356,55205,2,0,L|290:343,1,68,8|0,0:0|0:0,0:0:0:0:
417,184,55466,5,2,3:2:0:0:
314,319,55596,1,8,0:0:0:0:
321,339,55662,1,8,0:0:0:0:
329,359,55727,1,8,0:0:0:0:
505,207,55857,1,8,0:0:0:0:
259,160,55988,1,10,0:0:0:0:
412,301,56118,5,8,0:3:0:0:
435,92,56249,1,0,3:0:0:0:
242,170,56379,1,4,0:3:0:0:
405,318,56509,6,0,B|394:270|394:270|427:229|427:229|425:199|382:143,1,165.749992412568,10|0,3:2|0:0,0:0:0:0:
274,51,56770,1,10,0:0:0:0:
98,250,57553,6,0,L|291:240,1,149.175000569057,6|0,3:2|0:0,0:0:0:0:
334,273,57814,2,0,L|463:264,1,99.4500003793716,8|0,0:0|0:0,0:0:0:0:
271,142,58075,1,0,3:0:0:0:
258,342,58205,1,0,3:0:0:0:
271,142,58336,2,0,L|261:37,1,99.4500003793716,8|0,0:0|3:0,0:0:0:0:
334,273,58596,5,2,3:2:0:0:
158,168,58727,1,0,3:0:0:0:
334,273,58857,2,0,L|463:264,1,99.4500003793716,8|0,0:0|0:0,0:0:0:0:
150,329,59118,2,0,L|21:320,1,99.4500003793716,0|0,3:0|3:0,0:0:0:0:
196,94,59379,2,0,P|234:123|246:171,1,99.4500003793716,8|0,0:0|0:0,0:0:0:0:
30,235,59640,6,0,L|40:54,1,149.175000569057,2|0,3:2|0:0,0:0:0:0:
120,12,59901,2,0,L|114:126,1,99.4500003793716,8|0,0:0|0:0,0:0:0:0:
213,266,60162,1,0,3:0:0:0:
46,223,60292,1,0,3:0:0:0:
180,358,60422,2,0,L|279:348,1,99.4500003793716,8|0,0:0|3:0,0:0:0:0:
475,179,60683,6,0,L|320:163,1,149.175000569057,2|0,3:2|0:0,0:0:0:0:
229,173,60944,2,0,P|211:201|222:281,1,99.4500003793716,8|0,0:0|0:0,0:0:0:0:
411,333,61205,1,0,3:0:0:0:
298,235,61336,1,0,3:0:0:0:
483,172,61466,1,8,0:0:0:0:
285,244,61596,2,0,L|346:237,1,49.7250001896858,0|0,0:0|0:0,0:0:0:0:
487,365,61727,6,0,L|311:354,1,149.175000569057,6|0,3:2|0:0,0:0:0:0:
245,363,61988,2,0,L|145:353,1,99.4500003793716,8|0,0:0|0:0,0:0:0:0:
23,216,62249,1,0,3:0:0:0:
192,274,62379,1,0,3:0:0:0:
16,225,62509,2,0,L|115:220,1,99.4500003793716,8|0,0:0|3:0,0:0:0:0:
246,77,62770,5,2,3:2:0:0:
77,135,62901,1,0,0:0:0:0:
253,86,63031,2,0,L|153:81,1,99.4500003793716,8|0,0:0|0:0,0:0:0:0:
191,274,63292,2,0,P|222:235|229:186,1,99.4500003793716,0|0,3:0|3:0,0:0:0:0:
60,139,63553,2,0,L|79:250,1,99.4500003793716,8|0,0:0|0:0,0:0:0:0:
245,363,63814,6,0,P|292:329|325:225,1,149.175000569057,2|0,3:2|0:0,0:0:0:0:
385,175,64075,2,0,L|375:76,1,99.4500003793716,8|0,0:0|0:0,0:0:0:0:
121,181,64336,2,0,L|220:186,1,99.4500003793716,0|0,3:0|3:0,0:0:0:0:
430,264,64596,1,8,0:0:0:0:
282,100,64727,6,0,P|238:185|277:273,1,198.900000758743,2|0,3:2|3:0,0:0:0:0:
451,116,65118,2,0,L|439:0,1,99.4500003793716,8|0,0:0|0:0,0:0:0:0:
406,254,65379,5,0,3:0:0:0:
267,88,65509,1,0,3:0:0:0:
460,127,65640,1,8,0:0:0:0:
277,273,65770,1,0,0:0:0:0:
277,273,65836,1,0,0:0:0:0:
277,273,65901,6,0,L|117:266,1,149.175000569057,6|0,3:2|0:0,0:0:0:0:
64,200,66162,2,0,P|53:146|86:83,1,99.4500003793716,8|0,0:0|0:0,0:0:0:0:
282,175,66422,2,0,L|149:167,1,99.4500003793716,0|0,3:0|3:0,0:0:0:0:
105,354,66683,6,0,L|310:364,2,198.900000758743,8|0|8,0:0|0:0|0:0,0:0:0:0:
212,262,67336,1,0,0:0:0:0:
97,133,67466,2,0,P|86:181|98:228,1,99.4500003793716,0|0,3:0|3:0,0:0:0:0:
286,147,67727,2,0,P|296:98|284:51,1,99.4500003793716,8|0,0:0|0:0,0:0:0:0:
212,262,67988,6,0,L|363:251,1,149.175000569057,6|0,3:2|0:0,0:0:0:0:
416,343,68249,2,0,L|308:337,1,99.4500003793716,8|0,0:0|0:0,0:0:0:0:
446,173,68509,2,0,P|468:216|472:266,1,99.4500003793716,0|0,3:0|3:0,0:0:0:0:
303,344,68770,1,8,0:0:0:0:
346,141,68901,1,2,3:2:0:0:
386,256,69031,6,0,L|204:249,1,149.175000569057
143,303,69292,2,0,P|105:271|100:198,1,99.4500003793716,8|0,0:0|0:0,0:0:0:0:
211,21,69553,2,0,L|202:120,1,99.4500003793716,0|0,3:0|3:0,0:0:0:0:
303,344,69814,2,0,L|294:244,1,99.4500003793716,8|0,0:0|0:0,0:0:0:0:
118,93,70075,5,6,3:2:0:0:
281,159,70205,1,0,3:0:0:0:
127,287,70336,2,0,P|80:286|22:273,1,99.4500003793716,8|0,0:0|3:0,0:0:0:0:
206,97,70596,5,6,3:2:0:0:
214,358,70727,1,0,3:0:0:0:
206,97,70857,1,8,0:0:0:0:
214,358,70988,1,0,3:0:0:0:
318,109,71118,5,6,3:2:0:0:
127,287,71249,1,0,3:0:0:0:
318,109,71379,1,8,0:0:0:0:
127,287,71509,1,0,3:0:0:0:
121,37,71640,5,6,3:2:0:0:
312,215,71770,1,0,3:0:0:0:
121,37,71901,1,8,0:0:0:0:
312,215,72031,1,0,3:0:0:0:
267,30,72162,5,6,3:2:0:0:
66,234,72292,1,8,0:0:0:0:
66,234,72357,1,8,0:0:0:0:
66,234,72422,5,0,3:0:0:0:
341,83,72553,1,8,0:0:0:0:
140,181,72683,5,0,3:0:0:0:
382,167,72814,1,8,0:0:0:0:
181,97,72944,5,0,3:0:0:0:
381,260,73075,1,8,0:0:0:0:
180,4,73205,5,2,3:2:0:0:
252,299,73336,1,8,0:0:0:0:
474,91,73466,5,2,3:2:0:0:
118,180,73596,1,8,0:0:0:0:
460,311,73727,5,2,3:2:0:0:
102,178,73857,1,8,0:0:0:0:
350,0,73988,5,2,3:2:0:0:
244,358,74118,2,0,L|241:308,1,49.7250001896858,8|0,0:0|0:0,0:0:0:0:
398,102,74249,6,0,L|393:256,1,149.175000569057,6|0,3:2|0:0,0:0:0:0:
305,166,74509,2,0,L|296:53,1,99.4500003793716,8|0,0:0|0:0,0:0:0:0:
241,242,74770,1,0,3:0:0:0:
398,102,74901,1,0,3:0:0:0:
241,242,75031,2,0,L|130:229,1,99.4500003793716,8|0,0:0|3:0,0:0:0:0:
320,350,75292,5,2,3:2:0:0:
217,143,75422,1,0,3:0:0:0:
320,350,75553,2,0,L|431:337,1,99.4500003793716,8|0,0:0|0:0,0:0:0:0:
217,143,75814,2,0,L|118:131,1,99.4500003793716,0|0,3:0|3:0,0:0:0:0:
371,77,76075,2,0,P|389:122|380:170,1,99.4500003793716,8|0,0:0|0:0,0:0:0:0:
123,271,76336,6,0,L|287:252,1,149.175000569057,2|0,3:2|0:0,0:0:0:0:
373,276,76596,2,0,P|391:321|382:369,1,99.4500003793716,8|0,0:0|0:0,0:0:0:0:
217,143,76857,1,0,3:0:0:0:
225,355,76988,1,0,3:0:0:0:
423,181,77118,2,0,L|312:178,1,99.4500003793716,8|0,0:0|3:0,0:0:0:0:
150,29,77379,6,0,P|209:70|216:142,1,149.175000569057,2|0,3:2|0:0,0:0:0:0:
119,211,77640,2,0,L|136:83,1,99.4500003793716,8|0,0:0|0:0,0:0:0:0:
35,259,77901,1,0,3:0:0:0:
213,234,78031,1,0,0:0:0:0:
36,175,78162,1,8,0:0:0:0:
32,361,78292,2,0,L|94:354,1,49.7250001896858,0|0,0:0|0:0,0:0:0:0:
332,339,78422,6,0,L|172:318,1,149.175000569057,6|0,3:2|0:0,0:0:0:0:
119,211,78683,2,0,L|-6:225,1,99.4500003793716,8|0,0:0|0:0,0:0:0:0:
208,106,78944,1,0,3:0:0:0:
184,319,79075,1,0,3:0:0:0:
215,96,79205,2,0,L|228:194,1,99.4500003793716,8|0,0:0|3:0,0:0:0:0:
332,339,79466,5,2,3:2:0:0:
308,126,79596,1,0,0:0:0:0:
339,349,79727,2,0,L|352:250,1,99.4500003793716,8|0,0:0|0:0,0:0:0:0:
153,249,79988,2,0,P|209:289|270:286,1,99.4500003793716,0|0,3:0|3:0,0:0:0:0:
407,118,80249,2,0,L|282:127,1,99.4500003793716,8|0,0:0|0:0,0:0:0:0:
8,61,80509,6,0,L|164:75,1,149.175000569057,2|0,3:2|0:0,0:0:0:0:
227,166,80770,2,0,L|96:151,1,99.4500003793716,8|0,0:0|0:0,0:0:0:0:
371,0,81031,2,0,L|240:15,1,99.4500003793716,0|0,3:0|3:0,0:0:0:0:
478,132,81292,1,8,0:0:0:0:
371,279,81422,6,0,P|309:205|332:111,1,198.900000758743,2|0,3:2|3:0,0:0:0:0:
511,216,81814,2,0,P|485:219|410:212,1,99.4500003793716,8|0,0:0|0:0,0:0:0:0:
227,166,82075,5,0,3:0:0:0:
421,201,82205,1,0,3:0:0:0:
271,322,82336,1,8,0:0:0:0:
335,83,82466,1,0,0:0:0:0:
335,83,82531,1,0,0:0:0:0:
335,83,82596,6,0,L|328:243,1,149.175000569057,6|0,3:2|0:0,0:0:0:0:
271,322,82857,2,0,P|210:304|148:311,1,99.4500003793716,8|0,0:0|0:0,0:0:0:0:
7,241,83118,2,0,P|57:240|104:224,1,99.4500003793716,0|0,3:0|3:0,0:0:0:0:
179,30,83379,6,0,P|84:48|44:135,2,198.900000758743,8|0|8,0:0|0:0|0:0,0:0:0:0:
261,185,84031,1,0,0:0:0:0:
149,228,84162,2,0,P|138:180|150:133,1,99.4500003793716,0|0,3:0|3:0,0:0:0:0:
362,43,84422,2,0,P|373:91|361:138,1,99.4500003793716,8|0,0:0|0:0,0:0:0:0:
235,276,84683,6,0,L|386:265,1,149.175000569057,6|0,3:2|0:0,0:0:0:0:
440,363,84944,2,0,L|336:356,1,99.4500003793716,8|0,0:0|0:0,0:0:0:0:
474,188,85205,2,0,P|499:230|499:279,1,99.4500003793716,0|0,3:0|3:0,0:0:0:0:
347,174,85466,1,8,0:0:0:0:
440,363,85596,1,2,3:2:0:0:
235,276,85727,6,0,L|72:285,1,149.175000569057,0|0,0:0|0:0,0:0:0:0:
11,223,85988,2,0,P|56:193|130:200,1,99.4500003793716,10|0,0:0|0:0,0:0:0:0:
320,306,86249,2,0,P|271:307|234:275,1,99.4500003793716,0|0,3:0|3:0,0:0:0:0:
218,60,86509,2,0,L|227:160,1,99.4500003793716,8|0,0:0|0:0,0:0:0:0:
200,384,86770,5,6,3:2:0:0:
320,208,86901,1,0,3:0:0:0:
200,384,87031,2,0,L|94:372,1,99.4500003793716,8|0,0:0|3:0,0:0:0:0:
226,159,87292,5,6,3:2:0:0:
313,384,87422,1,0,3:0:0:0:
226,159,87553,1,8,0:0:0:0:
313,384,87683,1,0,3:0:0:0:
346,304,87814,5,6,3:2:0:0:
195,239,87944,1,0,3:0:0:0:
426,273,88075,1,8,0:0:0:0:
115,269,88205,1,0,3:0:0:0:
506,243,88336,5,6,3:2:0:0:
35,300,88466,1,0,3:0:0:0:
224,47,88596,1,8,0:0:0:0:
263,340,88727,1,0,3:0:0:0:
365,120,88857,5,6,3:2:0:0:
115,269,88988,1,0,3:0:0:0:
377,367,89118,2,0,P|379:317|361:272,1,99.4500003793716,8|0,0:0|0:0,0:0:0:0:
111,123,89379,5,0,3:0:0:0:
377,107,89510,1,8,0:0:0:0:
263,340,89640,2,0,P|218:347|161:333,1,99.4500003793716,8|0,0:0|0:0,0:0:0:0:
391,90,89901,5,6,3:2:0:0:
87,207,90031,6,0,L|233:211,1,133.874995914459,0|0,3:0|0:0,0:0:0:0:
111,123,90292,6,0,L|253:129,1,121.124996765614,2|0,3:2|0:0,0:0:0:0:
132,35,90553,6,0,L|251:39,1,102,2|0,3:2|0:0,0:0:0:0:
435,9,90814,6,0,L|365:6,1,49.7250001896858,2|0,3:2|0:0,0:0:0:0:
304,228,90944,6,0,P|362:197|379:133,1,135.150000206223,6|0,3:2|0:0,0:0:0:0:
366,119,91205,2,0,L|271:115,1,90.1000001374817,8|0,0:0|0:0,0:0:0:0:
111,123,91466,1,0,3:0:0:0:
223,217,91596,1,0,3:0:0:0:
233,38,91727,1,8,0:0:0:0:
108,138,91857,6,0,B|168:117|168:117|224:149|279:123,1,180.200000274963,2|0,3:2|3:0,0:0:0:0:
420,218,92249,2,0,P|375:221|333:208,1,90.1000001374817,8|0,0:0|0:0,0:0:0:0:
492,26,92509,2,0,L|499:167,1,135.150000206223,0|0,3:0|0:0,0:0:0:0:
507,177,92770,2,0,L|502:275,1,90.1000001374817,8|0,0:0|0:0,0:0:0:0:
310,324,93031,6,0,P|321:262|432:221,2,180.200000274963,2|8|0,3:2|0:0|3:0,0:0:0:0:
409,317,93683,1,0,3:0:0:0:
243,223,93814,1,8,0:0:0:0:
386,125,93944,6,0,B|347:124|317:149|317:149|283:104|203:120,1,180.200000274963,2|0,3:2|3:0,0:0:0:0:
66,209,94336,2,0,P|111:209|149:186,1,90.1000001374817,8|0,0:0|0:0,0:0:0:0:
204,22,94596,1,0,3:0:0:0:
91,129,94727,1,0,3:0:0:0:
243,223,94857,2,0,L|337:217,1,90.1000001374817,8|0,0:0|0:0,0:0:0:0:
477,334,95118,6,0,L|322:321,1,135.150000206223,6|0,3:2|0:0,0:0:0:0:
326,331,95379,2,0,L|225:320,1,90.1000001374817,8|0,0:0|0:0,0:0:0:0:
164,145,95640,2,0,L|319:132,1,135.150000206223,2|0,3:2|0:0,0:0:0:0:
315,142,95901,2,0,L|416:131,1,90.1000001374817,8|0,0:0|3:0,0:0:0:0:
204,22,96162,6,0,L|114:31,1,90.1000001374817,2|0,3:2|3:0,0:0:0:0:
328,33,96422,2,0,L|429:22,1,90.1000001374817,8|0,0:0|3:0,0:0:0:0:
164,145,96683,2,0,L|74:154,1,90.1000001374817,2|0,3:2|3:0,0:0:0:0:
332,253,96944,1,8,0:0:0:0:
299,124,97075,1,0,0:0:0:0:
422,294,97205,6,0,L|230:281,2,180.200000274963,2|8|0,3:2|0:0|3:0,0:0:0:0:
381,172,97857,1,0,3:0:0:0:
500,341,97988,2,0,L|511:283,1,45.0500000687408,8|0,0:0|0:0,0:0:0:0:
494,123,98118,6,0,P|430:151|326:104,1,180.200000274963,6|0,3:2|0:0,0:0:0:0:
76,67,98509,2,0,P|159:38|238:78,1,180.200000274963,8|0,0:0|3:0,0:0:0:0:
322,239,98901,1,8,0:0:0:0:
332,10,99031,1,8,0:0:0:0:
188,151,99162,1,8,0:0:0:0:
341,1,99292,6,0,L|347:144,1,135.150000206223,6|0,3:2|0:0,0:0:0:0:
336,150,99553,2,0,P|382:180|431:172,1,90.1000001374817,8|0,0:0|0:0,0:0:0:0:
507,295,99814,2,0,L|413:294,1,90.1000001374817,0|0,3:0|3:0,0:0:0:0:
253,318,100075,1,8,0:0:0:0:
322,239,100205,6,0,P|240:270|143:231,1,180.200000274963,2|0,3:2|3:0,0:0:0:0:
59,110,100596,2,0,L|64:200,1,90.1000001374817,8|0,0:0|0:0,0:0:0:0:
190,4,100857,2,0,L|174:148,1,135.150000206223,0|0,3:0|0:0,0:0:0:0:
166,154,101118,2,0,P|219:129|266:136,1,90.1000001374817,8|0,0:0|0:0,0:0:0:0:
403,232,101379,6,0,P|319:260|237:229,2,180.200000274963,2|8|0,3:2|0:0|3:0,0:0:0:0:
490,156,102031,1,0,3:0:0:0:
407,333,102162,1,8,0:0:0:0:
490,156,102292,6,0,P|407:124|323:152,1,180.200000274963,2|0,3:2|3:0,0:0:0:0:
229,318,102683,2,0,L|238:215,1,90.1000001374817,8|0,0:0|0:0,0:0:0:0:
304,357,102944,1,0,3:0:0:0:
146,256,103075,1,0,3:0:0:0:
231,124,103205,2,0,L|238:213,1,90.1000001374817,8|0,0:0|0:0,0:0:0:0:
69,203,103466,6,0,L|80:68,1,135.150000206223,2|0,3:2|0:0,0:0:0:0:
74,51,103727,2,0,P|119:26|157:26,1,90.1000001374817,8|0,0:0|0:0,0:0:0:0:
231,124,103988,1,0,3:0:0:0:
338,34,104118,1,0,3:0:0:0:
220,131,104249,1,8,0:0:0:0:
334,238,104379,6,0,B|407:260|407:260|518:219,1,180.200000274963,2|0,3:2|3:0,0:0:0:0:
413,59,104770,2,0,L|403:151,1,90.1000001374817,8|0,0:0|0:0,0:0:0:0:
336,346,105031,5,8,0:0:0:0:
301,135,105162,1,8,0:0:0:0:
188,283,105292,1,8,0:0:0:0:
223,72,105423,1,8,0:0:0:0:
413,197,105553,5,6,3:2:0:0:
410,97,106596,5,10,3:2:0:0:
279,193,106727,6,0,L|425:197,1,133.874995914459,0|0,3:0|0:0,0:0:0:0:
420,86,106988,6,0,L|278:92,1,121.124996765614,2|0,3:2|0:0,0:0:0:0:
263,204,107249,6,0,L|382:208,1,102,2|0,3:2|0:0,0:0:0:0:
431,73,107509,6,0,L|349:76,1,49.7250001896858,2|0,3:2|0:0,0:0:0:0:
250,215,107640,6,0,L|342:218,1,85,6|0,3:2|3:0,0:0:0:0:
210,297,108031,2,0,L|302:300,1,85,10|2,0:0|3:2,0:0:0:0:
463,337,108422,2,0,L|379:340,1,85,10|0,0:0|3:0,0:0:0:0:
379,340,108813,1,0,0:0:0:0:
456,213,108944,1,10,0:0:0:0:
294,299,109074,1,10,0:0:0:0:
456,213,109205,6,0,L|436:130,1,85,6|2,3:2|3:2,0:0:0:0:
366,195,109596,2,0,L|346:112,1,85,10|2,0:0|3:2,0:0:0:0:
238,6,109987,2,0,L|257:88,1,85,8|8,0:0|0:0,0:0:0:0:
224,168,110379,1,8,0:3:0:0:
139,171,110509,1,0,3:0:0:0:
173,93,110639,1,2,3:2:0:0:
182,249,110770,6,0,L|170:342,1,85,6|0,3:2|3:0,0:0:0:0:
68,359,111161,2,0,L|78:274,1,85,8|2,0:0|3:2,0:0:0:0:
284,217,111553,2,0,L|273:301,1,85,10|0,0:0|3:0,0:0:0:0:
356,363,111944,1,2,0:0:0:0:
398,228,112074,1,8,0:0:0:0:
362,348,112205,1,8,0:0:0:0:
406,209,112335,6,0,P|399:159|363:124,1,101.999996887207,6|8,3:2|0:0,0:0:0:0:
171,99,112726,6,0,P|207:144|264:148,1,118.999996368408,6|10,3:2|0:0,0:0:0:0:
428,34,113118,5,6,3:2:0:0:
256,192,113183,12,0,114944,0:0:0:0:
