osu file format v14

[General]
AudioFilename: audio.mp3
AudioLeadIn: 0
PreviewTime: 73466
Countdown: 0
SampleSet: None
StackLeniency: 0.7
Mode: 0
LetterboxInBreaks: 0
WidescreenStoryboard: 0

[Editor]
Bookmarks: 7467,19466,37466,58075,76597,76858,109010
DistanceSpacing: 0.5
BeatDivisor: 4
GridSize: 8
TimelineZoom: 4.400003

[Metadata]
Title:Yuudachi no Ribbon
TitleUnicode:Yuudachi no Ribbon
Artist:ITO KASHITARO
ArtistUnicode:ITO KASHITARO
Creator:Fragment-
Version:Ribbon
Source:
Tags:
BeatmapID:1305628
BeatmapSetID:619432

[Difficulty]
HPDrainRate:6
CircleSize:4.2
OverallDifficulty:9
ApproachRate:9.3
SliderMultiplier:1.4
SliderTickRate:1

[Events]
//Background and Video events
0,0,"MikitoP_feat._MAYU_-_Yuudachi_no_Ribbon.jpg",0,0
//Break Periods
//Storyboard Layer 0 (Background)
//Storyboard Layer 1 (Fail)
//Storyboard Layer 2 (Pass)
//Storyboard Layer 3 (Foreground)
//Storyboard Sound Samples

[TimingPoints]
424,260.869565217391,4,1,0,100,1,0
424,-133.333333333333,4,1,0,100,0,0
7467,260.869565217391,4,1,0,100,1,0
7467,-66.6666666666667,4,1,0,100,0,0
23119,-100,4,2,0,100,0,0
56771,-133.333333333333,4,1,0,100,0,0
57553,-66.6666666666667,4,1,0,100,0,1
90945,-66.6666666666667,4,1,0,100,0,0
107640,-133.333333333333,4,1,0,100,0,0
113119,260.869565217391,4,1,0,100,1,0
113119,-66.6666666666667,4,1,0,100,0,0
114684,-66.6666666666667,4,1,0,5,0,0

[HitObjects]
77,336,684,5,8,2:2:0:0:
77,336,815,1,8,2:2:0:0:
181,344,945,6,0,L|293:312,1,105,4|8,2:0|2:0,2:0:0:0:
141,320,1337,2,0,L|253:288,1,105,4|8,2:0|2:0,2:0:0:0:
101,296,1728,2,0,L|213:264,1,105,4|0,2:0|2:0,2:0:0:0:
270,189,2119,5,8,2:0:0:0:
170,218,2250,1,8,2:0:0:0:
372,272,2510,6,0,P|316:302|255:282,1,105.000004005432,4|8,2:0|2:0,2:0:0:0:
398,233,2901,2,0,P|342:263|281:243,1,105.000004005432,4|8,2:0|2:0,2:0:0:0:
424,194,3293,2,0,P|368:224|307:204,1,105.000004005432,4|0,2:0|2:0,2:0:0:0:
240,162,3684,5,8,2:0:0:0:
343,170,3815,1,4,2:3:0:0:
284,257,3945,1,4,2:3:0:0:
133,112,4076,6,0,L|191:198,1,105,4|8,2:0|2:0,2:0:0:0:
86,95,4468,2,0,L|144:181,1,105,4|8,2:0|2:0,2:0:0:0:
39,78,4858,2,0,L|97:164,1,105,4|0,2:0|2:0,2:0:0:0:
128,240,5250,5,8,2:0:0:0:
194,160,5381,1,8,2:0:0:0:
393,98,5641,6,0,P|361:153|300:168,1,105.000004005432,4|8,2:0|2:0,2:0:0:0:
440,90,6032,2,0,P|408:145|347:160,1,105.000004005432,4|8,2:0|2:0,2:0:0:0:
487,82,6423,1,4,2:0:0:0:
37,128,7467,6,0,B|85:208|85:208|125:224|125:224|181:320,2,210.000008010865,4|8|4,0:0|1:0|0:0,0:0:0:0:
187,85,8119,5,4,0:0:0:0:
95,211,8249,1,8,0:0:0:0:
245,168,8380,2,0,P|357:176|445:112,1,210.000008010865,4|4,0:0|0:0,0:0:0:0:
285,80,8771,5,8,0:0:0:0:
193,206,8901,1,0,0:0:0:0:
349,223,9032,1,4,1:0:0:0:
223,131,9162,1,4,1:0:0:0:
207,287,9293,1,8,0:0:0:0:
299,160,9423,2,0,P|309:183|301:208,1,52.5000020027161
384,293,9553,6,0,P|470:220|488:113,2,210.000008010865,4|8|4,0:0|0:0|0:0,0:0:0:0:
336,144,10206,1,0,0:0:0:0:
474,212,10336,1,8,0:0:0:0:
382,338,10466,6,0,B|288:342|288:342|255:370|255:370|144:375,1,210.000008010865,4|4,0:0|0:0,0:0:0:0:
128,216,10858,1,8,0:0:0:0:
96,378,10988,1,0,0:0:0:0:
205,254,11119,2,4,P|255:228|276:178,1,105.000004005432
223,30,11380,1,8,0:0:0:0:
112,152,11510,2,0,P|133:138|159:141,1,52.5000020027161
270,102,11640,6,0,B|189:55|189:55|146:60|146:60|50:3,2,210.000008010865,4|8|4,0:0|0:0|0:0,0:0:0:0:
113,155,12293,1,0,0:0:0:0:
223,31,12423,1,8,0:0:0:0:
276,189,12553,6,4,P|376:139|421:40,1,210.000008010865
308,27,12945,1,8,0:0:0:0:
432,135,13075,1,0,0:0:0:0:
271,104,13206,2,4,P|214:101|171:134,1,105.000004005432
300,236,13466,1,8,0:0:0:0:
145,290,13597,1,0,0:0:0:0:
20,182,13727,6,0,P|63:78|160:29,2,210.000008010865,4|8|4,0:0|0:0|0:0,0:0:0:0:
176,128,14380,1,4,0:0:0:0:
67,252,14510,2,0,P|88:266|114:262,1,52.5000020027161,8|0,0:0|0:0,0:0:0:0:
191,349,14640,6,0,B|283:332|283:332|312:301|312:301|423:283,1,210.000008010865,4|0,0:0|0:0,0:0:0:0:
260,181,15032,1,8,0:0:0:0:
229,344,15162,1,0,0:0:0:0:
338,219,15293,1,4,0:0:0:0:
175,187,15423,1,8,0:0:0:0:
407,108,15553,1,8,0:0:0:0:
166,60,15684,1,8,0:0:0:0:
377,189,15814,6,0,B|408:277|408:277|443:301|443:301|478:407,2,210.000008010865,4|8|4,0:0|0:0|0:0,0:0:0:0:
264,253,16466,1,0,0:0:0:0:
409,341,16597,1,8,0:0:0:0:
441,174,16727,6,4,P|368:89|261:69,1,210.000008010865
244,234,17119,1,8,0:0:0:0:
404,178,17249,1,0,0:0:0:0:
294,307,17380,1,4,0:0:0:0:
324,140,17510,1,0,0:0:0:0:
382,300,17640,1,8,0:0:0:0:
214,270,17771,2,0,P|189:263|175:241,1,52.5000020027161
58,248,17901,6,0,P|1:151|17:44,2,210.000008010865,4|8|4,0:0|0:0|0:0,0:0:0:0:
193,144,18553,1,0,0:0:0:0:
35,78,18684,1,8,0:0:0:0:
205,57,18814,6,0,B|297:44|297:44|328:15|328:15|440:3,1,210.000008010865,4|4,0:0|0:0,0:0:0:0:
344,169,19206,1,8,0:0:0:0:
474,57,19336,1,0,0:0:0:0:
313,1,19466,1,4,0:0:0:0:
417,135,19597,1,4,0:0:0:0:
249,159,19727,1,8,0:0:0:0:
382,54,19858,1,0,0:0:0:0:
407,222,19988,6,0,B|337:284|337:284|328:325|328:325|242:398,2,210.000008010865,4|8|4,0:0|0:0|0:0,0:0:0:0:
240,247,20640,1,0,0:0:0:0:
397,308,20771,1,8,0:0:0:0:
372,142,20901,6,4,P|318:43|218:1,1,210.000008010865
264,174,21293,1,8,0:0:0:0:
430,148,21423,1,0,0:0:0:0:
274,276,21553,5,4,0:0:0:0:
234,35,21684,1,4,0:0:0:0:
128,290,21814,1,8,0:0:0:0:
401,254,21945,1,4,0:0:0:0:
97,128,22075,1,4,0:0:0:0:
301,276,23119,5,8,2:1:0:0:
142,321,23249,6,0,P|198:351|259:331,1,105.000004005432,4|0,2:1|2:1,2:1:0:0:
141,254,23510,6,0,P|174:307|237:321,1,105.000004005432,4|0,2:1|2:1,2:1:0:0:
173,195,23771,6,0,P|175:258|222:301,1,105.000004005432,4|0,2:1|2:1,2:1:0:0:
230,160,24032,5,8,2:1:0:0:
326,294,24162,6,0,L|480:344,2,140,4|8|0,0:0|0:0|0:0,0:0:0:0:
379,135,24814,1,4,0:0:0:0:
490,260,24945,1,8,0:0:0:0:
331,207,25075,6,0,L|198:164,1,140,4|0,0:0|0:0,0:0:0:0:
145,322,25466,1,8,0:0:0:0:
35,198,25597,1,0,0:0:0:0:
68,360,25727,6,0,L|99:261,1,70,4|0,0:0|0:0,0:0:0:0:
27,138,25988,2,0,L|103:67,1,70,8|0,0:0|0:0,0:0:0:0:
188,214,26249,6,0,L|342:264,2,140,4|8|0,0:0|0:0|0:0,0:0:0:0:
240,56,26901,1,4,0:0:0:0:
351,181,27032,1,8,0:0:0:0:
475,69,27162,6,0,L|336:38,1,140,4|0,0:0|0:0,0:0:0:0:
194,114,27553,6,0,L|291:148,1,70,8|0,0:0|0:0,0:0:0:0:
371,262,27814,1,4,0:0:0:0:
208,296,27945,1,0,0:0:0:0:
333,186,28075,6,0,L|424:234,1,70,8|0,0:0|0:0,0:0:0:0:
270,328,28336,6,0,L|112:367,2,140,4|8|4,0:0|0:0|0:0,0:0:0:0:
361,188,28988,1,4,0:0:0:0:
437,337,29119,1,0,0:0:0:0:
297,246,29249,6,0,L|158:215,1,140,4|0,0:0|0:0,0:0:0:0:
43,94,29640,6,0,L|139:58,1,70,8|0,0:0|0:0,0:0:0:0:
263,9,29901,2,0,L|227:106,1,70,4|0,0:0|0:0,0:0:0:0:
315,223,30162,2,0,L|359:129,1,70,8|0,0:0|0:0,0:0:0:0:
473,52,30423,6,0,L|489:213,2,140,4|8|0,0:0|0:0|0:0,0:0:0:0:
342,153,31075,1,4,0:0:0:0:
495,216,31206,1,8,0:0:0:0:
363,317,31336,6,0,L|225:354,1,140,4|0,0:0|0:0,0:0:0:0:
66,306,31727,6,0,L|132:227,1,70,8|0,0:0|0:0,0:0:0:0:
264,315,31988,1,4,0:0:0:0:
163,184,32119,1,0,0:0:0:0:
327,163,32249,1,8,0:0:0:0:
195,263,32380,1,0,0:0:0:0:
43,199,32510,6,0,L|26:37,2,140,4|8|0,0:0|0:0|0:0,0:0:0:0:
175,99,33162,1,0,0:0:0:0:
22,34,33293,1,8,0:0:0:0:
123,167,33423,1,0,0:0:0:0:
188,14,33553,6,0,L|283:-2,2,70,4|0|8,0:0|0:0|0:0,0:0:0:0:
289,147,33945,1,0,0:0:0:0:
124,168,34075,6,0,L|58:247,1,70,4|0,0:0|0:0,0:0:0:0:
232,288,34336,2,0,L|250:389,1,70,8|0,0:0|0:0,0:0:0:0:
390,275,34597,6,0,L|463:129,2,140,4|8|0,0:0|0:0|0:0,0:0:0:0:
266,164,35249,1,4,0:0:0:0:
231,326,35380,1,8,0:0:0:0:
343,204,35510,1,0,0:0:0:0:
392,361,35640,6,0,L|296:377,2,70,4|0|8,0:0|0:0|0:0,0:0:0:0:
329,207,36032,1,0,0:0:0:0:
468,294,36162,2,0,L|486:193,1,70,4|0,0:0|0:0,0:0:0:0:
341,138,36423,2,0,L|277:218,1,70,8|0,0:0|0:0,0:0:0:0:
184,313,36684,6,0,L|144:154,2,140,4|8|4,0:0|0:0|0:0,0:0:0:0:
297,192,37336,1,0,0:0:0:0:
262,354,37466,1,8,0:0:0:0:
374,232,37597,6,0,L|413:73,1,140,4|0,0:0|0:0,0:0:0:0:
492,240,37988,2,0,L|428:320,1,70,8|0,0:0|0:0,0:0:0:0:
303,213,38249,1,4,0:0:0:0:
160,298,38380,1,0,0:0:0:0:
242,153,38510,1,8,0:0:0:0:
243,319,38640,1,0,0:0:0:0:
160,176,38771,6,0,L|96:96,1,70,4|0,0:0|0:0,0:0:0:0:
260,38,39032,1,8,0:0:0:0:
259,205,39162,1,4,0:0:0:0:
177,60,39293,5,0,0:0:0:0:
320,144,39423,1,8,0:0:0:0:
176,226,39553,1,4,0:0:0:0:
342,227,39684,1,0,3:0:0:0:
259,82,39814,5,8,0:0:0:0:
259,250,39945,1,8,0:0:0:0:
405,166,40075,5,8,0:0:0:0:
201,130,40206,1,8,0:0:0:0:
400,298,40336,5,8,0:0:0:0:
311,53,40466,1,8,0:0:0:0:
101,302,40597,5,8,0:0:0:0:
485,165,40727,1,8,0:0:0:0:
83,91,40858,6,0,L|44:250,2,140,4|8|4,0:0|0:0|0:0,0:0:0:0:
229,173,41510,1,0,0:0:0:0:
84,258,41640,1,8,0:0:0:0:
231,342,41771,6,0,L|391:307,1,140,4|0,0:0|0:0,0:0:0:0:
366,144,42162,1,8,0:0:0:0:
450,288,42293,1,0,0:0:0:0:
306,206,42423,6,0,L|210:168,1,70,4|0,0:0|0:0,0:0:0:0:
157,324,42684,2,0,L|237:260,1,70,8|0,0:0|0:0,0:0:0:0:
184,91,42945,6,0,L|55:193,2,140,4|8|4,0:0|0:0|0:0,0:0:0:0:
327,173,43597,1,0,0:3:0:0:
245,315,43727,1,8,0:0:0:0:
388,234,43858,6,0,L|421:73,1,140,4|0,0:0|0:0,0:0:0:0:
252,95,44249,2,0,L|328:162,1,70,8|0,0:0|0:0,0:0:0:0:
222,283,44510,1,4,0:0:0:0:
140,140,44640,1,0,0:3:0:0:
283,223,44771,6,0,L|379:261,1,70,8|0,0:0|0:0,0:0:0:0:
430,105,45032,6,0,L|307:-4,2,140,4|8|4,0:0|0:0|0:0,0:0:0:0:
348,248,45684,1,0,0:3:0:0:
204,166,45814,1,8,0:0:0:0:
205,332,45945,6,0,L|42:356,1,140,4|0,0:0|0:0,0:0:0:0:
34,189,46336,6,0,L|128:230,1,70,8|0,2:0|0:0,0:0:0:0:
183,71,46597,2,0,L|102:135,1,70,4|0,0:0|0:0,0:0:0:0:
276,193,46858,2,0,L|209:115,1,70,8|0,0:0|0:0,0:0:0:0:
378,218,47119,6,0,L|322:372,2,140,4|8|4,0:0|0:0|0:0,0:0:0:0:
294,74,47771,1,0,0:3:0:0:
460,73,47901,1,8,2:0:0:0:
304,18,48032,6,0,L|142:47,1,140,4|0,0:0|0:0,0:0:0:0:
310,125,48423,1,8,2:0:0:0:
145,126,48553,1,0,0:3:0:0:
228,268,48684,2,0,L|317:318,1,70,4|0,0:0|0:0,0:0:0:0:
432,219,48945,5,8,2:0:0:0:
349,362,49075,1,0,0:0:0:0:
267,219,49206,6,0,L|160:93,2,140,4|8|4,0:0|0:0|0:0,0:0:0:0:
350,76,49858,5,0,2:3:0:0:
432,219,49988,1,8,0:0:0:0:
433,55,50119,1,4,2:0:0:0:
268,53,50249,2,0,L|172:15,2,70,0|0|8,0:0|0:0|0:0,0:0:0:0:
126,135,50640,1,0,0:3:0:0:
208,277,50771,6,0,L|290:216,1,70,4|0,2:0|0:0,0:0:0:0:
180,88,51032,2,0,L|194:190,1,70,8|0,0:0|0:0,0:0:0:0:
48,239,51293,6,0,L|-9:84,2,140,4|8|4,0:0|0:0|0:0,0:0:0:0:
129,96,51945,1,0,2:3:0:0:
213,237,52075,1,8,0:0:0:0:
57,294,52206,1,0,0:0:0:0:
200,374,52336,6,0,L|292:328,2,70,4|0|8,0:0|0:0|0:0,0:0:0:0:
362,354,52728,1,0,0:0:0:0:
449,275,52858,6,0,L|426:174,1,70,4|0,2:0|0:0,0:0:0:0:
265,223,53119,2,0,L|364:250,1,70,8|0,0:0|0:0,0:0:0:0:
274,84,53380,6,0,L|428:26,2,140,4|8|4,0:0|0:0|0:0,0:0:0:0:
402,190,54032,1,0,0:3:0:0:
239,163,54162,1,8,0:0:0:0:
297,317,54293,6,0,L|452:372,1,140,4|0,0:0|0:0,0:0:0:0:
369,209,54684,1,8,0:0:0:0:
255,351,54814,1,0,0:3:0:0:
182,164,54945,1,0,0:0:0:0:
152,363,55075,1,0,0:3:0:0:
290,189,55206,1,8,0:0:0:0:
63,279,55336,1,0,0:3:0:0:
328,317,55466,5,4,1:0:0:0:
97,136,55597,1,8,1:0:0:0:
97,136,55662,1,8,1:0:0:0:
97,136,55727,5,8,1:0:0:0:
418,183,55858,1,0,1:0:0:0:
131,28,55988,1,8,1:0:0:0:
141,354,56119,5,4,1:0:0:0:
296,64,56249,1,8,1:0:0:0:
0,251,56380,1,4,1:0:0:0:
386,237,56510,1,12,1:0:0:0:
11,39,56640,1,4,1:0:0:0:
433,23,56771,6,0,B|451:65|451:65|469:76|469:76|490:129,2,105.000004005432,8|0|0,2:1|2:0|2:0,2:0:0:0:
38,296,57553,6,0,L|259:364,2,210.000008010865,4|8|4,0:0|0:0|0:0,0:0:0:0:
165,179,58206,1,0,0:0:0:0:
329,63,58336,6,0,L|438:43,1,105.000004005432,8|4,0:0|0:0,0:0:0:0:
348,226,58597,1,0,0:0:0:0:
512,111,58727,1,4,0:0:0:0:
311,128,58858,6,0,L|201:147,1,105.000004005432,8|0,0:0|0:0,0:0:0:0:
322,310,59119,1,4,0:0:0:0:
407,129,59249,1,4,0:0:0:0:
240,241,59380,2,0,L|135:203,1,105.000004005432,8|0,0:0|0:0,0:0:0:0:
29,86,59640,6,0,L|246:165,2,210.000008010865,4|8|4,0:0|0:0|0:0,0:0:0:0:
46,286,60293,5,0,0:3:0:0:
210,171,60423,1,8,0:0:0:0:
127,353,60553,2,4,L|348:370,1,210.000008010865
319,170,60945,5,8,0:0:0:0:
155,284,61075,1,0,0:0:0:0:
355,268,61206,2,4,L|454:220,1,105.000004005432
335,58,61466,1,8,0:0:0:0:
250,239,61597,2,0,L|301:203,1,52.5000020027161
404,214,61727,6,0,B|454:135|454:135|451:92|451:92|513:0,2,210.000008010865,4|8|4,0:0|0:0|0:0,0:0:0:0:
223,128,62380,1,0,0:0:0:0:
388,15,62510,1,8,0:0:0:0:
189,31,62640,2,4,L|6:156,1,210.000008010865
195,234,63032,1,8,0:0:0:0:
32,348,63162,1,0,0:0:0:0:
230,330,63293,2,4,L|340:338,1,105.000004005432
317,140,63553,1,8,0:0:0:0:
429,303,63684,2,0,L|404:245,1,52.5000020027161
436,146,63814,6,0,B|369:80|369:80|327:74|327:74|248:-6,2,210.000008010865,4|8|4,0:0|0:0|0:0,0:0:0:0:
237,162,64466,1,0,0:0:0:0:
417,247,64597,1,8,0:0:0:0:
255,361,64727,6,4,L|34:339,1,210.000008010865
130,160,65119,1,8,0:0:0:0:
244,323,65249,1,0,0:0:0:0:
63,238,65380,1,4,0:0:0:0:
228,124,65510,1,0,0:0:0:0:
28,140,65640,1,8,0:0:0:0:
210,226,65771,1,0,0:0:0:0:
296,44,65901,6,0,L|75:22,2,210.000008010865,4|8|4,0:0|0:0|0:0,0:0:0:0:
210,226,66553,1,0,0:0:0:0:
96,61,66684,1,8,0:0:0:0:
278,147,66814,2,4,L|498:168,1,210.000008010865
372,330,67206,1,8,0:0:0:0:
388,130,67336,1,0,0:0:0:0:
275,296,67466,2,0,L|173:322,1,105.000004005432,4|0,0:0|0:0,0:0:0:0:
187,120,67727,1,8,0:0:0:0:
75,288,67858,1,0,0:3:0:0:
21,95,67988,6,0,L|4:315,2,210.000008010865,4|8|4,0:0|0:0|0:0,0:0:0:0:
189,207,68640,1,0,0:0:0:0:
99,26,68771,1,8,0:0:0:0:
302,39,68901,6,4,L|484:164,1,210.000008010865
294,247,69293,1,8,0:0:0:0:
306,45,69423,1,0,0:3:0:0:
195,214,69553,1,4,0:0:0:0:
396,225,69684,1,0,0:3:0:0:
217,316,69814,1,8,0:0:0:0:
228,116,69945,1,0,0:3:0:0:
118,283,70075,5,4,0:0:0:0:
318,295,70206,1,0,0:3:0:0:
228,116,70336,2,0,L|120:88,1,105.000004005432,8|0,0:0|0:0,0:0:0:0:
215,268,70597,5,4,0:0:0:0:
326,102,70727,1,0,0:0:0:0:
125,89,70858,2,0,L|47:168,1,105.000004005432,8|0,0:0|0:0,0:0:0:0:
220,266,71119,5,8,0:0:0:0:
399,278,71249,1,0,0:0:0:0:
187,272,71380,5,8,0:0:0:0:
388,172,71510,1,0,0:0:0:0:
154,298,71640,5,8,0:0:0:0:
309,65,71770,1,0,0:0:0:0:
131,340,71901,5,8,0:0:0:0:
210,19,72031,1,0,0:0:0:0:
303,336,72162,5,4,0:0:0:0:
63,108,72293,1,8,0:0:0:0:
63,108,72358,1,8,0:0:0:0:
63,108,72423,5,8,0:0:0:0:
386,186,72553,1,8,0:0:0:0:
68,281,72684,1,8,0:0:0:0:
297,40,72814,1,8,0:0:0:0:
219,363,72945,1,8,0:0:0:0:
448,123,73075,1,8,0:0:0:0:
130,217,73206,1,8,0:0:0:0:
486,342,73336,5,0,0:0:0:0:
233,55,73466,1,8,0:0:0:0:
23,375,73597,5,0,0:0:0:0:
364,202,73727,1,8,0:0:0:0:
13,53,73858,5,0,0:0:0:0:
242,357,73988,1,8,0:0:0:0:
391,7,74119,1,8,0:0:0:0:
130,201,74249,6,0,L|62:347,1,157.500006008148,4|0,2:1|2:1,2:1:0:0:
196,347,74510,2,0,L|307:356,1,105.000004005432,12|0,2:1|2:1,2:1:0:0:
283,155,74771,1,4,2:1:0:0:
398,320,74901,1,0,2:1:0:0:
484,139,75032,6,0,L|502:29,1,105.000004005432,12|4,2:1|2:1,2:1:0:0:
301,53,75293,1,0,2:1:0:0:
416,217,75423,1,4,2:1:0:0:
235,133,75553,6,0,L|138:77,1,105.000004005432,12|0,2:1|2:1,2:1:0:0:
58,262,75814,1,4,2:1:0:0:
42,63,75945,1,0,2:1:0:0:
156,228,76075,6,0,L|279:331,1,157.500006008148,12|4,2:1|2:1,2:1:0:0:
404,297,76336,2,0,L|494:232,1,105.000004005432,4|0,2:1|2:1,2:1:0:0:
308,150,76597,2,0,L|243:59,1,105.000004005432,12|0,2:1|2:1,2:1:0:0:
82,178,76858,1,4,2:1:0:0:
264,264,76988,1,0,2:1:0:0:
149,98,77119,6,0,L|47:51,1,105.000004005432,12|4,2:1|2:1,2:1:0:0:
69,254,77380,1,0,2:1:0:0:
235,141,77510,1,4,2:1:0:0:
147,321,77640,6,0,L|256:339,1,105.000004005432,12|0,2:1|2:1,2:1:0:0:
338,158,77901,1,4,2:1:0:0:
351,357,78032,1,0,2:1:0:0:
440,179,78162,6,0,L|354:42,1,157.500006008148,12|0,2:1|2:1,2:1:0:0:
225,37,78423,2,0,L|258:143,1,105.000004005432,4|0,2:1|2:1,2:1:0:0:
370,302,78684,2,0,L|261:277,1,105.000004005432,12|0,2:1|2:1,2:1:0:0:
255,81,78945,1,4,2:1:0:0:
166,258,79075,1,0,2:1:0:0:
332,150,79206,6,0,L|430:98,1,105.000004005432,12|4,2:1|2:1,2:1:0:0:
436,297,79466,1,0,2:1:0:0:
494,110,79597,1,4,2:1:0:0:
350,242,79727,6,0,L|251:293,1,105.000004005432,12|0,2:1|2:1,2:1:0:0:
212,99,79988,1,4,2:1:0:0:
155,287,80119,1,0,2:1:0:0:
110,95,80249,6,0,L|252:19,1,157.500006008148,12|0,2:1|2:1,2:1:0:0:
367,79,80510,2,0,L|465:130,1,105.000004005432,4|0,2:1|2:1,2:1:0:0:
403,315,80771,2,0,L|327:233,1,105.000004005432,12|0,2:1|2:1,2:1:0:0:
141,281,81032,1,4,2:1:0:0:
327,337,81162,1,0,2:1:0:0:
283,148,81293,1,12,2:1:0:0:
228,339,81423,6,4,L|14:322,1,210.000008010865,4|4,2:1|2:1,2:1:0:0:
0,200,81814,2,4,L|109:220,1,105.000004005432,12|0,2:1|2:1,2:1:0:0:
59,29,82075,1,4,0:0:0:0:
3,215,82206,1,0,0:0:0:0:
193,171,82336,1,8,0:0:0:0:
7,115,82466,1,0,0:0:0:0:
197,71,82597,6,0,L|351:23,1,157.500006008148,4|0,0:0|0:0,0:0:0:0:
450,103,82858,2,0,L|397:200,1,105.000004005432,8|0,0:1|0:1,0:1:0:0:
226,107,83119,1,4,0:0:0:0:
421,97,83249,1,0,0:0:0:0:
257,203,83380,1,8,0:0:0:0:
151,38,83510,6,0,L|29:215,1,210.000008010865,4|0,0:1|0:1,0:1:0:0:
116,302,83901,2,0,L|169:204,1,105.000004005432,8|0,0:1|0:1,0:1:0:0:
326,187,84162,2,0,L|247:108,1,105.000004005432,4|0,0:1|0:1,0:1:0:0:
442,69,84423,1,8,0:1:0:0:
383,255,84553,1,0,0:1:0:0:
256,112,84684,6,0,L|108:45,1,157.500006008148,4|0,0:1|0:1,0:1:0:0:
0,112,84945,2,0,L|40:214,1,105.000004005432,8|0,0:1|0:1,0:1:0:0:
219,136,85206,1,4,0:1:0:0:
65,15,85336,1,0,0:1:0:0:
138,197,85466,1,8,0:1:0:0:
260,43,85597,6,0,L|471:4,1,210.000008010865,4|0,0:1|0:1,0:1:0:0:
510,119,85988,2,0,L|458:217,1,105.000004005432,8|0,0:1|0:1,0:1:0:0:
307,91,86249,1,4,0:0:0:0:
379,272,86380,1,0,0:0:0:0:
408,80,86510,1,8,0:0:0:0:
227,150,86640,1,0,0:0:0:0:
297,333,86771,5,4,0:0:0:0:
420,180,86901,1,0,0:0:0:0:
227,150,87032,2,0,L|140:220,1,105.000004005432,8|0,0:0|0:0,0:0:0:0:
356,261,87293,5,4,0:0:0:0:
270,40,87423,1,0,0:0:0:0:
123,224,87554,2,0,L|145:356,1,105.000004005432,8|0,1:0|0:0,0:0:0:0:
397,348,87814,5,8,0:0:0:0:
209,319,87944,1,0,0:0:0:0:
419,341,88075,5,8,0:0:0:0:
240,198,88205,1,0,0:0:0:0:
445,348,88336,5,8,0:0:0:0:
345,91,88466,1,0,0:0:0:0:
453,360,88597,5,8,0:0:0:0:
489,87,88727,1,0,0:0:0:0:
210,204,88858,5,4,0:0:0:0:
511,243,88988,1,0,0:0:0:0:
269,58,89119,2,0,L|176:-4,1,105.000004005432,8|0,0:0|0:0,0:0:0:0:
297,280,89380,5,4,0:0:0:0:
482,40,89510,1,0,0:3:0:0:
184,0,89640,5,8,0:0:0:0:
470,220,89770,1,0,0:3:0:0:
137,358,89901,5,8,2:1:0:0:
6,255,90031,6,0,L|66:355,1,105.000004005432,4|0,2:1|2:1,2:1:0:0:
60,215,90292,6,0,L|62:332,1,105.000004005432,4|0,2:1|2:1,2:1:0:0:
126,206,90553,6,0,L|69:307,1,105.000004005432,4|0,2:1|2:1,2:1:0:0:
188,231,90814,5,8,2:1:0:0:
333,319,90945,6,0,B|403:256|403:256|411:215|411:215|497:142,2,210.000008010865,4|8|4,0:0|0:0|0:0,0:0:0:0:
252,171,91597,1,0,0:0:0:0:
420,174,91727,1,8,0:0:0:0:
277,87,91858,6,0,P|173:91|94:157,1,210.000008010865,4|0,0:0|0:3,0:3:0:0:
239,238,92249,1,8,0:0:0:0:
94,319,92380,1,0,0:0:0:0:
261,322,92510,1,4,0:0:0:0:
180,175,92640,1,0,0:0:0:0:
177,343,92771,1,8,0:0:0:0:
323,261,92902,2,0,P|346:249|356:225,1,52.5000020027161
472,212,93032,6,0,P|511:106|476:3,2,210.000008010865,4|8|4,0:0|0:0|0:0,0:0:0:0:
329,126,93684,1,0,0:0:0:0:
495,128,93814,1,8,0:0:0:0:
412,272,93945,6,0,B|320:289|320:289|291:319|291:319|179:337,1,210.000008010865,4|0,0:0|0:0,0:0:0:0:
136,187,94336,1,8,0:0:0:0:
51,328,94466,1,0,0:0:0:0:
196,249,94597,6,0,P|234:214|243:163,1,105.000004005432,4|0,0:0|0:3,0:3:0:0:
101,77,94858,1,8,0:0:0:0:
267,81,94988,1,0,0:0:0:0:
121,160,95119,6,0,L|191:287,1,105.000004005432,4|0,0:0|0:3,0:3:0:0:
254,103,95380,1,8,0:0:0:0:
251,267,95510,1,0,0:0:0:0:
396,189,95640,6,0,L|439:47,1,105.000004005432,4|0,0:0|0:3,0:3:0:0:
279,175,95901,1,8,0:0:0:0:
446,179,96032,1,4,0:0:0:0:
279,273,96162,5,0,0:0:0:0:
376,108,96293,1,4,0:0:0:0:
375,329,96423,5,8,0:0:0:0:
265,137,96554,1,0,0:0:0:0:
486,266,96684,5,4,0:0:0:0:
230,264,96815,1,4,0:0:0:0:
487,120,96945,5,8,0:0:0:0:
336,373,97076,1,0,0:0:0:0:
193,116,97206,6,0,B|111:69|111:69|70:74|70:74|-27:16,2,210.000008010865,4|8|4,0:0|0:0|0:0,0:0:0:0:
337,38,97858,1,0,0:0:0:0:
250,177,97988,2,0,P|228:189|202:184,1,52.5000020027161,8|0,0:0|0:0,0:0:0:0:
87,215,98119,6,0,P|165:296|273:310,1,210.000008010865,4|0,0:0|0:0,0:0:0:0:
343,172,98510,1,8,0:0:0:0:
198,249,98640,1,0,0:0:0:0:
338,337,98771,1,4,0:0:0:0:
236,145,98901,1,8,0:0:0:0:
453,153,99032,1,8,0:0:0:0:
270,39,99162,1,8,0:0:0:0:
485,46,99293,6,0,P|499:148|451:239,2,210.000008010865,4|8|4,0:0|0:0|0:0,0:0:0:0:
341,126,99945,1,0,0:0:0:0:
505,128,100075,1,8,0:0:0:0:
365,45,100206,6,0,B|273:20|273:20|235:36|235:36|126:5,1,210.000008010865,4|0,0:0|0:0,0:0:0:0:
243,158,100597,1,8,0:0:0:0:
328,19,100727,1,0,0:0:0:0:
184,96,100858,6,0,P|143:128|130:178,1,105.000004005432,4|0,0:0|0:3,0:3:0:0:
292,181,101119,1,8,0:0:0:0:
150,259,101249,1,0,0:0:0:0:
288,342,101380,6,0,B|380:322|380:322|407:290|407:290|518:270,2,210.000008010865,4|8|4,0:0|0:0|0:0,0:0:0:0:
292,181,102032,1,0,0:0:0:0:
369,322,102162,1,8,0:0:0:0:
452,185,102293,6,0,P|421:86|339:24,1,210.000008010865,4|0,0:0|0:0,0:0:0:0:
198,102,102684,1,8,0:0:0:0:
335,183,102814,1,0,0:0:0:0:
257,45,102945,1,4,0:0:0:0:
255,203,103075,1,0,0:0:0:0:
393,126,103206,1,8,0:0:0:0:
390,284,103336,1,0,0:0:0:0:
472,149,103466,6,0,P|423:58|331:12,2,210.000008010865,4|8|4,0:0|0:0|0:0,0:0:0:0:
333,225,104119,1,0,0:0:0:0:
469,308,104249,1,8,0:0:0:0:
328,384,104380,6,0,B|234:372|234:372|204:342|204:342|131:335,1,210.000008010865,4|0,0:0|0:0,0:0:0:0:
55,196,104771,1,12,0:0:0:0:
252,199,104901,1,0,0:0:0:0:
35,319,105032,5,8,0:0:0:0:
184,72,105162,1,8,0:0:0:0:
324,325,105293,1,8,0:0:0:0:
14,137,105423,1,4,0:0:0:0:
468,149,105553,1,4,0:0:0:0:
163,189,106597,5,8,2:1:0:0:
47,70,106727,6,0,P|47:133|94:177,1,105.000004005432,4|0,2:1|2:1,2:1:0:0:
104,38,106988,6,0,P|73:92|91:154,1,105.000004005432,4|0,2:1|2:1,2:1:0:0:
172,37,107249,6,0,P|117:69|103:131,1,105.000004005432,4|0,2:1|2:1,2:1:0:0:
230,68,107510,5,8,2:1:0:0:
432,122,107640,2,0,L|490:208,1,105,4|8,2:0|2:0,2:0:0:0:
456,338,108031,2,0,L|398:252,1,105,4|8,2:0|2:0,2:0:0:0:
264,234,108423,2,8,L|322:321,1,105,4|0,2:0|2:0,2:0:0:0:
268,120,108814,5,8,2:0:0:0:
370,137,108945,1,4,2:3:0:0:
305,217,109075,1,4,2:3:0:0:
103,163,109206,6,0,P|130:206|178:225,1,105.000004005432,4|8,2:0|2:0,2:0:0:0:
283,142,109597,6,0,P|237:166|186:158,1,105.000004005432,4|8,2:0|2:0,2:0:0:0:
135,35,109988,6,0,P|162:78|211:96,1,105.000004005432,4|0,2:0|2:0,2:0:0:0:
413,150,110380,5,8,2:0:0:0:
345,73,110510,1,8,2:0:0:0:
198,221,110771,6,0,L|270:296,1,105,4|8,2:0|2:0,2:0:0:0:
405,292,111162,6,0,L|332:217,1,105,4|8,2:0|2:0,2:0:0:0:
346,84,111553,6,0,L|418:158,1,105,4|0,2:0|2:0,2:0:0:0:
216,105,111945,5,8,2:0:0:0:
282,25,112076,1,8,2:0:0:0:
93,115,112336,6,0,P|112:146|147:160,1,52.5000020027161,4|0,2:0|2:0,2:0:0:0:
226,171,112597,1,8,2:0:0:0:
323,134,112727,6,0,P|321:171|298:200,1,52.5000020027161,4|0,2:0|2:0,2:0:0:0:
235,248,112988,1,8,2:0:0:0:
410,313,113119,6,4,B|344:257|313:212|313:212|412:205|463:171|463:171|409:137|409:137|425:50|425:50|378:90|261:124|261:124|149:90|102:50|102:50|118:137|118:137|64:171|64:171|115:205|214:212|214:212|183:257|114:313,1,1260.00004806519,4|4,0:2|0:2,0:2:0:0:
