osu file format v14

[General]
AudioFilename: yume.mp3
AudioLeadIn: 0
PreviewTime: 96578
Countdown: 0
SampleSet: Soft
StackLeniency: 0.4
Mode: 0
LetterboxInBreaks: 0
WidescreenStoryboard: 0

[Editor]
Bookmarks: 190244,195411
DistanceSpacing: 1.2
BeatDivisor: 3
GridSize: 4
TimelineZoom: 2.5

[Metadata]
Title:Yume Chizu
TitleUnicode:夢地図
Artist:ITO KASHITARO
ArtistUnicode:伊東歌詞太郎
Creator:Nevo
Version:Shira's Light Insane
Source:
Tags:40mp 40Meter-P dream map cover utaite itou kashitarou armin a_r_m_i_n happyrocket88 shogunmoon byd bite you death shiratoi renumi shunao
BeatmapID:1513113
BeatmapSetID:690977

[Difficulty]
HPDrainRate:5
CircleSize:4
OverallDifficulty:7
ApproachRate:8.5
SliderMultiplier:1.6
SliderTickRate:1

[Events]
//Background and Video events
0,0,"bg.jpg",0,0
//Break Periods
2,128911,133569
//Storyboard Layer 0 (Background)
//Storyboard Layer 1 (Fail)
//Storyboard Layer 2 (Pass)
//Storyboard Layer 3 (Foreground)
//Storyboard Sound Samples

[TimingPoints]
6079,333.333333333333,4,2,2,65,1,0
6079,-117.647058823529,4,2,2,65,0,0
6328,-117.647058823529,4,2,2,5,0,0
6412,-117.647058823529,4,2,2,65,0,0
6828,-117.647058823529,4,2,2,5,0,0
6912,-117.647058823529,4,2,2,65,0,0
7162,-117.647058823529,4,2,2,5,0,0
7245,-117.647058823529,4,2,2,65,0,0
8078,-117.647058823529,4,2,1,65,0,0
8245,-117.647058823529,4,2,2,65,0,0
8995,-117.647058823529,4,2,2,5,0,0
9078,-117.647058823529,4,2,2,65,0,0
11412,-111.111111111111,4,2,2,65,0,0
19662,-111.111111111111,4,2,2,5,0,0
19745,-111.111111111111,4,2,2,55,0,0
20328,-111.111111111111,4,2,2,5,0,0
20412,-111.111111111111,4,2,2,55,0,0
20995,-111.111111111111,4,2,2,5,0,0
21078,-111.111111111111,4,2,2,55,0,0
22162,-111.111111111111,4,2,2,5,0,0
22245,333.333333333333,4,2,2,55,1,0
22245,-125,4,2,2,55,0,0
32078,-125,4,2,3,55,0,0
32911,-117.647058823529,4,2,2,55,0,0
35078,-117.647058823529,4,2,1,55,0,0
35494,-117.647058823529,4,2,2,55,0,0
37744,-117.647058823529,4,2,1,55,0,0
38244,-117.647058823529,4,2,2,55,0,0
38578,-117.647058823529,4,2,3,55,0,0
39578,-117.647058823529,4,2,2,55,0,0
41911,-117.647058823529,4,2,1,55,0,0
42078,-117.647058823529,4,2,2,55,0,0
43578,-125,4,2,2,55,0,0
48911,-111.111111111111,4,2,2,55,0,0
53578,-166.666666666667,4,2,2,55,0,0
53828,-166.666666666667,4,2,2,5,0,0
53911,-166.666666666667,4,2,2,70,0,0
54161,-166.666666666667,4,2,2,5,0,0
54244,-100,4,2,2,80,0,1
59161,-100,4,2,2,5,0,1
59244,-100,4,2,2,80,0,1
59494,-100,4,2,2,5,0,1
59578,-100,4,2,2,80,0,1
63411,-100,4,2,2,80,0,0
64244,-111.111111111111,4,2,2,80,0,0
64911,-100,4,2,2,80,0,1
67161,-100,4,2,2,5,0,1
67244,-100,4,2,2,80,0,1
67494,-100,4,2,2,5,0,1
67578,-100,4,2,2,80,0,1
74328,-100,4,2,2,5,0,1
74411,-100,4,2,2,80,0,1
74661,-100,4,2,2,5,0,1
74744,-100,4,2,2,80,0,1
74994,-100,4,2,2,5,0,1
75078,-100,4,2,2,80,0,1
75411,-111.111111111111,4,2,2,65,0,0
91661,-111.111111111111,4,2,2,5,0,0
91744,-111.111111111111,4,2,2,65,0,0
94328,-111.111111111111,4,2,2,5,0,0
94411,-111.111111111111,4,2,2,65,0,0
95661,-111.111111111111,4,2,2,5,0,0
95744,-111.111111111111,4,2,2,65,0,0
96911,-142.857142857143,4,2,2,65,0,0
97245,-142.857142857143,4,1,1,55,0,0
98078,-142.857142857143,4,2,2,65,0,0
98578,-142.857142857143,4,1,1,55,0,0
99578,-142.857142857143,4,2,2,65,0,0
99911,-142.857142857143,4,1,1,55,0,0
100745,-142.857142857143,4,2,2,65,0,0
101245,-142.857142857143,4,1,1,55,0,0
102245,-142.857142857143,4,2,2,65,0,0
102578,-142.857142857143,4,1,1,55,0,0
103411,-142.857142857143,4,2,2,65,0,0
103911,-142.857142857143,4,1,1,55,0,0
104911,-142.857142857143,4,2,2,65,0,0
105245,-142.857142857143,4,1,1,55,0,0
106078,-142.857142857143,4,2,2,65,0,0
107578,-125,4,2,2,60,0,0
112828,-125,4,2,2,5,0,0
112911,-100,4,2,2,70,0,1
113161,-100,4,2,2,5,0,1
113244,-100,4,2,2,80,0,1
114245,-100,4,2,2,85,0,1
115578,-100,4,2,2,90,0,1
116911,-100,4,2,2,95,0,1
117994,-100,4,2,2,55,0,1
118078,-142.857142857143,4,2,2,55,0,0
118328,-142.857142857143,4,2,2,5,0,0
118411,-166.666666666667,4,2,2,55,0,0
120744,-125,4,2,2,55,0,0
121911,-125,4,2,3,55,0,0
122245,-125,4,2,2,55,0,0
123411,-125,4,2,2,70,0,0
124245,-125,4,2,3,70,0,0
124578,-125,4,2,2,70,0,0
125578,-125,4,2,3,70,0,0
125911,-125,4,2,2,70,0,0
126244,-111.111111111111,4,2,2,70,0,0
127911,-111.111111111111,4,2,2,55,0,0
128494,-111.111111111111,4,2,2,5,0,0
128578,-111.111111111111,4,2,2,55,0,0
128828,-111.111111111111,4,2,2,5,0,0
128911,-111.111111111111,4,2,2,40,0,0
134244,-142.857142857143,4,2,2,40,0,0
136911,-142.857142857143,4,2,2,55,0,0
139161,-142.857142857143,4,2,2,5,0,0
139244,-142.857142857143,4,2,2,75,0,0
139494,-142.857142857143,4,2,2,5,0,0
139578,-100,4,2,2,90,0,1
147411,-100,4,2,2,90,0,0
148578,-100,4,2,2,75,0,0
149578,-111.111111111111,4,2,2,75,0,0
149661,-111.111111111111,4,2,2,76,0,0
149744,-111.111111111111,4,2,2,77,0,0
149828,-111.111111111111,4,2,2,78,0,0
149911,-111.111111111111,4,2,2,79,0,0
149994,-111.111111111111,4,2,2,80,0,0
150078,-111.111111111111,4,2,2,81,0,0
150161,-111.111111111111,4,2,2,82,0,0
150244,-100,4,2,2,85,0,1
158244,-111.111111111111,4,2,2,85,0,0
160744,-100,4,2,2,85,0,1
168744,333.333333333333,4,2,2,70,1,0
168744,-111.111111111111,4,2,2,70,0,0
188327,-111.111111111111,4,2,2,5,0,0
188410,-111.111111111111,4,2,2,70,0,0
188993,-111.111111111111,4,2,2,5,0,0
189077,-111.111111111111,4,2,2,70,0,0
189660,-111.111111111111,4,2,2,5,0,0
189743,-111.111111111111,4,2,2,70,0,0
195077,-111.111111111111,4,2,2,5,0,0

[Colours]
Combo1 : 128,128,128
Combo2 : 128,0,0
Combo3 : 252,201,131

[HitObjects]
162,357,6078,5,6,3:2:0:0:
252,209,6412,1,0,3:0:0:0:
171,255,6578,2,0,L|88:261,1,68.0000012969971,0|0,3:0|0:0,0:0:0:0:
35,156,6912,2,0,L|170:165,1,136.000002593994,6|0,3:2|0:0,0:0:0:0:
266,108,7412,5,0,3:0:0:0:
252,209,7578,2,0,L|261:296,2,68.0000012969971,2|0|0,0:0|3:0|3:0,0:0:0:0:
180,73,8078,1,10,0:3:0:0:
170,165,8245,1,8,0:0:0:0:
325,136,8412,2,0,P|298:115|265:107,1,68.0000012969971,8|8,0:3|0:3,0:0:0:0:
347,227,8745,6,0,B|398:210|398:210|436:222|436:222|481:205,1,136.000002593994,6|0,3:2|0:0,0:0:0:0:
430,73,9245,2,0,P|427:123|448:159,1,68.0000012969971,2|0,0:0|0:0,0:0:0:0:
350,292,9578,2,0,P|353:242|332:206,1,68.0000012969971,6|8,3:2|0:0,0:0:0:0:
275,352,9912,1,8,0:3:0:0:
422,350,10078,5,8,0:3:0:0:
270,263,10245,2,0,L|202:261,1,68.0000012969971,0|0,3:0|0:0,0:0:0:0:
54,346,10578,1,12,3:2:0:0:
112,249,10745,2,0,L|117:204,3,34.0000006484985,0|0|2|2,0:0|0:0|0:0|0:0,0:0:0:0:
89,178,11078,2,0,L|85:144,3,34.0000006484985,2|2|2|0,0:0|0:0|0:0|0:0,0:0:0:0:
113,99,11412,6,0,B|211:110|211:110|258:75,1,143.999995605469,6|2,3:2|3:2,0:0:0:0:
332,34,11912,1,10,0:0:0:0:
328,170,12078,1,2,0:0:0:0:
462,96,12245,2,0,L|383:99,1,71.9999978027344,2|0,3:2|3:0,0:0:0:0:
247,82,12578,1,10,0:0:0:0:
317,239,12745,6,0,P|329:180|318:145,1,71.9999978027344,2|0,3:1|0:2,0:0:0:0:
225,282,13078,2,0,P|213:341|224:376,1,71.9999978027344,2|8,3:1|0:0,0:0:0:0:
388,242,13412,2,0,L|306:238,1,71.9999978027344,2|0,0:1|3:0,0:0:0:0:
153,285,13745,2,0,L|224:281,1,71.9999978027344,2|8,3:1|0:0,0:0:0:0:
399,374,14078,6,0,B|378:324|378:324|400:283|400:283|386:236,1,143.999995605469,6|2,3:2|3:2,0:0:0:0:
314,162,14578,1,10,0:0:0:0:
454,162,14745,1,2,0:0:0:0:
381,45,14912,2,0,L|385:131,1,71.9999978027344,2|0,3:2|3:0,0:0:0:0:
387,241,15245,1,10,0:0:0:0:
244,170,15412,6,0,P|283:158|324:165,1,71.9999978027344,2|0,3:1|0:0,0:0:0:0:
189,250,15745,2,0,P|150:262|109:255,1,71.9999978027344,2|8,3:1|0:0,0:0:0:0:
247,98,16078,2,0,L|243:179,1,71.9999978027344,2|0,0:1|3:0,0:0:0:0:
192,321,16412,2,0,L|188:249,1,71.9999978027344,2|8,3:1|0:0,0:0:0:0:
105,92,16745,6,0,B|153:107|153:107|251:97,1,143.999995605469,6|0,3:2|0:0,0:0:0:0:
334,42,17245,1,10,0:0:0:0:
336,172,17412,1,0,0:0:0:0:
246,97,17578,2,0,P|229:54|234:13,2,71.9999978027344,0|2|8,3:0|3:2|0:0,0:0:0:0:
336,172,18078,5,0,0:0:0:0:
476,99,18245,2,0,L|393:106,1,71.9999978027344,2|0,3:2|0:0,0:0:0:0:
334,42,18578,1,8,0:0:0:0:
336,172,18745,2,0,B|319:257|370:219|344:329,1,143.999995605469,2|0,0:0|3:0,0:0:0:0:
278,366,19245,1,8,0:0:0:0:
138,289,19412,6,0,B|183:264|183:264|280:277,1,143.999995605469,6|0,3:2|3:0,0:0:0:0:
417,201,19912,1,8,0:0:0:0:
274,276,20078,2,0,P|257:223|274:116,1,143.999995605469,6|0,3:2|3:0,0:0:0:0:
334,42,20578,1,8,0:0:0:0:
265,136,20745,6,0,B|220:161|220:161|123:148,1,143.999995605469,6|0,3:2|3:0,0:0:0:0:
37,77,21245,1,8,0:0:0:0:
66,226,21412,2,0,L|72:279,2,35.9999989013672,8|8|8,0:0|0:0|0:0,0:0:0:0:
128,148,21745,1,8,0:0:0:0:
166,280,21912,6,0,P|219:273|273:275,1,107.999996704102,8|0,0:2|0:0,0:0:0:0:
308,257,22245,2,0,P|378:259|448:250,2,128,2|0|0,3:2|3:0|3:0,0:0:0:0:
243,181,23078,1,0,0:0:0:0:
297,102,23245,1,0,3:0:0:0:
212,91,23411,6,0,L|140:88,1,64,2|0,0:0|3:0,0:0:0:0:
115,186,23745,2,0,L|242:180,1,128,0|0,0:0|0:0,0:0:0:0:
297,102,24244,1,0,3:0:0:0:
334,195,24411,2,0,L|335:272,1,64,0|0,0:0|3:0,0:0:0:0:
402,332,24744,1,0,0:0:0:0:
428,223,24911,6,0,L|429:95,2,128,2|0|0,3:2|3:0|3:0,0:0:0:0:
490,299,25744,1,0,0:0:0:0:
402,332,25911,1,0,3:0:0:0:
270,262,26078,6,0,L|347:258,1,64,2|0,0:0|3:0,0:0:0:0:
312,349,26411,2,0,L|184:342,1,128,0|0,0:0|0:0,0:0:0:0:
92,296,26911,1,0,3:0:0:0:
178,249,27078,2,0,L|183:159,1,64,0|0,0:0|3:0,0:0:0:0:
119,88,27411,1,8,0:3:0:0:
130,96,27494,1,8,0:3:0:0:
140,105,27578,6,0,L|272:100,2,128,2|0|0,3:2|3:0|3:0,0:0:0:0:
102,190,28411,1,0,0:0:0:0:
178,249,28578,1,0,3:0:0:0:
265,164,28744,6,0,L|269:75,1,64,2|0,0:0|3:0,0:0:0:0:
368,42,29078,2,0,L|370:105,1,64,2|0,0:0|3:0,0:0:0:0:
262,227,29411,2,0,L|266:138,1,64,2|0,0:0|3:0,0:0:0:0:
378,239,29745,2,0,L|380:302,1,64,2|0,0:0|3:0,0:0:0:0:
256,354,30078,6,0,L|262:211,1,128,2|0,0:0|0:0,0:0:0:0:
339,137,30578,1,0,3:0:0:0:
378,239,30744,1,0,0:0:0:0:
261,226,30911,2,0,L|181:230,1,64,0|0,3:0|0:0,0:0:0:0:
100,323,31244,2,0,L|180:327,1,64,2|0,3:0|0:0,0:0:0:0:
89,226,31578,6,0,L|9:230,1,64,2|0,3:0|0:0,0:0:0:0:
163,131,31911,1,2,3:0:0:0:
247,206,32078,1,0,0:0:0:0:
254,215,32161,1,2,0:3:0:0:
261,226,32244,2,0,L|257:143,1,64,0|0,3:0|0:0,0:0:0:0:
260,152,32494,1,2,0:3:0:0:
259,139,32578,2,0,L|159:131,1,96,0|0,3:0|0:0,0:0:0:0:
131,113,32911,6,0,P|140:76|142:39,1,68.0000012969971,6|0,3:2|0:0,0:0:0:0:
259,139,33244,2,0,L|412:132,1,136.000002593994,2|0,3:2|3:0,0:0:0:0:
489,196,33744,1,2,0:0:0:0:
475,72,33911,1,0,3:0:0:0:
390,200,34078,6,0,L|396:115,1,68.0000012969971,8|2,0:0|3:2,0:0:0:0:
254,71,34411,2,0,L|258:138,1,68.0000012969971,0|0,0:0|3:0,0:0:0:0:
385,267,34744,2,0,L|391:182,1,68.0000012969971,10|2,0:0|3:2,0:0:0:0:
475,72,35078,1,10,0:3:0:0:
489,196,35244,1,10,3:3:0:0:
480,47,35411,1,10,0:3:0:0:
478,219,35578,6,0,L|484:370,1,136.000002593994,6|2,3:2|3:2,0:0:0:0:
385,267,36078,1,0,0:0:0:0:
322,344,36244,2,0,L|239:335,1,68.0000012969971,0|2,3:0|0:0,0:0:0:0:
142,354,36578,1,0,3:0:0:0:
167,240,36744,6,0,L|234:232,1,68.0000012969971,8|2,0:0|3:2,0:0:0:0:
142,354,37078,2,0,L|75:346,1,68.0000012969971,0|0,0:0|3:0,0:0:0:0:
162,172,37411,2,0,L|168:260,1,68.0000012969971,14|2,0:0|3:2,0:0:0:0:
69,124,37744,1,10,0:3:0:0:
251,116,37911,1,10,3:3:0:0:
59,97,38078,1,10,0:3:0:0:
260,148,38244,6,0,B|338:119|325:178|397:139,1,136.000002593994,6|6,3:2|3:0,0:0:0:0:
466,73,38744,1,0,0:0:0:0:
484,173,38911,2,0,P|494:214|486:252,1,68.0000012969971,2|4,3:0|0:3,0:0:0:0:
405,293,39244,1,2,3:0:0:0:
391,142,39411,1,2,0:3:0:0:
298,228,39578,6,0,L|312:375,1,136.000002593994,2|0,3:2|3:0,0:0:0:0:
193,318,40078,1,2,0:0:0:0:
230,225,40244,2,0,L|311:228,1,68.0000012969971,0|0,3:0|0:0,0:0:0:0:
391,142,40578,1,10,0:0:0:0:
395,137,40661,1,8,0:0:0:0:
400,130,40744,1,8,0:0:0:0:
241,101,40911,6,0,P|260:161|230:224,1,136.000002593994,6|0,3:2|0:0,0:0:0:0:
120,224,41411,1,10,0:0:0:0:
125,107,41578,1,8,0:0:0:0:
241,101,41744,2,0,L|320:107,1,68.0000012969971,8|10,0:3|0:3,0:0:0:0:
398,6,42078,6,0,B|389:51|389:51|406:92|406:92|391:149,1,136.000002593994,6|0,3:2|3:0,0:0:0:0:
470,238,42578,2,0,L|393:243,1,68.0000012969971,8|6,0:0|3:2,0:0:0:0:
260,193,42911,2,0,P|293:199|327:192,1,68.0000012969971,0|0,0:0|3:0,0:0:0:0:
293,299,43244,2,0,L|297:348,3,34.0000006484985,8|8|8|8,0:0|0:0|0:0|0:0,0:0:0:0:
282,368,43578,6,0,B|235:343|235:343|151:360,1,128,6|2,3:2|0:3,0:0:0:0:
42,352,44078,2,0,P|73:313|63:225,1,128,8|0,0:0|0:0,0:0:0:0:
179,208,44578,2,0,P|167:256|178:299,1,64,8|0,0:0|0:0,0:0:0:0:
324,248,44911,6,0,L|239:253,1,64,0|0,3:0|0:0,0:0:0:0:
255,147,45244,2,0,L|340:152,1,64,2|8,0:3|0:0,0:0:0:0:
405,228,45578,2,0,P|407:271|393:303,1,64,0|0,0:0|0:0,0:0:0:0:
500,344,45911,2,0,P|491:313|495:281,1,64,12|0,0:0|0:0,0:0:0:0:
478,139,46244,6,0,L|348:144,1,128,6|2,3:2|0:3,0:0:0:0:
245,52,46744,2,0,L|375:57,1,128,10|0,0:0|0:0,0:0:0:0:
475,75,47244,2,0,L|478:158,1,64,10|0,0:0|0:0,0:0:0:0:
347,207,47578,6,0,L|349:143,1,64,2|0,3:2|0:0,0:0:0:0:
245,52,47911,2,0,L|248:135,1,64,2|10,0:3|0:0,0:0:0:0:
117,184,48245,2,0,L|119:120,1,64,0|0,0:0|0:0,0:0:0:0:
211,197,48578,2,0,P|160:184|101:185,1,96,12|0,0:0|0:0,0:0:0:0:
67,198,48911,6,0,L|73:255,5,35.9999989013672,4|8|8|8|8|8,3:2|0:0|0:0|0:0|0:0|0:0,0:0:0:0:
96,272,49411,2,0,L|92:307,5,35.9999989013672,4|8|8|8|8|8,3:2|0:0|0:0|0:0|0:0|0:0,0:0:0:0:
118,348,49911,2,0,L|201:344,1,71.9999978027344,4|8,3:2|0:0,0:0:0:0:
292,306,50244,6,0,L|343:317,5,35.9999989013672,4|8|8|8|8|8,3:2|0:0|0:0|0:0|0:0|0:0,0:0:0:0:
360,308,50744,2,0,L|395:300,5,35.9999989013672,4|8|8|8|8|8,3:2|0:0|0:0|0:0|0:0|0:0,0:0:0:0:
426,308,51244,2,0,L|420:225,1,71.9999978027344,4|8,3:2|0:0,0:0:0:0:
498,136,51578,6,0,B|460:156|460:156|405:142|405:142|341:168,1,143.999995605469,6|8,3:2|0:0,0:0:0:0:
275,81,52078,1,8,0:0:0:0:
281,240,52244,1,8,3:2:0:0:
363,158,52411,1,8,3:2:0:0:
220,159,52578,2,0,L|126:165,1,71.9999978027344,8|8,0:0|0:0,0:0:0:0:
62,248,52911,6,0,L|71:296,3,35.9999989013672,10|10|10|0,0:0|0:0|0:0|0:0,0:0:0:0:
122,347,53244,1,2,3:2:0:0:
220,159,53578,6,0,P|182:107|181:66,1,95.9999970703126,0|0,0:0|0:0,0:0:0:0:
436,236,54244,6,0,B|387:219|387:219|263:243,1,160,6|8,3:2|0:0,0:0:0:0:
201,314,54744,1,0,0:0:0:0:
280,239,54911,2,0,P|308:297|304:328,1,80,0|0,3:0|3:0,0:0:0:0:
389,373,55244,1,8,0:0:0:0:
436,236,55411,6,0,L|415:64,1,160,0|0,0:0|0:0,0:0:0:0:
336,23,55911,2,0,L|237:31,1,80,8|2,0:0|0:0,0:0:0:0:
118,115,56244,1,0,3:0:0:0:
156,11,56411,1,0,3:0:0:0:
297,113,56578,2,0,L|198:121,1,80,10|0,0:0|0:0,0:0:0:0:
61,244,56911,6,0,P|119:191|106:96,1,160,6|8,3:2|0:0,0:0:0:0:
20,143,57411,1,0,0:0:0:0:
61,244,57578,2,0,P|118:236|159:249,1,80,0|0,3:0|3:0,0:0:0:0:
228,340,57911,1,8,0:0:0:0:
318,202,58078,6,0,L|331:375,1,160,0|0,0:0|0:0,0:0:0:0:
426,363,58578,2,0,L|433:259,1,80,8|2,0:0|0:0,0:0:0:0:
406,116,58911,1,0,3:0:0:0:
318,202,59078,1,0,3:0:0:0:
495,224,59244,2,0,L|487:120,1,80,10|0,0:0|0:0,0:0:0:0:
313,14,59578,6,0,P|388:45|403:126,1,160,6|8,3:2|0:0,0:0:0:0:
318,202,60078,1,0,0:0:0:0:
240,109,60244,2,0,L|348:98,1,80,0|0,3:0|3:0,0:0:0:0:
202,27,60578,1,8,0:0:0:0:
227,198,60744,1,0,0:0:0:0:
80,125,60911,6,0,L|274:105,1,160,6|8,3:2|0:0,0:0:0:0:
318,202,61411,1,0,0:0:0:0:
218,277,61578,2,0,L|230:170,1,80,0|0,3:0|3:0,0:0:0:0:
80,125,61911,2,0,L|88:204,1,80,8|0,0:0|0:0,0:0:0:0:
90,339,62244,6,0,P|130:285|236:286,1,160,6|8,3:2|0:0,0:0:0:0:
186,365,62744,1,0,0:0:0:0:
217,276,62911,2,0,P|228:218|216:177,1,80,0|0,3:0|3:0,0:0:0:0:
80,125,63244,1,8,0:0:0:0:
219,94,63411,6,0,B|269:114|269:114|389:83,1,160,6|0,3:2|3:0,0:0:0:0:
459,47,63911,2,0,L|465:141,1,80,8|6,0:0|3:2,0:0:0:0:
391,239,64244,1,0,0:0:0:0:
371,87,64411,1,0,3:0:0:0:
280,219,64578,2,0,L|236:214,3,35.9999989013672,8|8|8|8,0:0|0:0|0:0|0:0,0:0:0:0:
316,193,64911,6,0,P|304:245|376:335,1,160,6|8,3:2|0:0,0:0:0:0:
470,304,65411,1,0,0:0:0:0:
459,202,65578,2,0,P|417:215|380:258,1,80,0|0,3:0|3:0,0:0:0:0:
359,328,65911,1,8,0:0:0:0:
205,292,66078,6,0,L|35:294,1,160,0|0,0:0|0:0,0:0:0:0:
34,200,66578,2,0,L|44:101,1,80,8|2,0:0|0:0,0:0:0:0:
123,17,66911,1,0,3:0:0:0:
203,99,67078,1,0,3:0:0:0:
113,191,67244,2,0,L|14:201,1,80,10|0,0:0|0:0,0:0:0:0:
205,292,67578,6,0,B|258:280|258:280|312:295|312:295|366:282,1,160,6|8,3:2|0:0,0:0:0:0:
456,222,68078,1,0,0:0:0:0:
365,363,68244,2,0,L|360:283,1,80,0|0,3:0|3:0,0:0:0:0:
392,123,68578,1,8,0:0:0:0:
246,129,68744,6,0,P|322:97|397:127,1,160,6|0,3:2|3:0,0:0:0:0:
456,222,69244,2,0,L|460:301,1,80,8|0,0:0|0:0,0:0:0:0:
362,357,69578,2,0,L|305:351,5,40,8|8|8|8|8|8,0:0|0:0|0:0|0:0|0:0|0:0,0:0:0:0:
276,359,70078,6,0,B|235:333|235:333|121:345,1,160,6|0,3:2|3:0,0:0:0:0:
29,288,70578,2,0,L|35:201,1,80,8|0,0:0|0:0,0:0:0:0:
139,114,70911,2,0,L|144:193,1,80,0|0,3:0|3:0,0:0:0:0:
29,288,71244,1,8,0:0:0:0:
139,114,71411,6,0,L|307:125,1,160,6|0,3:2|0:0,0:0:0:0:
392,220,71911,2,0,P|378:181|389:127,1,80,10|0,0:0|0:0,0:0:0:0:
288,47,72244,2,0,P|302:86|291:140,1,80,0|0,3:0|3:0,0:0:0:0:
232,223,72578,1,8,0:0:0:0:
385,373,72744,6,0,B|344:277|422:311|386:202,1,160,6|0,3:2|3:0,0:0:0:0:
306,375,73244,2,0,P|355:368|401:377,1,80,10|8,0:0|0:0,0:0:0:0:
213,326,73578,2,0,P|164:333|118:324,1,80,8|8,0:0|0:3,0:0:0:0:
88,172,73911,1,8,0:3:0:0:
213,326,74078,5,2,3:2:0:0:
219,294,74411,1,2,3:2:0:0:
226,257,74744,1,2,3:2:0:0:
232,223,75078,1,2,3:2:0:0:
362,217,75411,6,0,P|314:244|214:202,1,143.999995605469,6|2,3:2|3:2,0:0:0:0:
194,100,75911,1,10,0:0:0:0:
295,157,76078,1,2,0:0:0:0:
189,28,76244,2,0,L|194:114,1,71.9999978027344,2|0,3:2|3:0,0:0:0:0:
231,222,76578,1,10,0:0:0:0:
123,108,76744,6,0,P|162:96|203:103,1,71.9999978027344,2|0,3:1|0:2,0:0:0:0:
364,148,77077,2,0,P|325:160|284:153,1,71.9999978027344,2|8,3:1|0:0,0:0:0:0:
123,108,77411,2,0,L|119:189,1,71.9999978027344,2|0,0:1|3:0,0:0:0:0:
234,293,77744,2,0,L|230:221,1,71.9999978027344,2|8,3:1|0:0,0:0:0:0:
364,148,78078,6,0,P|337:196|368:281,1,143.999995605469,6|2,3:2|3:2,0:0:0:0:
473,319,78577,1,10,0:0:0:0:
423,208,78744,1,2,0:0:0:0:
388,360,78910,2,0,L|308:356,2,71.9999978027344,2|0|10,3:2|3:0|0:0,0:0:0:0:
492,210,79411,2,0,P|448:216|407:198,1,71.9999978027344,2|0,3:1|0:0,0:0:0:0:
286,115,79744,2,0,P|330:109|371:127,1,71.9999978027344,2|8,3:1|0:0,0:0:0:0:
315,267,80078,2,0,L|318:188,1,71.9999978027344,2|0,0:1|3:0,0:0:0:0:
457,61,80411,2,0,L|459:132,1,71.9999978027344,6|8,3:1|0:0,0:0:0:0:
286,115,80744,6,0,B|241:140|241:140|144:127,1,143.999995605469,6|0,3:2|0:0,0:0:0:0:
76,64,81244,1,14,0:0:0:0:
140,267,81410,2,0,P|157:214|140:107,1,143.999995605469,0|2,0:0|3:2,0:0:0:0:
168,33,81910,1,8,0:0:0:0:
149,127,82078,6,0,B|241:140|241:140|286:115,1,143.999995605469,2|0,0:0|0:0,0:0:0:0:
387,63,82578,2,0,P|377:111|390:147,1,71.9999978027344,10|0,0:0|0:0,0:0:0:0:
323,206,82911,2,0,P|333:240|328:276,1,71.9999978027344,2|2,3:2|3:2,0:0:0:0:
410,344,83244,1,10,0:0:0:0:
254,351,83411,6,0,L|99:357,1,143.999995605469,6|0,3:2|3:0,0:0:0:0:
15,273,83911,2,0,L|19:370,1,71.9999978027344,8|6,0:0|3:2,0:0:0:0:
117,261,84244,2,0,L|119:189,1,71.9999978027344,0|0,0:0|3:0,0:0:0:0:
25,95,84578,2,0,L|29:192,1,71.9999978027344,8|6,0:0|3:2,0:0:0:0:
117,261,84911,6,0,L|225:256,1,107.999996704102,0|0,0:0|0:0,0:0:0:0:
256,225,85244,1,8,3:3:0:0:
254,351,85411,1,0,0:0:0:0:
351,231,85578,2,0,L|344:178,5,35.9999989013672,8|8|8|8|8|8,3:2|0:0|0:0|0:0|0:0|0:0,0:0:0:0:
338,285,86078,6,0,P|401:255|487:298,1,143.999995605469,6|0,3:2|3:0,0:0:0:0:
354,353,86578,2,0,P|337:303|344:259,1,71.9999978027344,10|0,0:0|0:0,0:0:0:0:
423,151,86911,1,2,0:0:0:0:
468,276,87078,1,2,3:2:0:0:
497,94,87244,1,10,0:2:0:0:
468,276,87411,6,0,P|417:191|430:136,1,143.999995605469,6|0,3:2|3:0,0:0:0:0:
482,25,87911,2,0,P|498:65|491:111,1,71.9999978027344,10|0,0:0|0:0,0:0:0:0:
318,140,88244,1,2,3:2:0:0:
376,7,88411,1,2,3:2:0:0:
423,151,88578,1,10,0:0:0:0:
232,10,88744,6,0,L|386:6,1,143.999995605469,6|0,3:2|3:0,0:0:0:0:
318,140,89244,2,0,L|322:211,1,71.9999978027344,10|0,0:0|0:0,0:0:0:0:
222,324,89578,1,2,3:2:0:0:
212,157,89744,1,2,3:2:0:0:
317,298,89911,1,10,0:0:0:0:
132,308,90078,6,0,P|162:258|258:247,1,143.999995605469,6|0,3:2|3:0,0:0:0:0:
388,303,90578,2,0,L|304:296,1,71.9999978027344,8|0,0:0|0:0,0:0:0:0:
132,308,90911,1,0,3:0:0:0:
115,131,91078,1,0,3:0:0:0:
241,240,91244,1,8,0:0:0:0:
355,145,91411,6,0,L|199:157,1,143.999995605469,6|2,3:2|3:2,0:0:0:0:
99,60,91911,2,0,L|120:155,1,71.9999978027344,10|2,0:0|0:0,0:0:0:0:
58,243,92244,1,2,3:2:0:0:
99,60,92411,1,2,3:2:0:0:
154,223,92578,1,8,0:0:0:0:
170,51,92744,6,0,L|80:62,1,71.9999978027344,2|0,3:2|0:0,0:0:0:0:
243,138,93078,2,0,L|333:149,1,71.9999978027344,2|8,3:2|0:0,0:0:0:0:
349,40,93411,2,0,L|259:51,1,71.9999978027344,2|0,0:0|3:0,0:0:0:0:
422,127,93745,2,0,L|512:138,1,71.9999978027344,2|8,3:2|0:0,0:0:0:0:
435,270,94078,6,0,L|420:114,1,143.999995605469,6|0,3:2|3:0,0:0:0:0:
349,40,94578,1,8,0:0:0:0:
314,146,94744,2,0,L|300:289,1,143.999995605469,6|0,3:2|3:0,0:0:0:0:
395,365,95244,1,8,0:0:0:0:
300,289,95411,6,0,B|254:269|254:269|148:292,1,143.999995605469,6|0,3:2|3:0,0:0:0:0:
70,334,95911,1,12,0:0:0:0:
87,196,96078,1,12,0:0:0:0:
167,358,96244,2,0,P|170:312|150:271,1,71.9999978027344,0|0,0:0|3:0,0:0:0:0:
81,126,96578,2,0,P|78:172|98:213,1,71.9999978027344,8|8,0:3|0:3,0:0:0:0:
167,358,96911,5,6,3:2:0:0:
70,334,97078,1,6,3:2:0:0:
321,190,98078,5,6,3:2:0:0:
300,289,98411,1,6,3:2:0:0:
423,116,99578,5,6,3:2:0:0:
326,92,99745,1,6,3:2:0:0:
397,313,100744,5,6,3:2:0:0:
418,217,101077,1,6,3:2:0:0:
300,289,102244,5,6,3:2:0:0:
397,313,102411,1,6,3:2:0:0:
95,231,103411,5,6,3:2:0:0:
190,263,103744,1,6,3:2:0:0:
119,134,104911,5,6,3:2:0:0:
95,231,105078,1,6,3:2:0:0:
224,139,106078,6,0,P|179:152|108:125,1,111.999996582031,6|8,3:2|0:3,0:0:0:0:
31,78,106578,1,8,0:3:0:0:
124,40,106744,2,0,P|169:27|240:54,1,111.999996582031,6|8,3:2|0:3,0:0:0:0:
224,139,107244,2,0,P|220:176|234:214,1,55.9999982910157,8|0,0:3|3:0,0:0:0:0:
329,248,107578,6,0,L|466:235,2,128,6|8|0,3:2|0:0|3:0,0:0:0:0:
261,327,108411,1,0,3:0:0:0:
172,268,108578,2,0,L|120:263,3,32,8|8|8|8,0:0|0:0|0:0|0:0,0:0:0:0:
183,298,108911,6,0,P|175:338|186:378,1,64,2|0,3:2|0:0,0:0:0:0:
324,326,109244,2,0,L|249:327,1,64,8|4,0:0|0:3,0:0:0:0:
252,221,109578,2,0,L|327:222,1,64,0|8,3:0|0:0,0:0:0:0:
320,106,109911,2,0,L|245:107,1,64,0|0,3:0|3:0,0:0:0:0:
232,115,110161,1,0,3:0:0:0:
209,123,110244,6,0,P|225:76|186:0,1,128,6|8,3:2|0:0,0:0:0:0:
89,9,110744,1,0,0:0:0:0:
145,130,110911,2,0,L|233:120,1,64,0|8,3:0|0:0,0:0:0:0:
287,189,111244,2,0,L|333:194,3,32,8|8|8|8,0:0|0:0|0:0|0:0,0:0:0:0:
252,221,111578,6,0,L|264:369,1,128,0|0,3:0|3:0,0:0:0:0:
100,287,112078,2,0,P|138:282|184:290,1,64,8|0,0:0|0:0,0:0:0:0:
262,348,112411,1,0,3:0:0:0:
315,223,112578,2,0,P|277:218|231:226,1,64,8|0,0:3|0:0,0:0:0:0:
93,146,112911,6,0,P|126:198|80:301,1,160,6|8,3:2|0:2,0:0:0:0:
18,217,113411,1,0,3:0:0:0:
169,132,113578,2,0,P|113:148|76:140,1,80,8|0,0:0|3:0,0:0:0:0:
16,37,113911,1,8,0:0:0:0:
152,12,114078,1,0,3:0:0:0:
311,129,114244,6,0,P|250:161|157:116,1,160,12|8,3:2|0:0,0:0:0:0:
241,62,114744,1,0,3:0:0:0:
314,208,114911,2,0,L|310:119,1,80,8|0,0:0|3:0,0:0:0:0:
342,13,115244,1,8,0:0:0:0:
463,54,115411,1,0,3:0:0:0:
474,208,115578,6,0,L|304:208,1,160,12|8,3:2|0:0,0:0:0:0:
226,309,116078,1,8,0:0:0:0:
314,208,116244,2,0,L|317:287,1,80,8|8,0:0|0:0,0:0:0:0:
432,345,116578,1,8,0:0:0:0:
474,208,116744,1,8,0:0:0:0:
314,208,116911,6,0,L|144:208,1,160,6|0,3:2|3:0,0:0:0:0:
58,333,117411,2,0,P|69:282|51:231,1,80,10|0,0:0|0:0,0:0:0:0:
35,132,117744,1,0,3:0:0:0:
154,208,117911,1,0,3:0:0:0:
161,76,118078,5,6,3:2:0:0:
136,94,118411,1,0,0:0:0:0:
256,192,118494,12,6,120744,3:2:0:0:
320,319,121244,5,6,3:2:0:0:
190,142,122244,5,8,0:3:0:0:
133,285,122578,1,8,0:3:0:0:
160,291,122689,1,8,0:3:0:0:
181,296,122800,1,8,0:3:0:0:
204,300,122911,2,0,P|193:252|194:217,1,64,8|8,0:0|0:0,0:0:0:0:
277,132,123244,1,8,0:0:0:0:
404,143,123411,6,0,L|257:130,1,128,6|0,3:2|0:0,0:0:0:0:
180,78,123911,2,0,L|191:148,1,64,8|0,0:0|0:0,0:0:0:0:
286,68,124244,2,0,L|276:131,1,64,2|2,3:3|3:3,0:0:0:0:
400,232,124578,2,0,P|388:179|416:130,1,96,8|0,0:0|3:0,0:0:0:0:
422,125,124911,6,0,L|489:122,1,64,6|0,3:2|0:0,0:0:0:0:
463,234,125244,2,0,L|399:231,1,64,8|0,0:0|0:0,0:0:0:0:
405,343,125578,2,0,L|472:340,1,64,2|2,3:3|3:3,0:0:0:0:
336,277,125911,2,0,P|311:324|321:385,1,96,8|0,0:0|3:0,0:0:0:0:
275,345,126244,6,0,B|236:322|236:322|111:332,1,143.999995605469,6|8,3:2|0:0,0:0:0:0:
27,361,126744,1,10,0:0:0:0:
90,252,126911,2,0,L|82:168,1,71.9999978027344,8|8,0:0|0:0,0:0:0:0:
194,69,127244,2,0,L|187:140,1,71.9999978027344,10|8,0:0|0:0,0:0:0:0:
250,243,127578,5,10,0:0:0:0:
267,236,127661,1,10,0:0:0:0:
285,228,127744,1,10,0:0:0:0:
339,115,127911,1,2,3:2:0:0:
421,78,134244,6,0,P|408:113|441:192,2,111.999996582031,8|8|8,0:0|0:0|0:0,0:0:0:0:
421,78,135244,1,8,0:0:0:0:
346,218,135578,6,0,P|368:268|354:321,2,111.999996582031,8|8|8,0:0|0:0|0:0,0:0:0:0:
346,218,136578,1,8,0:0:0:0:
421,78,136828,6,0,L|474:70,1,27.9999991455078,8|2,0:0|3:2,0:0:0:0:
278,275,139244,1,8,0:3:0:0:
278,275,139578,6,0,B|230:263|230:263|173:281|173:281|111:265,1,160,14|0,3:2|3:0,0:0:0:0:
122,348,140078,2,0,L|123:269,1,80,14|0,3:2|3:0,0:0:0:0:
77,204,140411,1,0,3:0:0:0:
209,149,140578,1,10,0:0:0:0:
278,275,140744,1,0,3:0:0:0:
398,168,140911,6,0,P|346:176|303:163,1,80,14|0,3:2|3:0,0:0:0:0:
256,49,141244,1,0,3:0:0:0:
130,151,141411,2,0,P|182:143|225:156,1,80,14|0,3:2|3:2,0:0:0:0:
278,275,141744,1,0,3:0:0:0:
398,168,141911,2,0,L|412:247,1,80,14|0,0:0|3:0,0:0:0:0:
264,353,142244,6,0,L|105:346,1,160,14|2,3:2|3:2,0:0:0:0:
11,242,142744,2,0,L|6:322,1,80,14|2,3:2|3:2,0:0:0:0:
98,258,143078,1,2,3:2:0:0:
51,95,143244,1,14,3:2:0:0:
125,175,143411,1,0,3:0:0:0:
302,79,143578,6,0,B|213:48|235:124|143:81,1,160,14|2,3:2|3:2,0:0:0:0:
271,239,144078,2,0,P|261:185|279:140,1,80,14|0,3:2|3:0,0:0:0:0:
397,94,144411,1,2,3:2:0:0:
469,194,144578,1,10,0:0:0:0:
365,351,144744,6,0,L|360:177,1,160,6|0,3:2|0:0,0:0:0:0:
275,79,145244,2,0,L|270:238,1,160,12|8,3:2|0:0,0:0:0:0:
213,343,145744,1,2,3:2:0:0:
186,214,145911,1,0,0:0:0:0:
60,334,146078,6,0,B|102:347|102:347|157:327|157:327|212:342,1,160,6|0,3:2|3:0,0:0:0:0:
175,129,146578,2,0,P|110:172|109:264,1,160,12|6,3:2|3:2,0:0:0:0:
212,342,147078,1,0,0:0:0:0:
270,238,147244,1,8,0:0:0:0:
459,323,147411,6,0,B|356:299|356:299|290:326,1,160,6|0,3:2|3:0,0:0:0:0:
424,210,147911,2,0,L|426:82,1,120,8|0,0:0|0:0,0:0:0:0:
419,51,148244,2,0,L|371:49,3,40,0|8|8|0,3:0|0:0|0:0|0:0,0:0:0:0:
342,72,148578,2,0,L|302:73,3,40,8|8|2|8,0:0|0:0|3:2|0:0,0:0:0:0:
270,106,148911,6,0,L|230:111,3,40,8|8|2|8,0:0|0:0|3:2|0:0,0:0:0:0:
207,159,149244,1,8,0:0:0:0:
149,41,149411,1,2,3:2:0:0:
137,35,149494,1,8,0:0:0:0:
127,30,149578,2,0,L|118:81,3,35.9999989013672,12|8|8|8,3:2|0:0|0:0|0:0,0:0:0:0:
83,97,149911,2,0,L|92:148,3,35.9999989013672,10|10|10|10,0:2|0:2|0:2|0:2,0:0:0:0:
123,172,150244,6,0,B|108:221|108:221|138:340,1,160,6|8,3:2|0:0,0:0:0:0:
256,236,150744,1,0,0:0:0:0:
262,226,150828,1,0,3:0:0:0:
269,217,150911,2,0,L|373:219,1,80,0|0,3:0|3:0,0:0:0:0:
464,320,151244,1,8,0:0:0:0:
426,143,151411,1,0,0:0:0:0:
464,320,151578,6,0,B|380:286|406:365|291:328,1,160,2|10,3:2|0:0,0:0:0:0:
269,217,152078,1,2,0:0:0:0:
231,336,152244,2,0,L|319:333,1,80,2|0,3:2|3:0,0:0:0:0:
147,240,152578,2,0,L|59:237,1,80,8|0,0:0|0:0,0:0:0:0:
159,100,152911,6,0,P|119:174|154:246,1,160,6|8,3:2|0:0,0:0:0:0:
231,336,153411,1,0,0:0:0:0:
348,211,153578,2,0,L|254:217,1,80,0|2,3:0|3:2,0:0:0:0:
159,100,153911,1,8,0:0:0:0:
318,110,154078,6,0,L|158:99,1,160,0|0,0:0|0:0,0:0:0:0:
300,19,154578,2,0,L|396:12,1,80,8|2,0:0|0:0,0:0:0:0:
443,168,154911,1,0,3:0:0:0:
318,110,155078,1,0,3:0:0:0:
351,290,155244,2,0,P|348:245|348:194,1,80,10|0,0:0|0:0,0:0:0:0:
236,334,155578,6,0,P|169:332|59:330,1,160,6|8,3:2|0:0,0:0:0:0:
234,229,156078,1,0,0:0:0:0:
347,369,156244,2,0,P|349:329|350:289,1,80,2|0,3:2|3:0,0:0:0:0:
318,110,156578,1,8,0:0:0:0:
443,168,156744,1,0,0:0:0:0:
234,229,156911,6,0,P|167:227|57:225,1,160,6|8,3:2|0:0,0:0:0:0:
2,108,157411,1,0,0:0:0:0:
74,225,157578,2,0,L|82:136,1,80,0|0,3:0|3:0,0:0:0:0:
226,149,157911,2,0,L|233:228,1,80,8|0,0:0|0:0,0:0:0:0:
102,47,158244,6,0,L|240:55,1,107.999996704102,6|0,3:2|0:0,0:0:0:0:
219,77,158578,2,0,L|227:166,1,71.9999978027344,8|0,0:0|0:0,0:0:0:0:
318,301,158911,2,0,P|289:243|305:178,1,107.999996704102,6|0,3:2|0:0,0:0:0:0:
264,228,159244,2,0,P|220:237|179:224,1,71.9999978027344,8|0,0:0|0:0,0:0:0:0:
376,232,159578,6,0,L|499:238,1,107.999996704102,6|0,3:2|0:0,0:0:0:0:
496,210,159911,2,0,L|491:127,1,71.9999978027344,8|0,0:0|0:0,0:0:0:0:
362,66,160244,1,8,0:0:0:0:
376,232,160411,1,8,0:3:0:0:
371,52,160578,1,8,0:3:0:0:
271,212,160744,6,0,B|166:199|166:199|88:242,1,160,6|0,3:2|0:0,0:0:0:0:
195,374,161244,2,0,L|191:281,1,80,12|0,0:2|0:0,0:0:0:0:
271,212,161578,1,0,3:0:0:0:
346,314,161744,1,0,3:0:0:0:
195,374,161911,2,0,L|101:378,1,80,8|0,0:0|0:0,0:0:0:0:
118,225,162244,6,0,P|152:157|123:71,1,160,2|8,3:2|0:0,0:0:0:0:
33,146,162744,1,0,0:0:0:0:
130,79,162911,2,0,P|175:71|234:87,1,80,0|0,3:0|3:0,0:0:0:0:
271,212,163244,1,10,0:0:0:0:
371,60,163411,6,0,L|367:236,1,160,6|0,3:2|3:0,0:0:0:0:
463,348,163911,2,0,L|457:247,1,80,12|0,3:2|0:0,0:0:0:0:
465,100,164244,1,0,3:0:0:0:
367,219,164411,1,2,3:2:0:0:
291,65,164578,2,0,L|385:59,1,80,8|0,0:0|0:0,0:0:0:0:
271,212,164911,6,0,B|223:203|223:203|171:223|171:223|109:209,1,160,2|8,3:2|0:0,0:0:0:0:
46,312,165411,1,0,0:0:0:0:
43,141,165578,1,4,3:0:0:0:
46,312,165744,2,0,L|98:309,3,40,8|8|8|8,0:0|0:0|0:0|0:0,0:0:0:0:
20,299,166078,6,0,P|29:244|44:127,1,160,6|0,3:2|3:0,0:0:0:0:
95,41,166578,1,10,0:0:0:0:
104,52,166661,1,8,0:0:0:0:
112,64,166744,1,8,0:0:0:0:
204,156,166911,2,0,P|246:149|292:158,1,80,10|0,0:2|0:0,0:0:0:0:
407,54,167244,2,0,P|365:61|319:52,1,80,10|8,0:2|0:0,0:0:0:0:
373,149,167578,6,0,L|375:205,2,40,10|8|10,0:0|0:0|0:0,0:0:0:0:
248,230,167911,1,8,0:0:0:0:
255,241,167994,1,8,0:0:0:0:
259,251,168078,2,0,L|257:290,3,40,10|8|8|8,0:0|0:0|0:0|0:0,0:0:0:0:
292,303,168411,2,0,L|293:342,3,40,10|8|8|8,0:0|0:0|0:0|0:0,0:0:0:0:
331,347,168744,6,0,P|401:347|493:348,1,143.999995605469,6|2,3:2|3:2,0:0:0:0:
428,212,169244,1,10,0:0:0:0:
474,347,169411,1,2,0:0:0:0:
428,212,169578,2,0,P|427:151|430:114,1,71.9999978027344,2|0,3:2|0:0,0:0:0:0:
469,42,169911,1,10,0:0:0:0:
344,83,170078,6,0,L|256:88,1,71.9999978027344,2|0,3:1|0:2,0:0:0:0:
201,185,170411,2,0,L|289:190,1,71.9999978027344,2|8,3:1|0:0,0:0:0:0:
165,89,170744,2,0,L|77:94,1,71.9999978027344,2|0,0:1|3:0,0:0:0:0:
22,191,171077,2,0,L|110:196,1,71.9999978027344,2|8,3:1|0:0,0:0:0:0:
199,317,171411,6,0,P|179:278|204:180,1,143.999995605469,6|0,3:2|0:0,0:0:0:0:
338,114,171911,1,10,0:0:0:0:
295,252,172078,1,2,0:0:0:0:
267,109,172244,2,0,P|313:117|352:108,1,71.9999978027344,2|0,3:2|3:0,0:0:0:0:
420,31,172578,1,10,0:0:0:0:
411,186,172744,6,0,L|418:280,1,71.9999978027344,2|0,3:1|0:0,0:0:0:0:
289,323,173078,2,0,L|294:251,1,71.9999978027344,2|8,3:1|0:0,0:0:0:0:
176,174,173411,2,0,L|183:268,1,71.9999978027344,2|0,0:1|3:0,0:0:0:0:
54,311,173745,2,0,L|59:239,1,71.9999978027344,2|0,0:1|0:0,0:0:0:0:
13,92,174078,6,0,B|106:108|106:108|167:81,1,143.999995605469,6|0,3:2|0:0,0:0:0:0:
292,35,174578,2,0,P|275:77|286:134,1,71.9999978027344,10|0,0:0|0:0,0:0:0:0:
450,151,174911,1,0,3:0:0:0:
276,222,175078,1,2,3:2:0:0:
362,85,175244,1,8,0:0:0:0:
367,228,175411,6,0,L|361:79,1,143.999995605469,0|0,3:2|0:0,0:0:0:0:
276,222,175911,2,0,L|185:223,1,71.9999978027344,8|2,0:0|0:0,0:0:0:0:
53,280,176244,1,0,3:0:0:0:
124,142,176411,1,0,3:0:0:0:
162,319,176578,1,8,0:0:0:0:
208,123,176744,6,0,P|165:67|66:73,1,143.999995605469,6|0,3:2|3:0,0:0:0:0:
50,208,177244,2,0,L|53:300,1,71.9999978027344,8|6,0:0|3:2,0:0:0:0:
162,319,177578,2,0,L|164:247,1,71.9999978027344,0|0,0:0|0:0,0:0:0:0:
276,222,177911,2,0,L|279:314,1,71.9999978027344,8|2,0:0|0:0,0:0:0:0:
419,218,178244,6,0,L|286:222,1,107.999996704102,14|0,3:2|0:0,0:0:0:0:
276,222,178578,2,0,P|288:174|277:136,1,71.9999978027344,8|0,0:0|0:0,0:0:0:0:
377,46,178911,2,0,P|373:81|385:115,2,71.9999978027344,8|8|0,0:3|0:3|0:0,0:0:0:0:
243,66,179411,6,0,B|146:87|146:87|80:64,1,143.999995605469,6|0,3:2|0:0,0:0:0:0:
41,181,179911,1,10,0:0:0:0:
14,24,180078,1,2,0:0:0:0:
41,181,180244,2,0,L|121:178,1,71.9999978027344,2|0,3:2|3:0,0:0:0:0:
208,236,180578,1,10,0:0:0:0:
243,66,180744,6,0,L|241:160,1,71.9999978027344,2|0,3:1|0:2,0:0:0:0:
324,268,181078,2,0,L|322:196,1,71.9999978027344,2|8,3:1|0:0,0:0:0:0:
402,67,181411,2,0,L|400:161,1,71.9999978027344,2|0,0:1|3:0,0:0:0:0:
483,269,181745,2,0,L|481:197,1,71.9999978027344,2|0,0:1|0:0,0:0:0:0:
324,268,182078,6,0,P|256:268|167:269,1,143.999995605469,6|0,3:2|0:0,0:0:0:0:
40,331,182578,1,10,0:0:0:0:
101,199,182744,1,2,0:0:0:0:
126,352,182911,2,0,P|160:352|204:352,1,71.9999978027344,2|0,3:2|3:0,0:0:0:0:
319,359,183244,1,10,0:0:0:0:
320,196,183411,6,0,L|325:300,1,71.9999978027344,2|0,3:1|0:0,0:0:0:0:
433,170,183744,2,0,L|436:98,1,71.9999978027344,2|8,3:1|0:0,0:0:0:0:
248,199,184078,2,0,L|338:195,1,71.9999978027344,2|0,0:1|3:0,0:0:0:0:
203,81,184411,2,0,L|113:77,1,71.9999978027344,6|8,3:1|0:0,0:0:0:0:
123,296,184744,6,0,P|155:230|128:159,1,143.999995605469,6|0,3:2|0:0,0:0:0:0:
213,11,185244,2,0,P|200:51|211:100,1,71.9999978027344,10|0,0:0|0:0,0:0:0:0:
248,199,185578,1,0,3:0:0:0:
294,49,185744,1,2,3:2:0:0:
134,166,185911,1,8,0:0:0:0:
342,139,186078,6,0,L|506:133,1,143.999995605469,2|0,0:0|0:0,0:0:0:0:
412,240,186578,1,8,0:0:0:0:
404,47,186744,1,2,0:0:0:0:
340,242,186911,2,0,L|438:238,1,71.9999978027344,2|2,3:2|3:2,0:0:0:0:
481,327,187244,1,10,0:0:0:0:
295,365,187411,6,0,P|344:301|331:224,1,143.999995605469,6|0,3:2|3:0,0:0:0:0:
249,177,187911,1,8,0:0:0:0:
115,281,188078,2,0,L|273:277,1,143.999995605469,6|0,3:2|3:0,0:0:0:0:
295,365,188578,1,8,0:0:0:0:
249,177,188744,6,0,B|226:89|226:89|247:33,1,143.999995605469,6|0,3:2|3:0,0:0:0:0:
346,107,189244,1,8,0:0:0:0:
156,157,189411,2,0,B|82:125|95:195|9:150,1,143.999995605469,6|0,3:2|3:0,0:0:0:0:
115,281,189911,2,0,P|106:218|142:164,1,107.999996704102,8|0,0:0|0:0,0:0:0:0:
156,157,190244,5,6,3:2:0:0:
256,192,190327,12,0,195410,0:0:0:0:
