osu file format v14

[General]
AudioFilename: audio.mp3
AudioLeadIn: 0
PreviewTime: 21038
Countdown: 0
SampleSet: Soft
StackLeniency: 0.4
Mode: 0
LetterboxInBreaks: 0
WidescreenStoryboard: 1

[Editor]
Bookmarks: 984677
DistanceSpacing: 1.1
BeatDivisor: 3
GridSize: 32
TimelineZoom: 4.799997

[Metadata]
Title:Songs Compilation
TitleUnicode:Songs Compilation
Artist:ITO KASHITARO
ArtistUnicode:伊東歌詞太郎
Creator:Nevo
Version:Sunset
Source:
Tags:kudosu so0p soop xIced door weapon glaceon ShiiTsuin Shii Foxy Grandpa foxygrandpa 夕立のりぼん Yuudachi no Ribbon 夢地図 Yume Chizu START しわ Shiwa さよならのかわりに Sayonara no Kawarini さよならだけが人生だ Sayonara dake ga jinsei da Replica 百火繚乱 Hyakka Ryouran 刹那プラス Setsuna Plus Fairytale, 強烈な色 Kyouretsu na Iro 親愛なるフランツ・カフカに捧ぐ Shin'ai Naru Franz Kafka ni Sasagu Comp itocomp marathon japanese rock novelty vocaloid utaite male cover
BeatmapID:2256314
BeatmapSetID:1078294

[Difficulty]
HPDrainRate:5.4
CircleSize:4
OverallDifficulty:9.2
ApproachRate:9.4
SliderMultiplier:1.7
SliderTickRate:1

[Events]
//Background and Video events
0,0,"77692976_p0.jpg",0,0
//Break Periods
2,71861,73392
2,146699,149252
2,211733,213703
2,320728,324136
2,402209,404663
2,499003,500109
2,608576,610947
2,619687,620947
2,678186,680857
2,759447,763438
2,857045,859006
2,959938,960945
//Storyboard Layer 0 (Background)
//Storyboard Layer 1 (Fail)
//Storyboard Layer 2 (Pass)
//Storyboard Layer 3 (Foreground)
//Storyboard Layer 4 (Overlay)
//Storyboard Sound Samples

[TimingPoints]
2220,304.568527918782,4,2,27,30,1,0
2220,-250,4,2,27,30,0,0
11357,-250,4,2,27,35,0,0
11966,-250,4,2,27,45,0,0
16839,-250,4,2,27,50,0,0
17448,-250,4,2,27,55,0,0
18057,-250,4,2,27,60,0,0
18666,-250,4,2,27,65,0,0
19275,-250,4,2,27,40,0,0
20341,-250,4,2,27,55,0,0
20494,-133.333333333333,4,2,27,60,0,0
21103,-133.333333333333,4,2,27,65,0,0
21331,-133.333333333333,4,2,27,5,0,0
21407,-133.333333333333,4,2,27,65,0,0
21712,-100,4,2,27,80,0,1
36255,-100,4,2,27,5,0,1
36331,-100,4,2,27,75,0,1
36940,-100,4,2,27,45,0,1
37549,-100,4,2,27,55,0,1
38159,-100,4,2,27,65,0,1
38768,-250,4,2,27,75,0,0
38844,-250,4,2,27,50,0,0
40900,-222.222222222222,4,2,27,50,0,0
41813,-222.222222222222,4,2,27,25,0,0
42423,-222.222222222222,4,2,27,60,0,0
43641,-117.647058823529,4,2,27,70,0,0
53615,-117.647058823529,4,2,27,5,0,0
53692,-117.647058823529,4,2,27,70,0,0
63818,-117.647058823529,4,2,27,50,0,0
63895,-117.647058823529,4,2,27,70,0,0
64428,-117.647058823529,4,2,27,60,0,0
65265,-117.647058823529,4,2,27,50,0,0
67093,-117.647058823529,4,2,27,40,0,0
68615,-117.647058823529,4,2,27,30,0,0
71052,-117.647058823529,4,2,27,15,0,0
71661,-117.647058823529,4,2,27,5,0,0
73932,324.324324324324,4,2,70,25,1,0
73932,-153.846153846153,4,2,70,25,0,0
75229,-181.818181818181,4,2,70,30,0,0
78472,-222.22222222222,4,2,70,25,0,0
83661,-100,4,2,70,40,0,0
84310,-83.3333333333333,4,2,70,60,0,1
94688,-90.9090909090909,4,2,70,60,0,1
115445,-111.111111111111,4,2,70,50,0,0
120634,-90.9090909090909,4,2,70,50,0,0
123229,-90.9090909090909,4,2,70,50,0,0
124526,-166.666666666667,4,2,70,50,0,0
125823,-111.111111111111,4,2,70,50,0,0
149792,387.096774193548,4,2,22,50,1,0
149792,-250,4,2,22,50,0,0
155985,-133.333333333333,4,2,22,60,0,0
159469,-79.9999999999999,4,2,22,75,0,1
183856,-100,4,2,22,65,0,0
199340,-166.666666666667,4,2,22,50,0,0
214243,428.571428571429,4,2,34,45,1,0
214243,-133.333333333333,4,2,34,45,0,0
221100,-133.333333333333,4,2,34,30,0,0
226564,-133.333333333333,4,2,34,30,0,0
226671,-117.647058823529,4,2,34,30,0,0
226993,-117.647058823529,4,2,34,30,0,0
227100,-105.263157894737,4,2,34,30,0,0
227421,-105.263157894737,4,2,34,30,0,0
227528,-95.2380952380951,4,2,34,30,0,0
227850,-95.2380952380951,4,2,34,30,0,0
227957,-133.333333333333,4,2,34,40,0,0
234814,-133.333333333333,4,2,34,45,0,0
240278,-133.333333333333,4,2,34,45,0,0
240385,-117.647058823529,4,2,34,45,0,0
240707,-117.647058823529,4,2,34,45,0,0
240814,-105.263157894737,4,2,34,45,0,0
241135,-105.263157894737,4,2,34,45,0,0
241243,-95.2380952380951,4,2,34,45,0,0
241564,-95.2380952380951,4,2,34,45,0,0
241671,-95.2380952380951,4,2,34,45,0,0
248528,-68.9655172413793,4,2,34,60,0,1
253993,-68.9655172413793,4,2,34,60,0,1
254100,-60.6060606060606,4,2,34,60,0,1
254421,-60.6060606060606,4,2,34,60,0,1
254528,-54.054054054054,4,2,34,60,0,1
254850,-54.054054054054,4,2,34,60,0,1
254957,-48.780487804878,4,2,34,60,0,1
255278,-48.780487804878,4,2,34,60,0,1
255385,-66.6666666666667,4,2,34,60,0,1
255707,-76.9230769230769,4,2,34,60,0,1
267707,-76.9230769230769,4,2,34,60,0,1
267814,-60.6060606060606,4,2,34,60,0,1
268135,-60.6060606060606,4,2,34,60,0,1
268243,-54.054054054054,4,2,34,60,0,1
268564,-54.054054054054,4,2,34,60,0,1
268671,-48.780487804878,4,2,34,60,0,1
268993,-48.780487804878,4,2,34,60,0,1
269100,-60.6060606060606,4,2,34,60,0,1
269957,-68.9655172413793,4,2,34,60,0,1
274243,-80,4,2,34,60,0,1
282814,-95.2380952380952,4,2,34,50,0,0
313028,-117.647058823529,4,2,27,60,0,0
313865,-117.647058823529,4,2,27,50,0,0
315693,-117.647058823529,4,2,27,40,0,0
317215,-117.647058823529,4,2,27,30,0,0
319652,-117.647058823529,4,2,27,15,0,0
320528,-95.2380952380952,4,2,34,5,0,0
324676,333.333333333333,4,2,70,40,1,0
324676,-100,4,2,70,40,0,0
335342,-133.333333333333,4,2,70,45,0,0
343342,-133.333333333333,4,2,70,50,0,0
346009,-100,4,2,70,60,0,1
387342,-133.333333333333,4,2,70,50,0,0
388675,-100,4,2,70,50,0,0
398592,-117.647058823529,4,2,27,60,0,0
399429,-117.647058823529,4,2,27,50,0,0
401257,-117.647058823529,4,2,27,40,0,0
402009,-100,4,2,70,5,0,0
402779,-117.647058823529,4,2,27,30,0,0
405203,300,4,2,70,40,1,0
405203,-100,4,2,70,40,0,0
417203,-83.3333333333333,4,2,70,60,0,1
422003,-100,4,2,70,60,0,1
426803,-83.3333333333333,4,2,70,60,0,1
429953,-100,4,2,70,60,0,1
430253,-83.3333333333333,4,2,70,60,0,1
431603,-100,4,2,70,60,0,1
434003,-125,4,2,70,40,0,0
436403,-100,4,2,70,60,0,1
455603,-100,4,2,70,40,0,0
464003,-83.3333333333333,4,2,70,60,0,1
478403,-100,4,2,70,40,0,0
478703,-133.333333333333,4,2,70,40,0,0
480803,-181.818181818181,4,2,70,40,0,0
496403,-117.647058823529,4,2,27,60,0,0
497240,-117.647058823529,4,2,27,50,0,0
498803,-125,4,2,70,5,0,0
499068,-117.647058823529,4,2,27,40,0,0
500590,-117.647058823529,4,2,27,30,0,0
500649,340.909090909091,4,2,70,5,1,0
500649,-181.818181818181,4,2,90,40,0,0
503027,-181.818181818181,4,2,27,15,0,0
503035,-181.818181818181,4,2,90,40,0,0
527929,-181.818181818181,4,2,90,50,0,0
528610,-181.818181818181,4,2,90,60,0,0
529292,-181.818181818181,4,2,90,70,0,0
529974,-181.818181818181,4,2,90,80,0,0
530649,-100,4,2,90,90,0,1
549739,-100,4,2,90,80,0,0
552467,-100,4,2,90,90,0,1
563376,-125,4,2,90,90,0,1
574285,-125,4,2,90,90,0,0
596785,-117.647058823529,4,2,27,60,0,0
597622,-117.647058823529,4,2,27,50,0,0
599450,-117.647058823529,4,2,27,40,0,0
600972,-117.647058823529,4,2,27,30,0,0
603409,-117.647058823529,4,2,27,15,0,0
608376,-125,4,2,90,5,0,0
611487,333.333333333333,4,2,90,30,1,0
611487,-222.222222222221,4,2,90,30,0,0
616820,-222.222222222221,4,2,90,50,0,0
622153,-83.3333333333333,4,2,90,70,0,0
632820,-83.3333333333333,4,2,90,90,0,1
651320,333.333333333333,4,2,90,70,1,0
651320,-100,4,2,90,70,0,0
677986,-100,4,2,90,15,0,0
681397,300,4,2,40,56,1,0
681397,-200,4,2,40,56,0,0
681997,-200,4,2,40,30,0,0
682297,-200,4,2,40,56,0,0
682597,-200,4,2,40,64,0,0
683497,-200,4,2,40,56,0,0
684997,-200,4,2,40,64,0,0
685897,-200,4,2,40,56,0,0
687397,-200,4,2,40,64,0,0
688297,-200,4,2,40,56,0,0
689797,-200,4,2,40,72,0,0
691597,-133.333333333333,4,2,40,64,0,0
692497,-133.333333333333,4,2,40,64,0,0
692572,-133.333333333333,4,2,40,64,0,0
692647,-133.333333333333,4,2,40,64,0,0
692722,-133.333333333333,4,2,40,64,0,0
692797,-133.333333333333,4,2,40,64,0,0
694897,-133.333333333333,4,2,40,64,0,0
694972,-133.333333333333,4,2,40,64,0,0
695047,-133.333333333333,4,2,40,64,0,0
695122,-133.333333333333,4,2,40,64,0,0
695197,-133.333333333333,4,2,40,64,0,0
700597,-133.333333333333,4,2,40,67,0,0
700897,-133.333333333333,4,2,40,71,0,0
701197,-133.333333333333,4,2,40,74,0,0
701497,-133.333333333333,4,2,40,78,0,0
701797,-181.818181818181,4,2,40,70,0,0
706597,-100,4,2,40,66,0,0
707797,-100,4,2,40,71,0,0
708397,-100,4,2,40,76,0,0
708997,-100,4,2,40,56,0,0
710797,-181.818181818181,4,2,40,56,0,0
711097,-181.818181818181,4,2,41,66,0,0
711322,-181.818181818181,4,2,40,5,0,0
711397,-79.9999999999999,4,2,40,73,0,1
720472,-79.9999999999999,4,2,40,75,0,1
720547,-79.9999999999999,4,2,40,75,0,1
720622,-79.9999999999999,4,2,40,75,0,1
720697,-79.9999999999999,4,2,40,75,0,1
735397,-79.9999999999999,4,2,40,56,0,0
737797,-100,4,2,40,66,0,0
741847,-100,4,2,40,66,0,0
741922,-100,4,2,40,66,0,0
741997,-100,4,2,40,66,0,0
742147,-100,4,2,40,66,0,0
742297,-100,4,2,40,66,0,0
751447,-100,4,2,40,66,0,0
751522,-100,4,2,40,66,0,0
751597,-100,4,2,40,66,0,0
751747,-100,4,2,40,66,0,0
751897,-100,4,2,40,66,0,0
755047,-100,4,2,40,70,0,0
755647,-100,4,2,40,74,0,0
756247,-100,4,2,40,78,0,0
756847,-100,4,2,40,66,0,0
758947,-100,4,2,40,66,0,0
759097,-100,4,2,40,66,0,0
763978,260.869565217391,4,2,22,65,1,0
763978,-100,4,2,22,65,0,0
789217,-100,4,2,22,5,0,0
789282,-100,4,2,22,65,0,0
789738,-100,4,2,22,5,0,0
789804,-100,4,2,22,65,0,0
791304,-100,4,2,22,5,0,0
791369,-100,4,2,22,65,0,0
799456,-181.818181818181,4,2,22,50,0,0
803630,-90.9090909090909,4,2,22,80,0,1
803825,-90.9090909090909,4,2,22,5,0,1
803891,-90.9090909090909,4,2,22,80,0,1
805912,-90.9090909090909,4,2,22,5,0,1
805978,-90.9090909090909,4,2,22,80,0,1
806434,-90.9090909090909,4,2,22,5,0,1
806499,-90.9090909090909,4,2,22,80,0,1
807738,-90.9090909090909,4,2,22,5,0,1
807804,-90.9090909090909,4,2,22,80,0,1
815108,253.164556962025,4,2,22,80,1,1
815108,-90.9090909090909,4,2,22,80,0,1
816120,247.933884297521,4,2,22,80,1,1
816120,-88.4955752212389,4,2,22,80,0,1
816171,260.869565217391,4,2,22,80,1,1
816317,-90.9090909090909,4,2,22,5,0,1
816382,-90.9090909090909,4,2,22,80,0,1
826230,-90.9090909090909,4,2,22,5,0,1
826296,-90.9090909090909,4,2,22,80,0,1
831933,260.869565217391,4,2,22,70,1,0
831933,-117.647058823529,4,2,22,70,0,0
832096,-117.647058823529,4,2,22,5,0,0
832161,-117.647058823529,4,2,22,70,0,0
832356,-117.647058823529,4,2,22,5,0,0
832422,-117.647058823529,4,2,22,70,0,0
832617,-117.647058823529,4,2,22,5,0,0
832683,-117.647058823529,4,2,22,70,0,0
832846,260.869565217391,4,2,22,70,1,0
832846,-105.263157894737,4,2,22,70,0,0
848530,-105.263157894737,4,2,22,5,0,0
848596,-105.263157894737,4,2,22,70,0,0
848856,-133.333333333334,4,2,22,70,0,0
849052,-133.333333333334,4,2,22,5,0,0
849117,-133.333333333334,4,2,22,70,0,0
849313,-133.333333333334,4,2,22,5,0,0
849378,-133.333333333334,4,2,22,70,0,0
854987,-285.714285714289,4,2,22,70,0,0
855476,-117.647058823529,4,2,27,60,0,0
856313,-117.647058823529,4,2,27,50,0,0
856813,-285.714285714289,4,2,22,5,0,0
858141,-117.647058823529,4,2,27,40,0,0
859546,303.030303030303,4,2,2,20,1,0
859546,-125,4,2,1,20,0,0
859663,-117.647058823529,4,2,27,30,0,0
859838,-125,4,2,2,5,0,0
859989,-166.666666666667,4,2,2,30,0,0
860292,-166.666666666667,4,2,2,5,0,0
860444,-166.666666666667,4,2,2,35,0,0
860671,-166.666666666667,4,2,2,5,0,0
860783,309.278350515464,4,2,2,40,1,0
860783,-250,4,2,2,40,0,0
861633,-250,4,2,2,5,0,0
861710,-500,4,2,2,50,0,0
862100,-117.647058823529,4,2,27,15,0,0
863102,-500,4,2,3,50,0,0
863257,-500,4,2,3,55,0,0
863411,-500,4,2,3,60,0,0
863566,-500,4,2,3,65,0,0
863721,-500,4,2,3,70,0,0
863798,-500,4,2,3,5,0,0
864049,320.855614973262,4,2,1,40,1,0
864049,-166.666666666667,4,2,1,40,0,0
864229,-166.666666666667,4,2,1,5,0,0
864449,309.278350515464,4,2,1,40,1,0
864449,-166.666666666667,4,2,1,40,0,0
864758,-166.666666666667,4,2,1,5,0,0
864912,-125,4,2,1,50,0,0
865299,-125,4,2,1,5,0,0
865376,-125,4,2,1,40,0,0
865608,-125,4,2,1,5,0,0
865718,309.278350515464,4,2,2,70,1,1
865718,-83.3333333333333,4,2,2,70,0,1
865872,-83.3333333333333,4,2,2,5,0,1
865949,-83.3333333333333,4,2,2,70,0,1
871439,-83.3333333333333,4,2,2,5,0,1
871516,-83.3333333333333,4,2,2,70,0,1
871748,-83.3333333333333,4,2,2,5,0,1
871826,-83.3333333333333,4,2,2,70,0,1
872058,-83.3333333333333,4,2,2,5,0,1
872135,-83.3333333333333,4,2,2,70,0,1
872367,-83.3333333333333,4,2,2,5,0,1
872444,-83.3333333333333,4,2,2,70,0,1
874223,-83.3333333333333,4,2,2,5,0,1
874300,-83.3333333333333,4,2,2,70,0,1
875073,-83.3333333333333,4,2,2,30,0,1
875150,-83.3333333333333,4,2,2,40,0,1
875228,-83.3333333333333,4,2,2,70,0,1
876465,-100,4,2,2,70,0,1
877083,-83.3333333333333,4,2,2,70,0,1
877625,-83.3333333333333,4,2,2,5,0,1
877702,-83.3333333333333,4,2,2,70,0,1
877934,-83.3333333333333,4,2,2,5,0,1
878011,-83.3333333333333,4,2,2,70,0,1
880872,-83.3333333333333,4,2,2,5,0,1
880949,-83.3333333333333,4,2,2,70,0,1
882341,-83.3333333333333,4,2,3,70,0,1
882728,-83.3333333333333,4,2,3,50,0,1
882805,-83.3333333333333,4,2,3,40,0,1
882960,-83.3333333333333,4,2,2,70,0,1
884970,-83.3333333333333,4,2,2,30,0,1
885047,-83.3333333333333,4,2,2,40,0,1
885125,-83.3333333333333,4,2,2,70,0,1
886903,-83.3333333333333,4,2,2,5,0,1
886980,-83.3333333333333,4,2,2,70,0,1
887522,-83.3333333333333,4,2,2,70,0,1
887599,-83.3333333333333,4,2,2,5,0,1
887676,-83.3333333333333,4,2,2,70,0,1
887754,-83.3333333333333,4,2,2,5,0,1
887831,-83.3333333333333,4,2,2,70,0,1
887908,-83.3333333333333,4,2,2,5,0,1
887986,-83.3333333333333,4,2,2,70,0,1
889068,-83.3333333333333,4,2,2,5,0,1
889145,-83.3333333333333,4,2,2,70,0,1
889377,-83.3333333333333,4,2,2,5,0,1
889455,-83.3333333333333,4,2,2,70,0,1
889687,-83.3333333333333,4,2,2,5,0,1
889764,-83.3333333333333,4,2,2,70,0,1
889996,-83.3333333333333,4,2,2,5,0,1
890073,-83.3333333333333,4,2,2,70,0,1
890614,-83.3333333333333,4,2,2,5,0,1
890692,-83.3333333333333,4,2,2,70,0,1
890924,-83.3333333333333,4,2,2,5,0,1
891001,-83.3333333333333,4,2,2,70,0,1
891233,-83.3333333333333,4,2,2,5,0,1
891310,-83.3333333333333,4,2,2,70,0,1
891542,-83.3333333333333,4,2,2,5,0,1
891620,-83.3333333333333,4,2,2,70,0,1
892470,-83.3333333333333,4,2,2,5,0,1
892547,-83.3333333333333,4,2,2,70,0,1
894558,-83.3333333333333,4,2,2,40,0,1
894635,-83.3333333333333,4,2,2,50,0,1
894712,-83.3333333333333,4,2,2,65,0,1
894790,-83.3333333333333,4,2,2,55,0,1
894867,-83.3333333333333,4,2,2,45,0,1
894944,-83.3333333333333,4,2,2,35,0,1
895022,-83.3333333333333,4,2,2,65,0,1
895099,-83.3333333333333,4,2,2,55,0,1
895176,-83.3333333333333,4,2,2,45,0,1
895254,-83.3333333333333,4,2,2,35,0,1
895331,-90.9090909090909,4,2,2,70,0,1
896800,-90.9090909090909,4,2,2,5,0,1
896877,-90.9090909090909,4,2,2,70,0,1
897109,-90.9090909090909,4,2,2,70,0,1
898037,-90.9090909090909,4,2,2,5,0,1
898114,-90.9090909090909,4,2,2,70,0,1
898656,-90.9090909090909,4,2,2,5,0,1
898733,-90.9090909090909,4,2,2,70,0,1
903681,-90.9090909090909,4,2,3,55,0,1
903913,-90.9090909090909,4,2,3,5,0,1
903991,-90.9090909090909,4,2,1,60,0,1
904455,-111.111111111111,4,2,1,50,0,0
904919,-125,4,2,1,40,0,0
905150,-125,4,2,1,5,0,0
905228,-100,4,2,2,60,0,0
905537,-100,4,2,3,60,0,0
913888,-100,4,2,2,60,0,0
915434,-100,4,2,3,60,0,0
920073,-100,4,2,2,60,0,0
920382,-100,4,2,3,60,0,0
922393,-100,4,2,40,40,0,0
922547,-100,4,2,3,65,0,0
923785,-100,4,2,2,60,0,0
924790,-100,4,2,2,50,0,0
924867,-100,4,2,2,40,0,0
924944,-100,4,2,2,30,0,0
925022,-90.9090909090909,4,2,2,70,0,1
925176,-90.9090909090909,4,2,3,60,0,1
929970,-90.9090909090909,4,2,2,70,0,1
930279,-90.9090909090909,4,2,3,60,0,1
933681,-90.9090909090909,4,2,2,60,0,1
934609,-90.9090909090909,4,2,2,70,0,1
935228,-90.9090909090909,4,2,3,60,0,1
941723,-90.9090909090909,4,2,2,60,0,1
944815,-500,4,2,2,40,0,0
950846,-500,4,2,99,5,0,0
951001,-500,4,2,2,10,0,0
958888,-500,4,2,2,20,0,0
958965,-500,4,2,2,30,0,0
959042,-500,4,2,2,40,0,0
959120,-500,4,2,2,50,0,0
959197,-500,4,2,2,60,0,0
959274,-500,4,2,2,70,0,0
959352,-500,4,2,2,75,0,0
959429,-500,4,2,2,80,0,0
959506,-500,4,2,2,85,0,0
959583,-500,4,2,2,90,0,0
959622,-500,4,2,40,5,0,0
961485,779.220779220779,4,2,19,40,1,0
961485,-133.333333333333,4,2,19,40,0,0
976095,-133.333333333333,4,2,19,50,0,0
982329,-133.333333333333,4,2,19,60,0,0
991809,-133.333333333333,4,2,19,5,0,0
991874,-133.333333333333,4,2,19,60,0,0
993238,-100,4,2,19,70,0,0
994017,-90.9090909090909,4,2,19,70,0,0
994796,-71.4285714285714,4,2,19,80,0,1
1016614,-83.3333333333333,4,2,19,70,0,0
1017394,-100,4,2,19,70,0,0
1019731,-71.4285714285714,4,2,19,80,0,1
1041549,-100,4,2,19,40,0,0
1041717,810.810810810811,4,2,19,40,1,0
1042375,-100,4,2,19,40,0,0
1042528,779.220779220779,4,2,19,40,1,0
1043307,789.473684210526,4,2,19,40,1,0
1043307,-133.333333333333,4,2,19,40,0,0
1044865,759.493670886076,4,2,19,30,1,0
1044865,-133.333333333333,4,2,19,30,0,0
1045985,800,4,2,19,30,1,0
1046385,-166.666666666667,4,2,19,30,0,0
1047960,779.220779220779,4,2,19,30,1,0
1047960,-166.666666666667,4,2,19,30,0,0
1048414,-166.666666666667,4,2,19,30,0,0
1048544,869.565217391304,4,2,19,30,1,0
1048782,1224.48979591837,4,2,19,30,1,0
1048782,-161.290322580645,4,2,19,30,0,0
1049164,-166.666666666667,4,2,19,30,0,0
1049374,991.735537190083,4,2,19,30,1,0
1049643,1038.96103896104,4,2,19,30,1,0
1049643,-166.666666666667,4,2,19,30,0,0
1049707,-166.666666666667,4,2,19,5,0,0
1052740,810.810810810811,4,2,49,50,1,0
1052740,-166.666666666667,4,2,49,50,0,0
1052841,-166.666666666667,4,2,49,5,0,0
1053449,-166.666666666667,4,2,49,5,0,0
1053550,697.674418604651,4,2,50,50,1,0
1053550,-166.666666666667,4,2,50,50,0,0
1053637,-166.666666666667,4,2,50,5,0,0
1054074,971.65991902834,4,2,51,50,1,0
1054074,-166.666666666667,4,2,51,50,0,0
1054195,-166.666666666667,4,2,49,5,0,0
1054317,792.079207920792,4,2,52,50,1,0
1054317,-200,4,2,52,50,0,0
1054366,-200,4,2,52,5,0,0
1054960,-200,4,2,52,5,0,0
1055802,-166.666666666667,4,2,49,5,0,0
1055901,833.333333333333,4,2,51,50,1,0
1055901,-166.666666666667,4,2,51,50,0,0
1056005,-166.666666666667,4,2,51,5,0,0
1056734,-166.666666666667,4,2,52,80,0,0
1057463,-166.666666666667,4,2,49,5,0,0
1057555,833.333333333333,4,2,53,80,1,0
1057555,-166.666666666667,4,2,53,80,0,0
1058041,-166.666666666667,4,2,53,5,0,0
1058249,-166.666666666667,4,2,54,80,0,0
1058666,-166.666666666667,4,2,55,80,0,0
1059082,-166.666666666667,4,2,56,80,0,0
1059221,857.142857142857,4,2,56,80,1,0
1059506,-166.666666666667,4,2,56,80,0,0
1059917,-166.666666666667,4,2,55,80,0,0
1060058,892.193308550186,4,2,55,80,1,0
1060355,-166.666666666667,4,2,54,80,0,0
1060838,-166.666666666667,4,2,49,5,0,0
1060950,909.090909090909,4,2,55,80,1,0
1060950,-166.666666666667,4,2,55,80,0,0
1061461,-166.666666666667,4,2,55,5,0,0
1061688,-166.666666666667,4,2,56,80,0,0
1061859,967.741935483871,4,2,56,80,1,0
1062161,-166.666666666667,4,2,52,80,0,0
1062342,1121.4953271028,4,2,52,80,1,0
1062622,-166.666666666667,4,2,54,80,0,0
1062865,1090.90909090909,4,2,54,80,1,0
1063751,-166.666666666667,4,2,54,45,0,0
1063955,1218.27411167513,4,2,54,45,1,0
1064970,-166.666666666667,4,2,57,40,0,0
1065071,-166.666666666667,4,2,19,25,0,0
1065211,1218.27411167513,4,2,57,40,1,0
1065325,1894.77673214173,4,2,19,25,1,0
1072548,-166.666666666667,4,2,19,5,0,0

[Colours]
Combo1 : 237,183,18
Combo2 : 255,128,64
Combo3 : 85,182,253

[HitObjects]
123,126,2220,5,2,0:0:0:0:
376,37,3438,1,2,0:0:0:0:
184,248,4656,5,2,0:0:0:0:
332,207,5874,1,2,0:0:0:0:
174,34,7093,5,2,0:0:0:0:
350,87,9529,1,2,0:0:0:0:
201,141,10747,1,2,0:0:0:0:
342,219,11357,2,0,P|377:219|410:208,1,68,0|2,0:0|0:0,0:0:0:0:
192,130,11966,5,0,1:2:0:0:
132,198,12270,2,0,P|125:231|127:272,1,68,2|0,0:0|0:0,0:0:0:0:
184,326,12879,1,2,0:0:0:0:
37,234,13184,5,0,1:2:0:0:
132,198,13489,1,2,0:0:0:0:
50,78,13793,2,0,P|49:112|57:146,1,68
127,26,14402,5,2,1:2:0:0:
193,78,14707,1,2,0:0:0:0:
193,78,14859,2,0,P|231:82|293:57,1,102,2|2,0:0|0:0,0:0:0:0:
374,6,15621,5,0,1:2:0:0:
431,74,15925,2,0,P|435:104|432:148,1,68,0|2,0:0|0:0,0:0:0:0:
370,198,16534,1,2,0:0:0:0:
217,37,16839,5,2,3:2:0:0:
138,52,17143,1,0,3:2:0:0:
27,140,17448,5,2,3:2:0:0:
118,162,17752,1,0,3:2:0:0:
282,232,18057,5,8,3:2:0:0:
171,255,18362,1,8,3:2:0:0:
32,349,18666,6,0,L|70:355,1,34,10|2,3:2|0:0,0:0:0:0:
259,379,18971,2,0,L|221:385,1,34,10|2,0:0|0:0,0:0:0:0:
292,276,19275,6,0,B|328:278|364:321|364:321|389:298|377:268|377:268|361:235|375:201,1,204,2|2,0:0|0:0,0:0:0:0:
424,136,20341,1,0,1:2:0:0:
424,136,20417,1,0,1:2:0:0:
424,136,20494,6,0,L|346:126,1,63.7500024318696,8|0,0:0|1:2,0:0:0:0:
272,159,20798,1,8,2:3:0:0:
178,22,20950,1,0,1:2:0:0:
178,22,21027,1,0,1:2:0:0:
178,22,21103,2,0,L|186:120,1,95.6250036478044,14|0,0:0|0:0,0:0:0:0:
164,129,21407,2,0,L|156:33,1,95.6250036478044,2|8,1:2|0:0,0:0:0:0:
12,177,21712,6,0,P|45:187|106:175,1,85,6|0,1:2|0:0,0:0:0:0:
0,85,22016,1,2,0:0:0:0:
62,275,22169,2,0,B|110:278|148:251|148:251|187:225|249:237,1,170,2|2,1:2|0:0,0:0:0:0:
289,293,22626,1,0,1:2:0:0:
456,229,22778,6,0,P|380:223|347:124,1,170,2|8,1:2|0:0,0:0:0:0:
500,86,23235,1,2,0:0:0:0:
446,243,23387,2,0,P|370:237|337:138,1,170,2|0,1:2|0:0,0:0:0:0:
399,28,23844,1,2,1:2:0:0:
422,160,23996,1,2,0:0:0:0:
263,68,24148,6,0,P|225:50|147:59,1,85,6|0,1:2|0:0,0:0:0:0:
32,104,24453,1,2,0:0:0:0:
194,222,24605,2,0,L|201:130,1,85,2|8,1:2|0:0,0:0:0:0:
138,312,24910,1,2,1:2:0:0:
283,191,25062,1,0,1:2:0:0:
108,148,25214,6,0,B|85:194|85:194|112:335,1,170,6|8,1:2|0:0,0:0:0:0:
221,366,25671,1,2,1:2:0:0:
332,274,25824,2,0,B|373:256|417:274|417:274|463:292|504:275,1,170,2|0,0:0|0:0,0:0:0:0:
340,114,26280,1,2,1:2:0:0:
283,191,26433,1,2,0:0:0:0:
206,57,26585,6,0,P|139:41|53:90,1,170,6|2,1:2|0:0,0:0:0:0:
0,192,27042,1,2,1:2:0:0:
142,139,27194,1,8,0:0:0:0:
106,323,27346,2,0,L|97:238,1,85,2|0,0:0|1:2,0:0:0:0:
360,255,27651,6,0,B|313:285|313:285|175:271,1,170,2|8,1:2|0:0,0:0:0:0:
304,160,28108,1,2,0:0:0:0:
417,340,28260,2,0,L|399:157,1,170,2|0,1:2|0:0,0:0:0:0:
501,14,28717,2,0,P|493:63|471:91,1,85,2|0,1:2|0:0,0:0:0:0:
228,29,29022,6,0,L|329:20,1,85,6|0,1:2|0:0,0:0:0:0:
143,199,29326,2,0,L|227:206,1,85,10|0,2:3|0:0,0:0:0:0:
35,38,29631,2,0,L|119:30,1,85,10|0,2:3|0:0,0:0:0:0:
0,219,29935,1,6,1:2:0:0:
76,142,30088,6,0,B|119:116|119:116|251:127,1,170,2|0,0:0|0:0,0:0:0:0:
269,278,30544,2,0,P|238:239|226:201,1,85,2|0,1:2|0:0,0:0:0:0:
394,298,30849,2,0,L|386:404,1,85,10|0,0:0|0:0,0:0:0:0:
332,196,31154,2,0,P|388:175|427:177,1,85,2|0,1:2|0:0,0:0:0:0:
219,73,31458,5,8,2:3:0:0:
269,278,31610,1,8,2:3:0:0:
435,72,31763,1,8,2:3:0:0:
394,298,31915,1,8,2:3:0:0:
299,20,32067,5,12,0:0:0:0:
314,34,32372,2,0,L|301:129,1,85,0|0,1:2|1:2,0:0:0:0:
148,185,32676,2,0,P|186:165|232:162,1,85,0|8,0:0|0:0,0:0:0:0:
92,314,32981,2,0,P|27:313|-2:299,1,85,0|0,1:2|0:0,0:0:0:0:
47,131,33285,6,0,L|64:244,1,85,10|0,0:0|0:0,0:0:0:0:
207,255,33590,1,2,1:2:0:0:
43,229,33742,1,2,0:0:0:0:
247,107,33895,6,0,P|291:92|336:96,1,85,6|0,1:2|0:0,0:0:0:0:
146,90,34199,2,0,P|166:48|201:19,1,85,2|0,0:0|1:2,0:0:0:0:
301,186,34504,1,10,0:0:0:0:
178,174,34656,1,8,0:0:0:0:
349,6,34808,6,0,P|390:26|410:143,1,170,6|0,1:2|0:0,0:0:0:0:
340,261,35265,1,8,0:0:0:0:
469,353,35417,6,0,L|453:269,1,85,2|0,1:2|0:0,0:0:0:0:
211,138,35722,2,0,L|195:221,1,85,10|0,0:0|0:0,0:0:0:0:
5,362,36027,2,0,B|31:320|31:320|67:302|127:316,1,127.5,2|0,1:2|0:0,0:0:0:0:
171,366,36331,6,0,P|223:374|260:362,1,85,6|0,1:2|0:0,0:0:0:0:
355,287,36636,1,2,0:0:0:0:
205,281,36940,5,10,3:2:0:0:
107,312,37245,1,2,3:2:0:0:
264,203,37549,5,8,3:2:0:0:
390,248,37854,1,2,3:2:0:0:
213,108,38159,5,8,3:2:0:0:
44,161,38463,1,0,3:2:0:0:
255,9,38768,6,0,B|314:2|370:32|370:32|426:74|488:27|455:-50|379:-40|370:32|370:32|340:83|362:135,1,442,12|2,0:0|0:0,0:0:0:0:
434,182,40900,6,0,B|415:216|371:230|330:221|302:201|302:201|356:240|361:273,1,229.499992996216,2|4,0:0|0:0,0:0:0:0:
95,362,42423,6,0,L|89:337,1,19.1249994163513,8|0,2:3|3:2,0:0:0:0:
34,287,42575,5,8,0:0:0:0:
38,272,42651,1,8,0:0:0:0:
44,256,42727,2,0,L|50:231,1,19.1249994163513,8|0,3:2|0:0,0:0:0:0:
130,190,42879,5,8,0:0:0:0:
126,175,42956,1,8,0:0:0:0:
120,159,43032,2,0,L|115:140,1,19.1249994163513,8|0,3:2|0:0,0:0:0:0:
38,95,43184,5,8,0:0:0:0:
42,80,43260,1,8,0:0:0:0:
48,64,43336,1,8,3:2:0:0:
68,53,43412,1,8,0:0:0:0:
90,49,43489,1,8,0:0:0:0:
113,52,43565,1,0,0:0:0:0:
133,61,43641,6,0,P|191:71|226:62,1,72.2500013780594,4|0,1:2|0:0,0:0:0:0:
300,13,43945,1,8,0:0:0:0:
381,172,44098,2,0,P|336:140|235:149,1,144.500002756119,0|0,0:0|1:2,0:0:0:0:
362,265,44555,1,8,0:0:0:0:
156,137,44707,6,0,L|170:280,1,144.500002756119,0|0,1:2|1:2,0:0:0:0:
6,197,45164,2,0,P|45:173|73:164,1,72.2500013780594,8|0,0:0|0:0,0:0:0:0:
305,212,45468,2,0,P|268:184|241:173,1,72.2500013780594,0|0,1:2|1:2,0:0:0:0:
33,349,45773,2,0,P|70:322|97:311,1,72.2500013780594,8|0,0:0|0:0,0:0:0:0:
316,355,46077,6,0,B|357:373|397:354|397:354|435:333|482:351,1,144.500002756119,0|8,1:2|0:0,0:0:0:0:
354,265,46534,1,0,0:0:0:0:
245,294,46687,2,0,L|158:283,1,72.2500013780594,0|0,1:2|1:2,0:0:0:0:
183,128,46991,2,0,P|214:165|220:202,1,72.2500013780594,10|0,0:0|1:2,0:0:0:0:
90,111,47296,6,0,L|81:31,1,72.2500013780594,2|0,0:0|1:2,0:0:0:0:
115,204,47600,1,8,0:0:0:0:
121,223,47752,1,0,0:0:0:0:
290,125,47905,1,0,1:2:0:0:
183,128,48057,1,0,1:2:0:0:
303,220,48209,2,0,P|358:219|382:200,1,72.2500013780594,10|2,0:0|0:0,0:0:0:0:
493,61,48514,6,0,L|475:213,1,144.500002756119,2|8,1:2|0:0,0:0:0:0:
290,125,48971,1,0,0:0:0:0:
382,19,49123,2,0,L|389:98,1,72.2500013780594,0|0,1:2|1:2,0:0:0:0:
271,211,49428,2,0,L|278:132,1,72.2500013780594,8|0,0:0|1:2,0:0:0:0:
99,302,49732,6,0,P|166:275|245:305,2,144.500002756119,0|8|0,0:0|0:0|1:2,0:0:0:0:
187,228,50494,1,0,1:2:0:0:
78,128,50646,2,0,L|90:229,1,72.2500013780594,8|0,0:0|0:0,0:0:0:0:
246,91,50950,5,0,1:2:0:0:
24,47,51103,1,0,1:2:0:0:
187,12,51255,2,0,L|270:-3,1,72.2500013780594,12|0,0:0|0:0,0:0:0:0:
304,161,51560,5,0,1:2:0:0:
78,128,51712,1,0,1:2:0:0:
251,256,51864,2,0,L|322:267,1,72.2500013780594,14|0,0:0|0:0,0:0:0:0:
433,160,52169,6,0,P|379:210|370:228,1,72.2500013780594,2|0,1:2|1:2,0:0:0:0:
433,384,52473,2,0,P|404:363|381:336,1,72.2500013780594,14|0,0:0|0:0,0:0:0:0:
507,271,52778,1,6,1:2:0:0:
296,172,52930,1,8,0:0:0:0:
262,160,53006,1,8,0:0:0:0:
226,161,53082,1,10,3:2:0:0:
193,175,53159,1,8,0:0:0:0:
159,186,53235,1,8,0:0:0:0:
123,185,53311,1,8,0:0:0:0:
90,171,53387,6,0,B|77:92|77:92|101:46,1,108.375002067089,4|0,1:2|0:0,0:0:0:0:
137,0,53692,1,8,0:0:0:0:
0,147,53844,2,0,L|29:301,1,144.500002756119,0|0,0:0|1:2,0:0:0:0:
132,364,54301,1,8,0:0:0:0:
247,265,54453,6,0,P|294:243|384:253,1,144.500002756119,0|0,1:2|1:2,0:0:0:0:
484,366,54910,2,0,L|472:272,1,72.2500013780594,8|0,0:0|0:0,0:0:0:0:
313,204,55214,2,0,L|322:132,1,72.2500013780594,0|0,1:2|1:2,0:0:0:0:
493,71,55519,2,0,L|483:0,1,72.2500013780594,8|0,0:0|0:0,0:0:0:0:
229,154,55824,6,0,P|181:166|94:122,1,144.500002756119,0|8,1:2|0:0,0:0:0:0:
242,25,56280,2,0,P|292:31|320:53,1,72.2500013780594,0|0,0:0|1:2,0:0:0:0:
176,77,56585,1,0,1:2:0:0:
331,56,56737,2,0,L|317:159,1,72.2500013780594,10|4,0:0|1:2,0:0:0:0:
442,227,57042,6,0,B|397:202|397:202|298:222,1,144.500002756119,2|8,0:0|0:0,0:0:0:0:
233,278,57499,1,0,0:0:0:0:
35,183,57651,2,0,L|126:196,1,72.2500013780594,8|0,0:0|1:2,0:0:0:0:
116,328,57956,1,10,2:3:0:0:
116,328,58108,1,10,2:3:0:0:
201,128,58260,6,0,L|188:226,1,72.2500013780594,4|0,1:2|0:0,0:0:0:0:
287,102,58565,1,8,0:0:0:0:
141,59,58717,1,0,0:0:0:0:
311,97,58869,1,0,1:2:0:0:
90,165,59022,1,0,1:2:0:0:
245,12,59174,1,8,0:0:0:0:
245,12,59326,1,0,1:2:0:0:
252,277,59478,6,0,L|247:204,1,72.2500013780594,4|0,0:0|1:2,0:0:0:0:
168,316,59783,1,8,0:0:0:0:
336,232,59935,1,0,0:0:0:0:
150,329,60088,1,0,1:2:0:0:
260,170,60240,1,0,1:2:0:0:
331,355,60392,1,8,0:0:0:0:
331,355,60544,1,0,0:0:0:0:
481,172,60697,6,0,L|398:186,1,72.2500013780594,4|0,1:2|0:0,0:0:0:0:
172,98,61001,1,8,0:0:0:0:
252,277,61154,1,0,0:0:0:0:
285,173,61306,1,0,1:2:0:0:
113,172,61458,1,0,1:2:0:0:
303,189,61610,1,8,0:0:0:0:
161,26,61763,6,0,L|173:104,1,72.2500013780594,4|0,0:0|1:2,0:0:0:0:
136,278,62067,1,0,1:2:0:0:
310,81,62220,1,8,0:0:0:0:
372,335,62372,1,8,0:0:0:0:
372,335,62448,1,8,0:0:0:0:
372,335,62524,2,0,L|290:325,1,72.2500013780594,0|8,1:2|0:0,0:0:0:0:
43,268,62829,1,8,0:0:0:0:
257,143,62981,5,8,3:2:0:0:
257,143,63818,6,0,L|262:207,1,36.1250006890297,2|4,0:0|1:2,0:0:0:0:
256,192,63971,12,0,71661,0:0:0:0:
424,253,73932,6,0,B|396:266|365:253|365:253|330:236|299:251,1,110.499994941712,6|0,1:2|0:0,0:0:0:0:
236,340,74418,2,0,B|243:300|243:300|220:216,1,110.499994941712,2|0,0:0|0:0,0:0:0:0:
153,188,74904,2,0,L|161:98,1,82.8749962062838,2|0,0:0|0:0,0:0:0:0:
180,22,75229,6,0,P|232:57|242:99,1,93.5000028533936,2|0,0:0|0:0,0:0:0:0:
300,203,75715,2,0,P|304:140|342:109,1,93.5000028533936,2|0,0:0|0:0,0:0:0:0:
384,31,76202,2,0,P|348:38|308:27,1,70.1250021400452,2|0,0:0|0:0,0:0:0:0:
240,6,76526,6,0,P|201:-5|136:21,1,93.5000028533936,2|2,0:0|0:0,0:0:0:0:
71,69,77013,2,0,L|77:178,1,93.5000028533936,2|2,0:0|0:0,0:0:0:0:
33,288,77499,2,0,P|59:268|137:260,1,93.5000028533936,2|0,0:0|0:0,0:0:0:0:
117,256,78472,2,0,P|191:278|232:269,1,114.749996498108,2|0,0:0|0:0,0:0:0:0:
305,231,79121,6,0,P|338:218|429:251,1,133.874995914459,2|2,0:0|0:0,0:0:0:0:
256,192,79769,12,2,81715,0:0:0:0:
171,242,83661,6,0,P|151:278|155:319,1,85,2|0,0:0|1:0,0:0:0:0:
260,169,83986,2,0,L|248:77,1,85,10|0,0:0|0:0,0:0:0:0:
432,290,84310,6,0,B|356:277|356:277|312:305|312:305|235:293,1,203.999993774414,6|8,1:2|0:0,0:0:0:0:
47,221,84796,1,2,0:0:0:0:
166,140,84959,2,2,L|149:203,1,50.9999984436036,2|2,1:2|1:2,1:2:0:0:
111,70,85121,5,8,0:0:0:0:
157,49,85202,1,8,0:0:0:0:
206,57,85283,1,8,0:0:0:0:
244,91,85364,1,8,0:0:0:0:
290,111,85445,1,10,0:0:0:0:
339,103,85526,1,8,0:0:0:0:
377,69,85607,6,0,P|364:130|397:218,1,152.999995330811,6|0,1:2|0:0,0:0:0:0:
451,270,85931,2,0,B|409:249|409:249|333:270,1,101.999996887207,10|0,0:0|1:0,0:0:0:0:
226,339,86256,1,10,0:0:0:0:
200,336,86337,1,8,0:0:0:0:
175,333,86418,1,8,0:0:0:0:
149,330,86499,1,8,0:0:0:0:
124,327,86580,2,8,P|111:287|110:261,1,50.9999984436036,10|8,0:0|0:0,0:0:0:0:
25,244,86742,2,8,P|44:205|62:186,1,50.9999984436036
32,110,86904,5,2,1:2:0:0:
63,103,86986,1,0,1:0:0:0:
94,102,87067,1,0,1:0:0:0:
127,102,87148,1,0,1:0:0:0:
159,106,87229,6,0,L|173:214,1,101.999996887207,12|2,0:0|0:0,0:0:0:0:
341,329,87553,6,0,P|354:278|354:244,1,50.9999984436036,14|0,0:0|0:0,0:0:0:0:
264,155,87796,6,0,P|301:191|331:208,1,50.9999984436036,14|0,0:0|0:0,0:0:0:0:
453,175,88040,6,0,P|402:189|372:206,1,50.9999984436036,14|0,0:0|0:0,0:0:0:0:
262,280,88202,5,6,1:2:0:0:
447,264,88364,1,0,1:0:0:0:
348,113,88526,2,0,L|325:6,1,101.999996887207,8|0,0:0|1:0,0:0:0:0:
66,26,88850,1,10,0:0:0:0:
67,51,88931,1,0,1:0:0:0:
73,76,89013,1,0,1:0:0:0:
83,99,89094,1,0,1:0:0:0:
98,120,89175,2,0,B|210:103,1,101.999996887207,2|8,1:2|0:0,0:0:0:0:
263,162,89418,1,8,0:0:0:0:
253,182,89499,6,0,B|152:197,1,101.999996887207,6|0,1:2|0:0,0:0:0:0:
331,258,89823,1,8,0:0:0:0:
283,59,89986,1,2,0:0:0:0:
140,318,90148,6,0,P|205:274|344:287,1,203.999993774414,2|8,1:2|0:0,0:0:0:0:
393,359,90634,1,2,0:0:0:0:
465,262,90796,5,10,0:0:0:0:
478,229,90877,1,8,0:0:0:0:
480,193,90959,1,8,0:0:0:0:
470,159,91040,1,8,0:0:0:0:
449,130,91121,6,8,L|437:194,1,50.9999984436036,10|8,0:0|0:0,0:0:0:0:
373,50,91283,2,8,L|361:-14,1,50.9999984436036
309,184,91445,2,8,L|300:234,1,50.9999984436036,10|8,0:0|0:0,0:0:0:0:
229,289,91607,1,8,0:0:0:0:
211,299,91688,1,8,0:0:0:0:
188,311,91769,2,0,P|120:308|79:234,1,152.999995330811,14|0,1:2|0:0,0:0:0:0:
143,169,92094,6,0,B|160:153|160:153|170:251,1,101.999996887207,6|0,1:2|0:0,0:0:0:0:
104,85,92418,2,0,P|163:62|208:72,1,101.999996887207,8|2,0:0|0:0,0:0:0:0:
383,148,92742,1,0,1:0:0:0:
334,21,92904,1,0,1:0:0:0:
251,185,93067,2,0,L|263:295,1,101.999996887207,8|0,0:0|0:0,0:0:0:0:
482,323,93391,6,0,P|427:295|339:331,1,152.999995330811,6|0,1:2|0:0,0:0:0:0:
286,368,93715,2,0,P|224:385|177:365,1,101.999996887207,8|0,0:0|0:0,0:0:0:0:
328,115,94040,2,0,L|345:221,1,101.999996887207,2|0,1:2|1:0,0:0:0:0:
65,135,94364,2,0,L|82:29,1,101.999996887207,10|0,0:0|0:0,0:0:0:0:
225,227,94688,6,0,B|163:230|163:230|116:272|116:272|40:278,1,187.000005706787,2|8,1:2|0:0,0:0:0:0:
192,138,95175,1,0,0:0:0:0:
255,315,95337,2,0,P|340:327|413:242,1,187.000005706787,2|8,1:2|0:0,0:0:0:0:
434,105,95823,1,0,0:0:0:0:
310,225,95986,5,2,1:2:0:0:
220,100,96148,5,8,0:0:0:0:
202,109,96229,1,8,0:0:0:0:
114,202,96391,5,8,0:0:0:0:
95,197,96472,1,8,0:0:0:0:
113,18,96634,1,2,1:2:0:0:
30,100,96796,5,0,0:0:0:0:
220,206,96959,2,0,L|351:193,1,93.5000028533936,12|0,0:0|0:0,0:0:0:0:
437,64,97283,6,0,B|400:73|400:73|363:132,1,93.5000028533936,6|0,1:2|0:0,0:0:0:0:
480,286,97607,2,0,P|491:248|473:185,1,93.5000028533936,8|0,0:0|0:0,0:0:0:0:
303,306,97931,5,2,1:2:0:0:
402,249,98094,1,0,1:0:0:0:
277,325,98256,2,0,L|171:313,1,93.5000028533936,8|0,0:0|0:0,0:0:0:0:
289,173,98580,5,2,1:2:0:0:
132,228,98742,1,0,0:0:0:0:
300,155,98904,2,0,L|406:143,1,93.5000028533936,8|0,0:0|0:0,0:0:0:0:
197,27,99229,6,0,P|178:85|182:127,1,93.5000028533936,2|0,1:2|1:0,0:0:0:0:
34,251,99553,2,0,P|67:218|109:199,1,93.5000028533936,10|0,0:0|0:0,0:0:0:0:
316,290,99877,6,0,P|366:301|440:193,1,187.000005706787,2|8,1:2|0:0,0:0:0:0:
379,93,100364,1,2,0:0:0:0:
197,329,100526,2,0,P|147:340|73:232,1,187.000005706787,2|8,1:2|0:0,0:0:0:0:
134,132,101013,1,2,0:0:0:0:
354,207,101175,6,0,L|461:186,1,93.5000028533936,2|0,1:2|0:0,0:0:0:0:
320,15,101499,2,0,L|228:33,1,93.5000028533936,10|0,0:0|0:0,0:0:0:0:
161,200,101823,1,2,1:2:0:0:
55,36,101986,1,0,1:0:0:0:
249,145,102148,2,0,P|264:196|251:272,1,93.5000028533936,14|0,0:0|0:0,0:0:0:0:
123,338,102472,6,0,B|193:328|193:328|235:343|235:343|316:334,1,187.000005706787,6|8,1:2|0:0,0:0:0:0:
126,128,102959,2,0,B|51:110|-8:153|-8:153|42:188,1,187.000005706787,2|0,0:0|1:0,0:0:0:0:
253,253,103445,2,0,L|357:241,1,93.5000028533936,8|0,0:0|0:0,0:0:0:0:
307,63,103769,6,0,P|276:112|274:156,1,93.5000028533936,2|0,1:2|0:0,0:0:0:0:
503,61,104094,1,8,0:0:0:0:
399,10,104256,1,0,0:0:0:0:
426,202,104418,2,0,L|442:316,1,93.5000028533936,2|0,1:2|1:0,0:0:0:0:
202,203,104742,2,0,P|233:165|287:143,1,93.5000028533936,10|0,0:0|0:0,0:0:0:0:
139,287,105067,6,0,B|95:255|98:204|98:204|100:150|57:123,1,187.000005706787,2|8,1:2|0:0,0:0:0:0:
9,270,105553,1,2,0:0:0:0:
196,374,105715,2,0,B|240:342|237:291|237:291|235:237|278:210,1,187.000005706787,2|8,1:2|0:0,0:0:0:0:
320,358,106202,1,2,0:0:0:0:
469,243,106364,6,0,P|411:208|363:214,1,93.5000028533936,2|0,1:2|0:0,0:0:0:0:
343,52,106688,2,0,P|383:73|407:113,1,93.5000028533936,10|0,0:0|0:0,0:0:0:0:
260,272,107013,2,0,L|250:167,1,93.5000028533936,2|8,1:2|0:0,0:0:0:0:
238,163,107256,1,8,0:0:0:0:
227,146,107337,1,10,0:0:0:0:
337,313,107499,1,8,0:0:0:0:
165,228,107661,6,0,B|121:212|121:212|32:241|32:241|-22:217,1,187.000005706787,6|8,1:2|0:0,0:0:0:0:
195,49,108148,2,0,B|247:34|290:65|290:65|338:66|365:18,1,187.000005706787,2|0,0:0|1:0,0:0:0:0:
102,28,108634,1,8,0:0:0:0:
227,146,108796,1,0,0:0:0:0:
51,252,108959,6,0,B|31:202|31:202|64:88,1,140.25000428009,2|0,1:2|0:0,0:0:0:0:
146,106,109283,2,0,L|111:224,1,93.5000028533936,8|0,0:0|0:0,0:0:0:0:
327,325,109607,2,0,P|320:268|300:235,1,93.5000028533936,2|0,0:2|1:0,0:0:0:0:
134,297,109931,2,0,B|164:322|164:322|251:305,1,93.5000028533936,10|0,0:0|0:0,0:0:0:0:
426,178,110256,6,0,P|344:173|289:85,1,187.000005706787,6|8,1:2|0:0,0:0:0:0:
488,110,110742,2,0,B|515:149|515:149|508:312,1,187.000005706787,2|0,0:0|1:0,0:0:0:0:
362,369,111229,2,0,L|348:263,1,93.5000028533936,10|0,0:0|0:0,0:0:0:0:
85,232,111553,6,0,P|167:268|256:205,1,187.000005706787,6|8,1:2|0:0,0:0:0:0:
64,139,112040,1,2,0:0:0:0:
246,40,112202,2,0,L|229:135,1,93.5000028533936,2|0,0:2|1:0,0:0:0:0:
388,197,112526,2,0,L|371:104,1,93.5000028533936,10|0,0:0|0:0,0:0:0:0:
282,279,112850,6,0,B|340:271|340:271|368:287|368:287|440:280,1,140.25000428009,2|0,1:2|0:0,0:0:0:0:
480,185,113175,2,0,L|378:198,1,93.5000028533936,8|0,0:0|0:0,0:0:0:0:
359,28,113499,2,0,P|406:71|416:102,1,93.5000028533936,2|0,0:0|1:0,0:0:0:0:
216,102,113823,2,0,L|308:113,1,93.5000028533936,10|0,0:0|0:0,0:0:0:0:
195,322,114148,6,0,P|105:336|31:282,1,187.000005706787,2|8,1:2|0:0,0:0:0:0:
119,161,114634,1,8,0:0:0:0:
126,193,114715,1,8,0:0:0:0:
135,227,114796,1,10,0:0:0:0:
38,97,114959,1,4,0:3:0:0:
217,178,115121,1,4,0:3:0:0:
217,178,115283,1,4,0:3:0:0:
334,64,115445,6,0,P|269:93|187:34,1,152.999995330811,6|0,1:2|0:0,0:0:0:0:
383,1,115931,1,0,1:0:0:0:
383,1,116094,2,0,L|364:174,1,152.999995330811,10|0,0:0|0:0,0:0:0:0:
500,279,116580,2,0,P|452:236|350:256,1,152.999995330811,0|0,1:0|0:0,0:0:0:0:
255,322,117067,2,0,P|199:336|132:296,1,114.749996498108,0|0,1:0|0:0,0:0:0:0:
101,246,117391,1,8,0:0:0:0:
266,234,117553,1,0,1:0:0:0:
83,260,117715,1,8,0:0:0:0:
331,51,118040,6,0,B|359:94|359:94|346:205,1,152.999995330811,2|0,1:2|0:0,0:0:0:0:
319,314,118526,1,0,1:0:0:0:
319,314,118607,1,0,1:0:0:0:
319,314,118688,2,0,P|359:290|405:286,1,76.4999976654053,8|0,0:0|1:0,0:0:0:0:
508,340,119013,1,12,0:0:0:0:
266,234,119175,6,0,P|191:218|108:228,1,152.999995330811,2|2,0:0|1:2,0:0:0:0:
99,240,119580,1,0,1:2:0:0:
103,261,119661,5,2,1:2:0:0:
18,169,119823,1,8,0:0:0:0:
148,339,119986,1,2,1:2:0:0:
206,156,120148,1,8,0:0:0:0:
268,369,120310,2,0,P|329:369|366:342,1,76.4999976654053,14|0,0:0|0:0,0:0:0:0:
477,269,120634,6,0,B|429:257|429:257|352:277|352:277|293:262,1,187.000005706787,6|8,1:2|0:0,0:0:0:0:
241,68,121121,2,0,P|359:144|359:187,1,187.000005706787,2|0,0:0|1:0,0:0:0:0:
214,275,121607,2,0,L|116:257,1,93.5000028533936,10|0,0:0|0:0,0:0:0:0:
424,71,121931,6,0,P|448:145|419:252,1,187.000005706787,2|8,1:2|0:0,0:0:0:0:
323,368,122418,2,0,L|311:271,1,93.5000028533936,2|0,0:0|0:0,0:0:0:0:
243,169,122742,1,0,1:0:0:0:
239,192,122823,1,0,0:0:0:0:
236,214,122904,1,10,0:0:0:0:
458,309,123067,2,8,L|469:257,1,46.7500014266968,0|0,1:0|0:0,0:0:0:0:
469,120,123229,5,2,1:2:0:0:
431,92,123310,1,0,1:2:0:0:
386,79,123391,1,0,1:2:0:0:
340,83,123472,1,0,1:2:0:0:
298,104,123553,1,0,1:2:0:0:
260,131,123634,1,0,1:2:0:0:
215,144,123715,1,0,1:2:0:0:
169,140,123796,1,0,1:2:0:0:
125,121,123877,5,2,1:2:0:0:
96,150,123959,1,0,1:2:0:0:
82,188,124040,1,0,1:2:0:0:
84,228,124121,1,0,1:2:0:0:
101,265,124202,1,2,1:2:0:0:
132,291,124283,1,0,1:2:0:0:
171,303,124364,1,0,1:2:0:0:
212,299,124445,1,0,1:2:0:0:
241,274,124526,6,0,P|293:247|423:291,1,203.999993774414,6|2,1:2|0:0,0:0:0:0:
430,303,125499,6,0,L|435:334,1,25.4999992218018,10|0,0:0|0:0,0:0:0:0:
179,204,125823,6,0,L|190:94,1,76.4999976654053,6|0,1:2|0:0,0:0:0:0:
319,66,126148,1,8,0:0:0:0:
172,107,126310,1,0,0:0:0:0:
288,182,126472,2,0,P|348:184|372:170,1,76.4999976654053,0|0,1:0|1:0,0:0:0:0:
456,67,126796,2,0,L|449:151,1,76.4999976654053,8|0,0:0|0:0,0:0:0:0:
379,356,127121,6,0,B|344:331|344:331|298:328,1,76.4999976654053,2|0,1:2|0:0,0:0:0:0:
179,318,127445,2,0,B|218:300|218:300|243:261,1,76.4999976654053,8|0,0:0|0:0,0:0:0:0:
311,163,127769,2,0,B|306:205|306:205|327:247,1,76.4999976654053,0|0,1:0|1:0,0:0:0:0:
470,208,128094,2,0,P|422:188|390:189,1,76.4999976654053,8|0,0:0|0:0,0:0:0:0:
138,265,128418,5,2,1:2:0:0:
327,340,128580,1,0,0:0:0:0:
121,281,128742,2,0,L|34:295,1,76.4999976654053,8|0,0:0|0:0,0:0:0:0:
246,219,129067,5,0,1:0:0:0:
197,371,129229,1,0,1:0:0:0:
261,207,129391,2,0,L|271:299,1,76.4999976654053,8|0,0:0|0:0,0:0:0:0:
23,191,129715,6,0,P|56:173|94:171,1,76.4999976654053,2|0,1:2|0:0,0:0:0:0:
215,140,130040,2,0,P|183:119|162:87,1,76.4999976654053,8|0,0:0|0:0,0:0:0:0:
76,0,130364,2,0,P|74:37|56:71,1,76.4999976654053,0|0,1:0|1:0,0:0:0:0:
209,18,130688,2,0,L|304:2,1,76.4999976654053,8|0,0:0|0:0,0:0:0:0:
465,118,131013,6,0,P|403:73|306:100,1,152.999995330811,6|8,1:2|0:0,0:0:0:0:
368,251,131499,2,0,B|403:271|403:271|376:146,1,152.999995330811,2|0,0:0|1:0,0:0:0:0:
210,189,131986,2,0,P|262:202|295:196,1,76.4999976654053,10|0,0:0|0:0,0:0:0:0:
177,110,132310,6,0,L|92:127,1,76.4999976654053,2|0,1:2|0:0,0:0:0:0:
256,290,132634,1,8,0:0:0:0:
259,111,132796,1,0,0:0:0:0:
130,272,132959,2,0,L|150:371,1,76.4999976654053,2|0,1:2|1:0,0:0:0:0:
366,346,133283,2,0,L|382:272,1,76.4999976654053,10|0,0:0|0:0,0:0:0:0:
339,117,133607,5,2,1:2:0:0:
497,186,133769,1,0,0:0:0:0:
296,238,133931,2,0,P|251:239|202:215,1,76.4999976654053,10|8,0:0|0:0,0:0:0:0:
168,180,134175,1,8,0:0:0:0:
168,180,134256,2,8,L|183:268,1,76.4999976654053,8|0,0:0|1:0,0:0:0:0:
269,155,134580,1,10,0:0:0:0:
359,292,134796,1,8,0:0:0:0:
359,292,134904,6,8,L|353:342,2,50.9999984436036,10|8|8,1:2|0:0|0:0,0:0:0:0:
414,202,135229,5,10,0:0:0:0:
428,169,135337,1,8,0:0:0:0:
423,135,135445,1,10,0:0:0:0:
400,108,135553,5,8,0:0:0:0:
366,98,135661,1,8,0:0:0:0:
333,108,135769,1,2,1:2:0:0:
309,134,135877,5,8,0:0:0:0:
304,169,135986,1,0,1:0:0:0:
318,201,136094,1,8,0:0:0:0:
351,224,136202,6,0,P|308:205|190:230,1,152.999995330811,6|0,1:2|0:0,0:0:0:0:
104,269,136688,1,0,1:0:0:0:
112,47,136850,2,0,P|159:47|255:120,1,152.999995330811,10|0,0:0|0:0,0:0:0:0:
318,201,137337,1,2,1:2:0:0:
134,349,137499,6,0,L|123:171,1,152.999995330811,0|0,0:0|1:0,0:0:0:0:
24,273,137986,1,0,0:0:0:0:
259,347,138148,2,0,P|333:348|386:295,1,152.999995330811,10|8,0:0|0:0,0:0:0:0:
81,71,138796,6,0,L|67:150,1,76.4999976654053,2|0,1:2|0:0,0:0:0:0:
247,223,139121,2,0,L|233:144,1,76.4999976654053,0|0,0:0|1:0,0:0:0:0:
410,158,139445,2,0,P|362:174|319:165,1,76.4999976654053,8|0,0:0|0:0,0:0:0:0:
438,78,139769,1,0,0:0:0:0:
496,188,139931,6,0,L|484:354,1,152.999995330811,2|0,1:2|0:0,0:0:0:0:
343,375,140418,2,0,P|296:375|254:356,1,76.4999976654053,0|0,1:0|0:0,0:0:0:0:
141,310,140742,2,0,P|94:310|52:329,1,76.4999976654053,10|0,0:0|1:0,0:0:0:0:
317,287,141067,2,0,L|303:202,1,76.4999976654053,8|0,0:0|0:0,0:0:0:0:
114,142,141391,6,0,P|176:170|257:125,1,152.999995330811,6|0,1:2|0:0,0:0:0:0:
22,79,141877,2,0,L|44:239,1,152.999995330811,2|0,1:2|0:0,0:0:0:0:
93,318,142364,1,2,0:0:0:0:
215,252,142526,6,0,B|256:230|298:242|298:242|341:256|391:237,1,152.999995330811,2|0,1:2|0:0,0:0:0:0:
407,140,143013,2,0,L|318:158,1,76.4999976654053,2|0,1:2|0:0,0:0:0:0:
225,84,143337,2,0,L|151:69,2,76.4999976654053,10|0|8,0:0|1:0|0:0,0:0:0:0:
84,274,143986,6,0,P|50:219|60:146,1,114.749996498108,6|0,1:2|0:0,0:0:0:0:
110,106,144310,5,0,1:0:0:0:
180,240,144472,1,0,1:0:0:0:
260,65,144634,1,0,1:0:0:0:
271,263,144796,1,0,1:0:0:0:
158,35,144959,1,8,0:0:0:0:
317,158,145121,1,8,0:0:0:0:
50,170,145283,5,8,0:0:0:0:
276,53,145445,1,8,0:0:0:0:
113,281,145607,1,8,0:0:0:0:
17,84,145769,1,8,0:0:0:0:
208,341,145931,5,8,0:0:0:0:
234,127,146094,1,8,0:0:0:0:
58,360,146256,1,8,0:0:0:0:
314,287,146418,2,0,L|363:293,1,38.2499988327027,12|0,0:0|0:0,0:0:0:0:
474,339,149792,6,0,B|428:311|378:333|378:333|328:356|272:329,1,204,6|2,1:2|0:0,0:0:0:0:
184,240,151340,6,0,P|210:255|224:269,1,34,2|0,0:0|0:0,0:0:0:0:
145,160,151727,2,0,P|173:152|193:152,1,34,2|0,0:0|0:0,0:0:0:0:
60,131,152114,2,0,P|75:104|109:79,1,68,2|0,0:0|0:0,0:0:0:0:
286,104,152695,6,0,L|366:98,1,68,2|2,0:0|0:0,0:0:0:0:
440,173,153275,2,0,L|400:167,1,34,2|0,0:0|0:0,0:0:0:0:
299,235,153662,2,0,L|340:230,2,34,2|2|2,0:0|0:0|0:0,0:0:0:0:
226,289,154243,1,2,0:0:0:0:
147,243,154437,2,0,P|138:223|136:209,1,34,2|0,0:0|0:0,0:0:0:0:
48,320,154824,2,0,P|57:305|62:289,1,34,2|0,0:0|0:0,0:0:0:0:
28,136,155211,2,0,L|36:217,1,68,2|0,0:0|0:0,0:0:0:0:
296,286,155985,5,6,1:2:0:0:
372,210,156372,1,2,0:0:0:0:
459,352,156759,1,2,0:0:0:0:
455,241,157146,2,0,L|447:175,1,63.7500024318696,2|2,0:0|0:0,0:0:0:0:
415,90,157533,6,0,P|384:107|349:107,1,63.7500024318696,6|2,1:2|0:0,0:0:0:0:
196,50,157921,1,10,0:0:0:0:
286,41,158114,1,2,1:2:0:0:
169,140,158308,5,10,0:0:0:0:
78,117,158501,1,0,1:2:0:0:
233,232,158695,1,10,0:0:0:0:
379,175,158888,1,8,3:0:0:0:
433,165,158985,1,8,3:0:0:0:
487,180,159082,6,0,P|503:217|506:254,1,63.7500024318696,4|4,3:0|3:0,0:0:0:0:
325,344,159469,2,0,P|376:315|409:255,1,106.25,6|2,1:2|0:0,0:0:0:0:
147,194,159856,2,0,L|166:342,1,106.25,2|0,1:2|1:2,0:0:0:0:
378,171,160243,1,10,0:0:0:0:
202,111,160437,1,2,1:2:0:0:
410,65,160630,6,0,P|459:103|472:174,1,106.25,2|0,0:0|1:2,0:0:0:0:
330,269,161017,2,0,L|207:254,1,106.25,10|8,0:0|0:0,0:0:0:0:
34,87,161404,2,0,B|5:39|54:7|98:23|129:98|93:183,1,212.5,2|8,1:2|0:0,0:0:0:0:
0,347,161985,6,0,P|54:280|188:294,1,212.5,2|2,1:2|1:2,0:0:0:0:
346,361,162566,2,0,P|415:369|471:340,1,106.25,10|2,0:0|0:0,0:0:0:0:
334,146,162953,1,2,1:2:0:0:
283,261,163146,1,2,1:2:0:0:
454,162,163340,2,0,L|426:53,1,106.25,10|0,0:0|1:0,0:0:0:0:
149,157,163727,6,0,P|200:194|308:150,1,159.375,2|0,0:0|0:0,0:0:0:0:
306,161,164114,2,0,P|279:222|290:280,1,106.25,10|8,0:0|0:0,0:0:0:0:
407,360,164501,6,0,B|331:344|331:344|282:356|282:356|191:340,1,212.5,2|8,1:2|0:0,0:0:0:0:
174,103,165082,2,0,P|233:151|259:207,1,106.25,4|0,1:2|0:0,0:0:0:0:
113,312,165469,1,2,1:2:0:0:
81,114,165662,1,10,0:0:0:0:
262,193,165856,1,10,0:0:0:0:
5,169,166050,2,0,P|-17:114|86:13,1,212.5,2|8,1:2|0:0,0:0:0:0:
308,200,166630,6,0,P|398:214|444:190,1,106.25,2|0,1:2|0:0,0:0:0:0:
490,64,167017,1,2,1:2:0:0:
272,115,167211,1,10,0:0:0:0:
430,227,167404,1,10,0:0:0:0:
353,0,167598,2,0,B|282:7|282:7|248:36|248:36|143:53,1,212.5,2|8,1:2|0:0,0:0:0:0:
363,133,168179,6,0,P|396:186|400:244,1,106.25,6|0,1:2|0:0,0:0:0:0:
309,362,168566,1,0,1:2:0:0:
179,259,168759,2,0,L|308:269,1,106.25,10|0,0:0|0:0,0:0:0:0:
119,368,169146,2,0,L|-10:378,1,106.25,2|0,1:2|1:2,0:0:0:0:
124,179,169533,1,10,0:0:0:0:
309,362,169727,6,0,P|387:375|422:238,1,212.5,2|2,1:2|1:2,0:0:0:0:
241,97,170308,2,0,B|208:132|219:174|219:174|229:220|192:256,1,159.375,14|0,0:0|0:0,0:0:0:0:
116,279,170695,1,8,0:0:0:0:
104,243,170791,1,8,0:0:0:0:
98,206,170888,1,8,0:0:0:0:
96,169,170985,1,8,0:0:0:0:
98,132,171082,2,0,P|106:92|126:70,1,53.125,8|0,0:0|0:0,0:0:0:0:
190,20,171275,6,0,B|310:5|310:5|366:32,1,159.375,6|0,1:2|0:0,0:0:0:0:
416,70,171662,1,2,1:2:0:0:
197,188,171856,1,10,0:0:0:0:
297,37,172050,1,10,0:0:0:0:
406,199,172243,2,0,P|434:259|423:311,1,106.25,2|0,1:2|1:2,0:0:0:0:
162,290,172630,1,10,0:0:0:0:
278,147,172824,1,2,1:2:0:0:
353,375,173017,6,0,P|296:345|237:353,1,106.25,2|0,0:0|1:2,0:0:0:0:
30,244,173404,2,0,P|82:242|127:215,1,106.25,10|8,0:0|0:0,0:0:0:0:
80,39,173791,2,0,B|54:20|20:14|20:14|52:170,1,212.5,2|8,1:2|0:0,0:0:0:0:
253,130,174372,6,0,P|184:113|132:122,1,106.25,6|0,1:2|0:0,0:0:0:0:
345,211,174759,1,2,1:2:0:0:
307,37,174953,1,10,0:0:0:0:
183,218,175146,1,2,0:0:0:0:
220,376,175340,2,0,P|281:379|321:353,1,106.25,2|0,1:2|1:2,0:0:0:0:
115,138,175727,2,0,P|36:127|-11:162,1,106.25,10|0,0:0|1:2,0:0:0:0:
248,288,176114,6,0,L|267:113,1,159.375,2|0,0:0|0:0,0:0:0:0:
270,108,176501,2,0,L|298:214,1,106.25,10|8,0:0|0:0,0:0:0:0:
512,62,176888,2,0,B|477:35|411:49|411:49|346:63|301:24,1,212.5,2|8,1:2|0:0,0:0:0:0:
68,140,177469,6,0,P|140:104|286:114,1,212.5,6|2,1:2|1:2,0:0:0:0:
409,272,178050,1,10,0:0:0:0:
191,225,178243,1,2,0:0:0:0:
448,146,178437,6,0,L|469:365,1,212.5,2|8,1:2|0:0,0:0:0:0:
218,330,179017,1,2,0:0:0:0:
291,242,179211,1,2,1:2:0:0:
101,347,179404,1,2,0:0:0:0:
363,317,179598,1,10,0:0:0:0:
68,234,179791,1,2,1:2:0:0:
233,358,179985,1,2,1:2:0:0:
351,165,180179,1,0,1:2:0:0:
191,244,180372,1,10,0:0:0:0:
46,65,180566,6,0,P|109:124|226:82,1,212.5,6|2,1:2|1:2,0:0:0:0:
360,8,181146,2,0,P|320:56|324:127,1,106.25,10|8,0:0|0:0,0:0:0:0:
508,230,181533,2,0,P|436:178|296:225,1,212.5,2|8,1:2|0:0,0:0:0:0:
240,264,182114,1,2,0:0:0:0:
90,146,182308,5,10,0:0:0:0:
140,342,182501,1,2,1:2:0:0:
280,70,182695,1,10,0:0:0:0:
238,288,182888,1,2,1:2:0:0:
6,213,183082,1,10,0:0:0:0:
277,186,183275,1,0,1:2:0:0:
137,38,183469,1,10,0:0:0:0:
129,55,183856,6,0,L|146:169,1,85,6|0,1:2|0:0,0:0:0:0:
376,191,184243,1,8,0:0:0:0:
337,96,184437,1,8,0:0:0:0:
295,249,184630,1,8,0:0:0:0:
218,172,184824,1,8,0:0:0:0:
268,333,185017,1,8,0:0:0:0:
141,310,185211,1,8,0:0:0:0:
391,309,185404,6,0,L|483:290,1,85,2|8,1:2|0:0,0:0:0:0:
218,172,185791,1,8,0:0:0:0:
186,180,185888,1,8,0:0:0:0:
302,47,186082,1,8,0:0:0:0:
334,55,186179,2,0,L|385:68,1,42.5,8|8,0:0|0:0,0:0:0:0:
422,146,186372,2,0,L|373:156,1,42.5,8|8,0:0|0:0,0:0:0:0:
291,231,186566,2,0,L|340:241,1,42.5,8|8,3:0|3:0,0:0:0:0:
423,310,186759,2,0,L|374:320,1,42.5,4|4,3:0|3:0,0:0:0:0:
281,377,186953,6,0,P|216:345|93:351,1,170,6|8,1:2|0:0,0:0:0:0:
27,275,187533,1,0,0:0:0:0:
106,163,187727,2,0,L|120:254,1,85,0|0,1:2|1:2,0:0:0:0:
185,124,188114,2,0,L|199:215,1,85,8|0,0:0|0:0,0:0:0:0:
425,228,188501,6,0,P|358:155|267:178,1,170,2|8,1:2|0:0,0:0:0:0:
333,245,189082,1,0,0:0:0:0:
429,100,189275,2,0,P|375:74|314:74,1,85,0|0,1:2|1:2,0:0:0:0:
215,189,189662,2,0,P|256:180|293:159,1,85,8|0,0:0|0:0,0:0:0:0:
118,92,190050,6,0,B|95:133|95:133|124:257,1,170,2|8,1:2|0:0,0:0:0:0:
186,330,190630,1,0,0:0:0:0:
301,280,190824,2,0,L|395:270,1,85,0|0,1:2|1:2,0:0:0:0:
493,352,191211,2,0,L|408:360,1,85,8|0,0:0|0:0,0:0:0:0:
247,204,191598,6,0,L|452:183,1,170,2|8,1:2|0:0,0:0:0:0:
479,114,192179,1,0,0:0:0:0:
356,32,192372,2,0,P|340:83|347:117,1,85,0|0,1:2|1:2,0:0:0:0:
256,6,192759,1,8,0:0:0:0:
254,113,192953,1,8,0:0:0:0:
155,31,193146,6,0,P|171:71|166:113,1,85,6|0,1:2|0:0,0:0:0:0:
31,218,193533,2,0,P|57:185|95:168,1,85,10|0,0:0|0:0,0:0:0:0:
254,233,193921,2,0,P|212:226|178:201,1,85,2|0,1:2|0:0,0:0:0:0:
81,81,194308,1,10,0:0:0:0:
249,142,194501,1,0,0:0:0:0:
108,264,194695,6,0,L|125:360,1,85,2|0,1:2|0:0,0:0:0:0:
389,347,195082,2,0,L|404:264,1,85,10|0,0:0|0:0,0:0:0:0:
324,178,195469,1,2,1:2:0:0:
447,116,195662,1,0,0:0:0:0:
298,52,195856,2,0,P|249:41|211:51,1,85,10|0,0:0|0:0,0:0:0:0:
95,136,196243,6,0,L|194:119,1,85,2|0,1:2|0:0,0:0:0:0:
108,264,196630,2,0,L|24:278,1,85,10|0,0:0|0:0,0:0:0:0:
197,207,197017,2,0,L|296:190,1,85,2|0,1:2|0:0,0:0:0:0:
210,335,197404,2,0,L|126:349,1,85,10|0,0:0|0:0,0:0:0:0:
284,275,197791,5,2,1:2:0:0:
308,373,197985,1,0,0:0:0:0:
407,236,198179,2,0,P|409:182|402:140,1,85,10|0,0:0|0:0,0:0:0:0:
258,97,198566,2,0,P|256:43|263:1,1,85,2|0,1:2|0:0,0:0:0:0:
447,68,198953,2,0,L|343:58,1,85,14|0,0:0|0:0,0:0:0:0:
204,172,199340,6,0,L|143:179,2,50.9999984436036,2|0|0,0:0|0:0|0:0,0:0:0:0:
294,136,199921,1,2,0:0:0:0:
338,204,200114,2,0,P|337:234|329:268,1,50.9999984436036,2|0,0:0|0:0,0:0:0:0:
406,319,200501,2,0,P|384:339|354:357,1,50.9999984436036,2|0,0:0|0:0,0:0:0:0:
247,307,200888,6,0,L|242:243,2,50.9999984436036,2|0|0,0:0|0:0|0:0,0:0:0:0:
176,366,201469,1,2,0:0:0:0:
123,298,201662,2,0,L|130:232,1,50.9999984436036,2|0,0:0|0:0,0:0:0:0:
199,192,202050,2,0,L|192:126,1,50.9999984436036,2|0,0:0|0:0,0:0:0:0:
49,48,202437,6,0,P|94:72|150:66,1,101.999996887207,2|0,0:0|0:0,0:0:0:0:
213,10,203017,1,2,0:0:0:0:
272,74,203211,2,0,L|332:69,1,50.9999984436036,2|0,0:0|0:0,0:0:0:0:
382,12,203598,2,0,L|457:18,1,50.9999984436036,2|0,0:0|0:0,0:0:0:0:
496,87,203985,6,0,P|493:145|463:187,1,101.999996887207,2|0,0:0|0:0,0:0:0:0:
398,230,204566,1,2,0:0:0:0:
324,173,204759,2,0,L|269:169,1,50.9999984436036,2|0,0:0|0:0,0:0:0:0:
196,227,205146,2,0,L|141:231,1,50.9999984436036,2|0,0:0|0:0,0:0:0:0:
36,167,205533,6,0,P|27:129|25:97,2,50.9999984436036,2|0|0,0:0|0:0|0:0,0:0:0:0:
108,246,206114,1,2,0:0:0:0:
49,308,206308,2,0,L|40:373,1,50.9999984436036,2|0,0:0|0:0,0:0:0:0:
126,384,206695,2,0,L|132:333,1,50.9999984436036,2|0,0:0|0:0,0:0:0:0:
212,205,207082,6,0,P|229:245|232:258,2,50.9999984436036,2|0|0,0:0|0:0|0:0,0:0:0:0:
151,137,207662,1,2,0:0:0:0:
229,68,207856,2,0,P|280:58|299:61,1,50.9999984436036,2|0,0:0|0:0,0:0:0:0:
341,97,208243,2,0,P|376:98|408:93,1,50.9999984436036,2|0,0:0|0:0,0:0:0:0:
481,48,208630,6,0,P|469:128|468:168,1,101.999996887207,2|0,0:0|0:0,0:0:0:0:
490,230,209211,1,2,0:0:0:0:
421,289,209404,2,0,L|364:279,1,50.9999984436036,2|0,0:0|0:0,0:0:0:0:
317,222,209791,2,0,L|252:227,1,50.9999984436036,2|0,0:0|0:0,0:0:0:0:
181,302,210179,6,0,L|71:291,1,101.999996887207,2|0,0:0|0:0,0:0:0:0:
21,225,210759,1,2,0:0:0:0:
94,162,210953,2,0,P|94:117|87:94,1,50.9999984436036,2|0,0:0|0:0,0:0:0:0:
35,40,211340,1,2,0:0:0:0:
190,101,211533,5,2,0:0:0:0:
77,137,214243,6,0,P|129:93|203:85,1,127.500004863739,6|0,1:2|1:0,0:0:0:0:
272,151,214885,2,0,L|267:200,1,31.8750012159348,8|0,0:0|0:0,0:0:0:0:
258,266,215100,1,2,0:0:0:0:
445,154,215314,1,2,0:0:0:0:
366,106,215528,1,10,0:0:0:0:
423,249,215743,1,2,1:2:0:0:
280,359,215957,6,0,P|213:343|138:344,1,127.500004863739,2|0,1:2|1:0,0:0:0:0:
63,284,216600,2,0,L|57:252,1,31.8750012159348,8|0,0:0|0:0,0:0:0:0:
76,168,216814,2,0,L|69:256,1,63.7500024318696,2|0,0:0|0:0,0:0:0:0:
10,103,217243,1,8,0:0:0:0:
170,176,217457,1,2,1:2:0:0:
181,183,217564,1,0,1:0:0:0:
192,191,217671,6,0,L|329:162,1,127.500004863739,2|0,1:2|0:0,0:0:0:0:
132,100,218314,1,10,0:0:0:0:
171,280,218528,6,0,L|318:249,1,127.500004863739,2|10,0:2|0:0,0:0:0:0:
76,168,219171,2,0,L|24:178,1,31.8750012159348,0|0,1:0|0:0,0:0:0:0:
149,369,219385,6,0,L|232:351,1,63.7500024318696,10|0,0:0|0:0,0:0:0:0:
392,316,219814,2,8,L|400:266,1,31.8750012159348,10|10,0:0|0:0,0:0:0:0:
419,210,220028,1,10,0:0:0:0:
417,190,220135,1,10,0:0:0:0:
415,169,220243,1,14,0:0:0:0:
278,130,220885,1,8,0:0:0:0:
282,107,220993,1,8,0:0:0:0:
284,90,221100,6,0,L|291:52,1,31.8750012159348,10|0,0:2|0:0,0:0:0:0:
203,65,221314,2,0,L|197:33,1,31.8750012159348,2|0,0:0|0:0,0:0:0:0:
134,116,221528,1,2,0:0:0:0:
219,247,221957,6,0,L|213:278,1,31.8750012159348,2|0,0:0|0:0,0:0:0:0:
300,272,222171,2,0,L|305:303,1,31.8750012159348,2|0,0:0|0:0,0:0:0:0:
369,221,222385,1,2,0:0:0:0:
139,221,222814,6,0,P|107:222|77:231,1,63.7500024318696,2|2,3:2|0:0,0:0:0:0:
99,364,223243,2,0,P|130:362|160:353,1,63.7500024318696,2|2,0:0|0:0,0:0:0:0:
369,221,223671,2,0,P|400:222|430:231,1,63.7500024318696,2|0,3:2|0:0,0:0:0:0:
409,364,224100,2,0,P|377:362|347:353,1,63.7500024318696,2|2,0:0|0:0,0:0:0:0:
319,87,224528,6,0,L|341:131,1,31.8750012159348,2|0,1:2|0:0,0:0:0:0:
408,39,224743,2,0,L|401:74,1,31.8750012159348,2|0,0:0|0:0,0:0:0:0:
497,60,224957,1,2,0:0:0:0:
193,87,225385,6,0,L|171:131,1,31.8750012159348,2|0,0:0|0:0,0:0:0:0:
104,39,225600,2,0,L|111:74,1,31.8750012159348,2|0,0:0|0:0,0:0:0:0:
15,60,225814,1,2,0:0:0:0:
194,243,226243,6,0,P|243:244|291:214,1,95.6250036478044,2|0,3:2|0:0,0:0:0:0:
276,270,226671,2,0,P|313:234|326:175,1,108.375002067089,2|0,3:2|0:0,0:0:0:0:
353,231,227100,2,2,P|354:175|319:120,1,121.124996765614,2|0,3:1|0:0,0:0:0:0:
380,149,227528,2,0,P|337:104|268:88,1,133.874995914459,2|0,3:2|0:0,0:0:0:0:
92,189,227957,6,0,P|198:190|117:124,1,255.000009727478,2|2,3:2|3:2,0:0:0:0:
420,195,229671,2,0,P|319:180|374:265,1,255.000009727478,2|2,3:2|3:2,0:0:0:0:
374,265,230957,2,0,P|344:288|321:315,1,63.7500024318696,2|2,3:2|0:0,0:0:0:0:
185,307,231385,6,0,P|163:283|138:265,1,63.7500024318696,6|0,0:0|0:0,0:0:0:0:
35,254,231814,1,2,0:0:0:0:
142,134,232028,2,0,P|191:142|270:176,1,127.500004863739,2|0,0:0|0:0,0:0:0:0:
357,236,232671,2,0,P|392:253|436:261,1,63.7500024318696,2|0,0:0|0:0,0:0:0:0:
491,173,233100,6,0,L|499:136,4,21.2500008106232,2|2|2|2|0,0:0|0:0|0:0|0:0|0:0,0:0:0:0:
402,125,233528,2,0,L|410:88,4,21.2500008106232,2|2|2|2|0,0:0|0:0|0:0|0:0|0:0,0:0:0:0:
326,172,233957,2,0,L|272:159,1,42.5000016212464,2|2,0:0|0:0,0:0:0:0:
226,104,234171,2,0,L|172:92,1,42.5000016212464,2|2,0:0|0:0,0:0:0:0:
100,67,234385,5,2,0:0:0:0:
80,282,234814,6,0,L|74:228,1,31.8750012159348,6|0,1:2|0:0,0:0:0:0:
230,331,235028,2,0,L|236:277,1,31.8750012159348,2|0,0:0|0:0,0:0:0:0:
65,296,235243,2,0,L|53:208,1,63.7500024318696,2|8,0:0|0:2,0:0:0:0:
337,173,235671,6,0,L|331:227,1,31.8750012159348,2|0,0:0|0:0,0:0:0:0:
487,124,235885,2,0,L|493:178,1,31.8750012159348,2|0,0:0|0:0,0:0:0:0:
322,159,236100,2,0,L|310:247,1,63.7500024318696,10|8,0:0|0:0,0:0:0:0:
321,254,236421,1,8,0:0:0:0:
321,254,236528,6,0,L|312:332,1,63.7500024318696,2|2,1:2|0:0,0:0:0:0:
178,163,236957,2,0,L|185:226,1,63.7500024318696,2|10,0:0|0:0,0:0:0:0:
290,104,237385,1,2,1:2:0:0:
207,64,237600,1,2,0:0:0:0:
306,123,237814,1,10,0:0:0:0:
410,66,238028,1,10,0:0:0:0:
467,227,238243,6,0,P|480:267|482:278,1,31.8750012159348,2|0,1:2|0:0,0:0:0:0:
363,260,238457,2,0,P|400:279|409:285,1,31.8750012159348,2|0,0:0|0:0,0:0:0:0:
479,209,238671,2,0,P|500:255|505:288,1,63.7500024318696,2|8,0:0|0:0,0:0:0:0:
152,154,239100,6,0,P|139:194|137:205,1,31.8750012159348,2|0,0:0|0:0,0:0:0:0:
256,187,239314,2,0,P|218:206|209:212,1,31.8750012159348,2|0,0:0|0:0,0:0:0:0:
140,136,239528,2,0,P|119:182|114:215,1,63.7500024318696,10|8,0:0|0:0,0:0:0:0:
416,98,239957,6,0,P|377:68|306:65,1,95.6250036478044,2|0,1:2|0:0,0:0:0:0:
332,60,240385,2,0,P|380:80|405:136,1,108.375002067089,10|0,0:0|0:0,0:0:0:0:
405,128,240814,2,0,P|354:102|274:94,1,121.124996765614,2|0,1:1|0:0,0:0:0:0:
291,93,241243,2,0,P|324:124|349:214,1,133.874995914459,10|0,0:0|0:0,0:0:0:0:
408,269,241671,6,0,B|359:246|320:268|320:268|279:291|224:266,1,178.499994552612,2|0,1:2|0:0,0:0:0:0:
149,196,242314,1,8,3:2:0:0:
17,371,242528,2,0,P|72:320|179:338,1,178.499994552612,2|0,1:2|0:0,0:0:0:0:
42,295,243171,2,0,P|32:263|31:230,1,44.6249986381531,10|0,3:2|0:0,0:0:0:0:
0,167,243385,6,0,P|70:207|180:173,1,178.499994552612,2|0,1:2|0:0,0:0:0:0:
330,377,244028,2,0,P|340:345|341:312,1,44.6249986381531,10|0,3:2|0:0,0:0:0:0:
372,249,244243,6,0,P|302:289|192:255,1,178.499994552612,2|0,1:2|0:0,0:2:0:0:
88,128,244885,2,0,P|78:96|77:63,1,44.6249986381531,10|0,3:2|0:0,0:0:0:0:
46,0,245100,5,10,0:0:0:0:
236,81,245421,1,10,0:0:0:0:
45,212,245743,1,8,0:0:0:0:
119,111,245957,5,8,0:0:0:0:
247,256,246278,1,8,0:0:0:0:
360,104,246600,1,8,0:0:0:0:
245,147,246814,5,10,0:0:0:0:
390,266,247135,1,8,0:0:0:0:
187,354,247457,1,8,0:0:0:0:
235,269,247671,5,2,0:0:0:0:
256,262,247778,1,2,0:0:0:0:
278,258,247885,1,2,0:0:0:0:
300,257,247993,1,2,0:0:0:0:
322,259,248100,5,6,0:0:0:0:
361,282,248207,1,2,0:0:0:0:
421,279,248314,1,2,0:0:0:0:
455,230,248421,1,2,0:0:0:0:
436,173,248528,6,0,L|415:86,1,61.6250018806458,6|0,1:2|0:0,0:0:0:0:
266,98,248743,2,0,L|280:38,1,61.6250018806458,2|0,0:0|0:0,0:0:0:0:
312,176,248957,2,0,P|239:182|192:145,1,123.250003761292,10|2,0:0|0:0,0:0:0:0:
86,56,249385,6,0,P|130:98|137:135,1,61.6250018806458,2|0,1:1|0:0,0:0:0:0:
100,247,249600,2,0,P|114:187|142:163,1,61.6250018806458,2|0,0:0|0:0,0:0:0:0:
260,287,249814,2,0,P|209:325|148:325,1,123.250003761292,10|0,0:0|0:0,0:0:0:0:
293,209,250243,5,2,1:2:0:0:
375,238,250457,1,2,0:0:0:0:
497,97,250671,1,10,0:0:0:0:
402,149,250885,1,2,0:0:0:0:
206,48,251100,1,2,1:2:0:0:
315,75,251314,1,2,0:2:0:0:
126,199,251528,1,10,0:0:0:0:
0,160,251743,1,2,0:0:0:0:
214,143,251957,6,0,L|226:218,1,61.6250018806458,6|0,1:2|0:0,0:0:0:0:
365,298,252171,2,0,L|377:223,1,61.6250018806458,2|0,0:0|0:0,0:0:0:0:
191,348,252385,2,0,P|117:361|57:335,1,123.250003761292,10|2,0:0|0:0,0:0:0:0:
0,135,252814,6,0,L|12:60,1,61.6250018806458,2|0,1:1|0:0,0:0:0:0:
144,3,253028,2,0,L|153:63,1,61.6250018806458,2|0,0:0|0:0,0:0:0:0:
334,128,253243,2,0,P|303:74|251:42,1,123.250003761292,10|2,0:0|0:0,0:0:0:0:
158,230,253671,6,0,B|199:255|251:231|251:231|305:204|354:231,1,184.875005641937,2|0,1:2|0:0,0:0:0:0:
359,245,254100,2,0,B|310:274|246:245|246:245|181:212|143:235,1,210.375002006292,10|0,0:0|0:0,0:0:0:0:
109,244,254528,2,0,B|166:278|240:244|240:244|318:205|362:232,1,235.874999100208,2|0,1:2|0:0,0:0:0:0:
408,245,254957,2,0,B|349:280|273:245|273:245|194:205|148:233,1,261.375003988266,10|0,0:0|0:0,0:0:0:0:
68,268,255385,6,0,B|2:228|25:119|25:119|106:143,1,191.250007295609,6|0,1:2|0:0,0:0:0:0:
133,149,255814,2,0,L|265:124,1,110.499994941712,8|2,0:0|0:0,0:0:0:0:
382,51,256243,2,0,P|295:54|341:180,1,220.999989883423,2|8,1:1|0:0,0:0:0:0:
406,210,256885,1,0,0:0:0:0:
279,340,257100,6,0,P|199:364|96:272,1,220.999989883423,6|8,1:2|0:0,0:0:0:0:
214,212,257743,1,2,0:0:0:0:
25,348,257957,2,0,P|2:276|105:177,1,220.999989883423,2|10,1:2|0:0,0:0:0:0:
205,244,258600,1,2,0:0:0:0:
311,138,258814,6,0,P|376:120|431:142,1,110.499994941712,2|0,1:2|0:0,0:0:0:0:
376,325,259243,2,0,L|366:199,1,110.499994941712,10|2,0:0|0:0,0:0:0:0:
122,139,259671,2,0,L|112:265,1,110.499994941712,2|0,1:1|0:0,0:0:0:0:
178,57,260100,2,0,P|113:39|58:61,1,110.499994941712,8|0,0:0|0:0,0:0:0:0:
203,272,260528,6,0,L|316:252,1,110.499994941712,0|0,1:2|0:0,0:0:0:0:
406,93,260957,1,10,0:0:0:0:
366,77,261064,1,2,0:0:0:0:
323,78,261171,1,2,0:0:0:0:
283,93,261278,1,2,0:0:0:0:
243,108,261385,1,2,0:0:0:0:
201,107,261493,1,2,0:0:0:0:
160,100,261600,1,2,0:0:0:0:
119,79,261707,1,2,0:0:0:0:
91,34,261814,5,10,0:0:0:0:
50,70,261921,1,2,0:0:0:0:
32,122,262028,1,2,0:0:0:0:
40,176,262135,1,2,0:0:0:0:
73,220,262243,6,0,L|145:207,1,55.2499974708558,6|0,1:2|0:0,0:0:0:0:
212,347,262457,2,0,L|157:337,1,55.2499974708558,2|0,0:0|0:0,0:0:0:0:
237,132,262671,2,0,B|315:120|315:120|355:145|355:145,1,110.499994941712,10|0,0:0|0:0,0:0:0:0:
335,281,263100,6,0,P|304:228|303:200,1,55.2499974708558,2|0,1:1|0:0,0:0:0:0:
432,160,263314,2,0,P|401:213|377:228,1,55.2499974708558,2|0,0:3|0:3,0:3:0:0:
165,54,263528,2,0,L|324:29,1,110.499994941712,10|0,0:0|0:0,0:0:0:0:
194,256,263957,5,2,1:2:0:0:
53,97,264171,1,2,0:0:0:0:
295,158,264385,1,10,0:0:0:0:
249,377,264600,1,2,0:0:0:0:
37,217,264814,1,2,1:2:0:0:
332,280,265028,1,2,0:0:0:0:
74,365,265243,1,10,0:0:0:0:
151,105,265457,1,2,0:0:0:0:
346,303,265671,6,0,L|414:294,1,55.2499974708558,6|0,1:2|0:0,0:0:0:0:
91,224,265885,2,0,L|23:215,1,55.2499974708558,2|0,0:0|0:0,0:0:0:0:
262,63,266100,2,0,L|241:204,1,110.499994941712,8|0,0:0|0:0,0:0:0:0:
431,53,266528,6,0,P|400:33|369:27,1,55.2499974708558,2|0,1:1|0:0,0:0:0:0:
71,124,266743,2,0,P|102:104|133:98,1,55.2499974708558,2|0,0:0|0:0,0:0:0:0:
262,281,266957,2,0,L|245:171,1,110.499994941712,10|0,0:0|0:0,0:0:0:0:
462,246,267385,6,0,P|481:271|404:261,1,165.749992412568,2|0,3:2|3:0,3:0:0:0:
429,228,267814,2,0,P|463:232|396:283,1,210.375002006292,10|0,0:0|3:0,3:0:0:0:
374,219,268243,2,0,P|404:195|392:288,1,235.874999100208,2|0,1:2|3:0,3:0:0:0:
330,253,268671,2,0,P|335:211|397:292,1,261.375003988266,10|8,0:0|0:0,3:0:0:0:
294,347,269100,6,0,B|219:393|153:335|153:335|87:280|23:327,1,280.500002675057,6|8,1:2|0:0,0:0:0:0:
232,271,269743,1,0,0:0:0:0:
136,91,269957,2,0,P|111:168|124:214,1,123.250003761292,2|0,1:1|0:0,0:0:0:0:
236,50,270385,1,10,0:0:0:0:
63,23,270600,2,0,L|-26:33,1,61.6250018806458,2|0,0:0|0:0,0:0:0:0:
209,159,270814,6,0,B|296:147|296:147|361:173|361:173|459:155,1,246.500007522583,6|10,1:2|0:0,0:0:0:0:
405,23,271457,2,0,P|380:54|375:81,1,61.6250018806458,2|0,0:0|0:0,0:0:0:0:
444,249,271671,6,0,B|357:266|357:266|292:240|292:240|205:252,1,246.500007522583,6|8,1:2|0:0,0:0:0:0:
247,384,272314,2,0,P|272:353|277:326,1,61.6250018806458,2|0,0:0|0:0,0:0:0:0:
208,64,272528,6,0,B|295:52|295:52|360:78|360:78|458:60,1,246.500007522583,6|8,1:2|0:0,0:0:0:0:
283,138,273171,1,0,1:0:0:0:
128,19,273385,1,10,0:0:0:0:
27,98,273600,1,2,1:2:0:0:
180,201,273814,1,2,1:2:0:0:
143,121,274028,1,10,0:0:0:0:
79,312,274243,6,0,P|118:345|248:343,1,159.375,2|0,1:2|0:0,0:0:0:0:
285,308,274671,2,0,P|340:283|396:278,1,106.25,8|2,0:0|0:0,0:0:0:0:
465,306,274993,1,2,0:0:0:0:
465,306,275100,2,0,L|472:243,1,53.125,2|0,1:2|0:0,0:0:0:0:
480,177,275314,1,2,0:0:0:0:
476,159,275421,1,2,0:0:0:0:
474,143,275528,1,10,0:0:0:0:
471,129,275635,1,2,0:0:0:0:
467,112,275743,1,2,0:0:0:0:
463,98,275850,1,2,0:0:0:0:
458,80,275957,6,0,P|396:57|327:181,1,212.5,6|0,1:2|0:0,0:0:0:0:
394,261,276600,1,10,0:0:0:0:
306,341,276814,2,0,P|252:356|190:326,1,106.25,2|0,1:1|0:0,0:0:0:0:
118,261,277243,1,2,0:0:0:0:
256,175,277457,2,0,L|256:229,1,53.125,10|0,0:0|0:0,0:0:0:0:
130,132,277671,6,0,B|180:102|254:135|254:135|330:168|389:129,1,265.625,4|0,1:2|0:0,0:0:0:0:
417,117,278314,2,0,L|407:185,1,53.125,10|0,0:0|0:0,0:0:0:0:
377,263,278528,6,0,B|322:299|246:266|246:266|172:233|122:263,1,265.625,6|0,1:2|0:0,0:0:0:0:
98,284,279171,2,0,L|105:336,1,53.125,10|0,0:0|0:0,0:0:0:0:
295,192,279385,6,0,P|224:162|79:184,1,212.5,6|0,1:2|1:0,0:0:0:0:
261,78,280028,2,0,P|314:99|346:121,1,53.125,10|0,0:0|0:0,0:0:0:0:
424,154,280243,1,2,1:1:0:0:
394,49,280457,1,10,0:0:0:0:
292,250,280671,1,2,1:2:0:0:
317,144,280885,1,10,0:0:0:0:
410,316,281100,5,2,1:2:0:0:
406,300,281314,1,10,0:0:0:0:
316,343,281528,1,2,1:2:0:0:
312,378,281743,1,10,0:0:0:0:
221,304,281957,1,2,1:2:0:0:
211,256,282171,1,10,0:0:0:0:
56,310,282385,1,2,1:2:0:0:
40,384,282600,1,10,0:2:0:0:
137,193,282814,6,0,P|196:160|255:167,1,89.2499972763062,6|0,1:2|0:0,0:0:0:0:
386,228,283243,2,0,L|268:216,1,89.2499972763062,10|2,0:0|0:0,0:0:0:0:
430,99,283671,1,2,0:1:0:0:
474,178,283885,1,0,1:2:0:0:
362,309,284100,2,0,L|244:297,1,89.2499972763062,10|0,0:0|1:0,0:0:0:0:
167,85,284528,6,0,P|211:142|218:179,1,89.2499972763062,2|2,1:2|0:0,0:0:0:0:
61,90,284957,2,0,P|88:23|116:-1,1,89.2499972763062,10|2,0:0|1:2,0:0:0:0:
116,182,285385,2,0,L|107:287,1,89.2499972763062,2|0,0:0|1:0,0:0:0:0:
309,194,285814,2,0,L|300:89,1,89.2499972763062,10|0,0:0|1:0,0:0:0:0:
482,130,286243,6,0,P|420:149|379:140,1,89.2499972763062,2|0,1:2|0:0,0:0:0:0:
236,34,286671,2,0,P|298:15|339:24,1,89.2499972763062,10|2,0:0|0:0,0:0:0:0:
204,208,287100,1,2,0:1:0:0:
170,116,287314,1,2,1:2:0:0:
285,281,287528,1,10,0:0:0:0:
337,179,287743,1,0,1:2:0:0:
164,313,287957,6,0,L|51:301,1,89.2499972763062,2|0,1:2|0:0,0:0:0:0:
392,269,288385,2,0,L|505:257,1,89.2499972763062,10|2,0:0|1:2,0:0:0:0:
274,23,288814,2,0,B|248:41|248:41|224:100,1,89.2499972763062,2|0,0:0|1:0,0:0:0:0:
471,140,289243,2,0,B|476:108|476:108|451:50,1,89.2499972763062,10|0,0:0|1:0,0:0:0:0:
206,184,289671,6,0,P|274:175|296:154,1,89.2499972763062,6|0,1:2|0:0,0:0:0:0:
139,30,290100,2,0,P|71:39|49:60,1,89.2499972763062,10|2,0:0|0:0,0:0:0:0:
106,214,290528,2,0,L|116:117,1,89.2499972763062,2|0,0:1|1:0,0:0:0:0:
0,247,290957,2,0,L|10:344,1,89.2499972763062,10|0,0:0|0:0,0:0:0:0:
229,340,291385,5,2,1:2:0:0:
108,297,291600,1,0,0:0:0:0:
328,229,291814,1,10,0:0:0:0:
196,242,292028,1,2,1:2:0:0:
368,129,292243,2,0,P|416:169|424:220,1,89.2499972763062,2|0,0:0|1:0,0:0:0:0:
379,364,292671,2,0,P|382:320|407:284,1,89.2499972763062,10|0,0:0|1:0,0:0:0:0:
504,136,293100,6,0,L|515:257,1,89.2499972763062,2|0,1:2|0:0,0:0:0:0:
368,129,293528,2,0,L|379:8,1,89.2499972763062,10|2,0:0|0:0,0:0:0:0:
135,40,293957,2,0,L|144:129,1,89.2499972763062,2|0,0:1|1:0,0:0:0:0:
0,224,294385,2,0,L|8:136,1,89.2499972763062,10|0,0:0|1:0,0:0:0:0:
194,305,294814,6,0,P|117:326|87:315,1,89.2499972763062,2|0,1:2|0:0,0:0:0:0:
194,213,295243,1,8,0:0:0:0:
298,313,295457,2,0,L|371:324,1,44.6249986381531,2|0,1:2|0:0,0:0:0:0:
429,262,295671,2,0,L|384:255,1,44.6249986381531,2|0,1:2|0:0,0:0:0:0:
294,171,295885,2,0,L|338:177,1,44.6249986381531,2|0,1:2|0:0,0:0:0:0:
485,121,296100,2,0,L|381:107,1,89.2499972763062,2|0,1:2|1:0,0:0:0:0:
332,53,296421,1,2,0:0:0:0:
332,53,296528,6,0,L|210:60,1,89.2499972763062,6|0,1:2|0:0,0:0:0:0:
55,119,296957,2,0,L|177:126,1,89.2499972763062,10|2,0:0|0:0,0:0:0:0:
119,294,297385,2,0,P|99:244|103:190,1,89.2499972763062,2|0,0:1|1:0,0:0:0:0:
290,365,297814,2,0,P|310:315|306:261,1,89.2499972763062,10|0,0:0|1:0,0:0:0:0:
200,109,298243,5,2,1:2:0:0:
223,240,298457,1,0,0:0:0:0:
344,28,298671,1,10,0:0:0:0:
340,165,298885,1,2,1:2:0:0:
111,120,299100,2,0,L|211:107,1,89.2499972763062,2|0,0:0|1:0,0:0:0:0:
428,176,299528,2,0,L|328:163,1,89.2499972763062,10|0,0:0|1:0,0:0:0:0:
346,371,299957,6,0,P|367:304|367:262,1,89.2499972763062,2|0,1:2|0:0,0:0:0:0:
244,184,300385,2,0,L|258:290,1,89.2499972763062,10|2,0:0|0:0,0:0:0:0:
90,168,300814,2,0,P|122:105|152:76,1,89.2499972763062,2|0,0:1|1:0,0:0:0:0:
161,263,301243,2,0,L|55:277,1,89.2499972763062,10|0,0:0|1:0,0:0:0:0:
244,184,301671,6,0,L|350:198,1,89.2499972763062,2|0,1:2|0:0,0:0:0:0:
391,88,302100,2,0,L|285:102,1,89.2499972763062,10|2,0:0|1:2,0:0:0:0:
386,271,302528,2,0,P|418:233|421:168,1,89.2499972763062,2|0,0:0|1:0,0:0:0:0:
256,27,302957,2,0,P|272:73|327:108,1,89.2499972763062,10|0,0:0|1:0,0:0:0:0:
512,22,303385,6,0,L|415:9,1,89.2499972763062,2|0,1:2|0:0,0:0:0:0:
244,184,303814,2,0,L|341:171,1,89.2499972763062,10|2,0:0|0:0,0:0:0:0:
167,117,304243,2,0,P|142:166|210:277,1,178.499994552612,2|10,0:1|0:0,0:0:0:0:
318,296,304885,1,0,1:0:0:0:
175,367,305100,6,0,P|117:350|-7:349,1,178.499994552612,2|10,1:2|0:0,0:0:0:0:
130,266,305743,1,2,1:2:0:0:
33,186,305957,2,0,P|20:142|29:97,1,89.2499972763062,2|0,0:0|1:0,0:0:0:0:
207,33,306385,2,0,L|309:39,1,89.2499972763062,10|4,0:0|0:3,0:0:0:0:
323,63,306707,1,4,0:3:0:0:
336,86,306814,6,0,P|342:136|328:184,1,89.2499972763062,6|0,1:2|0:0,0:0:0:0:
176,298,307243,2,0,P|170:248|184:200,1,89.2499972763062,10|2,0:0|0:0,0:0:0:0:
351,269,307671,2,0,L|243:261,1,89.2499972763062,2|0,0:1|1:0,0:0:0:0:
118,135,308100,2,0,L|231:120,1,89.2499972763062,10|0,0:0|0:0,0:0:0:0:
428,39,308528,5,6,1:2:0:0:
324,12,308743,1,0,0:0:0:0:
461,127,308957,1,10,0:0:0:0:
330,140,309171,1,2,1:2:0:0:
489,220,309385,2,0,P|510:271|511:315,1,89.2499972763062,2|2,0:0|1:2,0:0:0:0:
410,384,309814,2,0,L|399:285,1,89.2499972763062,10|0,0:0|1:0,0:0:0:0:
206,347,310243,6,0,P|263:358|298:347,1,89.2499972763062,6|0,1:2|0:0,0:0:0:0:
178,250,310671,1,10,0:0:0:0:
78,292,310885,1,2,1:2:0:0:
230,175,311100,1,2,0:1:0:0:
366,215,311314,1,0,1:0:0:0:
189,94,311528,1,10,0:0:0:0:
11,167,311743,1,2,1:2:0:0:
245,15,311957,5,6,1:2:0:0:
256,192,312064,12,0,320528,0:0:0:0:
387,314,324676,5,6,0:0:0:0:
393,220,326009,1,2,0:0:0:0:
175,330,327342,1,2,0:0:0:0:
155,236,328676,1,2,0:0:0:0:
410,140,330009,5,2,0:0:0:0:
437,251,331342,1,2,0:0:0:0:
146,81,332676,1,2,0:0:0:0:
110,180,334009,1,2,0:0:0:0:
194,312,335342,6,0,P|251:328|315:295,1,127.500004863739,2|2,1:2|0:0,0:0:0:0:
163,222,335842,2,0,L|93:215,1,63.7500024318696,2|0,3:0|0:0,0:0:0:0:
227,104,336176,2,0,L|290:97,1,63.7500024318696,2|0,0:0|3:0,0:0:0:0:
421,13,336509,6,0,P|397:66|432:151,1,127.500004863739,2|0,0:0|0:0,0:0:0:0:
492,189,337009,1,0,3:0:0:0:
408,260,337176,2,0,L|321:249,1,63.7500024318696,0|0,3:0|0:0,0:0:0:0:
217,162,337509,1,2,0:0:0:0:
310,174,337676,1,2,2:0:0:0:
211,261,337842,1,2,3:0:0:0:
202,266,337926,1,0,3:0:0:0:
192,271,338009,6,0,L|104:261,1,63.7500024318696,2|0,3:0|0:0,0:0:0:0:
58,213,338342,1,2,0:0:0:0:
128,134,338509,2,0,P|148:84|142:52,1,63.7500024318696,2|0,3:0|0:0,0:0:0:0:
36,16,338842,2,0,P|39:47|55:74,1,63.7500024318696,2|0,0:0|3:0,0:0:0:0:
232,55,339176,6,0,P|292:40|370:46,1,127.500004863739,2|0,0:0|0:0,0:0:0:0:
433,83,339676,1,0,0:0:0:0:
393,155,339842,2,0,P|398:208|408:244,1,63.7500024318696,0|0,3:0|0:0,0:0:0:0:
459,325,340176,1,2,0:0:0:0:
484,244,340342,1,2,3:0:0:0:
344,344,340509,1,2,3:0:0:0:
327,340,340592,1,0,3:0:0:0:
312,337,340676,6,0,P|241:324|169:336,1,127.500004863739,2|2,1:2|0:0,0:0:0:0:
52,293,341176,2,0,P|104:286|133:270,1,63.7500024318696,2|0,3:0|0:0,0:0:0:0:
187,184,341509,2,0,P|135:191|106:207,1,63.7500024318696,2|0,0:0|3:0,0:0:0:0:
243,247,341842,1,2,0:0:0:0:
340,172,342009,6,0,P|348:117|318:40,1,127.500004863739,0|10,0:0|0:0,0:0:0:0:
140,11,342509,1,6,0:3:0:0:
132,29,342842,5,2,1:2:0:0:
251,101,343009,1,8,0:0:0:0:
59,170,343176,1,2,0:0:0:0:
171,281,343342,6,0,L|180:166,1,95.6250036478044,6|0,1:2|0:0,0:0:0:0:
136,116,343676,1,8,0:0:0:0:
263,242,343842,2,0,P|312:250|352:241,1,63.7500024318696,6|0,1:2|0:0,0:0:0:0:
430,174,344176,1,2,1:2:0:0:
434,153,344259,1,0,1:0:0:0:
439,135,344342,1,8,1:2:0:0:
337,267,344509,5,6,1:2:0:0:
344,298,344842,1,6,1:2:0:0:
350,327,345176,1,6,1:2:0:0:
163,206,345509,2,0,L|187:134,2,63.7500024318696,2|2|2,0:0|0:0|0:0,0:0:0:0:
129,81,346009,6,0,P|187:60|267:129,1,170,6|12,1:2|0:0,0:0:0:0:
96,261,346509,2,0,P|76:220|87:171,1,85,2|0,0:0|1:0,0:0:0:0:
244,233,346842,2,0,P|227:271|192:294,1,85,2|8,1:2|0:0,0:0:0:0:
324,174,347176,6,0,B|394:165|394:165|444:180|444:180|499:174,1,170,2|0,1:2|1:0,0:0:0:0:
339,83,347676,1,10,0:0:0:0:
244,233,347842,2,0,L|153:225,1,85,2|0,1:2|0:0,0:0:0:0:
275,341,348176,2,0,L|366:333,1,85,2|8,1:2|1:2,0:0:0:0:
224,151,348509,1,2,1:2:0:0:
224,151,348592,1,8,1:2:0:0:
224,151,348676,6,0,L|48:131,1,170,2|10,1:2|0:0,0:0:0:0:
246,56,349176,2,0,P|288:78|317:132,1,85,2|2,0:0|1:2,0:0:0:0:
381,221,349509,2,0,P|379:173|411:121,1,85,2|8,1:2|0:0,0:0:0:0:
480,19,349842,6,0,L|485:199,1,170,2|0,1:2|1:0,0:0:0:0:
428,309,350342,1,8,0:0:0:0:
291,195,350509,2,0,P|251:179|197:187,1,85,0|0,1:0|0:0,0:0:0:0:
102,239,350842,1,2,1:2:0:0:
236,272,351009,1,10,0:0:0:0:
87,343,351176,1,2,1:2:0:0:
87,343,351259,1,8,1:2:0:0:
87,343,351342,6,0,L|79:259,1,85,6|0,1:2|0:0,0:0:0:0:
115,145,351675,1,10,0:0:0:0:
248,290,351842,2,0,P|291:299|345:277,1,85,2|0,0:0|1:0,0:0:0:0:
440,198,352175,2,0,P|397:189|343:211,1,85,2|8,1:2|0:0,0:0:0:0:
499,273,352509,6,0,L|473:98,1,170,2|0,1:2|1:0,0:0:0:0:
400,49,353009,1,10,0:0:0:0:
311,145,353175,2,0,P|261:150|222:138,1,85,2|0,1:2|0:0,0:0:0:0:
73,63,353509,2,0,P|148:57|175:65,1,85,2|8,1:2|1:2,0:0:0:0:
123,241,353842,1,2,1:2:0:0:
123,241,353925,1,8,1:2:0:0:
123,241,354009,6,0,L|118:143,1,85,2|0,1:2|0:0,0:0:0:0:
207,303,354342,1,10,0:0:0:0:
99,341,354509,2,0,L|-10:325,1,85,2|0,0:0|1:0,0:0:0:0:
220,205,354842,2,0,L|304:217,1,85,2|8,1:2|0:0,0:0:0:0:
490,163,355175,6,0,P|396:175|348:105,1,170,6|0,1:2|1:0,0:0:0:0:
447,47,355675,1,8,0:0:0:0:
485,178,355842,2,0,P|391:190|343:120,1,170,4|2,1:2|1:2,0:0:0:0:
255,35,356342,1,8,0:0:0:0:
213,25,356425,1,8,0:0:0:0:
171,25,356509,1,8,1:2:0:0:
129,34,356592,1,0,1:0:0:0:
91,54,356675,6,0,L|106:161,1,85,6|0,1:2|0:0,0:0:0:0:
202,196,357009,1,14,0:0:0:0:
20,286,357175,2,0,P|46:248|93:223,1,85,2|0,0:0|1:0,0:0:0:0:
199,323,357509,2,0,P|158:332|117:324,1,85,2|8,1:2|0:0,0:0:0:0:
292,236,357842,6,0,L|476:219,1,170,2|0,1:2|1:0,0:0:0:0:
384,56,358342,1,8,0:0:0:0:
384,56,358509,2,0,P|362:114|366:149,1,85,0|0,1:0|0:0,0:0:0:0:
476,240,358842,1,2,1:2:0:0:
460,110,359009,1,10,0:0:0:0:
336,283,359175,1,2,1:2:0:0:
336,283,359259,1,8,1:2:0:0:
336,283,359342,6,0,L|226:270,1,85,6|0,1:2|0:0,0:0:0:0:
130,200,359675,1,14,0:0:0:0:
270,54,359842,2,0,P|293:110|295:156,1,85,2|0,0:0|1:0,0:0:0:0:
27,92,360175,2,0,P|63:44|102:19,1,85,2|8,1:2|0:0,0:0:0:0:
123,219,360509,6,0,L|81:392,1,170,2|0,1:2|1:2,0:0:0:0:
221,311,361009,1,8,0:0:0:0:
215,153,361175,2,0,P|205:104|190:58,1,85,0|0,1:2|0:0,0:0:0:0:
46,177,361509,1,2,1:2:0:0:
255,238,361675,1,10,0:0:0:0:
33,282,361842,1,2,1:2:0:0:
33,282,361925,1,8,1:2:0:0:
33,282,362009,6,0,L|26:168,1,85,6|0,1:2|0:0,0:0:0:0:
194,70,362342,1,10,0:0:0:0:
287,249,362509,2,0,P|346:259|377:252,1,85,2|0,0:0|1:0,0:0:0:0:
492,75,362842,2,0,P|433:65|402:72,1,85,2|8,1:2|0:0,0:0:0:0:
452,289,363175,6,0,B|444:152|444:152|410:198,1,170,2|0,1:2|1:0,0:0:0:0:
275,100,363675,1,8,0:0:0:0:
275,100,363842,2,0,L|366:113,1,85,2|0,1:2|0:0,0:0:0:0:
163,273,364175,2,0,L|72:286,1,85,2|8,1:2|0:0,0:0:0:0:
247,330,364509,1,2,1:2:0:0:
247,330,364592,1,8,1:2:0:0:
247,330,364675,6,0,P|265:249|216:182,1,170,6|10,1:2|0:0,0:0:0:0:
77,127,365175,2,0,P|32:137|-12:167,1,85,2|0,0:0|1:0,0:0:0:0:
170,107,365509,1,10,0:0:0:0:
58,31,365675,1,8,0:0:0:0:
58,31,365759,1,8,0:0:0:0:
58,31,365842,5,14,0:2:0:0:
372,128,366175,1,4,1:2:0:0:
86,236,366509,1,4,1:2:0:0:
78,254,366842,5,10,0:0:0:0:
166,162,367009,1,10,0:0:0:0:
204,145,367092,1,8,0:0:0:0:
247,145,367175,1,10,0:0:0:0:
286,161,367259,1,8,0:0:0:0:
316,189,367342,6,0,L|306:288,1,85,6|0,1:2|0:0,0:0:0:0:
403,163,367675,1,14,0:0:0:0:
431,63,367842,2,0,P|383:61|332:92,1,85,2|0,0:0|1:0,0:0:0:0:
178,28,368175,2,0,P|226:26|277:57,1,85,2|8,1:2|0:0,0:0:0:0:
101,98,368509,1,2,1:2:0:0:
281,127,368675,6,0,L|243:303,1,170,2|10,0:0|0:0,0:0:0:0:
440,217,369175,2,0,L|355:196,1,85,2|0,1:2|0:0,0:0:0:0:
81,278,369509,2,0,L|166:257,1,85,2|8,1:2|0:0,0:0:0:0:
91,133,369842,2,0,L|102:187,1,42.5,2|8,1:2|1:2,0:0:0:0:
139,62,370009,6,0,P|73:47|7:130,1,170,6|10,1:2|0:0,0:0:0:0:
220,112,370509,2,0,P|233:57|226:17,1,85,2|0,0:0|1:0,0:0:0:0:
310,152,370842,2,0,P|281:183|244:203,1,85,2|8,1:2|0:0,0:0:0:0:
363,43,371175,6,0,B|433:12|485:34|485:34|466:77,1,170,2|0,1:2|1:0,0:0:0:0:
380,150,371675,1,8,0:0:0:0:
480,246,371842,2,0,P|495:191|489:152,1,85,0|0,1:2|0:0,0:0:0:0:
324,317,372175,2,0,P|309:262|315:223,1,85,2|8,1:2|0:0,0:0:0:0:
474,335,372509,1,2,1:2:0:0:
483,355,372592,1,8,1:2:0:0:
490,375,372675,6,0,P|411:346|300:383,1,170,2|10,1:2|0:0,0:0:0:0:
140,308,373175,2,0,L|259:318,1,85,2|0,0:0|1:0,0:0:0:0:
81,217,373509,2,0,L|200:207,1,85,2|8,1:2|0:0,0:0:0:0:
138,48,373842,6,0,P|109:89|112:145,1,85,2|0,1:2|0:0,0:0:0:0:
165,209,374175,1,0,1:0:0:0:
299,130,374342,1,10,0:0:0:0:
299,130,374509,2,0,L|183:119,1,85,2|0,1:2|0:0,0:0:0:0:
339,45,374842,2,0,L|431:37,1,85,2|8,1:2|0:0,0:0:0:0:
443,223,375175,1,2,1:2:0:0:
443,223,375259,1,8,1:2:0:0:
443,223,375342,2,0,L|351:215,1,85,2|0,1:2|0:0,0:0:0:0:
464,130,375675,1,14,0:0:0:0:
510,284,375842,6,0,P|517:325|501:365,1,85,2|0,0:0|1:0,0:0:0:0:
274,254,376175,2,0,P|267:213|283:173,1,85,2|8,1:2|0:0,0:0:0:0:
354,315,376509,6,0,L|161:294,1,170,6|0,1:2|1:0,0:0:0:0:
62,248,377009,1,10,0:0:0:0:
162,83,377175,2,0,P|184:137|186:175,1,85,6|8,1:2|0:0,0:0:0:0:
175,182,377425,1,8,0:0:0:0:
167,198,377509,1,10,1:2:0:0:
83,26,377675,1,0,1:0:0:0:
258,77,377842,1,2,1:2:0:0:
76,156,378009,6,0,B|38:194|38:194|59:320,1,170,6|12,1:2|0:0,0:0:0:0:
122,363,378509,1,0,0:0:0:0:
227,300,378675,2,0,P|272:279|328:282,1,85,0|2,1:0|1:2,0:0:0:0:
467,320,379009,1,10,0:0:0:0:
403,238,379175,1,2,1:2:0:0:
501,147,379342,6,0,L|490:252,1,85,2|0,0:0|1:0,0:0:0:0:
390,47,379675,1,10,0:0:0:0:
390,47,379842,2,0,L|399:132,1,85,2|0,1:2|0:0,0:0:0:0:
294,17,380175,1,0,1:2:0:0:
227,156,380342,2,0,P|185:150|148:129,1,85,10|2,0:0|1:2,0:0:0:0:
94,65,380592,1,8,1:2:0:0:
94,65,380675,6,0,L|106:165,1,85,6|0,1:2|0:0,0:0:0:0:
34,267,381009,1,14,0:0:0:0:
145,222,381175,1,2,0:0:0:0:
204,345,381342,1,2,1:2:0:0:
324,244,381509,2,0,L|212:256,1,85,2|8,1:2|0:0,0:0:0:0:
366,151,381842,6,0,P|422:201|393:317,1,170,2|0,1:2|1:0,0:0:0:0:
266,161,382342,1,8,0:0:0:0:
366,59,382509,2,0,P|441:82|504:155,1,170,0|2,1:0|1:2,0:0:0:0:
351,344,383009,1,10,0:0:0:0:
279,185,383175,1,2,1:2:0:0:
272,174,383259,1,8,1:2:0:0:
266,161,383342,6,0,L|171:151,1,85,6|0,1:2|0:0,0:0:0:0:
97,88,383675,1,12,0:0:0:0:
14,247,383842,2,0,L|110:231,1,85,2|0,0:0|1:0,0:0:0:0:
219,355,384175,2,0,L|123:339,1,85,2|8,1:2|0:0,0:0:0:0:
317,264,384509,6,0,B|384:255|384:255|418:271|418:271|505:260,1,170,2|0,1:2|1:0,0:0:0:0:
320,163,385009,1,10,0:0:0:0:
220,266,385175,2,0,L|116:251,1,85,2|0,1:2|0:0,0:0:0:0:
268,74,385509,2,0,L|372:59,1,85,2|8,1:2|0:0,0:0:0:0:
181,17,385842,1,2,1:2:0:0:
181,17,385925,1,8,1:2:0:0:
181,17,386009,6,0,P|159:75|220:176,1,170,6|8,1:2|0:0,0:0:0:0:
418,218,386509,1,4,0:3:0:0:
320,163,386675,1,4,0:3:0:0:
183,254,386842,1,0,1:0:0:0:
101,318,387009,2,0,P|58:326|16:313,1,85,8|2,0:0|0:0,0:0:0:0:
143,149,387342,6,0,L|295:172,1,127.500004863739,6|2,1:2|0:0,0:0:0:0:
381,68,387842,2,0,P|333:103|321:134,1,63.7500024318696,2|0,0:0|0:0,0:0:0:0:
401,286,388175,2,0,L|412:159,1,127.500004863739,6|0,0:3|0:0,0:0:0:0:
292,262,388675,6,0,L|301:357,1,85,6|0,1:2|0:0,0:0:0:0:
106,329,389009,1,10,0:0:0:0:
202,202,389175,2,0,L|193:297,1,85,6|0,1:2|0:0,0:0:0:0:
135,133,389509,1,8,0:0:0:0:
281,151,389675,1,8,0:0:0:0:
155,35,389842,6,0,P|100:38|32:129,1,170,6|0,1:2|1:0,0:0:0:0:
57,241,390342,1,8,0:0:0:0:
135,133,390509,1,0,1:0:0:0:
148,333,390675,1,8,0:0:0:0:
238,228,390842,1,0,1:0:0:0:
151,231,391009,1,4,0:3:0:0:
252,342,391175,1,4,0:3:0:0:
252,342,391259,1,4,0:3:0:0:
252,342,391342,6,0,P|326:353|416:303,1,170,6|8,1:2|0:0,0:0:0:0:
317,167,391842,2,0,L|306:275,1,85,6|2,1:2|0:0,0:0:0:0:
401,117,392175,1,10,0:0:0:0:
221,141,392342,1,8,0:0:0:0:
386,19,392509,6,0,P|466:42|491:144,1,170,6|0,1:2|1:0,0:0:0:0:
406,201,393009,2,0,L|399:83,1,85,14|0,0:0|1:0,0:0:0:0:
259,36,393342,1,8,0:0:0:0:
229,44,393425,1,8,0:0:0:0:
198,52,393509,1,8,0:0:0:0:
65,137,393675,1,8,0:0:0:0:
208,191,393842,1,8,0:0:0:0:
238,199,393925,1,8,0:0:0:0:
269,207,394009,6,0,L|284:307,2,85,6|2|10,1:2|0:0|0:0,0:0:0:0:
443,209,394509,2,0,P|413:232|344:226,1,85,6|0,1:2|0:0,0:0:0:0:
286,102,394842,1,10,0:0:0:0:
390,150,395009,1,8,0:0:0:0:
192,277,395175,6,0,L|79:293,1,85,6|2,1:2|0:0,0:0:0:0:
242,196,395509,1,0,1:0:0:0:
242,196,395592,1,0,1:0:0:0:
242,196,395675,2,0,P|274:231|288:274,1,85,10|4,0:0|0:3,0:0:0:0:
142,189,396009,1,4,0:3:0:0:
331,142,396175,1,6,0:3:0:0:
102,114,396342,1,6,0:3:0:0:
329,52,396509,1,6,0:3:0:0:
267,264,396675,5,6,1:2:0:0:
220,96,396842,1,2,0:0:0:0:
170,336,397009,1,10,0:0:0:0:
375,243,397175,1,6,1:2:0:0:
390,252,397509,5,8,0:0:0:0:
208,190,397675,1,8,0:0:0:0:
191,185,397759,1,8,0:0:0:0:
172,180,397842,1,14,1:2:0:0:
256,192,397925,12,0,402009,0:0:0:0:
72,273,405203,6,0,P|129:225|224:242,1,170,4|8,1:2|0:0,0:0:0:0:
324,346,405653,2,0,P|268:333|274:224,1,170,2|0,1:2|1:0,0:0:0:0:
352,121,406103,2,0,P|381:191|276:152,1,255,10|0,0:0|1:0,0:0:0:0:
333,34,406703,2,0,L|421:43,1,85,10|0,0:0|0:0,0:0:0:0:
240,157,407003,1,2,1:2:0:0:
175,90,407153,2,0,P|172:48|190:10,1,85,2|8,1:2|0:0,0:0:0:0:
257,66,407453,1,2,0:0:0:0:
101,127,407603,6,0,B|86:166|86:166|99:202|117:317,1,170,6|8,1:2|0:0,0:0:0:0:
174,359,408053,2,0,P|234:314|332:319,1,170,2|0,1:2|1:0,0:0:0:0:
512,361,408503,2,0,B|456:320|396:348|396:348|326:378|239:314,1,255,14|0,0:0|1:0,0:0:0:0:
314,189,409103,2,0,P|331:236|332:274,1,85,10|0,0:0|0:0,0:0:0:0:
154,190,409403,2,0,L|172:98,1,85,2|0,1:2|1:0,0:0:0:0:
13,51,409703,2,0,B|41:80|100:57|100:57|122:29|162:20,1,127.5,10|0,0:0|0:0,0:0:0:0:
170,106,410003,6,0,L|254:118,1,85,6|2,1:2|0:0,0:0:0:0:
450,65,410303,2,0,P|377:54|351:157,1,170,10|0,0:0|0:0,0:0:0:0:
379,219,410753,1,0,1:0:0:0:
434,158,410903,6,0,B|399:206|399:206|448:335|448:335|409:382,1,255,10|0,0:0|1:0,0:0:0:0:
324,345,411503,2,0,B|281:310|223:326|223:326|192:359|192:359|140:379|93:351,1,255,8|0,0:0|1:0,0:0:0:0:
22,272,412103,2,0,P|77:268|128:248,1,85,10|0,0:2|0:0,0:0:0:0:
33,90,412403,6,0,L|48:192,1,85,6|0,1:2|0:0,0:0:0:0:
110,45,412703,2,0,L|125:147,1,85,10|0,0:0|1:0,0:0:0:0:
218,0,413003,2,0,L|203:102,1,85,2|0,0:0|1:0,0:0:0:0:
295,45,413303,2,0,L|280:147,1,85,14|0,0:0|0:0,0:0:0:0:
460,237,413603,6,0,P|417:205|297:238,1,170,2|8,0:0|0:0,0:0:0:0:
52,327,414053,2,0,P|130:353|203:314,1,170,2|0,0:0|1:0,0:0:0:0:
189,120,414503,1,10,0:0:0:0:
180,134,414803,5,6,1:2:0:0:
368,289,414953,1,10,0:0:0:0:
53,296,415253,5,10,0:2:0:0:
303,119,415553,5,10,0:0:0:0:
94,193,415703,1,10,0:2:0:0:
383,314,415853,1,10,0:0:0:0:
370,47,416153,5,10,0:0:0:0:
218,269,416453,5,10,0:0:0:0:
482,189,416603,1,10,0:0:0:0:
104,51,416753,1,10,0:0:0:0:
94,65,417203,6,0,P|83:123|116:213,1,152.999995330811,6|0,1:2|0:0,0:0:0:0:
148,283,417503,2,0,P|104:244|54:229,1,101.999996887207,10|0,0:0|0:0,0:0:0:0:
177,377,417803,1,2,1:2:0:0:
231,177,417953,2,0,P|281:151|364:151,1,101.999996887207,10|2,0:0|0:0,0:0:0:0:
477,349,418253,6,0,B|415:374|357:339|357:339|292:302|261:326|261:326|289:362|338:347,1,305.999990661621,6|10,1:2|0:0,0:0:0:0:
422,249,418853,1,2,0:0:0:0:
325,145,419003,2,0,P|292:192|276:242,1,101.999996887207,2|0,0:0|1:0,0:0:0:0:
349,52,419303,2,0,P|292:61|245:85,1,101.999996887207,10|2,0:0|0:0,0:0:0:0:
500,277,419603,6,0,B|535:212|476:159|476:159|453:202,1,152.999995330811,6|0,1:2|0:0,0:0:0:0:
389,270,419903,2,0,P|321:287|282:283,1,101.999996887207,10|0,0:0|0:0,0:0:0:0:
121,204,420203,1,2,1:2:0:0:
208,93,420353,2,0,P|223:152|226:201,1,101.999996887207,10|0,0:2|0:0,0:0:0:0:
15,355,420653,6,0,P|80:294|188:318,1,203.999993774414,6|2,1:2|1:2,0:0:0:0:
42,274,421103,2,0,P|20:242|18:160,1,101.999996887207,10|0,0:0|0:0,0:0:0:0:
157,32,421403,1,0,0:0:0:0:
46,42,421553,1,2,1:2:0:0:
185,151,421703,2,0,P|248:155|306:135,1,101.999996887207,10|0,0:0|0:0,0:0:0:0:
389,39,422003,6,0,P|357:77|387:153,1,127.5,6|0,1:2|0:0,0:0:0:0:
444,197,422303,1,10,0:0:0:0:
240,315,422603,2,0,L|155:327,1,85,2|8,1:2|0:0,0:0:0:0:
252,197,422903,1,0,0:0:0:0:
333,353,423053,1,6,1:2:0:0:
328,372,423353,5,0,1:0:0:0:
352,175,423503,2,0,P|335:128|268:100,1,127.5,10|0,0:0|0:0,0:0:0:0:
356,72,423803,2,0,P|385:127|364:186,1,127.5,2|0,0:0|0:0,0:0:0:0:
364,202,424103,2,10,P|411:185|439:118,1,127.5
287,12,424403,5,6,1:2:0:0:
138,328,424703,1,10,0:0:0:0:
72,79,425003,5,2,1:2:0:0:
171,197,425153,1,10,0:0:0:0:
450,96,425453,5,6,1:2:0:0:
63,236,425753,1,6,1:2:0:0:
420,345,426053,1,6,1:2:0:0:
426,358,426353,5,0,1:0:0:0:
380,169,426503,1,8,0:0:0:0:
278,263,426653,1,10,0:0:0:0:
278,263,426728,1,0,1:0:0:0:
278,263,426803,6,0,B|221:227|171:264|171:264|116:293|71:265,2,203.999993774414,6|10|2,1:2|0:0|1:2,0:0:0:0:
396,353,427553,2,0,P|460:336|491:293,1,101.999996887207,10|0,0:0|0:0,0:0:0:0:
318,52,427853,6,0,B|310:109|344:158|344:158|390:205|399:266|399:266|443:201|418:154,1,305.999990661621,6|8,1:2|0:0,0:0:0:0:
417,84,428453,1,2,0:0:0:0:
295,251,428603,2,0,P|216:264|177:254,1,101.999996887207,2|0,1:2|1:0,0:0:0:0:
25,100,428903,2,0,P|101:101|139:119,1,101.999996887207,10|2,0:0|1:2,0:0:0:0:
130,117,429128,1,0,1:0:0:0:
130,117,429203,6,0,L|114:257,1,101.999996887207,6|0,1:2|0:0,0:0:0:0:
223,42,429503,2,0,L|239:182,1,101.999996887207,10|0,0:0|0:0,0:0:0:0:
399,266,429803,1,2,1:2:0:0:
510,81,429953,2,0,P|452:69|399:108,1,127.5,10|0,0:0|0:0,0:0:0:0:
470,146,430253,6,0,B|401:104|323:138|323:138|339:231|408:272,1,305.999990661621,4|8,1:2|0:0,0:0:0:0:
475,366,430853,1,2,0:0:0:0:
288,296,431003,2,0,P|236:277|173:296,1,101.999996887207,2|0,0:0|1:0,0:0:0:0:
17,260,431303,2,0,P|66:267|113:249,1,101.999996887207,10|2,0:0|0:0,0:0:0:0:
60,14,431603,6,0,B|48:81|48:81|63:117|63:117|53:194,1,170,6|2,1:2|0:0,0:0:0:0:
136,60,432053,1,0,1:0:0:0:
153,158,432203,2,0,L|142:249,1,85,10|0,0:0|0:0,0:0:0:0:
242,124,432503,2,0,L|231:215,1,85,2|12,1:2|0:0,0:0:0:0:
304,311,432803,6,0,L|315:220,1,85,2|8,0:0|0:0,0:0:0:0:
393,277,433103,2,0,L|404:186,1,85,2|0,1:2|0:0,0:0:0:0:
512,90,433403,2,0,P|472:124|436:120,1,85,10|0,0:0|0:0,0:0:0:0:
406,39,433703,2,0,P|446:5|482:9,1,85,2|0,1:2|0:0,0:0:0:0:
347,119,434003,6,0,B|291:165|221:122|221:122|149:84|85:134,1,272,6|0,1:2|0:0,0:0:0:0:
201,265,435053,1,2,1:2:0:0:
80,345,435203,6,0,B|55:298|55:298|65:231,2,102,2|2|2,1:2|0:0|0:0,0:0:0:0:
171,376,435803,2,0,L|263:362,1,68,10|0,0:0|1:0,0:0:0:0:
393,314,436103,1,8,0:0:0:0:
313,292,436253,1,2,1:2:0:0:
425,181,436403,6,0,P|460:220|476:251,1,85,14|0,1:2|0:0,0:0:0:0:
275,120,436703,2,0,P|240:159|224:190,1,85,14|2,0:0|0:0,0:0:0:0:
453,85,437003,5,12,0:0:0:0:
291,18,437153,1,2,1:2:0:0:
471,100,437303,5,14,0:0:0:0:
198,73,437453,1,2,1:2:0:0:
321,207,437603,6,0,L|312:291,1,85,12|2,0:0|1:2,0:0:0:0:
89,365,437903,2,0,L|80:280,1,85,14|0,0:0|1:0,0:0:0:0:
63,72,438203,5,12,0:0:0:0:
177,207,438353,1,0,1:0:0:0:
192,0,438503,5,12,0:0:0:0:
171,233,438653,1,2,1:2:0:0:
351,92,438803,6,0,P|282:78|242:88,1,85,6|0,1:2|0:0,0:0:0:0:
398,255,439103,2,0,P|440:255|480:242,1,85,12|0,0:0|0:0,0:0:0:0:
300,175,439403,6,0,B|286:207|286:207|304:280,1,85,12|0,0:0|1:0,0:0:0:0:
436,133,439703,2,0,B|450:101|450:101|432:28,1,85,12|0,0:0|1:0,0:0:0:0:
198,151,440003,5,12,0:0:0:0:
257,14,440153,1,0,1:0:0:0:
312,196,440303,5,10,0:0:0:0:
246,0,440453,1,2,1:2:0:0:
106,172,440603,5,14,0:0:0:0:
355,118,440753,1,2,1:2:0:0:
85,80,440903,5,14,0:0:0:0:
377,132,441053,1,2,1:2:0:0:
210,296,441203,6,0,L|192:177,1,85,14|0,1:2|0:0,0:0:0:0:
364,366,441503,2,0,L|382:247,1,85,14|0,0:0|0:0,0:0:0:0:
120,267,441803,6,0,L|102:148,1,85,14|0,0:0|1:0,0:0:0:0:
331,130,442103,2,0,L|313:249,1,85,12|2,0:0|1:2,0:0:0:0:
49,112,442403,6,0,P|93:92|147:99,1,85,12|0,0:0|1:0,0:0:0:0:
166,0,442703,2,0,P|211:6|244:49,1,85,12|2,0:0|1:2,0:0:0:0:
186,370,443003,6,0,P|166:326|173:272,1,85,14|0,0:0|1:0,0:0:0:0:
64,252,443303,2,0,P|80:206|124:173,1,85,14|2,0:0|1:2,0:0:0:0:
466,259,443603,6,0,P|422:279|368:272,1,85,14|0,0:0|0:0,0:0:0:0:
348,381,443903,2,0,P|302:364|269:320,1,85,14|2,0:0|0:0,0:0:0:0:
326,14,444203,6,0,P|346:58|339:112,1,85,14|2,0:0|1:2,0:0:0:0:
448,132,444503,2,0,P|431:177|387:210,1,85,14|2,0:0|1:2,0:0:0:0:
199,112,444803,6,0,P|236:148|243:197,1,85,8|0,0:0|1:2,0:0:0:0:
100,138,445103,2,0,L|111:41,1,85,10|8,0:2|1:2,0:0:0:0:
112,220,445403,2,0,L|123:123,1,85,10|8,0:2|1:2,0:2:0:0:
124,302,445703,2,0,L|135:205,1,85,10|10,0:2|0:0,0:0:0:0:
244,334,446003,5,14,1:2:0:0:
296,313,446103,1,2,0:0:0:0:
352,318,446203,1,2,0:0:0:0:
404,338,446303,5,14,0:0:0:0:
456,358,446403,1,2,0:0:0:0:
512,353,446503,1,2,0:0:0:0:
464,272,446603,6,0,L|451:209,2,56.6666666666667,12|2|0,1:2|0:0|0:0,0:0:0:0:
370,141,446903,2,0,L|358:196,2,56.6666666666667,14|2|2,0:0|0:0|1:2,0:0:0:0:
285,31,447203,6,0,P|220:16|177:30,1,85,14|2,0:0|1:2,0:0:0:0:
38,153,447503,2,0,P|103:168|146:154,1,85,14|0,0:0|1:0,0:0:0:0:
81,1,447803,6,0,L|88:94,1,85,14|2,0:0|1:2,0:0:0:0:
234,127,448103,2,0,L|227:220,1,85,14|0,0:0|1:0,0:0:0:0:
26,274,448403,6,0,B|52:265|69:245|69:245|106:243|145:263|145:263|150:291|163:307,1,170,14|14,0:0|0:0,0:0:0:0:
202,384,448853,1,0,0:0:0:0:
308,345,449003,6,0,P|323:281|324:251,1,85,14|2,0:0|1:2,0:0:0:0:
413,274,449303,2,0,P|399:209|387:182,1,85,14|2,0:0|1:2,0:0:0:0:
236,92,449603,6,0,P|222:133|216:175,1,85,14|0,0:0|1:0,0:0:0:0:
203,0,449903,2,0,P|173:30|150:66,1,85,14|0,0:0|1:0,0:0:0:0:
374,15,450203,6,0,L|273:22,1,85,14|0,0:0|1:0,0:0:0:0:
424,94,450503,2,0,L|525:101,1,85,14|0,0:0|1:0,0:0:0:0:
391,343,450803,6,0,P|371:292|417:236,1,127.5,14|0,0:0|0:0,0:0:0:0:
465,182,451103,2,0,P|446:232|400:257,1,85,14|0,0:0|0:0,0:0:0:0:
284,177,451403,6,0,P|303:127|349:102,1,85,14|2,0:0|1:2,0:0:0:0:
300,272,451703,2,0,B|253:272|253:272|205:238,1,85,14|2,0:0|1:2,0:0:0:0:
162,107,452003,5,14,0:0:0:0:
106,282,452153,1,2,1:2:0:0:
55,34,452303,5,14,0:0:0:0:
96,184,452453,1,2,1:2:0:0:
225,36,452603,6,0,P|276:22|326:27,1,85,14|2,0:0|1:2,0:0:0:0:
446,119,452903,2,0,P|403:118|363:106,1,85,14|2,0:0|1:2,0:0:0:0:
496,48,453203,6,0,L|505:180,1,127.5,14|0,0:0|0:0,0:0:0:0:
450,235,453503,2,0,L|441:337,1,85,14|0,0:0|0:0,0:0:0:0:
215,299,453803,5,14,0:0:0:0:
345,262,453953,1,2,1:2:0:0:
181,192,454103,5,14,0:0:0:0:
354,273,454253,1,2,1:2:0:0:
178,376,454403,6,0,P|98:350|17:371,1,170,14|14,0:0|1:2,0:0:0:0:
127,301,454853,1,2,1:2:0:0:
87,147,455003,1,14,1:2:0:0:
30,233,455153,1,2,1:2:0:0:
188,171,455303,2,0,P|189:128|177:88,1,85,14|0,1:2|1:0,0:0:0:0:
27,14,455603,5,6,1:2:0:0:
354,193,456803,5,4,1:2:0:0:
57,307,458003,5,14,1:2:0:0:
263,169,458153,1,10,0:0:0:0:
60,105,458453,5,10,0:0:0:0:
228,339,458753,5,10,0:0:0:0:
413,176,458903,1,10,0:0:0:0:
150,232,459053,1,10,0:0:0:0:
393,332,459353,5,10,0:0:0:0:
320,78,459653,5,10,0:0:0:0:
291,262,459803,1,10,0:0:0:0:
185,28,459953,1,10,0:0:0:0:
101,257,460253,5,10,0:0:0:0:
383,210,460403,1,10,0:0:0:0:
234,113,460553,1,10,0:0:0:0:
185,350,460853,5,10,0:0:0:0:
90,129,461153,5,10,0:0:0:0:
261,248,461303,1,10,0:0:0:0:
293,0,461453,1,10,0:0:0:0:
33,55,461753,5,10,0:0:0:0:
355,160,462053,5,10,0:0:0:0:
57,234,462203,1,10,0:0:0:0:
427,351,462353,1,10,0:0:0:0:
427,351,464003,6,0,P|441:273|426:202,1,152.999995330811,6|0,1:2|0:0,0:0:0:0:
372,130,464303,2,0,P|386:193|409:222,1,101.999996887207,10|0,0:0|0:0,0:0:0:0:
431,55,464603,1,2,1:2:0:0:
279,109,464753,2,0,L|160:99,1,101.999996887207,8|2,0:0|0:0,0:0:0:0:
0,277,465053,6,0,B|56:206|167:234|167:234|189:307|261:315,1,305.999990661621,6|8,1:2|0:0,0:0:0:0:
271,206,465653,1,2,0:0:0:0:
111,327,465803,2,0,P|161:375|202:392,1,101.999996887207,2|0,0:0|1:0,0:0:0:0:
129,145,466103,2,0,P|59:146|18:163,1,101.999996887207,10|2,0:0|0:0,0:0:0:0:
271,206,466403,6,0,L|285:43,1,152.999995330811,6|0,1:2|0:0,0:0:0:0:
293,26,466703,2,0,L|318:130,1,101.999996887207,8|0,0:0|0:0,0:0:0:0:
378,275,467003,1,2,1:2:0:0:
478,136,467153,2,0,P|425:140|386:175,1,101.999996887207,10|0,0:0|0:0,0:0:0:0:
111,326,467453,6,0,B|54:265|31:170|101:87|200:152|144:230,1,305.999990661621,6|8,1:2|0:0,0:0:0:0:
10,105,468053,1,2,0:0:0:0:
157,43,468203,2,0,P|212:46|269:64,1,101.999996887207,2|0,0:0|1:0,0:0:0:0:
458,102,468503,2,0,P|403:105|346:123,1,101.999996887207,10|0,0:0|0:0,0:0:0:0:
261,312,468803,1,6,1:2:0:0:
273,335,469103,6,0,L|282:211,1,101.999996887207,10|0,0:0|0:0,0:0:0:0:
107,130,469403,2,0,L|114:231,1,101.999996887207,2|8,1:2|0:0,0:0:0:0:
328,147,469703,1,0,0:0:0:0:
147,325,469853,6,0,P|93:331|32:305,1,101.999996887207,6|0,1:2|0:0,0:0:0:0:
206,171,470153,1,0,1:0:0:0:
317,255,470303,2,0,P|367:248|409:221,1,101.999996887207,10|2,0:0|0:0,0:0:0:0:
346,50,470603,2,0,P|326:96|328:147,1,101.999996887207,2|0,0:0|1:0,0:0:0:0:
509,177,470903,2,0,P|478:136|433:113,1,101.999996887207,10|0,0:0|0:0,0:0:0:0:
116,63,471203,5,6,1:2:0:0:
125,76,471503,2,0,L|227:72,1,101.999996887207,10|0,0:0|0:0,0:0:0:0:
68,188,471803,1,2,1:2:0:0:
318,56,471953,1,10,0:0:0:0:
330,38,472253,5,6,1:2:0:0:
261,353,472553,1,6,1:2:0:0:
32,98,472853,1,6,1:2:0:0:
333,157,473153,5,2,1:2:0:0:
333,157,473228,1,0,1:0:0:0:
333,157,473303,1,8,0:0:0:0:
198,251,473453,1,10,0:0:0:0:
198,251,473528,1,0,1:0:0:0:
198,251,473603,6,0,P|136:229|-3:228,2,203.999993774414,6|10|2,1:2|0:0|1:2,0:0:0:0:
429,324,474353,2,0,P|451:268|436:207,1,101.999996887207,10|0,0:0|0:0,0:0:0:0:
359,22,474653,6,0,B|267:8|202:68|208:150|208:150|256:111|314:117,1,305.999990661621,6|8,1:2|0:0,0:0:0:0:
416,127,475253,1,2,0:0:0:0:
233,267,475403,2,0,P|182:266|133:250,1,101.999996887207,2|0,0:0|1:0,0:0:0:0:
0,47,475703,2,0,P|50:47|99:63,1,101.999996887207,10|0,0:0|0:0,0:0:0:0:
36,271,476003,6,0,B|7:220|30:165|30:165|36:186|55:208,1,152.999995330811,6|0,1:2|0:0,0:0:0:0:
110,141,476303,2,0,L|212:149,1,101.999996887207,10|0,0:0|0:0,0:0:0:0:
400,125,476603,1,2,1:2:0:0:
300,13,476753,2,0,P|292:87|312:130,1,101.999996887207,10|0,0:0|0:0,0:0:0:0:
487,245,477053,6,0,B|421:200|338:247|338:247|252:291|192:240,1,305.999990661621,6|8,1:2|0:0,0:0:0:0:
405,141,477653,1,2,0:0:0:0:
405,141,477803,2,0,P|463:143|516:164,1,101.999996887207,2|0,0:0|1:0,0:0:0:0:
345,334,478103,2,0,P|296:349|245:350,1,101.999996887207,10|0,0:0|0:0,0:0:0:0:
43,246,478403,6,0,L|55:144,1,85,6|0,1:2|0:0,0:0:0:0:
125,86,478703,2,0,P|156:77|214:78,1,63.7500024318696,2|0,0:0|1:0,0:0:0:0:
250,22,479003,2,0,P|278:37|318:79,1,63.7500024318696,10|0,0:0|0:0,0:0:0:0:
378,72,479303,2,0,P|387:102|386:161,1,63.7500024318696,0|14,1:0|0:0,0:0:0:0:
315,216,479603,6,0,L|303:144,1,63.7500024318696,2|8,0:0|0:0,0:0:0:0:
207,261,479903,2,0,L|219:189,1,63.7500024318696,2|0,1:2|0:0,0:0:0:0:
112,146,480203,2,0,L|123:209,1,63.7500024318696,10|0,0:0|0:0,0:0:0:0:
25,191,480503,2,0,L|15:254,1,63.7500024318696,2|0,1:2|0:0,0:0:0:0:
39,368,480803,6,0,P|102:333|219:372,1,187.000005706787,6|0,1:2|0:0,0:0:0:0:
303,316,481853,1,2,1:2:0:0:
303,316,482003,2,0,P|314:273|311:232,2,70.1250021400452,2|2|2,1:2|0:0|0:0,0:0:0:0:
216,205,482603,2,0,P|211:182|212:158,1,46.7500014266968,4|4,0:3|0:3,0:0:0:0:
281,112,482903,2,0,P|285:89|284:65,1,46.7500014266968,6|4,0:3|0:3,0:0:0:0:
184,32,483203,6,0,P|147:36|96:58,1,93.5000028533936,6|0,1:2|0:0,0:0:0:0:
39,185,483953,1,0,0:0:0:0:
150,255,484253,5,4,0:3:0:0:
153,272,484403,1,4,0:3:0:0:
256,186,484703,1,0,0:0:0:0:
347,262,485003,1,4,0:3:0:0:
343,281,485153,2,0,L|335:344,1,46.7500014266968,2|0,0:0|0:0,0:0:0:0:
187,369,485603,5,6,0:3:0:0:
81,296,485903,1,0,0:0:0:0:
54,300,486053,1,2,0:0:0:0:
171,192,486353,1,0,0:0:0:0:
81,88,486653,1,4,0:3:0:0:
54,84,486803,2,0,L|1:76,1,46.7500014266968,6|0,0:3|0:0,0:0:0:0:
172,34,487103,2,0,L|225:26,1,46.7500014266968,2|0,0:0|0:0,0:0:0:0:
344,101,487403,1,6,0:3:0:0:
335,130,487553,1,2,0:0:0:0:
393,231,487703,2,0,L|405:262,2,31.1666676177979,2|0|0,0:0|0:0|0:0,0:0:0:0:
294,209,488003,6,0,P|223:193|197:200,1,93.5000028533936,6|0,0:3|0:0,0:0:0:0:
56,279,488753,1,0,0:0:0:0:
249,373,489053,5,4,0:3:0:0:
254,345,489203,1,6,0:3:0:0:
145,171,489503,1,2,0:0:0:0:
103,300,489803,1,4,0:3:0:0:
139,287,489953,2,0,L|200:266,1,46.7500014266968,4|0,0:3|0:0,0:0:0:0:
374,199,490403,5,6,0:3:0:0:
250,169,490703,1,0,0:0:0:0:
264,195,490853,1,2,0:0:0:0:
326,99,491153,1,2,0:0:0:0:
238,39,491453,1,4,0:3:0:0:
216,22,491603,5,6,0:3:0:0:
73,64,491903,1,2,0:0:0:0:
167,146,492203,1,6,0:3:0:0:
160,174,492353,1,2,0:0:0:0:
48,365,492803,5,6,1:2:0:0:
106,300,493103,1,2,0:0:0:0:
190,327,493403,1,10,0:0:0:0:
73,219,493703,5,6,1:2:0:0:
184,162,494003,1,10,0:0:0:0:
287,230,494303,1,10,0:0:0:0:
190,65,494603,5,6,1:2:0:0:
394,74,494903,1,10,0:0:0:0:
445,277,495203,1,6,0:3:0:0:
455,8,495503,5,6,1:2:0:0:
256,192,495578,12,0,498803,0:0:0:0:
437,304,500649,6,0,P|391:289|327:293,1,93.5000028533936,2|0,3:2|0:0,0:0:0:0:
268,323,501103,1,2,0:0:0:0:
92,219,501330,2,0,P|138:204|202:208,1,93.5000028533936,2|0,3:2|0:0,0:0:0:0:
261,238,501785,1,2,0:0:0:0:
420,128,502012,2,0,P|374:113|310:117,1,93.5000028533936,2|0,3:2|0:0,0:0:0:0:
251,147,502467,1,2,0:0:0:0:
352,295,502694,6,0,L|362:190,1,93.5000028533936,2|0,3:2|0:0,0:0:0:0:
420,128,503149,1,2,0:0:0:0:
258,342,503376,2,0,L|251:256,1,62.3333352355958,2|0,0:0|0:0,0:0:0:0:
112,121,504058,6,0,P|137:159|162:182,1,62.3333352355958,2|0,0:0|0:0,0:0:0:0:
258,153,504512,1,2,0:0:0:0:
190,4,504739,2,0,L|200:88,1,62.3333352355958,2|0,0:0|0:0,0:0:0:0:
86,22,505194,1,2,0:0:0:0:
16,95,505421,2,0,P|13:130|31:179,1,62.3333352355958,2|0,3:2|0:0,0:0:0:0:
88,226,505876,1,2,0:0:0:0:
159,357,506103,6,0,P|163:310|174:272,1,62.3333352355958,2|0,3:2|0:0,0:0:0:0:
257,193,506558,1,0,0:0:0:0:
353,357,506785,2,0,P|348:310|339:283,1,62.3333352355958,2|0,0:0|0:0,0:0:0:0:
257,193,507239,5,0,3:0:0:0:
166,157,507466,1,8,3:0:0:0:
42,252,507693,1,0,3:0:0:0:
130,304,507921,1,2,3:0:0:0:
257,193,508148,5,8,0:0:0:0:
401,131,508375,1,0,3:0:0:0:
509,244,508602,1,8,3:2:0:0:
371,315,508831,6,0,P|325:300|258:301,1,93.5000028533936,2|0,3:2|0:0,0:0:0:0:
211,351,509285,2,0,L|220:391,1,31.1666676177979,2|0,0:0|0:0,0:0:0:0:
138,312,509513,2,0,L|149:214,1,93.5000028533936,2|0,0:0|0:0,0:0:0:0:
81,173,509967,2,0,L|72:213,1,31.1666676177979,2|0,3:2|0:0,0:0:0:0:
154,134,510194,6,0,L|143:36,1,93.5000028533936,2|0,0:0|0:0,0:0:0:0:
226,76,510649,2,0,P|267:80|282:78,1,31.1666676177979,2|0,0:0|0:0,0:0:0:0:
350,31,510876,2,0,P|338:71|338:132,1,93.5000028533936,10|0,0:0|0:0,0:0:0:0:
378,206,511331,2,0,P|337:202|322:204,1,31.1666676177979,2|0,3:2|0:0,0:0:0:0:
249,263,511558,6,0,P|261:223|261:162,1,93.5000028533936,2|0,3:2|0:0,0:0:0:0:
196,115,512013,1,2,0:0:0:0:
58,324,512240,2,0,P|46:284|46:223,1,93.5000028533936,8|0,0:0|0:0,0:0:0:0:
99,173,512694,1,2,3:2:0:0:
329,384,512922,6,0,P|341:344|340:300,1,62.3333352355958,2|8,3:2|0:0,0:0:0:0:
284,229,513376,1,0,3:0:0:0:
210,329,513603,1,8,0:0:0:0:
348,299,513831,1,0,3:0:0:0:
414,190,514058,1,0,3:0:0:0:
385,43,514285,6,0,P|303:65|283:87,1,93.5000028533936,2|0,3:2|0:0,0:0:0:0:
256,135,514740,2,0,L|267:180,1,31.1666676177979,2|0,0:0|0:0,0:0:0:0:
202,234,514967,2,0,P|161:211|115:208,1,93.5000028533936,10|0,0:0|0:0,0:0:0:0:
52,264,515422,2,0,L|44:294,1,31.1666676177979,2|0,3:2|0:0,0:0:0:0:
143,384,515649,6,0,L|139:272,1,93.5000028533936,2|0,3:2|0:0,0:0:0:0:
115,208,516103,2,0,L|122:177,1,31.1666676177979,2|0,0:0|0:0,0:0:0:0:
216,101,516331,6,0,L|220:213,1,93.5000028533936,10|0,0:0|0:0,0:0:0:0:
276,250,516785,2,0,L|268:280,1,31.1666676177979,2|0,3:2|0:0,0:0:0:0:
338,353,517013,6,0,P|375:331|444:317,1,93.5000028533936,2|0,3:2|0:0,0:0:0:0:
497,360,517467,1,2,0:0:0:0:
358,188,517694,2,0,P|321:166|252:152,1,93.5000028533936,10|0,0:0|0:0,0:0:0:0:
199,195,518149,1,2,3:2:0:0:
353,47,518376,6,0,P|390:25|434:12,1,62.3333352355958,2|8,3:2|0:0,0:0:0:0:
496,108,518831,1,0,3:0:0:0:
363,162,519058,2,0,P|326:140|282:127,1,62.3333352355958,14|8,0:0|0:0,0:0:0:0:
191,88,519513,1,8,0:0:0:0:
100,164,519740,6,0,P|104:225|108:270,1,93.5000028533936,2|0,3:2|0:0,0:0:0:0:
324,245,520422,2,0,P|321:292|318:339,1,93.5000028533936,10|0,0:0|0:0,0:0:0:0:
238,378,520876,1,2,3:2:0:0:
77,343,521103,6,0,P|117:344|174:322,1,93.5000028533936,2|0,3:2|0:0,0:0:0:0:
277,122,521785,2,0,P|237:121|180:143,1,93.5000028533936,10|0,0:0|0:0,0:0:0:0:
145,213,522240,1,2,3:2:0:0:
324,245,522467,6,0,P|405:231|442:225,1,93.5000028533936,2|0,3:2|0:0,0:0:0:0:
463,161,522922,1,2,3:2:0:0:
305,336,523149,2,0,P|386:322|423:316,1,93.5000028533936,10|0,0:0|0:0,0:0:0:0:
444,252,523603,1,2,3:2:0:0:
264,188,523831,6,0,P|183:174|146:168,1,93.5000028533936,2|0,3:2|0:0,0:0:0:0:
124,103,524285,1,0,3:0:0:0:
281,20,524513,2,0,P|318:61|330:140,1,124.666670471192,2|0,3:2|3:0,0:0:0:0:
274,269,525194,6,0,P|337:226|366:215,1,93.5000028533936,6|0,3:2|0:0,0:0:0:0:
432,256,525649,1,0,3:0:0:0:
254,370,525876,2,0,L|148:360,1,93.5000028533936,10|0,0:0|0:0,0:0:0:0:
75,374,526331,1,0,3:0:0:0:
122,254,526558,6,0,P|131:204|125:153,1,93.5000028533936,2|0,3:2|0:0,0:0:0:0:
65,106,527013,1,2,3:0:0:0:
216,209,527240,2,0,L|327:200,1,93.5000028533936,10|0,0:0|0:0,0:0:0:0:
377,156,527694,1,8,0:0:0:0:
172,0,527922,5,6,3:2:0:0:
98,0,528149,1,8,0:0:0:0:
42,53,528376,1,8,0:0:0:0:
234,66,528603,5,6,3:2:0:0:
123,67,528831,1,8,0:0:0:0:
40,146,529058,1,8,0:0:0:0:
316,135,529285,5,6,3:2:0:0:
148,136,529513,1,8,0:0:0:0:
24,255,529740,1,8,0:0:0:0:
398,206,529967,5,6,3:2:0:0:
174,207,530194,1,8,0:0:0:0:
10,365,530422,1,8,0:0:0:0:
10,365,530535,1,8,0:0:0:0:
10,365,530649,6,0,P|64:343|125:341,1,113.333333333333,6|0,3:2|0:0,0:0:0:0:
200,367,530990,1,0,3:0:0:0:
200,367,531103,2,0,L|193:304,1,56.6666666666667,0|0,3:0|3:0,0:0:0:0:
407,189,531331,6,0,P|354:210|298:213,1,113.333333333333,10|0,0:0|0:0,0:0:0:0:
208,224,531672,1,0,3:0:0:0:
208,224,531785,2,0,L|214:167,1,56.6666666666667,0|0,3:0|3:0,0:0:0:0:
94,20,532013,6,0,L|118:192,1,170,6|0,3:2|0:0,0:0:0:0:
193,87,532467,1,0,3:0:0:0:
69,265,532694,2,0,B|111:286|157:268|157:268|206:246|265:278,1,170,10|0,0:0|0:0,0:0:0:0:
303,320,533149,2,0,L|393:309,1,56.6666666666667,0|0,3:0|3:0,0:0:0:0:
498,225,533376,6,0,P|437:236|355:169,1,170,6|0,3:2|0:0,0:0:0:0:
318,95,533831,1,0,3:0:0:0:
163,30,534058,6,0,L|181:217,1,170,10|0,0:0|0:0,0:0:0:0:
232,267,534513,1,0,3:0:0:0:
53,336,534740,6,0,L|43:245,1,56.6666666666667,6|0,3:2|0:0,0:0:0:0:
137,360,534967,2,0,L|129:294,1,56.6666666666667,2|0,3:2|0:0,0:0:0:0:
37,195,535194,1,0,3:0:0:0:
309,234,535422,6,0,L|319:325,1,56.6666666666667,14|0,0:0|0:0,0:0:0:0:
225,210,535649,2,0,L|233:276,1,56.6666666666667,2|0,3:2|0:0,0:0:0:0:
325,375,535876,1,2,3:2:0:0:
472,291,536103,6,0,P|401:263|306:298,1,170,6|0,3:2|0:0,0:0:0:0:
428,217,536558,1,0,3:0:0:0:
256,120,536785,2,0,B|214:105|174:126|174:126|126:148|78:130,1,170,2|0,3:2|0:0,0:0:0:0:
180,36,537240,2,0,P|209:30|242:31,1,56.6666666666667,0|0,3:0|3:0,0:0:0:0:
391,123,537467,6,0,L|378:298,1,170,6|0,3:2|0:0,0:0:0:0:
302,343,537922,1,0,3:0:0:0:
165,233,538149,2,0,B|105:206|39:238|39:238|103:265,1,170,2|0,3:2|0:0,0:0:0:0:
191,315,538603,2,0,P|223:294|246:264,1,56.6666666666667,0|0,3:0|3:0,0:0:0:0:
180,78,538831,6,0,B|145:114|145:114|165:238,1,170,6|0,3:2|0:0,0:0:0:0:
63,96,539285,1,0,3:0:0:0:
241,153,539513,2,0,P|311:167|404:118,1,170,10|0,0:0|0:0,0:0:0:0:
448,54,539967,1,2,3:2:0:0:
512,278,540194,6,0,P|449:238|341:264,1,170,6|0,3:2|0:0,0:0:0:0:
288,299,540649,1,0,3:0:0:0:
80,224,540876,5,6,3:0:0:0:
203,142,541103,1,8,0:0:0:0:
353,182,541331,1,8,0:0:0:0:
424,46,541558,6,0,P|369:74|276:84,1,141.666666666667,6|0,3:2|0:0,0:0:0:0:
211,28,541956,1,0,3:0:0:0:
14,158,542240,6,0,P|69:130|166:127,1,141.666666666667,2|0,3:2|0:0,0:0:0:0:
234,165,542638,1,0,3:0:0:0:
450,279,542922,6,0,P|394:238|279:259,1,170,6|0,3:2|0:0,0:0:0:0:
221,303,543376,1,0,3:0:0:0:
418,204,543603,2,0,P|432:144|368:48,1,170,10|0,0:0|0:0,0:0:0:0:
285,29,544058,1,0,3:0:0:0:
198,172,544285,6,0,B|155:195|106:173|106:173|64:151|13:171,1,170,6|0,3:2|0:0,0:0:0:0:
60,255,544740,1,0,3:0:0:0:
156,97,544967,2,0,P|221:88|281:173,1,170,10|0,0:0|0:0,0:0:0:0:
241,240,545422,1,0,3:0:0:0:
363,337,545649,6,0,P|447:335|355:208,1,340,2|12,3:2|0:0,0:0:0:0:
356,208,547013,6,0,P|369:145|361:86,1,113.333333333333,6|0,3:2|0:0,0:0:0:0:
316,34,547353,1,0,3:0:0:0:
293,27,547467,1,0,3:0:0:0:
99,145,547694,2,0,B|167:137|167:137|201:153|201:153|268:147,1,170,10|0,0:0|0:0,0:0:0:0:
146,225,548149,2,0,L|82:231,1,56.6666666666667,0|0,3:0|3:0,0:0:0:0:
195,340,548376,6,0,P|257:302|363:315,1,170,6|0,3:2|0:0,0:0:0:0:
422,353,548831,1,0,3:0:0:0:
416,236,549058,2,0,B|419:210|436:178|436:178|432:140|399:125|399:125|405:147|396:190,1,170,10|0,0:0|0:0,0:0:0:0:
318,149,549513,1,0,3:0:0:0:
194,243,549740,5,14,0:0:0:0:
122,126,549967,1,8,0:0:0:0:
149,131,550081,1,8,0:0:0:0:
169,137,550194,1,8,0:0:0:0:
204,268,550422,5,14,2:0:0:0:
111,116,550649,1,8,2:0:0:0:
146,122,550763,1,8,2:0:0:0:
172,130,550876,1,8,2:0:0:0:
218,300,551103,5,14,2:0:0:0:
96,103,551331,1,8,2:0:0:0:
142,111,551444,1,8,2:0:0:0:
176,121,551558,1,8,2:0:0:0:
236,342,551785,5,6,2:0:0:0:
78,86,552013,1,8,2:0:0:0:
379,77,552240,1,8,2:0:0:0:
347,270,552467,6,0,P|288:249|269:136,1,170,6|0,3:2|3:0,0:0:0:0:
450,179,552922,1,0,3:0:0:0:
373,357,553149,2,0,P|303:362|207:287,1,170,10|0,0:0|3:0,0:0:0:0:
158,219,553603,1,0,3:0:0:0:
44,363,553831,6,0,P|55:288|30:185,1,170,6|0,3:2|0:0,0:0:0:0:
56,113,554285,2,0,P|83:126|109:150,1,56.6666666666667,0|0,3:0|0:0,0:0:0:0:
194,283,554513,2,0,P|183:208|208:105,1,170,10|0,0:0|0:0,0:0:0:0:
182,33,554967,2,0,P|155:46|129:70,1,56.6666666666667,0|0,3:0|3:0,0:0:0:0:
281,207,555194,6,0,B|332:224|376:205|376:205|428:183|488:207,1,170,6|0,3:2|0:0,0:0:0:0:
421,287,555649,1,0,3:0:0:0:
231,121,555876,2,0,B|180:104|136:123|136:123|84:145|24:121,1,170,10|0,0:0|0:0,0:0:0:0:
91,41,556331,1,0,3:0:0:0:
231,292,556558,5,6,3:2:0:0:
281,207,556785,1,2,3:2:0:0:
231,121,557013,1,0,3:0:0:0:
287,368,557240,5,14,0:0:0:0:
193,208,557467,1,2,3:2:0:0:
287,46,557694,1,2,3:2:0:0:
455,132,557922,6,0,B|466:188|425:225|425:225|426:271|456:295,1,170,6|0,3:2|0:0,0:0:0:0:
372,154,558376,2,0,P|339:147|310:147,1,56.6666666666667,0|0,3:0|0:0,0:0:0:0:
216,325,558603,6,0,B|205:269|246:232|246:232|245:186|215:162,1,170,2|0,3:2|0:0,0:0:0:0:
299,303,559058,2,0,P|332:310|361:310,1,56.6666666666667,0|0,3:0|3:0,0:0:0:0:
146,219,559285,6,0,P|120:317|146:391,1,170,6|0,3:2|0:0,0:0:0:0:
216,325,559740,1,0,3:0:0:0:
172,129,559967,2,0,B|113:134|113:134|76:164|76:164|4:171,1,170,2|0,3:2|0:0,0:0:0:0:
46,85,560422,1,0,3:0:0:0:
272,44,560649,6,0,B|321:28|362:51|362:51|402:35|467:59,1,170,6|0,3:2|0:0,0:0:0:0:
493,110,561103,2,0,P|505:150|507:177,1,56.6666666666667,0|0,3:0|0:0,0:0:0:0:
311,247,561331,2,0,B|262:231|221:254|221:254|181:238|116:262,1,170,10|0,0:0|0:0,0:0:0:0:
90,313,561785,2,0,P|78:353|76:380,1,56.6666666666667,2|0,3:2|0:0,0:0:0:0:
423,287,562013,6,0,P|418:208|373:142,1,127.5,6|0,3:2|0:0,0:0:0:0:
298,138,562467,1,0,3:0:0:0:
63,224,562694,5,6,3:0:0:0:
255,314,562922,1,8,0:0:0:0:
426,183,563149,1,8,0:0:0:0:
293,21,563376,6,0,B|269:34|268:66|268:66|312:105|292:171,1,136,6|0,3:2|3:0,0:0:0:0:
208,134,563830,1,0,3:0:0:0:
354,226,564058,2,0,B|377:239|379:272|379:272|333:314|354:381,1,136,2|0,3:2|3:0,0:0:0:0:
435,340,564513,1,0,3:0:0:0:
236,220,564740,6,0,B|196:200|158:218|158:218|111:240|72:218,1,136,6|0,0:0|0:0,0:0:0:0:
63,139,565194,2,0,P|101:142|124:152,1,45.3333333333333,0|0,3:0|0:0,0:0:0:0:
190,296,565422,2,0,B|229:315|267:297|267:297|314:275|353:297,1,136,10|0,0:0|0:0,0:0:0:0:
360,376,565876,2,0,P|322:373|299:363,1,45.3333333333333,0|0,3:0|0:0,0:0:0:0:
418,205,566103,6,0,L|437:358,1,136,6|0,3:2|0:0,0:0:0:0:
469,274,566558,1,0,3:0:0:0:
327,121,566785,2,0,L|308:274,1,136,10|0,0:0|0:0,0:0:0:0:
276,190,567240,1,0,3:0:0:0:
408,57,567467,6,0,P|333:27|250:56,1,136,2|0,3:2|0:0,0:0:0:0:
227,106,567922,1,0,3:0:0:0:
11,80,568149,2,0,B|69:74|69:74|93:85|93:85|156:75,1,136,12|0,0:0|0:0,0:0:0:0:
227,106,568603,2,0,P|223:150|219:169,1,45.3333333333333,0|0,3:0|0:0,0:0:0:0:
148,294,568830,6,0,P|146:237|140:168,1,102,6|0,3:2|3:0,0:0:0:0:
335,379,569513,2,0,P|337:322|361:202,1,170,10|0,0:0|0:0,0:0:0:0:
512,135,570194,2,0,P|460:158|389:149,1,90.6666666666667,6|0,3:2|0:0,0:0:0:0:
302,86,570649,1,0,3:0:0:0:
157,123,570876,1,2,3:2:0:0:
223,214,571103,1,8,0:0:0:0:
228,241,571217,1,8,0:0:0:0:
235,263,571331,1,8,0:0:0:0:
241,286,571444,1,8,0:0:0:0:
248,309,571558,6,0,P|304:332|411:273,1,170,14|8,0:0|0:0,0:0:0:0:
130,219,572240,2,0,P|74:242|45:357,1,170,14|8,2:0|2:0,0:0:0:0:
296,159,572922,2,0,P|315:95|254:6,1,170,14|8,2:0|2:0,0:0:0:0:
129,315,573603,5,6,2:0:0:0:
312,248,573831,1,8,0:0:0:0:
220,89,574058,1,8,2:0:0:0:
43,188,574285,6,0,B|80:212|80:212|191:194,1,136,6|0,3:2|0:0,0:0:0:0:
235,247,574740,1,0,3:0:0:0:
428,130,574967,2,0,P|376:100|277:115,1,136,10|0,0:2|0:0,0:0:0:0:
259,164,575422,1,0,3:0:0:0:
324,328,575649,6,0,L|348:178,1,136,2|0,3:2|0:0,0:0:0:0:
363,109,576103,1,0,3:0:0:0:
147,42,576331,2,0,L|171:192,1,136,10|0,0:0|0:0,0:0:0:0:
186,261,576785,1,0,3:0:0:0:
12,366,577013,6,0,P|75:332|159:342,1,136,2|0,3:2|0:0,0:0:0:0:
204,373,577467,2,0,L|250:369,1,45.3333333333333,0|0,3:0|0:0,0:0:0:0:
408,290,577694,6,0,P|420:244|414:192,2,90.6666666666667,10|0|0,0:0|3:0|3:2,0:0:0:0:
266,249,578376,2,0,P|254:205|257:160,2,90.6666666666667,14|0|0,0:0|3:0|3:0,0:0:0:0:
511,181,579058,2,0,P|488:141|454:112,2,90.6666666666667,14|0|0,0:0|3:0|3:0,0:0:0:0:
169,145,579740,2,0,P|191:105|225:76,2,90.6666666666667,14|0|0,0:0|3:0|3:0,0:0:0:0:
97,299,580422,6,0,P|44:309|-8:296,1,90.6666666666667,2|0,3:2|0:0,0:0:0:0:
172,216,580876,1,0,3:0:0:0:
222,362,581103,1,10,0:0:0:0:
216,380,581558,5,0,3:0:0:0:
286,284,581785,2,0,P|342:271|377:273,2,90.6666666666667,2|0|0,3:2|3:0|3:0,0:0:0:0:
91,205,582467,2,0,P|163:231|246:191,1,136,10|0,0:0|0:0,0:0:0:0:
263,154,582922,1,0,3:0:0:0:
152,53,583149,2,0,L|161:167,2,90.6666666666667,8|0|0,0:0|3:0|0:0,0:0:0:0:
391,0,583831,6,0,L|380:147,1,136,2|0,3:2|0:0,0:0:0:0:
324,195,584285,1,0,3:0:0:0:
477,319,584513,1,14,0:0:0:0:
266,250,584740,1,8,0:0:0:0:
233,258,584853,1,8,0:0:0:0:
206,267,584967,1,8,0:0:0:0:
356,379,585194,6,0,P|375:309|370:213,1,136,6|0,3:2|0:0,0:0:0:0:
363,162,585649,1,0,3:0:0:0:
127,342,585876,2,0,P|108:272|113:176,1,136,10|0,0:2|0:0,0:0:0:0:
133,127,586331,1,0,3:0:0:0:
258,233,586558,1,2,3:2:0:0:
255,258,587013,5,0,3:0:0:0:
305,119,587240,2,0,L|294:22,2,90.6666666666667,10|0|0,0:0|0:0|3:0,0:0:0:0:
397,259,587922,1,2,3:2:0:0:
408,280,588376,5,0,3:0:0:0:
440,168,588603,2,0,L|450:77,2,90.6666666666667,10|0|0,0:0|3:0|3:2,0:0:0:0:
307,309,589285,6,0,P|244:327|189:305,1,90.6666666666667,14|0,0:0|3:0,0:0:0:0:
101,186,589740,1,0,3:0:0:0:
199,201,589967,1,14,0:0:0:0:
93,280,590194,1,0,3:0:0:0:
0,258,590422,1,0,3:0:0:0:
171,118,590649,6,0,P|227:98|331:107,1,136,14|0,0:0|0:0,0:0:0:0:
378,139,591103,1,0,3:0:0:0:
238,54,591331,2,0,P|182:34|78:43,1,136,2|0,3:2|0:0,0:0:0:0:
38,78,591785,1,0,3:0:0:0:
142,260,592013,6,0,P|167:196|147:113,1,136,10|0,0:0|0:0,0:0:0:0:
74,186,592467,1,0,3:0:0:0:
260,367,592694,2,0,P|235:303|255:220,1,136,8|0,0:0|0:0,0:0:0:0:
326,294,593149,1,0,3:0:0:0:
89,347,593376,5,6,3:2:0:0:
245,238,593603,1,8,0:0:0:0:
215,245,593717,1,8,0:0:0:0:
184,254,593831,1,8,0:0:0:0:
283,85,594058,5,10,0:0:0:0:
439,194,594285,1,8,0:0:0:0:
409,187,594399,1,10,3:2:0:0:
378,178,594513,1,8,0:0:0:0:
260,367,594740,5,10,0:2:0:0:
110,197,594967,1,0,3:0:0:0:
99,228,595081,1,8,0:0:0:0:
89,255,595194,1,8,0:0:0:0:
55,68,595422,5,10,0:0:0:0:
298,228,595649,1,8,0:0:0:0:
288,201,595762,1,8,0:0:0:0:
277,170,595876,1,8,0:0:0:0:
267,145,595989,1,8,0:0:0:0:
257,119,596103,5,2,0:0:0:0:
256,192,596188,12,0,608376,0:0:0:0:
34,226,611487,6,0,B|77:201|132:219|132:219|186:234|228:212,1,191.249994163513,6|0,3:2|0:0,0:0:0:0:
305,165,612487,1,0,0:0:0:0:
373,320,612653,2,0,P|329:290|229:306,1,152.999995330811,2|0,0:0|0:0,0:0:0:0:
147,333,613487,6,0,L|154:264,1,57.374998249054,2|0,0:0|0:0,0:0:0:0:
201,218,613820,2,0,L|192:147,1,57.374998249054,2|0,0:0|0:0,0:0:0:0:
131,107,614153,6,0,B|180:135|255:97|255:97|287:117|285:156,1,191.249994163513,2|0,0:0|0:0,0:0:0:0:
316,227,615153,1,0,0:0:0:0:
487,162,615320,6,0,P|446:151|373:159,1,114.749996498108,2|0,0:0|0:0,0:0:0:0:
241,271,616153,2,0,P|214:278|183:278,1,57.374998249054,2|0,0:0|0:0,0:0:0:0:
140,209,616487,2,0,P|111:209|83:216,1,57.374998249054,2|0,0:0|0:0,0:0:0:0:
28,274,616820,5,10,0:0:0:0:
58,99,617153,1,8,0:0:0:0:
233,129,617487,1,8,0:0:0:0:
203,304,617820,1,8,0:0:0:0:
496,354,618153,5,10,0:0:0:0:
466,179,618487,1,8,0:0:0:0:
291,209,618820,1,8,0:0:0:0:
321,384,619070,1,8,0:0:0:0:
321,384,619153,1,8,0:0:0:0:
368,131,619403,1,8,0:0:0:0:
368,131,619487,5,6,3:2:0:0:
64,88,621487,6,0,L|73:149,1,57.374998249054,2|0,0:0|0:0,0:0:0:0:
93,162,621820,2,0,L|84:105,1,57.374998249054,2|0,3:2|0:0,0:0:0:0:
17,283,622153,6,0,P|66:254|135:254,1,101.999996887207,6|0,3:2|3:0,0:0:0:0:
266,347,622487,1,0,3:0:0:0:
285,139,622653,2,0,L|274:256,1,101.999996887207,12|0,0:0|0:0,0:0:0:0:
224,76,622987,1,0,3:0:0:0:
372,208,623153,1,12,0:0:0:0:
191,180,623320,1,0,3:0:0:0:
459,140,623487,6,0,L|478:254,1,101.999996887207,12|0,0:0|3:0,0:0:0:0:
365,64,623820,1,0,3:0:0:0:
252,273,623987,2,0,P|201:293|150:285,1,101.999996887207,12|0,0:0|3:2,0:0:0:0:
111,117,624320,1,0,3:0:0:0:
291,192,624487,1,12,0:0:0:0:
65,247,624653,1,0,3:0:0:0:
211,57,624820,6,0,L|201:159,1,101.999996887207,14|0,0:0|3:0,0:0:0:0:
182,383,625153,1,0,3:0:0:0:
347,290,625320,2,0,P|300:268|250:272,1,101.999996887207,12|0,0:0|3:0,0:0:0:0:
434,351,625653,1,0,3:0:0:0:
358,127,625820,1,12,0:0:0:0:
283,353,625987,1,0,3:0:0:0:
79,204,626153,6,0,L|186:194,1,101.999996887207,14|0,0:0|3:0,0:0:0:0:
357,26,626487,2,0,P|302:42|270:81,1,101.999996887207,2|6,0:0|3:2,0:0:0:0:
454,266,626820,2,0,L|464:159,1,101.999996887207,2|0,3:2|3:0,0:0:0:0:
347,310,627153,1,8,0:0:0:0:
188,112,627320,6,0,B|152:91|109:111|109:111|70:134|37:121,1,152.999995330811,6|0,3:2|0:0,0:0:0:0:
62,46,627653,1,0,3:0:0:0:
171,210,627820,2,0,L|280:199,1,101.999996887207,14|0,0:0|0:0,0:0:0:0:
327,80,628153,1,8,0:0:0:0:
405,275,628320,1,0,3:0:0:0:
510,145,628487,2,0,L|397:129,1,101.999996887207,2|6,3:2|3:2,0:0:0:0:
219,337,628820,6,0,P|272:310|313:260,1,101.999996887207,2|0,0:0|3:0,0:0:0:0:
100,283,629153,2,0,L|115:417,1,101.999996887207,12|0,0:0|0:0,0:0:0:0:
197,239,629487,1,12,0:0:0:0:
15,208,629653,1,0,3:0:0:0:
226,122,629820,1,0,3:0:0:0:
103,58,629987,6,0,L|115:169,1,101.999996887207,14|0,0:0|0:0,0:0:0:0:
219,337,630320,1,0,3:0:0:0:
307,166,630487,2,0,P|357:159|405:175,1,101.999996887207,14|0,0:0|0:0,0:0:0:0:
435,338,630820,5,12,0:0:0:0:
390,361,630903,1,8,0:0:0:0:
340,359,630987,1,8,0:0:0:0:
298,331,631070,1,8,0:0:0:0:
255,305,631153,1,8,0:0:0:0:
204,305,631237,1,8,0:0:0:0:
161,331,631320,2,8,L|172:380,1,50.9999984436036,10|8,0:0|0:0,0:0:0:0:
76,300,631487,5,10,0:0:0:0:
82,276,631570,1,8,0:0:0:0:
90,249,631653,2,8,L|105:190,1,50.9999984436036,10|8,0:0|0:0,0:0:0:0:
0,57,631820,5,10,0:0:0:0:
6,81,631903,1,8,0:0:0:0:
14,108,631987,2,8,L|29:167,1,50.9999984436036,10|8,0:0|0:0,0:0:0:0:
189,203,632153,5,14,0:0:0:0:
237,213,632237,1,8,0:0:0:0:
284,196,632320,1,8,0:0:0:0:
314,156,632403,1,8,0:0:0:0:
345,114,632487,1,10,0:0:0:0:
392,97,632570,1,10,0:0:0:0:
441,108,632653,1,10,0:0:0:0:
476,144,632737,1,10,0:0:0:0:
486,193,632820,6,0,L|478:305,1,101.999996887207,6|0,3:2|0:0,0:0:0:0:
230,113,633153,1,8,0:0:0:0:
309,352,633320,1,0,3:0:0:0:
309,352,633403,1,8,0:0:0:0:
309,352,633487,1,0,3:0:0:0:
398,195,633653,1,0,3:0:0:0:
177,296,633820,2,0,P|107:310|70:298,1,101.999996887207,8|0,0:0|0:0,0:0:0:0:
220,180,634153,6,0,L|335:192,1,101.999996887207,2|0,3:2|3:0,0:0:0:0:
119,214,634487,1,8,0:0:0:0:
86,30,634653,1,0,3:0:0:0:
86,30,634737,1,8,0:0:0:0:
86,30,634820,1,0,3:0:0:0:
285,101,634987,1,0,3:0:0:0:
64,126,635153,2,0,P|33:161|14:215,1,101.999996887207,8|0,0:0|0:0,0:0:0:0:
182,101,635487,6,0,L|193:-16,1,101.999996887207,6|0,3:2|0:0,0:0:0:0:
119,214,635820,1,8,0:0:0:0:
377,187,635987,1,0,3:0:0:0:
377,187,636070,1,8,0:0:0:0:
377,187,636153,1,0,3:0:0:0:
285,101,636320,1,0,3:0:0:0:
240,315,636487,1,8,0:0:0:0:
477,294,636653,1,0,3:0:0:0:
477,294,636737,1,0,3:0:0:0:
477,294,636820,6,0,P|427:281|376:281,1,101.999996887207,2|0,3:2|3:0,0:0:0:0:
129,358,637153,1,8,0:0:0:0:
254,214,637320,1,0,3:0:0:0:
254,214,637403,1,8,0:0:0:0:
254,214,637487,2,0,L|236:340,1,101.999996887207,0|0,3:0|3:0,0:0:0:0:
451,150,637820,2,0,L|436:49,1,101.999996887207,8|0,0:0|0:0,0:0:0:0:
159,144,638153,6,0,P|234:175|348:107,1,203.999993774414,6|8,3:2|0:0,0:0:0:0:
66,91,638653,1,0,3:0:0:0:
66,91,638737,1,8,0:0:0:0:
66,91,638820,2,0,P|53:154|70:199,1,101.999996887207,0|0,3:0|3:0,0:0:0:0:
235,283,639153,1,8,0:0:0:0:
19,299,639320,1,0,3:0:0:0:
123,384,639487,6,0,L|136:276,1,101.999996887207,6|0,3:2|3:0,0:0:0:0:
386,336,639820,2,0,P|339:361|273:353,1,101.999996887207,10|0,0:0|3:0,0:0:0:0:
381,132,640153,2,0,P|426:160|452:221,1,101.999996887207,2|0,3:2|3:0,0:0:0:0:
207,239,640487,2,0,P|208:185|248:132,1,101.999996887207,10|0,0:0|3:0,0:0:0:0:
346,26,640820,6,0,B|314:46|299:68|299:68|230:38|157:51,1,203.999993774414,6|8,3:2|0:0,0:0:0:0:
22,105,641320,1,0,0:0:0:0:
207,239,641487,2,0,B|271:263|347:228|347:228|312:255|300:302,1,203.999993774414,6|8,3:2|0:0,0:0:0:0:
461,365,641987,1,0,3:0:0:0:
499,129,642153,6,0,P|434:118|347:143,1,152.999995330811,6|0,3:2|0:0,0:0:0:0:
272,132,642487,2,0,P|332:126|372:102,1,101.999996887207,8|0,0:0|3:0,0:0:0:0:
196,68,642820,1,8,0:0:0:0:
332,226,642987,1,8,3:0:0:0:
422,26,643153,1,8,3:0:0:0:
190,180,643320,6,0,B|136:199|95:161|95:161|62:180|63:220,1,152.999995330811,6|0,3:2|0:0,0:0:0:0:
83,281,643653,1,0,3:0:0:0:
272,130,643820,2,0,P|354:122|448:205,1,203.999993774414,14|0,0:0|3:0,0:0:0:0:
498,291,644320,1,0,3:0:0:0:
334,351,644487,2,0,L|322:250,1,101.999996887207,10|0,0:0|0:0,0:0:0:0:
73,167,644820,6,0,P|128:236|237:216,1,203.999993774414,2|8,3:2|0:0,0:0:0:0:
345,88,645320,1,0,0:0:0:0:
162,45,645487,2,0,L|166:155,1,101.999996887207,0|0,3:0|3:0,0:0:0:0:
259,3,645820,1,8,0:0:0:0:
487,103,645987,6,0,B|438:71|438:71|315:93,1,152.999995330811,6|0,3:2|0:0,0:0:0:0:
259,106,646320,1,0,3:0:0:0:
414,268,646487,2,0,P|422:218|414:168,1,101.999996887207,14|0,0:0|0:0,0:0:0:0:
165,146,646820,1,0,3:0:0:0:
315,225,646987,1,0,3:0:0:0:
85,363,647153,2,0,P|76:312|85:262,1,101.999996887207,10|0,0:0|0:0,0:0:0:0:
311,326,647487,6,0,B|246:311|172:310|172:310|206:288|241:283,1,203.999993774414,2|8,3:2|0:0,0:0:0:0:
422,355,647987,1,0,0:0:0:0:
487,248,648153,1,0,3:0:0:0:
491,197,648236,1,8,0:0:0:0:
477,149,648320,1,8,0:0:0:0:
445,109,648403,1,8,0:0:0:0:
400,83,648487,2,8,L|334:90,1,50.9999984436036
232,168,648653,6,0,B|174:156|174:156|134:167|134:167|65:155,1,152.999995330811,6|0,3:2|0:0,0:0:0:0:
24,95,648987,1,0,3:0:0:0:
142,310,649153,1,10,3:2:0:0:
181,332,649236,1,8,0:0:0:0:
226,327,649320,1,8,0:0:0:0:
260,296,649403,1,8,0:0:0:0:
269,251,649486,1,10,3:2:0:0:
257,207,649570,1,8,0:0:0:0:
232,168,649653,1,8,0:0:0:0:
241,124,649736,1,8,0:0:0:0:
274,93,649820,1,10,3:2:0:0:
319,88,649903,1,8,0:0:0:0:
359,110,649987,2,8,L|376:162,1,50.9999984436036
397,303,650153,5,10,3:2:0:0:
372,336,650236,1,8,0:0:0:0:
338,357,650320,1,8,0:0:0:0:
297,363,650403,1,8,0:0:0:0:
258,352,650486,1,10,3:2:0:0:
226,327,650570,1,8,0:0:0:0:
194,301,650653,1,8,0:0:0:0:
155,289,650736,1,8,0:0:0:0:
114,294,650820,1,10,3:2:0:0:
79,314,650903,1,8,0:0:0:0:
54,347,650986,5,8,0:0:0:0:
29,302,651070,1,8,0:0:0:0:
22,252,651153,1,8,0:0:0:0:
35,203,651237,1,8,0:0:0:0:
65,163,651320,6,0,B|103:136|150:158|150:158|196:180|253:152,1,170,6|0,3:2|3:0,0:0:0:0:
427,108,651820,1,8,0:0:0:0:
456,221,651986,1,0,0:0:0:0:
346,44,652153,1,0,3:0:0:0:
317,165,652320,1,0,3:0:0:0:
436,21,652486,1,8,0:0:0:0:
252,94,652653,6,0,P|207:93|145:90,1,85,2|0,3:2|0:0,0:0:0:0:
358,257,652986,2,0,P|313:258|251:261,1,85,2|8,3:2|0:0,0:0:0:0:
401,27,653320,2,0,P|356:26|294:23,1,85,2|0,3:2|3:2,0:2:0:0:
507,190,653653,2,0,P|462:191|400:194,1,85,2|8,3:2|0:2,0:2:0:0:
249,369,653986,6,0,P|306:347|357:243,1,170,6|0,3:2|3:0,0:0:0:0:
186,156,654486,1,8,0:0:0:0:
250,259,654653,1,0,0:0:0:0:
247,80,654820,1,0,3:0:0:0:
70,149,654986,1,0,3:0:0:0:
315,166,655153,1,8,0:0:0:0:
141,324,655320,6,0,L|127:204,1,85,2|0,3:2|0:2,0:2:0:0:
366,360,655653,2,0,L|380:240,1,85,2|8,3:2|0:2,0:2:0:0:
196,185,655986,2,0,L|182:65,1,85,2|0,3:2|3:2,0:2:0:0:
442,220,656320,2,0,L|456:100,1,85,2|8,3:2|0:2,0:2:0:0:
503,4,656653,6,0,P|447:49|336:26,1,170,6|0,3:2|3:0,0:0:0:0:
164,12,657153,1,8,0:0:0:0:
317,123,657320,1,0,0:0:0:0:
119,156,657486,1,0,3:0:0:0:
231,60,657653,1,0,3:0:0:0:
177,231,657820,1,8,0:0:0:0:
13,97,657986,6,0,P|66:73|127:76,1,85,2|0,3:2|0:0,0:0:0:0:
292,219,658320,1,0,3:0:0:0:
87,246,658486,1,8,0:0:0:0:
228,152,658653,1,0,0:0:0:0:
173,344,658820,1,0,3:0:0:0:
119,156,658986,1,0,3:0:0:0:
263,352,659153,1,8,0:0:0:0:
391,252,659320,6,0,P|400:204|316:110,1,170,6|0,3:2|3:0,0:0:0:0:
207,215,659820,2,0,P|278:220|319:214,1,85,8|0,0:0|0:0,0:0:0:0:
157,71,660153,2,0,P|114:69|72:74,1,85,0|0,3:0|3:0,0:0:0:0:
246,119,660486,5,8,0:0:0:0:
50,70,660653,1,2,3:0:0:0:
127,266,660820,2,0,B|139:299|139:299|121:385,1,85,14|0,0:2|3:0,0:0:0:0:
1,230,661153,2,0,B|-11:197|-11:197|7:111,1,85,14|0,0:2|3:0,0:0:0:0:
212,244,661486,1,14,0:0:0:0:
42,307,661653,1,8,3:0:0:0:
126,175,661820,1,8,3:0:0:0:
243,346,661986,6,0,P|330:361|418:323,1,170,6|0,3:2|3:0,0:0:0:0:
412,175,662486,1,8,0:0:0:0:
322,263,662653,1,0,0:0:0:0:
301,117,662820,1,0,3:0:0:0:
485,244,662986,1,0,3:0:0:0:
387,38,663153,1,8,0:0:0:0:
243,206,663320,6,0,P|194:228|151:222,1,85,2|0,3:2|0:2,0:2:0:0:
136,331,663653,2,0,P|85:311|59:277,1,85,2|8,3:2|0:2,0:2:0:0:
28,26,663986,2,0,P|71:57|87:97,1,85,2|0,3:2|3:2,0:2:0:0:
189,56,664320,2,0,P|197:109|180:149,1,85,2|8,3:2|0:2,0:2:0:0:
45,217,664653,6,0,B|90:192|136:210|136:210|177:235|229:218,1,170,6|0,3:2|3:0,0:0:0:0:
298,151,665153,1,8,0:0:0:0:
92,294,665320,1,0,0:0:0:0:
289,268,665486,1,0,3:0:0:0:
187,137,665653,1,0,3:0:0:0:
203,367,665820,1,8,0:0:0:0:
369,216,665986,6,0,P|441:197|475:197,1,85,2|0,3:2|3:2,0:2:0:0:
187,137,666320,2,0,P|115:118|81:118,1,85,2|8,3:2|0:2,0:2:0:0:
399,114,666653,2,0,P|471:95|505:95,1,85,2|0,3:2|3:2,0:2:0:0:
217,35,666986,2,0,P|145:16|111:16,1,85,2|8,3:2|3:2,0:2:0:0:
282,248,667320,6,0,L|299:68,1,170,6|0,3:2|3:0,0:0:0:0:
184,236,667820,1,8,0:0:0:0:
381,177,667986,1,0,0:0:0:0:
187,137,668153,1,0,3:0:0:0:
275,346,668320,1,0,3:0:0:0:
305,108,668486,1,8,0:0:0:0:
167,344,668653,6,0,P|102:359|12:292,1,170,6|0,3:2|3:0,0:0:0:0:
246,247,669153,2,0,L|355:262,1,85,8|0,0:0|0:0,0:0:0:0:
208,135,669486,1,0,3:0:0:0:
114,258,669653,1,0,3:0:0:0:
91,51,669820,1,8,0:0:0:0:
300,162,669986,6,0,B|373:155|373:155|401:173|401:173|494:164,1,170,6|0,3:2|3:2,0:2:0:0:
325,66,670486,1,8,0:2:0:0:
202,266,670653,2,0,B|129:259|129:259|101:277|101:277|8:268,1,170,6|0,3:2|3:2,0:2:0:0:
180,174,671153,1,8,0:2:0:0:
348,384,671320,6,0,P|369:340|348:214,1,170,6|0,3:2|3:2,0:2:0:0:
263,95,671820,1,8,0:2:0:0:
93,265,671986,2,0,P|66:185|87:104,1,170,6|0,3:2|3:2,0:2:0:0:
166,15,672486,1,8,0:2:0:0:
256,352,672820,5,14,0:0:0:0:
256,192,672903,12,2,677986,0:0:0:0:
463,328,681397,6,0,P|396:297|297:328,1,170,4|0,0:0|0:0,0:0:0:0:
180,373,682297,1,2,0:0:0:0:
326,171,682597,5,2,3:2:0:0:
82,152,682747,1,2,3:0:0:0:
218,58,682897,1,10,3:0:0:0:
186,282,683047,1,2,3:0:0:0:
191,303,683497,5,0,0:0:0:0:
165,204,684097,1,0,0:0:0:0:
133,105,684697,1,0,0:0:0:0:
126,88,684997,5,2,3:0:0:0:
399,155,685147,1,2,3:0:0:0:
291,11,685297,1,10,3:0:0:0:
209,264,685447,1,2,3:0:0:0:
201,284,685897,5,0,0:0:0:0:
241,185,686497,1,0,0:0:0:0:
285,84,687097,1,0,0:0:0:0:
294,72,687397,5,2,3:0:0:0:
0,170,687547,1,2,3:0:0:0:
107,0,687697,1,10,3:0:0:0:
184,266,687847,1,2,3:0:0:0:
190,285,688297,5,0,0:0:0:0:
142,187,688897,1,0,0:0:0:0:
101,98,689497,1,0,0:0:0:0:
91,83,689797,5,10,3:0:0:0:
342,148,689947,1,6,3:0:0:0:
356,169,690247,5,10,3:0:0:0:
65,241,690397,1,6,3:0:0:0:
51,257,690697,5,10,3:0:0:0:
391,319,690847,1,6,3:0:0:0:
394,339,691147,5,10,3:0:0:0:
88,384,691297,1,6,3:0:0:0:
196,229,691447,1,8,3:0:0:0:
196,229,691522,1,8,3:0:0:0:
196,229,691597,2,0,P|211:260|218:292,1,63.7500024318696,8|8,3:0|3:0,0:0:0:0:
92,167,691897,2,0,P|99:136|113:107,1,63.7500024318696,8|8,3:0|3:0,0:0:0:0:
309,57,692197,5,6,3:0:0:0:
184,37,692347,1,8,3:0:0:0:
285,154,692497,2,0,L|285:205,1,31.8750012159348
364,216,692647,2,0,L|359:266,1,31.8750012159348,2|0,3:0|0:0,0:0:0:0:
437,339,692797,6,0,P|375:328|319:358,1,127.500004863739,10|0,3:0|0:0,0:0:0:0:
231,315,693247,1,0,0:0:0:0:
127,376,693397,2,0,L|51:370,1,63.7500024318696,0|8,3:0|3:0,3:0:0:0:
136,237,693697,2,0,L|212:231,1,63.7500024318696,0|0,0:0|3:0,0:0:0:0:
110,45,693997,2,0,P|77:91|90:171,1,127.500004863739,10|2,3:0|0:0,0:0:0:0:
82,158,694597,6,0,L|157:153,1,63.7500024318696,2|8,0:0|3:0,0:0:0:0:
285,278,694897,2,0,L|285:227,1,31.8750012159348,0|0,3:0|0:0,0:0:0:0:
364,216,695047,2,0,L|359:166,1,31.8750012159348,0|0,3:0|0:0,0:0:0:0:
437,93,695197,6,0,P|375:104|319:74,1,127.500004863739,10|0,3:0|0:0,0:0:0:0:
246,10,695647,1,2,3:0:0:0:
164,66,695797,2,0,P|167:116|177:143,1,63.7500024318696,0|10,3:0|3:0,0:0:0:0:
248,185,696097,2,0,P|245:235|235:262,1,63.7500024318696,0|0,0:0|3:0,0:0:0:0:
158,321,696397,2,0,P|210:297|299:311,1,127.500004863739,10|2,3:0|3:0,0:0:0:0:
278,301,696997,6,0,L|291:371,2,63.7500024318696,6|8|0,3:0|0:3|0:0,0:0:0:0:
382,253,697447,1,0,3:0:0:0:
382,253,697597,2,0,L|370:315,1,63.7500024318696,12|0,3:0|0:0,0:0:0:0:
324,182,697897,1,0,3:0:0:0:
324,182,698047,2,0,L|312:119,1,63.7500024318696,0|0,3:0|0:0,0:0:0:0:
229,45,698347,6,0,L|217:107,1,63.7500024318696,8|0,3:0|0:0,0:0:0:0:
59,112,698647,1,0,3:0:0:0:
136,63,698797,1,8,3:0:0:0:
10,45,698947,1,0,0:0:0:0:
96,187,699097,2,0,P|103:225|110:270,1,63.7500024318696,0|0,3:0|0:0,0:0:0:0:
469,169,699397,5,10,3:0:0:0:
227,146,699697,1,0,0:0:0:0:
352,50,699997,1,8,3:0:0:0:
328,269,700297,1,2,3:0:0:0:
480,110,700597,5,10,3:0:0:0:
192,158,700897,1,10,3:0:0:0:
307,8,701197,1,10,3:0:0:0:
348,270,701497,1,10,0:3:0:0:
476,55,701797,6,0,B|392:20|344:78|344:78|286:138|213:108,1,280.500008560181,6|0,3:3|0:0,0:0:0:0:
77,80,702997,6,0,B|48:19|95:-18|142:21|116:85|116:85|83:147|111:206,1,280.500008560181,6|0,3:2|0:0,0:0:0:0:
139,349,704197,6,0,B|188:367|261:327|261:327|281:358|281:358|360:319|411:353,1,280.500008560181,6|0,3:3|0:0,0:0:0:0:
181,130,705397,6,0,P|103:201|221:217,1,280.500008560181,6|0,3:2|0:0,0:0:0:0:
220,220,706597,6,0,P|265:230|330:187,1,127.5,6|0,3:0|0:0,0:0:0:0:
364,104,706897,1,8,3:0:0:0:
340,341,707047,1,8,3:0:0:0:
241,107,707197,1,8,3:0:0:0:
475,260,707347,1,8,3:0:0:0:
209,306,707497,1,8,3:0:0:0:
385,85,707647,1,8,3:0:0:0:
136,110,707797,5,8,3:0:0:0:
317,211,707947,1,8,3:0:0:0:
94,261,708097,1,8,3:0:0:0:
233,81,708247,1,8,3:0:0:0:
21,127,708397,1,8,3:0:0:0:
232,291,708547,1,8,3:0:0:0:
2,340,708697,1,8,3:0:0:0:
123,136,708847,1,8,3:0:0:0:
256,379,708997,5,10,3:0:0:0:
256,379,710797,6,0,P|314:343|413:356,1,163.625004993439,0|0,3:0|0:0,0:0:0:0:
420,361,711397,6,0,P|409:300|417:230,1,106.25,6|0,3:2|3:0,0:0:0:0:
316,71,711697,2,0,P|327:132|319:202,1,106.25,10|0,3:0|0:0,0:0:0:0:
121,83,711997,1,2,0:0:0:0:
240,17,712147,1,0,3:0:0:0:
46,24,712297,2,0,B|22:75|22:75|45:205,1,159.375,10|0,3:0|0:0,0:0:0:0:
62,266,712597,6,0,L|75:139,1,106.25,2|0,3:0|3:0,0:0:0:0:
248,294,712897,2,0,P|181:319|145:312,1,106.25,10|0,3:0|0:0,0:0:0:0:
324,175,713197,2,0,P|376:171|423:194,1,106.25,2|0,0:0|3:0,0:0:0:0:
369,369,713497,2,0,L|359:264,1,106.25,10|0,3:0|0:0,0:0:0:0:
420,33,713797,6,0,P|462:79|474:139,1,106.25,2|0,3:0|3:0,0:0:0:0:
224,90,714097,2,0,B|252:69|252:69|356:80,1,106.25,10|0,3:0|0:0,0:0:0:0:
161,181,714397,1,2,3:0:0:0:
121,32,714547,1,0,3:0:0:0:
260,243,714697,2,0,P|324:252|426:177,1,159.375,10|0,3:0|0:0,0:0:0:0:
438,136,714997,6,0,L|434:254,1,106.25,0|0,3:0|3:0,0:0:0:0:
304,373,715297,2,0,P|232:369|192:342,1,106.25,10|0,3:0|0:0,0:0:0:0:
128,160,715597,2,0,P|160:224|157:272,1,106.25,2|0,3:3|3:3,0:3:0:0:
11,142,715897,2,0,L|7:14,1,106.25,10|0,3:0|0:0,0:0:0:0:
210,106,716197,5,4,3:2:0:0:
20,239,716347,1,0,3:0:0:0:
261,271,716497,2,0,L|371:253,1,106.25,10|0,3:0|0:0,0:0:0:0:
190,87,716797,2,0,L|80:69,1,106.25,2|0,3:0|3:0,0:0:0:0:
291,30,717097,2,0,B|310:85|310:85|281:198,1,159.375,10|0,3:0|0:0,0:0:0:0:
261,271,717397,6,0,P|240:209|193:167,1,106.25,4|0,3:2|3:0,0:0:0:0:
399,346,717697,2,0,P|420:284|467:242,1,106.25,10|0,3:0|0:0,0:0:0:0:
165,269,717997,1,0,3:0:0:0:
354,178,718147,1,0,3:0:0:0:
143,58,718297,2,0,L|157:177,1,106.25,10|0,3:0|0:0,0:0:0:0:
429,118,718597,6,0,P|366:83|313:89,1,106.25,4|0,3:2|3:0,0:0:0:0:
344,277,718897,2,0,P|364:210|343:162,1,106.25,8|0,3:0|0:0,0:0:0:0:
122,151,719197,2,0,P|111:202|132:251,1,106.25,0|0,3:0|3:0,0:0:0:0:
142,57,719497,2,0,P|90:62|47:92,1,106.25,8|0,3:0|3:0,0:0:0:0:
26,124,719722,1,0,3:0:0:0:
14,153,719797,5,12,3:0:0:0:
217,184,719947,1,0,3:0:0:0:
1,301,720097,1,8,3:0:0:0:
142,57,720247,1,0,3:0:0:0:
243,287,720397,1,10,3:0:0:0:
292,304,720472,1,0,3:0:0:0:
345,299,720547,1,0,3:0:0:0:
389,271,720622,1,0,3:0:0:0:
422,230,720697,2,0,B|397:107|397:107|409:64,1,159.375,12|0,3:0|0:0,0:0:0:0:
459,23,720997,6,0,L|320:41,1,106.25,4|0,3:0|0:0,0:0:0:0:
118,137,721297,5,10,3:0:0:0:
323,197,721447,1,2,0:0:0:0:
69,234,721597,5,10,3:0:0:0:
278,121,721747,1,2,3:0:0:0:
32,79,721897,5,10,3:0:0:0:
230,218,722047,1,0,3:0:0:0:
74,365,722197,6,0,P|51:308|50:237,1,106.25,10|0,3:0|0:0,0:0:0:0:
296,298,722497,2,0,P|319:241|320:170,1,106.25,10|0,3:0|3:0,0:0:0:0:
69,234,722797,2,0,P|48:185|42:132,1,106.25,10|0,3:0|3:0,0:0:0:0:
364,81,723097,6,0,P|297:120|209:93,1,159.375,14|0,3:0|0:0,0:0:0:0:
163,23,723397,2,0,P|208:55|219:112,1,106.25,14|0,3:0|0:0,0:0:0:0:
69,307,723697,5,10,3:0:0:0:
126,112,723847,1,2,0:0:0:0:
233,324,723997,5,10,3:0:0:0:
7,236,724147,1,2,3:0:0:0:
231,124,724297,5,10,3:0:0:0:
162,375,724447,1,0,3:0:0:0:
20,99,724597,6,0,L|150:114,1,106.25,10|0,3:0|0:0,0:0:0:0:
219,304,724897,2,0,L|349:289,1,106.25,10|0,3:0|3:0,0:0:0:0:
376,96,725197,2,0,L|506:111,1,106.25,10|0,3:0|3:0,0:0:0:0:
263,215,725497,6,0,L|243:47,1,159.375,14|0,3:0|0:0,0:0:0:0:
298,0,725797,2,0,L|293:110,1,106.25,14|0,3:0|0:0,0:0:0:0:
121,266,726097,5,10,3:0:0:0:
408,239,726247,1,2,0:0:0:0:
160,170,726397,5,10,3:0:0:0:
423,257,726547,1,2,3:0:0:0:
237,83,726697,5,10,3:0:0:0:
289,365,726847,1,0,3:0:0:0:
340,133,726997,6,0,L|319:243,1,106.25,10|0,3:0|0:0,0:0:0:0:
62,118,727297,2,0,L|83:228,1,106.25,10|0,3:0|3:0,0:0:0:0:
279,52,727597,2,0,L|258:162,1,106.25,10|0,3:0|3:0,0:0:0:0:
29,16,727897,1,8,3:0:0:0:
213,255,728047,1,8,3:0:0:0:
213,255,728122,1,8,3:0:0:0:
213,255,728197,6,0,P|290:263|336:238,1,106.25,10|0,3:0|3:0,0:0:0:0:
467,141,728497,2,0,P|395:131|244:162,1,212.5,14|2,3:0|3:0,0:0:0:0:
38,251,728947,1,0,3:0:0:0:
119,62,729097,2,0,L|140:184,1,106.25,14|0,3:0|0:0,0:0:0:0:
24,10,729397,5,0,3:0:0:0:
229,101,729547,1,0,3:0:0:0:
38,251,729697,2,0,L|52:145,1,106.25,14|0,3:0|0:0,0:0:0:0:
262,307,729997,2,0,L|247:201,1,106.25,2|0,3:0|3:0,0:0:0:0:
501,89,730297,1,14,3:0:0:0:
510,124,730372,1,8,3:0:0:0:
511,162,730447,1,8,3:0:0:0:
504,198,730522,1,8,3:0:0:0:
490,232,730597,6,0,B|427:226|427:226|394:244|394:244|322:236,1,159.375,4|0,3:0|0:0,0:0:0:0:
247,201,730897,5,10,3:0:0:0:
447,313,731047,1,2,0:0:0:0:
271,97,731197,5,10,3:0:0:0:
292,320,731347,1,2,3:0:0:0:
372,44,731497,5,10,3:0:0:0:
247,201,731647,1,0,3:0:0:0:
512,154,731797,6,0,L|375:122,1,106.25,10|0,3:0|0:0,0:0:0:0:
143,225,732097,2,0,L|280:193,1,106.25,10|0,3:0|3:0,0:0:0:0:
512,307,732397,2,0,L|375:275,1,106.25,10|0,3:0|3:0,0:0:0:0:
288,126,732697,2,0,P|331:174|298:264,1,159.375,10|0,3:0|0:0,0:0:0:0:
264,348,732997,6,0,P|283:276|320:250,1,106.25,14|0,3:0|0:0,0:0:0:0:
437,172,733297,5,10,3:0:0:0:
205,231,733447,1,0,0:0:0:0:
377,97,733597,5,10,3:0:0:0:
185,208,733747,1,0,3:0:0:0:
293,40,733897,5,8,3:0:0:0:
158,193,734047,1,2,3:0:0:0:
205,0,734197,6,0,P|153:26|118:67,1,106.25,10|2,3:0|0:0,0:0:0:0:
388,200,734497,2,0,P|391:141|373:91,1,106.25,10|0,3:0|3:0,0:0:0:0:
124,259,734797,2,0,P|172:291|225:300,1,106.25,10|0,3:0|3:0,0:0:0:0:
104,156,735097,2,0,L|-7:176,1,106.25,8|0,3:0|0:0,0:0:0:0:
237,142,735397,5,6,3:2:0:0:
413,271,736597,5,2,0:0:0:0:
158,325,737797,6,0,P|104:332|42:314,1,85,6|0,3:2|3:0,0:0:0:0:
194,232,738097,1,8,3:0:0:0:
291,361,738247,2,0,P|351:369|430:290,1,170,2|0,0:0|3:0,0:0:0:0:
468,192,738697,1,10,3:0:0:0:
305,98,738847,6,0,L|327:275,1,170,2|0,3:0|3:0,0:0:0:0:
207,71,739297,1,8,3:0:0:0:
143,204,739447,2,0,B|89:218|47:189|47:189|7:189|-1:245,1,170,2|2,3:0|3:0,0:0:0:0:
107,112,739897,2,0,P|117:56|104:15,1,85,10|0,3:0|0:0,0:0:0:0:
47,189,740197,5,6,3:2:0:0:
223,158,740347,1,2,3:0:0:0:
32,71,740497,1,10,3:0:0:0:
154,292,740647,2,0,B|235:285|235:285|251:299|251:299|331:292,1,170,2|2,3:0|3:0,0:0:0:0:
388,170,741097,1,10,3:0:0:0:
447,346,741247,6,0,L|455:234,1,85,4|0,0:0|3:0,0:0:0:0:
505,150,741547,1,0,0:0:0:0:
272,119,741697,2,0,L|280:231,1,85,10|0,3:0|3:0,0:0:0:0:
278,203,741922,1,0,3:0:0:0:
278,203,741997,1,0,3:0:0:0:
343,47,742147,1,0,3:0:0:0:
178,56,742297,2,0,L|160:169,1,85,10|0,3:0|0:0,0:0:0:0:
57,253,742597,5,6,3:2:0:0:
272,119,742747,1,2,3:0:0:0:
57,142,742897,1,10,3:0:0:0:
245,292,743047,2,0,B|282:314|330:291|330:291|380:264|429:289,1,170,2|0,3:0|3:0,0:0:0:0:
227,381,743497,1,10,3:0:0:0:
358,201,743647,6,0,B|393:242|393:242|376:369,1,170,2|0,3:0|3:0,0:0:0:0:
269,174,744097,1,10,3:0:0:0:
503,149,744247,2,0,P|456:125|338:115,1,170,2|2,3:0|3:0,0:0:0:0:
176,92,744697,2,0,P|234:91|272:78,1,85,10|0,3:0|0:0,0:0:0:0:
106,35,744997,5,6,3:2:0:0:
328,112,745147,1,2,3:0:0:0:
99,161,745297,1,10,3:0:0:0:
246,5,745447,2,0,P|304:6|414:58,1,170,2|0,3:0|3:0,0:0:0:0:
497,157,745897,1,10,3:0:0:0:
332,245,746047,6,0,B|306:243|288:231|288:231|262:259|262:259|217:243|156:266,1,170,6|0,3:2|3:0,0:0:0:0:
19,338,746497,2,0,P|67:339|110:318,1,85,14|0,3:0|0:0,0:0:0:0:
221,171,746797,1,2,3:0:0:0:
221,171,746872,1,8,3:0:0:0:
221,171,746947,1,8,3:0:0:0:
33,198,747097,1,10,3:0:0:0:
301,89,747247,1,10,3:0:0:0:
101,29,747397,6,0,L|115:133,1,85,6|0,3:2|3:0,0:0:0:0:
275,241,747697,1,8,3:0:0:0:
33,198,747847,2,0,L|21:282,1,85,2|0,3:0|0:0,0:0:0:0:
244,160,748147,1,0,3:0:0:0:
112,113,748297,1,10,3:0:0:0:
321,61,748447,6,0,L|347:239,1,170,2|0,3:0|0:0,0:0:0:0:
423,118,748897,1,10,3:0:0:0:
232,244,749047,2,0,L|244:160,1,85,2|0,3:0|0:0,0:0:0:0:
428,272,749347,1,2,3:0:0:0:
275,339,749497,2,0,P|210:348|173:330,1,85,10|0,3:0|0:0,0:0:0:0:
110,153,749797,5,6,3:0:0:0:
232,244,749947,1,2,3:0:0:0:
155,69,750097,1,10,3:0:0:0:
69,242,750247,2,0,P|31:266|2:172,1,170,2|0,3:0|3:0,0:0:0:0:
241,91,750697,1,10,3:0:0:0:
338,273,750847,6,2,B|374:306|374:306|499:285,1,170,6|0,3:2|3:0,0:0:0:0:
367,169,751297,1,8,3:0:0:0:
247,336,751447,1,0,3:0:0:0:
247,336,751522,1,0,3:0:0:0:
247,336,751597,2,0,L|131:332,1,85,0|0,3:0|3:0,0:0:0:0:
35,245,751897,2,0,L|151:241,1,85,14|0,3:0|0:0,0:0:0:0:
203,68,752197,5,6,3:2:0:0:
279,204,752347,1,2,3:0:0:0:
267,0,752497,1,10,3:0:0:0:
136,141,752647,2,0,P|79:146|-7:69,1,170,2|0,3:0|3:0,0:0:0:0:
203,68,753097,1,10,3:0:0:0:
339,282,753247,6,0,P|396:287|482:210,1,170,2|0,3:0|3:0,0:0:0:0:
293,110,753697,1,10,3:0:0:0:
155,309,753847,2,0,L|134:129,1,170,2|0,3:0|3:0,0:0:0:0:
339,282,754297,2,0,L|326:404,1,85,10|2,3:0|0:0,0:0:0:0:
253,233,754597,5,6,3:2:0:0:
421,201,754747,1,2,3:0:0:0:
203,139,754897,1,10,3:0:0:0:
441,21,755047,6,0,L|428:116,1,85,2|0,3:0|0:0,0:0:0:0:
345,303,755347,1,0,3:0:0:0:
335,101,755497,1,10,3:0:0:0:
164,255,755647,6,0,L|177:350,1,85,6|0,3:2|0:0,0:0:0:0:
288,192,755947,1,0,3:0:0:0:
89,158,756097,1,10,3:0:0:0:
312,23,756247,6,0,L|299:118,1,85,6|0,3:2|0:0,0:0:0:0:
38,252,756547,1,0,3:0:0:0:
207,158,756697,1,8,3:0:0:0:
94,4,756847,6,0,B|58:52|58:52|98:189,1,170,6|0,3:0|0:0,0:0:0:0:
245,248,757297,1,0,0:0:0:0:
249,269,757597,1,0,0:0:0:0:
252,287,757897,1,0,0:0:0:0:
319,202,758047,5,2,0:0:0:0:
330,187,758347,5,8,3:0:0:0:
142,247,758497,1,0,3:0:0:0:
303,57,758647,1,0,3:0:0:0:
352,342,758797,1,8,3:0:0:0:
208,119,758947,1,0,3:0:0:0:
122,365,759097,1,0,3:0:0:0:
429,245,759247,5,6,3:2:0:0:
330,214,763978,6,0,P|388:172|499:188,2,170,6|8|0,1:2|0:0|1:2,0:0:0:0:
256,303,764630,1,0,1:2:0:0:
168,225,764760,2,0,P|160:179|164:123,1,85,8|0,0:0|1:2,0:0:0:0:
263,57,765021,6,0,L|255:172,1,85,2|0,0:0|1:2,0:0:0:0:
350,7,765282,2,0,L|355:91,1,85,8|0,0:0|0:0,0:0:0:0:
453,192,765543,1,0,1:2:0:0:
450,109,765673,1,0,1:2:0:0:
365,235,765804,2,0,P|306:254|257:249,1,85,8|0,0:0|0:0,0:0:0:0:
113,90,766064,6,0,B|175:38|175:38|262:56,2,170,2|8|0,1:2|0:0|1:2,0:0:0:0:
45,171,766717,1,0,1:2:0:0:
196,231,766847,2,0,P|203:171|194:127,1,85,8|0,0:0|0:0,0:0:0:0:
20,314,767108,6,0,B|62:279|122:287|122:287|151:318|192:318,1,170,2|8,1:2|0:0,0:0:0:0:
341,224,767499,2,0,B|397:175|473:208|473:208|421:246,1,170,2|0,0:0|1:2,0:0:0:0:
324,321,767891,2,0,P|284:305|252:258,1,85,10|0,0:0|0:0,0:0:0:0:
322,60,768151,6,0,P|343:105|334:240,2,170,2|8|0,1:2|0:0|1:2,0:0:0:0:
230,28,768804,1,0,1:2:0:0:
63,129,768934,2,0,L|231:148,1,170,8|2,0:0|0:0,0:0:0:0:
340,223,769325,1,0,1:2:0:0:
231,315,769456,2,0,P|187:312|145:289,1,85,8|0,0:0|0:0,0:0:0:0:
97,366,769717,2,0,P|67:332|54:287,1,85,0|0,1:2|1:2,0:0:0:0:
212,144,769978,2,0,B|226:173|226:173|216:234,1,85,8|0,0:0|0:0,0:0:0:0:
44,106,770238,6,0,B|30:77|30:77|38:24,1,85,2|0,1:2|0:0,0:0:0:0:
210,49,770499,2,0,P|163:65|108:58,1,85,8|0,0:0|0:0,0:0:0:0:
284,0,770760,1,0,1:2:0:0:
302,91,770891,1,0,1:2:0:0:
373,34,771021,1,8,0:0:0:0:
210,49,771151,6,0,B|214:120|214:120|230:144|230:144|239:246,1,170,6|0,1:2|1:2,0:0:0:0:
168,302,771543,1,10,0:0:0:0:
325,190,771673,1,0,0:0:0:0:
145,195,771804,1,2,1:2:0:0:
145,195,771934,1,8,0:0:0:0:
269,318,772064,1,8,0:0:0:0:
269,318,772195,1,8,0:0:0:0:
85,365,772325,6,0,B|52:321|74:259|74:259|69:211|20:198,1,170,6|8,1:2|0:0,0:0:0:0:
41,115,772717,1,0,0:0:0:0:
145,195,772847,2,0,P|200:207|241:189,1,85,0|0,1:2|1:2,0:0:0:0:
343,69,773108,6,0,B|335:140|335:140|319:164|319:164|312:233,1,170,8|0,0:0|0:0,0:0:0:0:
408,194,773499,1,0,1:2:0:0:
254,101,773630,2,0,L|146:110,1,85,8|0,0:0|0:0,0:0:0:0:
48,21,773891,2,0,L|156:30,1,85,0|0,1:2|1:2,0:0:0:0:
217,192,774151,1,8,0:0:0:0:
203,206,774412,6,0,P|119:195|41:226,2,170,2|8|0,1:2|0:0|1:2,0:0:0:0:
299,276,775064,1,0,1:2:0:0:
408,194,775195,2,0,P|424:142|413:89,2,85,8|0|0,0:0|1:2|0:0,0:0:0:0:
354,359,775586,1,2,1:2:0:0:
354,359,775717,2,0,L|269:367,1,85,8|0,0:0|0:0,0:0:0:0:
169,255,775978,2,0,L|84:246,1,85,2|0,1:2|1:2,0:0:0:0:
275,158,776238,2,0,L|359:149,1,85,10|0,0:0|0:0,0:0:0:0:
149,3,776499,6,0,B|121:36|121:36|141:172,1,170,2|8,1:2|0:0,0:0:0:0:
379,71,776891,2,0,B|340:44|288:65|288:65|243:80|200:58,1,170,2|0,0:0|1:2,0:0:0:0:
455,16,777282,2,0,P|472:76|395:160,1,170,10|0,0:0|0:0,0:0:0:0:
270,184,777673,1,0,1:2:0:0:
364,313,777804,2,0,P|365:264|349:217,1,85,10|0,0:0|0:0,0:0:0:0:
169,115,778064,2,0,P|168:164|184:211,1,85,0|0,1:2|1:2,0:0:0:0:
320,61,778325,2,0,L|219:46,1,85,10|2,0:0|0:0,0:0:0:0:
22,147,778586,6,0,B|50:145|50:145|69:115|69:115|79:126|79:126|134:104|193:119,1,170,2|14,1:2|0:0,0:0:0:0:
257,159,778978,1,0,1:2:0:0:
72,265,779108,1,8,0:0:0:0:
244,336,779238,1,0,1:2:0:0:
42,365,779369,1,8,0:0:0:0:
196,253,779499,1,8,0:0:0:0:
196,253,779564,1,8,0:0:0:0:
196,253,779630,6,0,L|295:270,1,85,8|8,0:0|0:0,0:0:0:0:
448,307,779891,1,8,0:0:0:0:
460,323,780151,5,8,0:0:0:0:
445,204,780282,1,8,0:0:0:0:
306,300,780412,1,8,0:0:0:0:
360,188,780543,1,8,0:0:0:0:
372,361,780673,6,0,P|316:345|200:364,1,170,6|8,1:2|0:0,0:0:0:0:
79,341,781064,1,0,1:2:0:0:
188,232,781195,2,0,P|189:168|173:130,1,85,10|0,0:0|1:2,0:0:0:0:
32,64,781456,2,0,P|31:128|47:166,1,85,10|0,0:0|1:2,0:0:0:0:
280,116,781717,6,0,L|103:102,1,170,10|8,0:0|0:0,0:0:0:0:
208,21,782108,1,0,1:2:0:0:
208,21,782238,2,0,L|314:29,1,85,10|0,0:0|1:2,0:0:0:0:
346,203,782499,2,0,L|240:211,1,85,10|0,0:0|1:2,0:0:0:0:
404,110,782760,6,0,P|448:165|452:210,1,85,6|0,1:2|0:0,0:0:0:0:
406,356,783021,2,0,L|411:263,1,85,10|0,0:0|1:2,0:0:0:0:
182,166,783282,2,0,L|187:259,1,85,10|0,0:0|1:2,0:0:0:0:
30,338,783543,2,0,P|60:305|101:295,1,85,10|0,0:0|1:2,0:0:0:0:
275,382,783804,6,0,B|200:371|200:371|167:387|167:387|109:380,1,170,10|8,0:0|0:0,0:0:0:0:
259,291,784195,1,0,1:2:0:0:
259,291,784325,2,0,L|348:278,1,85,10|0,0:0|1:2,0:0:0:0:
182,166,784586,2,0,L|93:153,1,85,10|0,0:0|1:2,0:0:0:0:
237,24,784847,6,0,P|255:80|250:124,1,85,6|0,1:2|0:0,0:0:0:0:
56,81,785108,1,10,0:0:0:0:
159,71,785238,1,0,1:2:0:0:
93,236,785369,2,0,L|-13:219,1,85,10|0,0:0|1:2,0:0:0:0:
266,191,785630,2,0,L|350:179,1,85,10|2,0:0|1:2,0:0:0:0:
335,350,785891,6,0,P|320:310|318:254,1,85,8|0,0:0|1:2,0:0:0:0:
182,166,786151,2,0,P|199:127|237:86,1,85,10|0,0:0|1:2,0:0:0:0:
432,161,786412,2,0,P|392:176|336:178,1,85,10|0,0:0|1:2,0:0:0:0:
248,314,786673,2,0,P|202:293|155:249,1,85,10|0,0:0|1:2,0:0:0:0:
27,69,786934,6,0,L|45:174,1,85,10|0,0:0|1:2,0:0:0:0:
226,187,787195,1,8,0:0:0:0:
70,267,787325,1,0,1:2:0:0:
236,174,787456,2,0,L|346:167,1,85,8|0,0:0|1:2,0:0:0:0:
403,64,787717,1,8,0:0:0:0:
465,219,787847,1,0,1:2:0:0:
390,50,787978,6,0,L|232:37,1,127.5,10|0,0:0|0:0,0:0:0:0:
250,23,788238,2,0,L|135:32,1,85,14|0,0:0|0:0,0:0:0:0:
34,133,788499,1,8,0:0:0:0:
216,164,788630,1,8,0:0:0:0:
3,233,788760,1,8,0:0:0:0:
226,186,788891,1,8,0:0:0:0:
105,44,789021,6,0,L|128:171,1,127.5,6|0,1:2|0:0,0:0:0:0:
139,184,789282,2,0,L|130:289,1,85,8|0,0:0|0:0,0:0:0:0:
379,349,789543,2,0,P|339:317|252:326,1,127.5,2|0,1:2|0:0,0:0:0:0:
184,337,789804,2,0,P|242:330|276:310,1,85,10|0,0:0|0:0,0:0:0:0:
357,180,790064,6,0,L|379:352,1,170,2|8,0:0|0:0,0:0:0:0:
457,249,790456,1,0,0:0:0:0:
257,228,790586,2,0,L|274:132,1,85,2|0,1:2|1:2,0:0:0:0:
437,138,790847,2,0,L|420:42,1,85,10|0,0:0|0:0,0:0:0:0:
151,44,791108,6,0,P|211:62|278:41,1,127.5,6|0,1:2|0:0,0:0:0:0:
348,13,791369,2,0,P|298:26|262:54,1,85,8|0,0:0|0:0,0:0:0:0:
162,147,791630,1,2,1:2:0:0:
330,181,791760,1,0,1:2:0:0:
136,154,791891,2,0,L|33:169,1,85,10|0,0:0|1:2,0:0:0:0:
216,291,792151,6,0,B|273:282|273:282|309:295|309:295|394:282,1,170,2|8,0:0|0:0,0:0:0:0:
473,216,792543,1,0,0:0:0:0:
338,98,792673,2,0,P|326:163|336:200,1,85,2|0,1:2|1:2,0:0:0:0:
318,10,792934,2,0,P|263:47|244:80,1,85,10|0,0:0|0:0,0:0:0:0:
103,245,793195,6,0,L|81:68,1,170,6|10,1:2|0:0,0:0:0:0:
180,159,793586,1,0,0:0:0:0:
9,187,793717,2,0,L|-3:290,1,85,2|2,1:2|1:2,0:0:0:0:
71,367,793978,1,8,0:0:0:0:
206,293,794108,6,0,P|279:253|379:265,1,170,2|0,1:2|1:2,0:0:0:0:
468,370,794499,2,0,L|455:272,1,85,10|0,0:0|0:0,0:0:0:0:
374,174,794760,2,0,L|361:272,1,85,2|0,1:2|1:2,0:0:0:0:
440,108,795021,1,8,0:0:0:0:
292,129,795151,1,8,0:0:0:0:
497,36,795282,6,0,B|439:22|439:22|380:38|380:38|309:20,1,170,6|8,1:2|0:0,0:0:0:0:
502,50,795673,2,0,B|444:36|444:36|385:52|385:52|314:34,1,170,2|0,1:2|1:2,0:0:0:0:
163,150,796064,1,10,0:0:0:0:
342,124,796195,1,2,0:0:0:0:
103,63,796325,6,0,B|161:49|161:49|220:65|220:65|291:47,1,170,6|8,1:2|0:0,0:0:0:0:
98,77,796717,2,0,B|156:63|156:63|215:79|215:79|286:61,1,170,2|0,1:2|1:2,0:0:0:0:
454,153,797108,1,10,0:0:0:0:
270,213,797238,6,0,L|212:208,2,42.5,8|8|8,0:0|0:0|0:0,0:0:0:0:
480,284,797499,1,8,0:0:0:0:
247,342,797630,1,8,0:0:0:0:
402,215,797760,1,8,0:0:0:0:
385,384,797891,1,8,0:3:0:0:
170,236,798021,1,8,0:3:0:0:
342,292,798151,1,4,0:3:0:0:
125,357,798282,1,4,0:3:0:0:
270,165,798412,5,8,0:0:0:0:
0,77,798673,1,8,0:0:0:0:
0,77,799456,6,0,B|35:56|90:82|90:82|141:105|180:84|180:84|151:131|170:183,1,280.500008560181,6|0,0:0|0:0,0:0:0:0:
240,249,800499,2,0,P|154:209|67:251,1,187.000005706787,2|2,0:0|0:0,0:0:0:0:
318,296,801543,6,0,B|351:251|330:206|330:206|303:152|330:104|330:104|346:144|393:173,1,280.500008560181,2|0,0:0|0:0,0:0:0:0:
371,26,802586,2,0,P|318:22|279:41,1,93.5000028533936,2|0,0:0|0:0,0:0:0:0:
134,146,803108,2,0,L|72:138,1,46.7500014266968,2|0,0:0|1:2,0:0:0:0:
69,138,803304,1,0,1:2:0:0:
50,136,803369,1,8,0:0:0:0:
271,245,803630,6,0,B|325:235|325:235|373:246|373:246|447:233,1,140.25000428009,6|0,1:2|0:0,0:0:0:0:
466,150,803891,2,0,L|360:167,1,93.5000028533936,8|0,0:0|0:0,0:0:0:0:
222,32,804151,1,2,1:2:0:0:
393,77,804282,1,0,1:2:0:0:
204,31,804412,2,0,L|218:123,1,93.5000028533936,8|0,0:0|1:2,0:0:0:0:
21,259,804673,6,0,P|67:208|190:202,1,187.000005706787,2|8,0:0|0:0,0:0:0:0:
143,382,805064,1,0,0:0:0:0:
143,382,805195,2,0,L|125:285,1,93.5000028533936,2|0,1:2|1:2,0:0:0:0:
356,203,805456,2,0,L|338:300,1,93.5000028533936,10|0,0:0|0:0,0:0:0:0:
162,169,805717,6,0,P|211:136|301:148,1,140.25000428009,2|0,1:2|0:0,0:0:0:0:
373,116,805978,2,0,P|312:121|277:162,1,93.5000028533936,8|0,0:0|0:0,0:0:0:0:
47,44,806238,6,0,P|102:24|186:59,1,140.25000428009,2|0,1:2|0:0,0:0:0:0:
264,48,806499,2,0,P|203:37|159:67,1,93.5000028533936,10|0,0:0|1:2,0:0:0:0:
51,143,806760,1,0,0:0:0:0:
162,169,806891,1,0,1:2:0:0:
43,259,807021,2,0,L|58:363,1,93.5000028533936,8|0,0:0|0:0,0:0:0:0:
252,234,807282,2,0,L|267:130,1,93.5000028533936,0|0,1:2|1:2,0:0:0:0:
484,255,807543,2,0,P|426:266|355:213,1,140.25000428009,10|0,0:0|0:0,0:0:0:0:
340,205,807804,6,0,L|358:323,1,93.5000028533936,6|0,1:2|0:0,0:0:0:0:
452,87,808064,2,0,L|434:205,1,93.5000028533936,10|0,0:0|0:0,0:0:0:0:
200,74,808325,2,0,P|252:52|297:55,1,93.5000028533936,2|0,1:2|1:2,0:0:0:0:
184,231,808586,6,0,B|98:205|98:205|5:235,1,187.000005706787,8|0,0:0|0:0,0:0:0:0:
101,297,808978,1,0,1:2:0:0:
225,156,809108,2,0,L|327:180,1,93.5000028533936,8|0,0:0|0:0,0:0:0:0:
484,79,809369,2,0,P|426:88|394:114,1,93.5000028533936,2|0,1:2|1:2,0:0:0:0:
296,299,809630,2,0,P|348:275|372:241,1,93.5000028533936,10|0,0:0|0:0,0:0:0:0:
225,156,809891,6,0,P|240:228|244:351,2,187.000005706787,6|10|2,1:2|0:0|1:2,0:0:0:0:
156,12,810543,1,0,1:2:0:0:
0,84,810673,2,0,B|44:111|44:111|184:90,1,187.000005706787,10|0,0:0|0:0,0:0:0:0:
286,1,811064,1,0,1:2:0:0:
415,176,811195,2,0,L|310:164,1,93.5000028533936,8|0,0:0|0:0,0:0:0:0:
481,57,811456,6,0,P|496:123|500:171,1,93.5000028533936,2|0,1:2|1:2,0:0:0:0:
344,349,811717,2,0,P|359:283|363:235,1,93.5000028533936,10|0,0:0|0:0,0:0:0:0:
173,141,811978,5,14,0:0:0:0:
222,299,812108,1,0,1:2:0:0:
152,136,812238,1,8,0:0:0:0:
209,316,812369,1,0,1:2:0:0:
325,69,812499,5,10,0:0:0:0:
276,227,812630,1,0,1:2:0:0:
346,64,812760,1,8,0:0:0:0:
289,244,812891,1,0,1:2:0:0:
76,96,813021,5,10,0:0:0:0:
356,160,813151,1,0,1:2:0:0:
116,221,813282,5,10,0:0:0:0:
378,151,813412,1,0,1:2:0:0:
184,9,813543,6,0,P|180:75|196:116,1,93.5000028533936,10|0,0:0|1:2,0:0:0:0:
360,252,813804,2,0,P|364:186|348:145,1,93.5000028533936,10|0,0:0|1:2,0:0:0:0:
321,339,814064,6,0,L|440:326,1,93.5000028533936,6|8,1:2|0:0,0:0:0:0:
453,243,814260,1,8,0:0:0:0:
453,243,814325,2,0,L|360:253,1,93.5000028533936,8|8,0:0|0:0,0:0:0:0:
382,61,814586,2,0,P|423:95|441:132,1,93.5000028533936,8|8,0:0|0:0,0:0:0:0:
224,281,814847,1,10,0:0:0:0:
242,144,814978,1,8,0:0:0:0:
78,272,815108,6,0,L|95:388,1,93.5000028533936,10|8,0:0|0:0,0:0:0:0:
343,284,815361,5,10,0:0:0:0:
149,213,815487,1,8,0:0:0:0:
420,224,815614,5,10,0:0:0:0:
205,297,815740,1,8,0:0:0:0:
449,355,815867,5,10,0:0:0:0:
270,213,815994,1,8,0:0:0:0:
487,108,816120,6,0,P|514:173|508:259,1,140.25000428009,6|0,1:2|0:0,0:0:0:0:
502,272,816431,2,0,P|465:216|435:195,1,93.5000028533936,8|0,0:0|0:0,0:0:0:0:
205,297,816692,2,0,L|326:304,1,93.5000028533936,2|0,1:2|1:2,0:0:0:0:
93,151,816953,2,0,P|37:188|16:217,1,93.5000028533936,8|0,0:0|1:2,0:0:0:0:
359,152,817214,6,0,B|397:85|355:24|355:24|326:50|276:46,1,187.000005706787,2|8,0:0|0:0,0:0:0:0:
194,2,817605,1,0,0:0:0:0:
180,198,817736,2,0,P|244:195|286:168,1,93.5000028533936,2|0,1:2|1:2,0:0:0:0:
107,55,817997,2,0,L|-21:75,1,93.5000028533936,8|0,0:0|0:0,0:0:0:0:
220,283,818258,6,0,B|258:282|296:259|296:259|327:262|347:296|347:296|321:298|299:310,1,187.000005706787,2|8,1:2|0:0,0:0:0:0:
141,371,818649,1,0,0:0:0:0:
44,283,818779,2,0,B|37:253|16:228|16:228|41:199|40:157|40:157|75:150|116:116,1,187.000005706787,2|8,1:2|0:0,0:0:0:0:
199,43,819171,1,0,1:2:0:0:
288,177,819301,6,0,P|335:199|452:128,1,187.000005706787,2|8,0:0|0:0,0:0:0:0:
471,45,819692,1,0,0:0:0:0:
328,24,819823,2,0,P|341:95|364:126,1,93.5000028533936,2|0,1:2|1:2,0:0:0:0:
484,254,820084,2,0,P|480:207|460:165,1,93.5000028533936,10|0,0:0|0:0,0:0:0:0:
185,296,820345,6,0,B|252:285|252:285|314:302|314:302|406:288,1,187.000005706787,6|8,1:2|0:0,0:0:0:0:
207,191,820736,1,0,0:0:0:0:
106,358,820866,2,0,P|48:349|49:223,1,187.000005706787,2|8,1:2|0:0,0:0:0:0:
98,140,821258,1,0,1:2:0:0:
287,265,821388,6,0,B|344:275|390:217|390:217|436:210|470:266,1,187.000005706787,2|8,0:0|0:0,0:0:0:0:
462,331,821779,1,0,0:0:0:0:
300,177,821910,2,0,B|291:150|291:150|308:62,1,93.5000028533936,2|0,1:2|1:2,0:0:0:0:
477,11,822171,2,0,B|486:38|486:38|469:126,1,93.5000028533936,10|0,0:0|0:0,0:0:0:0:
204,163,822431,5,2,1:2:0:0:
389,61,822562,1,0,0:0:0:0:
188,176,822692,2,0,L|57:156,1,93.5000028533936,10|0,0:0|0:0,0:0:0:0:
408,238,822953,2,0,L|539:218,1,93.5000028533936,2|0,1:2|1:2,0:0:0:0:
280,110,823214,6,0,B|298:139|293:190|293:190|318:212|318:212|311:258|334:302,1,187.000005706787,10|0,0:0|0:0,0:0:0:0:
418,334,823605,1,0,1:2:0:0:
267,119,823736,2,0,B|285:148|280:199|280:199|305:221|305:221|298:267|321:311,1,187.000005706787,8|0,0:0|1:2,0:0:0:0:
358,147,824127,1,0,1:2:0:0:
227,286,824258,2,0,B|183:299|183:299|131:279,1,93.5000028533936,10|0,0:0|0:0,0:0:0:0:
137,110,824518,6,0,P|179:161|197:203,1,93.5000028533936,6|0,1:2|0:0,0:0:0:0:
282,27,824779,2,0,P|275:92|258:135,1,93.5000028533936,10|0,0:0|0:0,0:0:0:0:
443,70,825040,2,0,P|392:112|350:130,1,93.5000028533936,2|0,1:2|1:2,0:0:0:0:
26,65,825301,6,0,B|67:72|103:53|103:53|127:73|127:73|169:42|224:65,1,187.000005706787,10|0,0:0|0:0,0:0:0:0:
120,219,825692,1,0,1:2:0:0:
120,219,825823,2,0,L|22:205,1,93.5000028533936,8|0,0:0|0:0,0:0:0:0:
191,153,826084,2,0,P|216:205|178:291,1,140.25000428009,2|0,1:2|0:0,0:0:0:0:
143,342,826345,2,0,P|222:317|262:324,1,93.5000028533936,10|0,0:0|0:0,0:0:0:0:
430,342,826605,6,0,L|400:234,1,93.5000028533936,2|0,1:2|0:0,0:0:0:0:
257,228,826866,2,0,L|312:130,1,93.5000028533936,10|0,0:0|0:0,0:0:0:0:
215,25,827127,2,0,L|323:-5,1,93.5000028533936,2|0,1:2|1:2,0:0:0:0:
477,133,827388,6,0,B|426:165|426:165|366:134|279:149,1,187.000005706787,10|0,0:0|0:0,0:0:0:0:
70,238,827779,1,0,1:2:0:0:
70,238,827910,2,0,P|134:243|174:232,1,93.5000028533936,8|0,0:0|0:0,0:0:0:0:
99,57,828171,6,0,P|99:115|109:151,1,93.5000028533936,2|0,1:2|1:2,0:0:0:0:
221,382,828431,2,0,P|221:324|231:288,1,93.5000028533936,10|0,0:0|0:0,0:0:0:0:
410,130,828692,5,14,0:0:0:0:
444,270,828823,1,0,1:2:0:0:
416,115,828953,1,8,0:0:0:0:
458,280,829084,1,0,1:2:0:0:
284,59,829214,5,10,0:0:0:0:
243,210,829345,1,0,1:2:0:0:
278,44,829475,1,8,0:0:0:0:
229,220,829605,1,0,1:2:0:0:
479,47,829736,5,10,0:0:0:0:
217,120,829866,1,0,1:2:0:0:
425,188,829997,5,10,0:0:0:0:
197,113,830127,1,0,1:2:0:0:
381,0,830258,6,0,B|403:32|403:32|394:124,1,93.5000028533936,10|0,0:0|1:2,0:0:0:0:
162,278,830518,2,0,B|140:246|140:246|149:154,1,93.5000028533936,10|0,0:0|1:2,0:0:0:0:
351,343,830779,6,0,L|217:327,1,93.5000028533936,10|0,0:0|1:2,0:0:0:0:
85,107,831040,2,0,L|219:91,1,93.5000028533936,8|0,0:0|1:2,0:0:0:0:
464,91,831301,5,8,0:0:0:0:
281,239,831431,1,8,0:0:0:0:
220,0,831562,2,0,P|270:24|300:73,1,93.5000028533936,10|0,0:0|1:2,0:0:0:0:
389,232,831823,5,10,0:0:0:0:
130,328,831933,6,0,L|238:317,1,108.375002067089,2|0,1:3|0:0,0:0:0:0:
92,250,832193,6,0,L|200:239,1,108.375002067089,2|0,1:3|0:0,0:0:0:0:
54,172,832454,6,0,L|162:161,1,108.375002067089,2|0,1:3|0:0,0:0:0:0:
12,97,832715,5,2,1:3:0:0:
254,11,832846,6,0,P|308:36|336:140,2,161.499995687485,6|8|0,1:2|0:0|1:2,0:0:0:0:
141,38,833497,1,0,1:2:0:0:
269,191,833628,2,0,P|331:166|440:178,1,161.499995687485,10|0,0:0|0:0,0:0:0:0:
494,238,834019,1,0,1:2:0:0:
366,339,834149,2,0,L|356:242,1,80.7499978437424,8|0,0:0|0:0,0:0:0:0:
182,140,834410,2,0,L|172:237,1,80.7499978437424,2|0,1:2|1:2,0:0:0:0:
109,77,834671,2,0,P|158:51|206:48,1,80.7499978437424,8|0,0:0|0:0,0:0:0:0:
334,146,834932,6,0,B|263:171|214:129|214:129|161:147,2,161.499995687485,2|8|0,1:2|0:0|1:2,0:0:0:0:
435,81,835584,1,0,1:2:0:0:
435,81,835714,1,8,0:0:0:0:
294,67,835845,6,0,P|251:163|297:232,1,161.499995687485,2|0,1:2|1:2,0:0:0:0:
447,297,836237,2,0,P|391:272|274:299,1,161.499995687485,8|0,0:0|1:2,0:0:0:0:
132,345,836628,1,0,1:2:0:0:
226,344,836758,1,8,0:0:0:0:
74,276,836888,1,0,0:0:0:0:
215,243,837019,6,0,P|228:197|233:149,1,80.7499978437424,6|0,1:2|0:0,0:0:0:0:
294,285,837280,2,0,P|307:239|312:191,1,80.7499978437424,8|0,0:0|0:0,0:0:0:0:
136,58,837541,2,0,P|141:97|153:136,1,80.7499978437424,2|0,1:2|1:2,0:0:0:0:
57,100,837801,2,0,P|62:139|74:178,1,80.7499978437424,8|0,0:0|1:2,0:0:0:0:
326,84,838062,6,0,P|261:75|223:82,1,80.7499978437424,2|0,0:0|1:2,0:0:0:0:
390,193,838323,2,0,P|429:201|469:200,1,80.7499978437424,10|0,0:0|0:0,0:0:0:0:
278,163,838584,2,0,L|298:272,1,80.7499978437424,2|0,1:2|1:2,0:0:0:0:
434,118,838845,2,0,L|454:9,1,80.7499978437424,10|0,0:0|0:0,0:0:0:0:
104,90,839106,6,0,P|157:115|253:66,1,161.499995687485,2|8,1:2|0:0,0:0:0:0:
39,23,839497,1,0,0:0:0:0:
55,174,839628,2,0,L|68:280,1,80.7499978437424,2|0,1:2|1:2,0:0:0:0:
238,305,839888,1,10,0:0:0:0:
161,242,840019,1,6,1:2:0:0:
191,381,840150,6,0,P|253:353|371:358,1,161.499995687485,0|8,0:0|0:0,0:0:0:0:
479,379,840541,1,0,0:0:0:0:
457,220,840671,1,2,1:2:0:0:
422,305,840801,1,8,0:0:0:0:
314,125,840932,1,8,0:0:0:0:
340,230,841062,1,8,0:0:0:0:
488,108,841193,6,0,P|431:124|315:86,1,161.499995687485,6|8,1:2|0:0,0:0:0:0:
255,23,841584,1,0,0:0:0:0:
173,136,841715,2,0,L|189:251,1,80.7499978437424,0|0,1:2|1:2,0:0:0:0:
260,287,841975,1,8,0:0:0:0:
50,350,842106,6,0,L|75:190,1,161.499995687485,2|0,1:2|1:2,0:0:0:0:
15,59,842497,2,0,P|62:37|102:38,1,80.7499978437424,8|0,0:0|0:0,0:0:0:0:
266,163,842758,2,0,B|321:153|321:153|373:164|373:164|444:153,1,161.499995687485,0|8,1:2|0:0,0:0:0:0:
455,72,843149,1,0,0:0:0:0:
182,109,843280,6,0,P|168:155|239:256,1,161.499995687485,2|8,1:2|0:0,0:0:0:0:
384,268,843671,1,0,0:0:0:0:
215,362,843802,2,0,P|159:363|105:343,2,80.7499978437424,0|0|8,1:2|1:2|0:0,0:0:0:0:
482,289,844193,6,0,B|476:229|476:229|445:189|445:189|439:108,1,161.499995687485,2|0,1:2|1:2,0:0:0:0:
402,19,844584,2,0,P|378:62|349:83,1,80.7499978437424,8|0,0:0|0:0,0:0:0:0:
173,81,844845,1,0,1:2:0:0:
250,32,844975,1,0,1:2:0:0:
87,48,845106,2,0,L|99:152,1,80.7499978437424,8|0,0:0|0:0,0:0:0:0:
258,218,845367,6,0,P|199:198|93:232,1,161.499995687485,2|8,1:2|0:0,0:0:0:0:
29,294,845758,1,0,0:0:0:0:
141,364,845889,2,0,L|230:357,2,80.7499978437424,2|0|8,1:2|1:2|0:0,0:0:0:0:
293,306,846280,6,0,L|459:319,1,161.499995687485,2|0,1:2|1:2,0:0:0:0:
370,144,846671,2,0,P|346:189|344:220,1,80.7499978437424,8|0,0:0|0:0,0:0:0:0:
441,75,846932,1,8,0:0:0:0:
258,108,847062,1,8,0:0:0:0:
458,89,847193,1,8,0:0:0:0:
206,27,847323,1,8,0:0:0:0:
428,207,847454,5,6,1:2:0:0:
428,207,848497,6,0,L|436:268,1,40.3749989218712,10|0,0:0|0:0,0:0:0:0:
414,319,848628,6,0,L|401:233,1,80.7499978437424,2|0,1:3|0:0,0:0:0:0:
306,132,848889,6,0,L|288:250,1,95.6250036478044,2|0,1:3|0:0,0:0:0:0:
245,299,849150,2,0,L|259:204,1,95.6250036478044,2|0,1:3|0:0,0:0:0:0:
210,141,849411,1,2,1:3:0:0:
112,212,849541,6,0,P|58:223|-4:179,1,127.500004863739,6|2,1:2|1:2,0:0:0:0:
75,139,849932,2,0,P|129:128|191:172,1,127.500004863739,10|2,0:0|1:2,0:0:0:0:
245,299,850324,6,0,L|387:287,1,127.500004863739,10|2,0:0|1:2,0:0:0:0:
459,266,850714,1,0,0:0:0:0:
309,148,850845,2,0,P|302:190|310:223,1,63.7500024318696,8|8,0:0|0:0,0:0:0:0:
405,202,851106,6,0,L|393:73,1,127.500004863739,6|2,1:2|1:2,0:0:0:0:
298,22,851498,2,0,L|309:148,1,127.500004863739,10|2,0:0|1:2,0:0:0:0:
214,257,851889,6,0,B|182:273|145:252|145:252|117:236|71:258,1,127.500004863739,10|8,0:0|0:0,0:0:0:0:
14,295,852280,1,8,0:3:0:0:
14,295,852410,1,4,0:3:0:0:
107,332,852541,1,4,0:3:0:0:
18,208,852671,6,0,L|1:81,1,127.500004863739,6|2,1:2|1:2,0:0:0:0:
78,39,853063,2,0,L|95:166,1,127.500004863739,10|2,0:0|1:2,0:0:0:0:
192,292,853454,6,0,B|256:314|256:314|313:296,1,127.500004863739,10|2,0:0|1:2,0:0:0:0:
386,211,853845,1,8,0:0:0:0:
386,211,853975,2,0,P|329:211|304:206,1,63.7500024318696,8|8,0:0|0:0,0:0:0:0:
312,52,854237,6,0,P|363:68|337:138,1,127.500004863739,6|2,1:2|1:2,0:0:0:0:
158,130,854628,2,0,P|145:73|200:52,1,127.500004863739,10|10,0:0|0:0,0:0:0:0:
255,250,855019,5,6,1:2:0:0:
256,192,855084,12,0,856845,0:0:0:0:
456,311,859546,6,0,P|426:293|315:303,1,136,2|0,0:2|0:0,0:0:0:0:
241,339,860000,2,0,P|196:358|131:349,1,101.999996887207
76,293,860455,2,0,L|66:203,1,76.4999976654053
15,157,860783,6,0,B|54:174|93:151|93:151|114:168|114:168|153:147|197:160,1,187
269,200,861710,6,0,B|311:220|352:205|352:205|395:187|443:197|443:197|422:215|412:238,1,229.5
512,344,864049,6,0,P|456:359|402:338,1,101.999996887207,2|0,0:2|0:0,0:0:0:0:
328,310,864449,2,0,P|276:297|211:315,1,101.999996887207,2|0,0:2|0:0,0:0:0:0:
151,346,864912,2,0,P|87:355|112:273,1,170,2|0,0:2|0:0,0:0:0:0:
171,213,865376,2,0,P|191:177|182:102,1,102,2|0,0:2|0:0,0:0:0:0:
92,62,865718,6,0,B|133:88|133:88|266:70,1,152.999995330811,4|0,3:1|0:0,0:0:0:0:
316,42,866027,2,0,L|210:29,1,101.999996887207,10|0,0:0|0:0,0:0:0:0:
418,17,866336,1,2,3:2:0:0:
281,152,866490,1,2,3:2:0:0:
479,212,866645,2,0,P|482:159|466:110,1,101.999996887207,10|0,3:2|0:0,0:0:0:0:
334,272,866954,6,0,L|350:389,1,101.999996887207,2|0,3:2|0:0,0:0:0:0:
132,297,867264,1,10,3:2:0:0:
242,237,867418,1,0,0:0:0:0:
29,237,867573,2,0,L|13:354,1,101.999996887207,2|2,3:2|3:2,0:0:0:0:
269,140,867882,2,0,B|214:140|214:140|169:167,1,101.999996887207,10|0,3:2|0:0,0:0:0:0:
424,287,868191,6,0,B|459:228|437:160|437:160|412:188|367:192,1,203.999993774414,2|10,3:2|3:2,0:0:0:0:
186,64,868655,1,0,0:0:0:0:
341,13,868810,2,0,P|367:60|373:114,1,101.999996887207,2|2,3:2|3:2,0:0:0:0:
139,247,869119,6,0,L|157:133,1,101.999996887207,10|0,3:2|0:0,0:0:0:0:
408,249,869429,2,0,P|371:288|317:299,1,101.999996887207,2|0,3:2|0:0,0:0:0:0:
118,230,869738,2,0,L|136:116,1,101.999996887207,10|0,3:2|0:0,0:0:0:0:
352,384,870047,2,0,P|298:385|252:355,1,101.999996887207,2|2,3:2|3:2,0:0:0:0:
86,51,870356,2,0,B|138:38|138:38|185:59,1,101.999996887207,10|0,3:2|0:0,0:0:0:0:
332,220,870666,6,0,P|396:241|446:134,1,203.999993774414,2|10,3:2|3:2,0:0:0:0:
323,58,871130,1,0,0:0:0:0:
182,256,871284,6,0,B|164:280|130:286|130:286|81:262|19:272,1,152.999995330811,2|0,3:2|0:0,0:0:0:0:
81,158,871594,2,0,B|110:155|137:178|137:178|150:230|198:271,1,152.999995330811,10|0,3:2|0:0,0:0:0:0:
344,342,871903,6,0,B|361:366|395:372|395:372|444:348|484:356,1,152.999995330811,2|0,3:2|0:0,0:0:0:0:
445,244,872212,2,0,B|415:241|388:264|388:264|375:316|343:342,1,152.999995330811,10|0,3:2|0:0,0:0:0:0:
254,367,872521,5,2,3:2:0:0:
371,173,872676,1,2,3:2:0:0:
223,77,872831,2,0,L|236:189,1,101.999996887207,10|0,3:2|0:0,0:0:0:0:
445,74,873140,6,0,P|371:47|304:63,1,101.999996887207,2|0,3:2|0:0,0:0:0:0:
131,146,873449,1,10,3:2:0:0:
371,173,873604,1,0,0:0:0:0:
133,262,873758,2,0,L|121:160,1,101.999996887207,2|2,3:2|3:2,0:0:0:0:
374,310,874068,2,0,P|305:341|239:287,1,152.999995330811,10|0,3:2|0:0,0:0:0:0:
233,283,874377,6,0,L|221:384,1,101.999996887207,2|0,3:2|0:0,0:0:0:0:
438,243,874686,2,0,B|389:222|389:222|339:227,1,101.999996887207,12|0,3:1|0:0,0:0:0:0:
131,146,874996,2,0,B|180:167|180:167|230:162,1,101.999996887207,8|8,0:0|0:0,0:0:0:0:
244,153,875227,1,8,0:0:0:0:
251,138,875305,1,8,0:0:0:0:
66,68,875459,1,8,0:0:0:0:
52,76,875537,1,8,0:0:0:0:
36,86,875614,6,0,P|21:178|97:262,1,203.999993774414,12|10,0:0|3:2,0:0:0:0:
245,342,876078,2,0,B|196:316|138:343|138:343|84:370|16:334,1,203.999993774414,0|0,0:0|3:0,0:0:0:0:
251,138,876542,2,0,P|303:173|192:185,1,255,10|0,3:2|3:0,0:0:0:0:
179,62,877160,2,0,B|229:39|229:39|286:43,1,101.999996887207,10|0,3:2|0:0,0:0:0:0:
483,114,877470,6,0,P|424:133|341:80,1,152.999995330811,2|0,3:2|0:0,0:0:0:0:
418,173,877779,2,0,P|401:245|338:284,1,152.999995330811,10|0,3:2|0:0,0:0:0:0:
233,326,878088,6,0,B|290:297|339:321|339:321|394:349|448:315,1,203.999993774414,2|10,3:2|3:2,0:0:0:0:
273,227,878552,1,0,3:0:0:0:
144,361,878707,2,0,P|84:376|31:357,1,101.999996887207,2|2,3:2|0:2,0:0:0:0:
70,181,879016,6,0,L|92:296,1,101.999996887207,10|0,3:2|0:0,0:0:0:0:
152,139,879325,2,0,L|174:254,1,101.999996887207,2|0,3:2|0:0,0:0:0:0:
356,104,879635,1,10,3:2:0:0:
274,62,879789,1,2,0:3:0:0:
274,62,879867,1,2,0:3:0:0:
274,62,879944,2,0,L|252:177,1,101.999996887207,8|8,0:3|0:1,0:0:0:0:
195,229,880176,1,8,0:1:0:0:
199,254,880253,1,2,0:3:0:0:
204,279,880331,1,8,0:3:0:0:
209,304,880408,1,4,0:3:0:0:
214,329,880485,1,4,0:3:0:0:
219,348,880563,6,0,B|281:368|326:323|326:323|354:357|354:357|406:317|468:348,1,254.999992218018,4|0,3:2|0:0,0:0:0:0:
506,383,881026,6,0,B|470:336|470:336|496:192,1,203.999993774414,4|0,3:0|0:0,0:0:0:0:
295,113,881490,2,0,P|315:176|351:210,1,101.999996887207,4|0,3:0|0:0,0:0:0:0:
351,38,881800,6,0,B|283:1|222:48|222:48|209:94|138:104,1,203.999993774414,0|0,3:0|0:0,0:0:0:0:
25,20,882264,2,0,P|61:68|81:127,1,101.999996887207,0|12,0:0|3:2,0:0:0:0:
23,224,882573,1,0,3:0:0:0:
177,172,882727,1,12,0:0:0:0:
177,172,882805,1,8,0:0:0:0:
177,172,882882,1,8,0:0:0:0:
105,384,883037,6,0,L|123:270,1,101.999996887207,4|2,3:2|3:0,0:0:0:0:
120,266,883269,1,2,3:0:0:0:
114,250,883346,1,2,3:0:0:0:
52,135,883501,1,0,3:0:0:0:
61,114,883578,1,0,3:0:0:0:
74,88,883655,2,0,P|131:75|206:95,1,101.999996887207,8|0,3:0|0:0,0:0:0:0:
378,36,883965,2,0,P|320:23|246:42,1,101.999996887207,4|0,3:0|0:0,0:0:0:0:
452,218,884274,6,0,B|490:154|460:88|460:88|438:121|405:127,1,203.999993774414,4|8,0:0|0:0,0:0:0:0:
143,155,884738,2,0,B|244:141|244:141|329:197,1,203.999993774414,4|8,0:1|0:0,0:0:0:0:
348,223,885124,1,8,0:0:0:0:
351,249,885202,1,8,0:1:0:0:
201,384,885356,1,8,0:1:0:0:
204,358,885434,1,8,0:1:0:0:
207,332,885511,6,0,L|226:216,1,101.999996887207,4|0,3:2|0:0,0:0:0:0:
116,61,885820,2,0,P|125:131|151:162,1,101.999996887207,10|0,3:2|0:0,0:0:0:0:
319,101,886130,2,0,P|260:84|210:87,1,101.999996887207,2|2,3:2|0:2,0:0:0:0:
26,256,886439,2,0,L|173:237,1,101.999996887207,10|0,3:2|0:0,0:0:0:0:
445,335,886748,6,0,B|386:329|386:329|351:347|351:347|279:342,1,152.999995330811,2|0,3:2|0:0,0:0:0:0:
226,255,887057,2,0,L|345:265,1,101.999996887207,10|0,3:2|0:0,0:0:0:0:
441,146,887367,1,2,3:2:0:0:
272,113,887521,6,0,L|283:173,1,50.9999984436036,2|0,0:2|0:0,0:0:0:0:
186,56,887676,2,0,L|175:116,1,50.9999984436036,10|0,3:2|0:0,0:0:0:0:
88,119,887831,2,0,L|99:179,1,50.9999984436036,2|0,0:0|0:0,0:0:0:0:
226,255,887985,6,0,P|175:203|52:233,1,203.999993774414,2|10,3:2|3:2,0:0:0:0:
235,380,888449,1,0,0:0:0:0:
308,204,888604,1,2,3:2:0:0:
129,301,888758,1,2,0:0:0:0:
322,361,888913,6,0,B|377:379|377:379|471:348,1,152.999995330811,10|0,3:2|0:0,0:0:0:0:
424,212,889223,2,0,P|352:238|408:295,1,152.999995330811,2|0,3:2|0:0,0:0:0:0:
509,243,889532,6,0,B|517:196|517:196|470:90,1,152.999995330811,10|0,3:2|0:0,0:0:0:0:
344,42,889841,2,0,P|343:125|402:92,1,152.999995330811,2|0,3:2|0:0,0:0:0:0:
436,12,890150,1,10,3:2:0:0:
228,122,890305,1,2,0:0:0:0:
349,238,890460,6,0,B|315:208|255:221|255:221|228:257|178:256,1,152.999995330811,2|0,3:2|0:0,0:0:0:0:
150,157,890769,2,0,B|182:203|182:203|159:314,1,152.999995330811,10|0,3:2|0:0,0:0:0:0:
94,84,891078,6,0,B|128:54|188:67|188:67|215:103|265:102,1,152.999995330811,2|0,3:2|0:0,0:0:0:0:
293,3,891388,2,0,B|261:49|261:49|284:160,1,152.999995330811,10|0,3:2|0:0,0:0:0:0:
349,238,891697,1,2,3:2:0:0:
150,157,891851,1,0,3:0:0:0:
372,113,892006,2,0,L|486:94,1,101.999996887207,10|0,3:2|0:0,0:0:0:0:
243,312,892315,2,0,B|134:290|134:290|89:307,1,152.999995330811,2|0,3:2|0:0,0:0:0:0:
38,361,892624,2,0,L|67:243,1,101.999996887207,10|0,3:2|0:0,0:0:0:0:
206,101,892934,5,0,3:0:0:0:
262,215,893088,1,0,3:0:0:0:
25,82,893243,2,0,P|86:58|145:54,1,101.999996887207,12|0,0:2|0:0,0:0:0:0:
315,80,893552,1,0,3:0:0:0:
163,241,893707,1,0,3:0:0:0:
121,53,893862,1,8,0:1:0:0:
352,178,894016,2,0,P|403:145|391:2,1,203.999993774414,4|0,0:1|3:0,0:0:0:0:
247,163,894480,6,0,L|269:276,1,101.999996887207,8|8,0:2|0:2,0:0:0:0:
327,320,894712,1,8,0:2:0:0:
327,335,894789,2,0,L|314:390,1,50.9999984436036,8|8,0:1|0:1,0:0:0:0:
428,314,894944,2,0,L|416:264,1,50.9999984436036,8|8,0:1|0:1,0:1:0:0:
352,178,895099,5,8,0:1:0:0:
357,142,895176,1,8,0:1:0:0:
363,107,895253,1,8,0:1:0:0:
369,72,895331,1,8,0:1:0:0:
375,37,895408,6,0,P|287:87|203:68,1,187.000005706787,4|10,3:1|0:2,0:0:0:0:
109,25,895872,1,0,0:0:0:0:
38,160,896026,2,0,B|32:186|11:211|11:211|36:240|35:282|35:282|67:288|86:303,1,187.000005706787,2|10,3:2|3:2,0:0:0:0:
171,363,896490,1,0,0:0:0:0:
372,298,896645,6,0,P|319:272|237:280,1,140.25000428009,2|0,3:2|0:0,0:0:0:0:
164,246,896954,2,0,P|231:243|260:220,1,93.5000028533936,10|8,3:2|0:1,0:0:0:0:
267,213,897186,1,8,0:1:0:0:
262,192,897264,1,12,0:1:0:0:
145,99,897418,1,2,0:3:0:0:
139,118,897496,1,2,0:3:0:0:
133,138,897573,1,2,0:3:0:0:
390,105,897727,1,8,0:3:0:0:
384,86,897805,1,4,0:3:0:0:
378,66,897882,6,0,P|328:54|247:97,1,140.25000428009,4|0,0:0|0:0,0:0:0:0:
231,114,898191,2,0,P|242:74|222:3,1,93.5000028533936,12|0,0:1|3:0,0:0:0:0:
19,245,898501,6,0,P|69:233|150:276,1,140.25000428009,4|0,3:1|0:0,0:0:0:0:
166,293,898810,2,0,P|155:253|175:182,1,93.5000028533936,12|0,0:0|0:0,0:0:0:0:
433,245,899119,6,0,B|362:238|362:238|325:257|325:257|233:247,1,187.000005706787,2|8,3:2|0:0,0:0:0:0:
402,67,899583,1,8,0:0:0:0:
402,67,899660,1,8,0:0:0:0:
402,67,899738,2,0,P|416:120|412:163,1,93.5000028533936,2|2,3:0|3:0,0:0:0:0:
251,248,900047,2,0,P|237:195|241:152,1,93.5000028533936,12|0,3:2|0:0,0:0:0:0:
376,328,900356,6,0,P|300:294|198:325,1,187.000005706787,4|10,3:1|3:2,0:0:0:0:
116,375,900820,1,0,0:0:0:0:
176,229,900975,1,2,3:2:0:0:
40,250,901130,1,2,0:2:0:0:
82,100,901284,2,0,P|126:111|163:140,1,93.5000028533936,10|0,3:2|0:0,0:0:0:0:
273,251,901593,6,0,L|262:150,1,93.5000028533936,2|0,3:2|0:0,0:0:0:0:
417,244,901903,2,0,L|406:344,1,93.5000028533936,12|0,3:2|0:0,0:0:0:0:
371,157,902212,1,2,3:2:0:0:
507,246,902367,1,0,3:0:0:0:
439,75,902521,1,8,3:2:0:0:
439,75,902676,1,0,3:0:0:0:
273,251,902831,6,0,P|186:262|147:184,1,187.000005706787,4|8,3:2|0:0,0:0:0:0:
336,167,903295,1,2,0:3:0:0:
360,194,903372,1,2,0:3:0:0:
374,229,903449,1,8,0:3:0:0:
374,266,903526,1,8,0:3:0:0:
361,301,903604,1,4,0:3:0:0:
337,329,903681,1,4,0:3:0:0:
305,345,903759,2,0,P|237:317|152:344,1,140.25000428009,4|0,0:0|0:0,0:0:0:0:
91,365,904068,6,0,P|27:376|50:272,1,187.000005706787,2|0,0:0|0:0,0:0:0:0:
124,220,904532,2,0,P|156:158|121:89,1,152.999995330811,2|0,0:0|0:0,0:0:0:0:
24,40,904996,2,0,L|150:48,1,102,2|0,0:0|0:0,0:0:0:0:
216,86,905305,6,0,B|287:75|287:75|321:89|321:89|400:77,1,170,4|10,3:2|0:0,0:0:0:0:
461,32,905769,1,0,0:0:0:0:
396,163,905923,1,2,3:2:0:0:
501,177,906078,1,0,3:0:0:0:
381,79,906233,1,10,0:0:0:0:
444,239,906387,6,0,P|459:284|393:389,1,170,0|0,3:0|3:0,0:0:0:0:
275,291,906851,2,0,P|323:282|364:291,1,85,10|0,0:0|0:0,0:0:0:0:
238,376,907160,2,0,P|196:385|154:378,1,85,2|0,3:2|3:0,0:0:0:0:
57,246,907470,1,10,0:0:0:0:
50,263,907779,6,0,L|66:366,1,85,2|0,3:2|0:0,0:0:0:0:
169,215,908088,2,0,L|185:112,1,85,10|0,0:2|0:0,0:0:0:0:
65,7,908398,1,2,3:2:0:0:
101,97,908552,1,0,3:0:0:0:
166,18,908707,1,10,0:0:0:0:
15,150,908862,6,0,P|75:131|191:133,1,170,0|0,3:0|3:0,0:0:0:0:
345,196,909325,2,0,P|389:207|458:192,1,85,10|0,0:0|0:0,0:0:0:0:
316,97,909635,1,2,3:2:0:0:
248,213,909789,1,0,3:0:0:0:
225,26,909944,1,10,0:0:0:0:
213,46,910253,6,0,L|223:159,1,85,2|0,3:2|0:0,0:0:0:0:
106,262,910563,2,0,L|116:149,1,85,10|0,0:2|0:0,0:0:0:0:
253,329,910872,1,2,3:2:0:0:
166,339,911026,1,0,3:0:0:0:
302,254,911181,1,10,0:0:0:0:
106,262,911336,6,0,B|36:242|-28:285|-28:285|29:302,1,170,0|0,3:0|3:0,0:0:0:0:
192,311,911800,2,0,P|202:248|190:213,1,85,10|0,0:0|0:0,0:0:0:0:
79,153,912109,1,2,3:2:0:0:
106,262,912264,1,0,3:0:0:0:
161,90,912418,1,10,0:0:0:0:
152,75,912727,6,0,L|267:64,1,85,2|0,3:2|0:0,0:0:0:0:
366,152,913037,2,0,L|251:141,1,85,10|0,0:2|0:0,0:0:0:0:
399,62,913346,1,2,3:2:0:0:
399,62,913501,1,0,3:0:0:0:
468,205,913655,2,0,P|477:257|459:321,1,85,10|0,0:0|3:0,0:0:0:0:
372,363,913965,6,0,B|326:332|284:348|284:348|230:369|183:349,1,170,4|8,3:1|0:0,0:0:0:0:
9,306,914429,2,0,P|62:304|124:207,1,170,4|8,3:0|0:0,0:0:0:0:
172,83,914892,1,8,0:0:0:0:
210,64,914970,1,8,0:0:0:0:
252,60,915047,1,8,0:0:0:0:
293,70,915124,1,8,0:0:0:0:
328,83,915202,6,0,P|333:40|324:0,1,85,4|0,3:2|0:0,0:0:0:0:
223,193,915511,2,0,L|336:179,1,85,10|0,0:2|0:0,0:0:0:0:
449,122,915820,1,2,3:2:0:0:
328,83,915975,1,0,3:0:0:0:
453,236,916130,1,10,0:0:0:0:
494,55,916284,6,0,P|485:106|484:238,1,170,0|0,3:0|3:0,0:0:0:0:
377,378,916748,2,0,P|379:318|373:279,1,85,10|0,0:0|0:0,0:0:0:0:
260,253,917057,1,2,3:2:0:0:
388,176,917212,1,0,3:0:0:0:
188,158,917367,1,10,0:0:0:0:
173,169,917676,6,0,L|166:263,1,85,2|0,3:2|0:0,0:0:0:0:
36,122,917985,2,0,L|29:37,1,85,10|0,0:2|0:0,0:0:0:0:
221,23,918295,1,2,3:2:0:0:
124,69,918449,1,0,3:0:0:0:
124,69,918604,1,10,0:0:0:0:
271,136,918758,6,0,P|332:137|368:112,1,85,0|2,3:0|0:0,0:0:0:0:
469,8,919068,1,0,3:0:0:0:
299,63,919222,1,10,3:2:0:0:
483,101,919377,1,0,3:0:0:0:
368,143,919532,1,2,3:2:0:0:
445,186,919686,1,0,3:0:0:0:
283,260,919841,2,0,P|243:275|184:271,1,85,12|0,3:1|0:0,0:0:0:0:
207,106,920150,6,0,L|231:201,1,85,4|0,3:2|0:0,0:0:0:0:
93,296,920459,2,0,L|117:201,1,85,10|0,0:2|0:0,0:0:0:0:
0,102,920769,1,2,3:2:0:0:
34,191,920923,1,0,3:0:0:0:
53,39,921078,1,10,0:0:0:0:
191,191,921233,6,0,P|271:211|367:178,1,170,0|0,3:0|3:0,0:0:0:0:
463,71,921697,2,0,P|410:85|384:108,1,85,10|0,0:0|0:0,0:0:0:0:
444,249,922006,2,0,L|453:149,1,85,2|0,3:2|3:0,0:0:0:0:
342,296,922315,2,0,L|351:396,1,85,10|0,0:0|0:0,0:0:0:0:
119,301,922624,5,10,0:2:0:0:
274,232,922779,1,0,3:0:0:0:
78,181,922934,5,10,0:2:0:0:
288,238,923088,1,0,3:0:0:0:
152,84,923243,5,10,0:2:0:0:
216,318,923398,1,0,3:0:0:0:
258,41,923552,5,10,0:2:0:0:
214,334,923707,1,0,3:0:0:0:
363,157,923862,6,0,P|413:133|468:127,1,85,4|8,3:0|0:0,0:0:0:0:
366,267,924171,1,2,0:3:0:0:
366,267,924248,1,8,0:3:0:0:
366,267,924325,2,0,P|316:243|261:237,1,85,4|8,0:3|0:0,0:0:0:0:
110,319,924635,1,0,3:0:0:0:
110,319,924712,1,8,0:0:0:0:
110,319,924790,2,0,L|119:369,3,42.5,2|2|8|4,0:3|3:0|3:0|3:0,0:0:0:0:
36,261,925099,5,12,1:2:0:0:
266,256,925253,1,0,3:0:0:0:
59,153,925408,5,10,0:2:0:0:
277,270,925563,1,0,3:0:0:0:
146,82,925717,5,10,0:2:0:0:
285,285,925872,1,0,3:0:0:0:
270,51,926026,5,10,0:2:0:0:
297,299,926181,1,0,3:0:0:0:
443,157,926336,6,0,P|399:143|332:142,1,93.5000028533936,10|0,0:2|3:0,0:0:0:0:
115,77,926645,2,0,P|159:63|226:62,1,93.5000028533936,10|0,0:2|3:0,0:0:0:0:
189,244,926954,6,0,L|175:139,1,93.5000028533936,10|0,0:2|0:0,0:0:0:0:
385,236,927264,2,0,L|371:341,1,93.5000028533936,10|0,0:2|0:0,0:0:0:0:
92,200,927573,5,10,0:2:0:0:
92,200,927727,1,0,3:0:0:0:
280,165,927882,5,10,0:2:0:0:
280,165,928037,1,0,3:0:0:0:
69,312,928191,5,10,0:2:0:0:
69,312,928346,1,0,3:0:0:0:
336,258,928501,5,10,0:2:0:0:
336,258,928655,1,0,3:0:0:0:
132,118,928810,5,10,0:2:0:0:
222,311,928965,1,0,3:0:0:0:
119,140,929119,1,10,0:2:0:0:
207,329,929274,1,0,3:0:0:0:
420,161,929429,5,10,0:2:0:0:
330,354,929583,1,0,3:0:0:0:
433,183,929738,1,12,0:1:0:0:
345,372,929892,1,0,0:0:0:0:
192,212,930047,6,0,L|305:199,1,93.5000028533936,4|0,0:0|3:0,0:0:0:0:
483,86,930356,2,0,L|370:73,1,93.5000028533936,10|0,0:2|3:0,0:0:0:0:
160,300,930666,6,0,L|273:287,1,93.5000028533936,10|0,0:2|3:0,0:0:0:0:
451,174,930975,2,0,L|338:161,1,93.5000028533936,10|0,0:2|3:0,0:0:0:0:
81,74,931284,5,10,0:2:0:0:
257,72,931439,1,0,3:0:0:0:
45,182,931593,5,10,0:2:0:0:
278,84,931748,1,0,3:0:0:0:
104,311,931903,5,10,0:2:0:0:
325,283,932057,1,0,3:0:0:0:
139,217,932212,5,10,0:2:0:0:
338,302,932367,1,0,0:0:0:0:
219,153,932521,6,0,L|233:245,1,93.5000028533936,10|0,0:2|3:0,0:0:0:0:
436,372,932831,2,0,L|450:279,1,93.5000028533936,10|0,0:2|3:0,0:0:0:0:
124,124,933140,6,0,L|138:216,1,93.5000028533936,10|0,0:2|3:0,0:0:0:0:
361,328,933449,2,0,L|375:235,1,93.5000028533936,10|0,0:2|3:0,0:0:0:0:
457,61,933758,5,8,3:0:0:0:
457,61,933836,1,8,3:0:0:0:
457,61,933913,1,8,3:0:0:0:
232,125,934068,1,2,0:0:0:0:
486,189,934222,5,8,0:0:0:0:
486,189,934300,1,2,0:3:0:0:
486,189,934377,1,8,0:3:0:0:
378,0,934532,1,8,0:0:0:0:
303,206,934686,1,8,0:1:0:0:
264,231,934764,1,8,0:1:0:0:
217,235,934841,1,8,0:1:0:0:
174,219,934918,1,8,0:1:0:0:
143,186,934996,6,0,L|124:92,1,93.5000028533936,4|0,0:0|0:0,0:0:0:0:
29,263,935305,2,0,L|47:354,1,93.5000028533936,8|0,0:0|3:0,0:0:0:0:
369,186,935614,6,0,L|388:92,1,93.5000028533936,8|0,0:0|3:0,0:0:0:0:
483,263,935923,2,0,L|464:354,1,93.5000028533936,8|0,0:0|3:0,0:0:0:0:
154,297,936233,5,8,0:2:0:0:
355,268,936387,1,0,3:0:0:0:
115,175,936542,5,8,0:2:0:0:
369,186,936697,1,0,3:0:0:0:
224,373,936851,5,8,0:2:0:0:
171,107,937006,1,0,3:0:0:0:
289,324,937160,5,8,0:2:0:0:
301,57,937315,1,0,3:0:0:0:
154,297,937470,6,0,P|89:300|50:279,1,93.5000028533936,8|0,0:2|3:0,0:0:0:0:
250,181,937779,2,0,L|356:209,1,93.5000028533936,8|0,0:2|3:0,0:0:0:0:
90,354,938088,2,0,P|41:310|29:267,1,93.5000028533936,8|0,0:2|3:0,0:0:0:0:
272,168,938398,2,0,L|378:196,1,93.5000028533936,8|0,0:2|3:0,0:0:0:0:
144,184,938707,5,8,0:2:0:0:
144,184,938862,1,0,3:0:0:0:
332,93,939016,5,8,0:2:0:0:
332,93,939171,1,0,3:0:0:0:
75,114,939325,5,12,0:2:0:0:
75,114,939480,1,0,3:0:0:0:
318,3,939635,5,12,0:0:0:0:
318,3,939789,1,0,3:0:0:0:
286,180,939944,6,0,L|269:284,1,93.5000028533936,4|0,0:1|0:0,0:0:0:0:
455,227,940253,2,0,B|407:212|407:212|362:232,1,93.5000028533936,8|0,0:0|3:0,0:0:0:0:
193,349,940563,6,0,L|178:257,1,93.5000028533936,8|0,0:0|3:0,0:0:0:0:
7,313,940872,2,0,B|55:328|55:328|100:308,1,93.5000028533936,8|0,0:0|3:0,0:0:0:0:
163,103,941181,5,8,0:2:0:0:
51,232,941336,1,0,3:0:0:0:
41,45,941490,5,8,0:2:0:0:
200,221,941645,1,0,3:0:0:0:
236,18,941800,5,8,0:0:0:0:
86,143,941954,1,2,0:3:0:0:
86,143,942032,1,2,0:3:0:0:
86,143,942109,1,8,0:3:0:0:
277,135,942264,1,4,0:3:0:0:
147,360,942418,6,0,L|128:268,1,93.5000028533936,4|0,0:0|0:0,0:0:0:0:
390,299,942727,2,0,L|407:204,1,93.5000028533936,8|8,0:0|0:0,0:0:0:0:
447,36,943037,5,8,0:0:0:0:
277,135,943191,1,8,0:0:0:0:
487,164,943346,1,8,0:0:0:0:
487,164,943501,1,8,0:0:0:0:
324,73,943655,5,4,3:2:0:0:
397,261,943810,1,0,0:0:0:0:
233,21,943965,5,8,0:0:0:0:
191,254,944119,1,8,0:1:0:0:
380,156,944274,5,2,3:0:0:0:
135,150,944429,1,8,3:0:0:0:
135,150,944506,1,8,3:0:0:0:
135,150,944583,1,8,3:0:0:0:
349,32,944738,1,4,3:0:0:0:
289,344,944893,6,0,B|249:370|190:356|190:356|136:342|95:374|95:374|66:337|87:301|87:301|117:248|91:218|91:218|60:269|19:271|19:271|36:228|19:189|19:189|2:153|22:108|22:108|39:120|45:138|45:138,1,663,4|0,0:0|0:0,0:0:0:0:
256,192,951078,12,0,959738,0:0:0:0:
389,336,961485,6,0,P|385:279|369:251,1,63.7500024318696,6|8,3:2|0:0,0:0:0:0:
317,189,962264,1,8,0:0:0:0:
255,275,962654,1,8,0:0:0:0:
195,189,963043,1,8,0:0:0:0:
255,109,963433,1,8,0:0:0:0:
256,304,963822,6,0,P|300:321|377:287,1,127.500004863739,6|0,3:2|0:0,0:0:0:0:
256,304,965381,2,0,P|212:287|135:321,1,127.500004863739,2|0,0:0|0:0,0:0:0:0:
47,145,966939,2,0,P|85:210|133:223,1,127.500004863739,2|0,0:0|2:0,0:0:0:0:
231,124,968498,2,0,P|193:59|145:46,1,127.500004863739,2|0,0:0|2:0,0:0:0:0:
256,264,970056,6,0,B|293:277|324:258|324:258|355:241|396:260,1,127.500004863739,2|0,0:0|2:0,0:0:0:0:
256,264,971615,2,0,B|218:277|187:258|187:258|156:241|115:260,1,127.500004863739,2|0,2:0|2:0,2:0:0:0:
283,183,973173,2,0,P|324:164|413:176,1,127.500004863739,2|0,2:0|2:0,2:0:0:0:
472,223,974342,1,2,2:0:0:0:
507,130,974731,2,0,P|513:82|483:34,1,95.6250036478044,2|0,2:0|2:0,2:0:0:0:
409,22,975511,1,8,3:0:0:0:
387,34,975705,1,8,3:0:0:0:
300,91,975900,2,0,L|257:86,1,31.8750012159348,2|0,3:0|0:0,0:0:0:0:
180,49,976290,6,0,P|131:50|72:62,1,95.6250036478044,6|0,3:2|0:0,0:0:0:0:
16,151,977069,6,0,P|40:177|57:259,1,95.6250036478044,2|0,3:2|0:0,0:0:0:0:
58,328,977848,2,0,P|77:275|124:226,1,95.6250036478044,2|0,3:2|0:0,0:0:0:0:
200,192,978628,6,0,B|240:194|240:194|265:206|265:206|316:208,1,95.6250036478044,2|0,3:2|0:0,0:0:0:0:
359,158,979407,2,0,P|335:197|349:263,1,95.6250036478044,2|0,3:2|0:0,0:0:0:0:
373,351,980186,6,0,P|376:304|352:263,1,95.6250036478044,2|0,3:2|0:0,0:0:0:0:
275,303,980965,2,0,L|204:295,1,63.7500024318696,2|0,3:2|1:0,0:0:0:0:
88,209,981744,2,0,L|101:257,1,31.8750012159348,8|0,3:0|0:0,0:0:0:0:
152,140,982134,2,0,L|164:193,1,31.8750012159348,0|0,3:0|0:0,0:0:0:0:
78,93,982524,5,6,3:2:0:0:
379,169,983303,1,8,0:0:0:0:
275,303,983692,1,2,0:0:0:0:
268,286,983887,1,0,0:0:0:0:
262,266,984082,2,0,P|218:249|174:256,1,63.7500024318696,2|2,3:2|3:2,0:0:0:0:
109,192,984861,2,0,P|140:188|169:174,1,63.7500024318696,8|0,0:2|3:0,0:0:0:0:
281,69,985641,6,0,P|349:68|416:98,1,127.500004863739,6|8,3:2|0:0,0:0:0:0:
467,199,986809,1,2,0:0:0:0:
463,226,987004,1,2,0:0:0:0:
457,257,987199,6,0,P|406:236|342:249,1,95.6250036478044,2|0,3:2|0:0,0:0:0:0:
297,277,987978,2,0,P|263:295|214:290,1,63.7500024318696,10|0,0:0|3:0,0:0:0:0:
76,253,988757,5,14,0:0:0:0:
52,152,989147,1,8,0:0:0:0:
160,129,989537,1,8,0:0:0:0:
184,230,989926,1,8,0:0:0:0:
418,328,990316,5,10,0:0:0:0:
442,227,990705,1,8,0:0:0:0:
334,204,991095,1,8,0:0:0:0:
317,199,991290,1,0,3:0:0:0:
240,256,991485,1,2,3:0:0:0:
182,191,991679,1,0,3:0:0:0:
106,291,991874,6,0,P|19:294|10:208,1,191.250007295609,6|0,3:2|0:0,0:0:0:0:
86,143,993433,6,0,L|130:155,2,28.3333333333333,10|8|8,0:0|0:0|0:0,0:0:0:0:
197,237,993822,6,0,L|224:229,2,28.3333333333333,10|8|8,0:0|0:0|0:0,0:0:0:0:
322,125,994212,6,0,L|376:135,1,31.1666676177979,10|8,0:0|0:0,0:0:0:0:
422,196,994472,1,8,0:0:0:0:
293,312,994602,6,0,L|287:263,1,31.1666676177979,10|8,0:0|0:0,0:0:0:0:
233,149,994861,1,8,0:0:0:0:
135,318,994991,6,0,P|79:337|4:248,1,178.499994552612,6|0,3:2|0:0,0:0:0:0:
129,27,995770,2,0,P|140:78|144:151,1,118.999996368408,14|0,0:0|3:0,0:0:0:0:
91,246,996355,1,0,0:0:0:0:
321,140,996550,2,0,P|381:123|460:122,1,118.999996368408,6|0,3:2|0:0,0:0:0:0:
481,262,997134,1,2,0:0:0:0:
399,212,997329,1,10,0:0:0:0:
507,70,997524,2,0,P|524:110|484:194,1,118.999996368408,2|0,0:2|0:0,0:0:0:0:
232,52,998108,6,0,P|174:29|51:44,1,178.499994552612,6|0,3:2|0:0,0:0:0:0:
4,217,998887,2,0,P|54:192|137:176,1,118.999996368408,14|0,0:0|0:0,0:0:0:0:
257,218,999472,1,0,3:0:0:0:
115,374,999666,2,0,P|52:363|-9:319,1,118.999996368408,6|0,0:0|3:0,0:0:0:0:
122,278,1000251,1,0,0:0:0:0:
243,341,1000446,2,0,P|280:347|319:336,1,59.4999981842042,10|0,0:0|0:0,0:0:0:0:
383,225,1000835,2,0,P|351:240|326:275,1,59.4999981842042,2|0,3:2|0:0,0:0:0:0:
499,375,1001225,6,0,P|499:317|486:229,1,118.999996368408,6|2,3:2|0:0,0:0:0:0:
298,28,1002004,2,0,P|289:86|269:141,1,118.999996368408,10|2,0:0|0:0,0:0:0:0:
45,311,1002783,2,0,B|86:282|130:304|130:304|176:324|219:299,1,178.499994552612,2|0,3:2|0:0,0:0:0:0:
50,148,1003563,2,0,P|72:204|93:224,1,59.4999981842042,10|0,0:0|0:0,0:0:0:0:
152,45,1003952,2,0,P|92:51|67:66,1,59.4999981842042,2|0,0:0|0:0,0:0:0:0:
169,231,1004342,5,2,3:2:0:0:
376,53,1004731,1,2,0:0:0:0:
129,313,1005121,6,0,P|74:247|101:166,1,178.499994552612,10|0,0:2|0:2,0:2:0:0:
464,133,1005900,2,0,P|462:162|448:188,1,59.4999981842042,14|0,0:2|0:2,0:2:0:0:
219,73,1006290,5,8,0:2:0:0:
359,34,1006485,1,10,0:2:0:0:
299,224,1006679,5,8,0:2:0:0:
99,138,1006874,1,10,3:2:0:0:
371,132,1007069,5,8,3:2:0:0:
117,276,1007264,1,8,3:2:0:0:
431,377,1007459,6,0,P|461:317|450:193,1,178.499994552612,6|0,3:2|0:2,0:2:0:0:
252,94,1008238,2,0,P|258:146|281:217,1,118.999996368408,14|0,0:2|0:2,0:2:0:0:
358,297,1008822,1,0,3:2:0:0:
203,11,1009017,2,0,P|176:46|141:112,1,118.999996368408,6|0,3:2|3:2,0:2:0:0:
158,268,1009602,1,0,0:2:0:0:
277,209,1009796,1,8,0:2:0:0:
59,150,1009991,2,0,P|66:178|76:206,1,59.4999981842042,2|0,3:2|3:2,0:2:0:0:
158,268,1010381,1,2,0:2:0:0:
362,65,1010576,6,0,P|421:40|524:20,1,118.999996368408,6|0,3:2|3:2,0:2:0:0:
171,188,1011355,2,0,P|112:163|9:143,1,118.999996368408,14|0,0:2|3:2,0:2:0:0:
328,373,1012134,2,0,P|382:349|440:334,1,118.999996368408,6|0,3:2|3:2,0:2:0:0:
98,253,1012913,6,0,P|98:318|112:346,1,59.4999981842042,10|0,0:2|0:2,0:2:0:0:
274,189,1013303,2,0,P|228:234|218:264,1,59.4999981842042,2|0,3:2|0:2,0:2:0:0:
487,241,1013692,2,0,P|423:240|355:269,2,118.999996368408,6|2|14,3:2|0:2|0:2,0:2:0:0:
256,353,1014861,1,2,0:2:0:0:
109,232,1015251,2,0,P|108:176|123:99,1,118.999996368408,6|0,3:2|3:2,0:2:0:0:
341,209,1016030,6,0,P|273:212|226:179,1,118.999996368408,10|2,0:2|3:2,0:2:0:0:
451,41,1016809,2,0,P|465:103|476:176,1,101.999996887207,6|0,3:2|3:2,0:2:0:0:
488,224,1017394,1,2,0:2:0:0:
335,278,1017588,2,0,P|347:223|357:160,1,85,14|0,0:2|3:2,0:2:0:0:
353,102,1018173,1,0,3:2:0:0:
204,106,1018368,2,0,P|171:113|148:120,1,42.5,14|0,0:2|0:2,0:2:0:0:
43,280,1018757,5,0,3:2:0:0:
305,178,1018952,1,8,0:2:0:0:
167,333,1019147,5,8,0:2:0:0:
31,133,1019342,1,8,3:2:0:0:
301,261,1019537,5,8,3:2:0:0:
68,374,1019731,1,8,3:2:0:0:
418,277,1019926,6,0,P|323:259|280:266,1,118.999996368408,6|0,3:2|3:2,0:2:0:0:
201,290,1020511,1,0,3:2:0:0:
361,162,1020705,2,0,P|264:169|224:187,1,118.999996368408,14|0,0:2|3:2,0:2:0:0:
155,221,1021290,1,0,3:2:0:0:
290,31,1021485,2,0,P|198:62|164:90,1,118.999996368408,6|0,3:2|3:2,0:2:0:0:
100,146,1022069,1,0,3:2:0:0:
273,148,1022264,1,10,0:2:0:0:
14,100,1022459,2,0,P|7:134|21:181,1,59.4999981842042,2|0,3:2|3:2,3:2:0:0:
93,35,1022848,1,0,3:2:0:0:
202,289,1023043,6,0,P|259:272|318:274,1,118.999996368408,6|0,3:2|3:2,0:2:0:0:
384,375,1023628,1,0,3:2:0:0:
125,221,1023822,2,0,P|175:190|233:177,1,118.999996368408,14|0,0:2|3:2,0:2:0:0:
319,274,1024407,1,0,3:2:0:0:
59,159,1024601,2,0,P|100:116|152:87,1,118.999996368408,6|0,3:2|0:2,0:2:0:0:
233,177,1025186,1,0,3:2:0:0:
440,41,1025381,6,0,P|386:24|341:29,1,59.4999981842042,10|0,0:2|0:2,0:2:0:0:
324,185,1025770,2,0,P|348:167|375:157,1,59.4999981842042,2|0,3:2|0:2,0:2:0:0:
291,341,1026160,6,0,P|231:319|166:308,2,118.999996368408,6|2|10,3:2|0:2|0:2,0:2:0:0:
428,308,1027329,1,2,0:2:0:0:
295,116,1027718,2,0,P|273:176|262:241,1,118.999996368408,2|0,3:2|3:2,0:2:0:0:
485,101,1028498,6,0,P|479:71|467:44,1,59.4999981842042,10|0,0:2|0:2,0:2:0:0:
384,267,1028887,2,0,P|434:240|462:205,1,59.4999981842042,2|0,3:2|0:2,0:2:0:0:
295,116,1029277,1,12,0:2:0:0:
236,328,1029667,1,0,3:2:0:0:
60,139,1030056,6,0,P|66:80|80:18,1,118.999996368408,10|0,0:2|3:2,0:2:0:0:
210,157,1030641,1,0,3:2:0:0:
78,298,1030835,2,0,P|48:296|20:287,1,59.4999981842042,2|8,3:2|3:2,0:2:0:0:
124,209,1031225,1,14,3:2:0:0:
193,311,1031420,5,2,0:2:0:0:
424,346,1031615,1,10,3:2:0:0:
277,217,1031809,5,14,0:2:0:0:
78,298,1032004,1,0,3:2:0:0:
186,141,1032199,5,2,3:2:0:0:
390,218,1032394,2,0,P|446:210|512:101,1,178.499994552612,6|0,3:2|0:2,0:2:0:0:
87,47,1033173,2,0,P|75:119|151:206,1,178.499994552612,14|8,0:2|0:2,0:2:0:0:
323,6,1033952,2,0,P|305:64|287:128,1,118.999996368408,14|0,0:2|3:2,0:2:0:0:
280,256,1034537,1,0,0:2:0:0:
407,139,1034731,1,10,0:2:0:0:
302,341,1034926,2,0,P|273:347|201:296,1,118.999996368408,2|0,0:2|0:2,0:2:0:0:
61,34,1035511,6,0,P|70:88|71:152,1,118.999996368408,6|8,3:2|0:2,0:2:0:0:
21,293,1036030,1,8,0:2:0:0:
25,317,1036160,1,8,0:2:0:0:
36,343,1036290,2,0,P|94:320|171:317,1,118.999996368408,6|8,3:2|0:2,0:2:0:0:
283,355,1036809,1,8,0:2:0:0:
301,366,1036939,1,8,0:2:0:0:
322,373,1037069,2,0,P|381:367|435:344,1,118.999996368408,6|8,3:2|0:2,0:2:0:0:
335,147,1037848,6,0,P|328:210|345:263,1,118.999996368408,8|2,0:0|3:2,0:0:0:0:
420,102,1038628,2,0,P|378:62|264:88,1,178.499994552612,6|0,3:2|0:0,0:0:0:0:
173,258,1039407,6,0,P|91:265|30:220,1,118.999996368408,10|0,0:0|0:0,0:0:0:0:
0,92,1040186,2,0,P|55:72|113:84,1,118.999996368408,2|0,3:2|3:0,0:0:0:0:
227,165,1040965,1,10,0:0:0:0:
63,248,1041355,1,2,3:2:0:0:
255,46,1041717,5,6,3:2:0:0:
255,64,1042528,1,6,3:2:0:0:
255,78,1043307,2,0,P|287:92|333:95,1,63.7500024318696,6|8,3:2|3:0,0:0:0:0:
433,26,1044096,2,0,L|447:79,1,31.8750012159348,2|0,0:0|3:0,0:0:0:0:
451,164,1044491,1,0,3:0:0:0:
325,338,1044865,6,0,P|282:313|199:321,1,127.500004863739,2|2,0:0|0:0,0:0:0:0:
101,354,1045985,1,2,0:0:0:0:
69,254,1046385,2,0,P|55:208|66:154,1,101.999996887207,2|2,0:0|0:0,0:0:0:0:
139,100,1047585,1,2,0:0:0:0:
237,162,1047960,6,0,L|308:156,1,50.9999984436036,2|0,0:0|0:0,0:0:0:0:
359,99,1048544,1,2,0:0:0:0:
421,169,1048782,2,0,P|432:207|430:231,1,50.9999984436036,2|2,0:0|0:0,0:0:0:0:
384,288,1049643,6,0,P|343:277|238:320,1,152.999995330811,2|0,0:0|0:0,0:0:0:0:
41,24,1052740,6,0,P|74:40|116:41,1,76.4999976654053,2|0,0:0|0:0,0:0:0:0:
199,4,1053550,2,0,L|211:60,1,50.9999984436036,2|0,0:0|0:0,0:0:0:0:
274,111,1054074,1,2,0:0:0:0:
270,133,1054317,2,0,L|251:263,1,127.5,2|0,0:0|0:0,0:0:0:0:
256,351,1055901,6,0,P|301:328|360:332,1,101.999996887207,2|2,0:0|0:0,0:0:0:0:
256,351,1057555,6,0,P|206:358|176:350,1,76.4999976654053,2|0,0:0|0:0,0:0:0:0:
107,296,1058388,5,2,0:0:0:0:
75,205,1058805,1,2,0:0:0:0:
252,245,1059221,5,2,0:0:0:0:
241,283,1059649,1,2,0:0:0:0:
355,218,1060058,5,2,0:0:0:0:
349,195,1060504,1,2,0:0:0:0:
255,88,1060950,6,0,P|202:78|174:84,1,76.4999976654053,2|0,0:0|0:0,0:0:0:0:
51,131,1061859,1,2,0:0:0:0:
202,199,1062342,1,2,0:0:0:0:
61,289,1062865,5,2,0:0:0:0:
255,351,1063955,1,2,0:2:0:0:
451,289,1065211,1,2,0:0:0:0:
256,192,1065325,12,2,1072904,0:0:0:0:
