osu file format v14

[General]
AudioFilename: audio.mp3
AudioLeadIn: 0
PreviewTime: 46871
Countdown: 0
SampleSet: Soft
StackLeniency: 0.7
Mode: 2
LetterboxInBreaks: 0
WidescreenStoryboard: 1

[Editor]
DistanceSpacing: 1.1
BeatDivisor: 4
GridSize: 32
TimelineZoom: 2

[Metadata]
Title:START
TitleUnicode:START
Artist:Ito Kashitaro
ArtistUnicode:伊東歌詞太郎
Creator:-Hex-
Version:Salad
Source:
Tags:イトヲカシ LeftymonsterP Miyata Ryo itowokashi Onkochishin rock japanese Milan- rew0825
BeatmapID:2827962
BeatmapSetID:1328366

[Difficulty]
HPDrainRate:3
CircleSize:3
OverallDifficulty:7
ApproachRate:7
SliderMultiplier:1.3
SliderTickRate:1

[Events]
//Background and Video events
0,0,"bg.jpg",0,0
//Break Periods
//Storyboard Layer 0 (Background)
//Storyboard Layer 1 (Fail)
//Storyboard Layer 2 (Pass)
//Storyboard Layer 3 (Foreground)
//Storyboard Layer 4 (Overlay)
//Storyboard Sound Samples

[TimingPoints]
1946,300,4,2,1,55,1,0
9146,-100,4,2,1,60,0,0
18746,-100,4,2,1,40,0,0
28046,-83.3333333333333,4,2,1,40,0,0
28346,-100,4,2,1,50,0,0
37946,-100,4,2,1,40,0,0
45146,-100,4,2,1,50,0,0
46946,-100,4,2,1,35,0,0
47546,-90.9090909090909,4,2,1,60,0,1
47846,-90.9090909090909,4,2,1,60,0,1
53546,-90.9090909090909,4,2,1,60,0,1
53846,-90.9090909090909,4,2,1,60,0,1
54446,-90.9090909090909,4,2,1,60,0,1
55046,-90.9090909090909,4,2,1,60,0,1
55646,-90.9090909090909,4,2,1,60,0,1
56246,-90.9090909090909,4,2,1,60,0,1
56546,-90.9090909090909,4,2,1,60,0,1
56846,-90.9090909090909,4,2,1,60,0,0
57146,-90.9090909090909,4,2,1,60,0,1
61946,-90.9090909090909,4,2,1,60,0,1
63146,-100,4,2,1,60,0,0
64346,-100,4,2,1,60,0,0
73946,-100,4,2,1,40,0,0
83246,-100,4,2,1,40,0,0
83546,-100,4,2,1,50,0,0
93146,-100,4,2,1,40,0,0
101246,-100,4,2,1,50,0,0
101546,-100,4,2,1,50,0,0
101846,-100,4,2,1,50,0,0
102146,-100,4,2,1,40,0,0
102746,-90.9090909090909,4,2,1,60,0,1
112046,-90.9090909090909,4,2,1,60,0,0
112346,-90.9090909090909,4,2,1,60,0,1
118346,-100,4,2,1,60,0,0
118946,-100,4,2,1,40,0,0
119546,-100,4,2,1,40,0,0
126896,-100,4,2,1,50,0,0
129146,-100,4,2,1,40,0,0
138746,-100,4,2,1,50,0,0
138821,-100,4,2,1,30,0,0
139946,-100,4,2,1,50,0,0
140021,-100,4,2,1,30,0,0
141146,-100,4,2,1,50,0,0
141221,-100,4,2,1,30,0,0
142346,-100,4,2,1,50,0,0
142421,-100,4,2,1,30,0,0
143546,-100,4,2,1,50,0,0
143846,-100,4,2,1,50,0,0
147596,-100,4,2,1,35,0,0
148346,-90.9090909090909,4,2,1,60,0,1
157946,-90.9090909090909,4,2,1,60,0,0
160046,-90.9090909090909,4,2,1,60,0,0
160346,-90.9090909090909,4,2,1,52,0,0
162446,-90.9090909090909,4,2,1,52,0,0
162746,-90.9090909090909,4,2,1,52,0,0
165446,-90.9090909090909,4,2,1,52,0,0
166046,-90.9090909090909,4,2,1,52,0,0
166646,-90.9090909090909,4,2,1,52,0,0
167546,-90.9090909090909,4,2,1,52,0,0
172646,-100,4,2,1,40,0,0
173246,-100,4,2,1,40,0,0
174746,-100,4,2,1,60,0,0

[Colours]
Combo1 : 153,81,86
Combo2 : 216,112,119
Combo3 : 252,202,141

[HitObjects]
90,255,6746,5,4,0:0:0:0:
361,103,7946,1,4,0:3:0:0:
50,312,9146,6,0,P|23:272|67:207,1,130,4|8,0:0|0:0,0:0:0:0:
127,205,9596,1,0,0:0:0:0:
256,88,9896,1,0,0:0:0:0:
321,88,10046,1,8,0:0:0:0:
256,88,10196,1,2,0:0:0:0:
122,253,10496,5,0,0:0:0:0:
186,249,10646,2,0,P|235:260|303:313,2,130,10|2|10,0:0|0:0|0:0,0:0:0:0:
420,196,11546,6,0,P|452:152|402:100,1,130,4|8,0:0|0:0,0:0:0:0:
343,95,11996,1,0,0:0:0:0:
200,84,12296,1,0,0:0:0:0:
194,148,12446,1,8,0:0:0:0:
352,216,12596,5,4,0:0:0:0:
232,322,12896,1,0,0:0:0:0:
172,257,13046,2,0,L|38:218,2,130,8|8|8,0:0|0:3|0:0,0:0:0:0:
412,168,13946,6,0,P|422:100|367:71,1,130,4|8,0:0|0:0,0:0:0:0:
311,51,14396,1,0,0:0:0:0:
180,96,14696,1,0,0:0:0:0:
115,96,14846,1,8,0:0:0:0:
180,96,14996,1,2,0:0:0:0:
313,350,15296,5,0,0:0:0:0:
379,283,15446,2,0,L|254:233,2,130,10|2|10,0:0|0:0|0:0,0:0:0:0:
144,239,16346,6,0,P|130:173|187:141,1,130,4|8,0:0|0:0,0:0:0:0:
241,127,16796,1,0,0:0:0:0:
372,20,17096,1,0,0:0:0:0:
307,22,17246,1,8,0:0:0:0:
157,22,17396,5,4,0:0:0:0:
268,118,17696,1,8,0:0:0:0:
332,119,17846,1,8,0:0:0:0:
195,243,18146,2,0,L|35:243,1,130,8|4,0:0|0:3,0:0:0:0:
305,330,18746,6,0,L|415:256,2,130,4|0|0,0:0|0:0|0:0,0:0:0:0:
187,256,19646,1,0,0:0:0:0:
306,255,19946,2,0,L|315:108,1,130,0|0,0:0|0:0,0:0:0:0:
183,137,20546,2,0,L|178:-8,1,130,0|0,0:0|0:0,0:0:0:0:
426,38,21146,6,0,L|302:133,2,130,2|0|0,0:0|0:0|0:0,0:0:0:0:
307,215,22046,1,0,0:0:0:0:
191,281,22346,2,0,L|305:360,1,130,0|0,0:0|0:0,0:0:0:0:
423,274,22946,2,0,L|441:132,1,130,0|0,0:0|0:0,0:0:0:0:
195,71,23546,6,0,L|58:150,2,130,4|0|0,0:0|0:0|0:0,0:0:0:0:
311,144,24446,1,0,0:0:0:0:
194,310,24746,6,0,L|333:381,1,130,0|0,0:0|0:0,0:0:0:0:
180,232,25346,2,0,L|43:153,1,130,0|0,0:0|0:0,0:0:0:0:
316,197,25946,6,0,P|386:165|286:59,1,260,2|0,0:0|0:0,0:0:0:0:
189,56,26846,1,0,0:0:0:0:
424,97,27146,5,0,0:0:0:0:
488,96,27296,1,2,0:3:0:0:
424,97,27446,1,2,0:3:0:0:
300,225,27746,1,10,0:0:0:0:
449,223,28046,1,2,0:0:0:0:
215,335,28346,6,0,L|79:303,2,130,4|8|0,0:0|0:0|0:0,0:0:0:0:
281,331,29096,1,0,0:0:0:0:
151,244,29396,2,0,L|4:230,1,130,2|0,0:0|0:0,0:0:0:0:
151,118,29996,1,2,0:0:0:0:
218,50,30146,2,0,L|75:40,1,130,0|8,0:0|0:0,0:0:0:0:
315,167,30746,6,0,P|378:185|445:234,2,130,2|8|0,0:0|0:0|0:0,0:0:0:0:
250,169,31496,1,0,0:0:0:0:
378,285,31796,6,0,L|227:262,1,130,2|0,0:0|0:0,0:0:0:0:
120,226,32396,1,2,0:0:0:0:
54,222,32546,2,0,P|58:165|118:134,1,130,0|8,0:0|0:0,0:0:0:0:
340,318,33146,6,0,L|200:333,2,130,4|8|0,0:0|0:0|0:0,0:0:0:0:
406,311,33896,1,0,0:0:0:0:
264,201,34196,1,0,0:0:0:0:
420,204,34346,6,0,P|447:174|404:101,1,130,4|8,0:0|0:0,0:0:0:0:
346,103,34796,1,0,0:0:0:0:
475,21,35096,1,0,0:0:0:0:
410,22,35246,1,8,0:0:0:0:
176,135,35546,6,0,P|84:206|179:266,1,260,4|0,0:0|0:0,0:0:0:0:
52,346,36446,1,8,0:0:0:0:
289,351,36746,6,0,P|329:316|285:262,1,130,4|8,0:0|0:0,0:0:0:0:
167,186,37346,1,8,0:0:0:0:
290,42,37646,1,4,0:3:0:0:
55,56,37946,6,0,L|32:185,1,130,4|0,0:0|0:0,0:0:0:0:
149,265,38546,1,0,0:0:0:0:
213,270,38696,1,0,0:0:0:0:
278,276,38846,1,0,0:0:0:0:
396,277,39146,6,0,L|408:136,1,130,2|0,0:0|0:0,0:0:0:0:
291,68,39746,2,0,L|431:64,1,130,2|2,0:0|0:0,0:0:0:0:
197,106,40346,6,0,P|145:111|47:285,1,260,2|0,0:0|0:0,0:0:0:0:
162,244,41246,1,0,0:0:0:0:
382,305,41546,6,0,P|420:289|391:93,1,260,2|2,0:0|0:0,0:0:0:0:
313,95,42446,1,0,0:0:0:0:
85,223,42746,6,0,L|222:220,1,130,4|0,0:0|0:0,0:0:0:0:
346,217,43346,1,0,0:0:0:0:
353,152,43496,1,0,0:0:0:0:
361,87,43646,1,0,0:0:0:0:
128,52,43946,6,0,P|87:71|142:129,1,130,2|0,0:0|0:0,0:0:0:0:
247,277,44546,2,0,L|384:283,1,130,2|2,0:0|0:0,0:0:0:0:
143,354,45146,5,6,0:0:0:0:
223,252,45446,1,2,0:0:0:0:
333,183,45746,1,2,0:0:0:0:
459,153,46046,1,2,0:0:0:0:
214,119,46346,5,8,0:0:0:0:
149,118,46496,1,8,0:0:0:0:
84,118,46646,1,8,0:0:0:0:
400,307,47546,6,0,P|439:258|436:178,1,143.000004364014,4|8,0:0|0:0,0:0:0:0:
307,105,48146,2,0,L|461:57,1,143.000004364014,0|8,0:0|0:0,0:0:0:0:
212,247,48746,5,0,0:0:0:0:
355,143,49046,2,0,P|403:131|466:48,2,143.000004364014,8|0|8,0:0|0:0|0:0,0:0:0:0:
118,330,49946,6,0,P|77:309|60:210,1,143.000004364014,4|8,0:0|0:0,0:0:0:0:
187,126,50546,2,0,L|341:68,1,143.000004364014,0|8,0:0|0:0,0:0:0:0:
86,43,51146,5,2,0:0:0:0:
76,113,51296,1,2,0:0:0:0:
66,184,51446,1,10,0:0:0:0:
195,288,51746,1,2,0:0:0:0:
124,274,51896,1,2,0:0:0:0:
54,261,52046,1,10,0:0:0:0:
282,165,52346,6,0,P|327:148|398:83,2,143.000004364014,4|8|0,0:0|0:0|0:0,0:0:0:0:
154,162,53246,1,8,0:0:0:0:
370,316,53546,6,0,P|410:302|492:229,1,143.000004364014,4|8,0:0|0:0,0:0:0:0:
357,127,54146,1,0,0:0:0:0:
486,125,54446,1,8,0:0:0:0:
258,247,54746,5,2,0:0:0:0:
401,247,55046,1,14,0:0:0:0:
401,247,55346,1,2,0:0:0:0:
258,247,55646,1,14,0:0:0:0:
258,247,55946,5,10,0:0:0:0:
114,248,56246,1,12,0:0:0:0:
258,247,56546,2,0,L|259:95,1,143.000004364014,2|8,0:0|0:0,0:0:0:0:
15,32,57146,6,0,L|161:91,1,143.000004364014,4|8,0:0|0:0,0:0:0:0:
276,145,57746,2,0,L|149:229,1,143.000004364014,0|8,0:0|0:0,0:0:0:0:
386,349,58346,5,0,0:0:0:0:
258,277,58646,2,0,P|191:253|148:185,2,143.000004364014,8|0|8,0:0|0:0|0:0,0:0:0:0:
488,44,59546,6,0,L|335:109,1,143.000004364014,4|8,0:0|0:0,0:0:0:0:
227,183,60146,2,0,L|368:259,1,143.000004364014,0|8,0:0|0:0,0:0:0:0:
125,342,60746,5,0,0:0:0:0:
252,270,61046,2,0,P|294:233|234:185,1,143.000004364014,8|0,0:0|0:0,0:0:0:0:
116,166,61646,1,8,0:0:0:0:
372,48,61946,5,4,0:0:0:0:
499,147,62246,2,0,L|356:206,2,143.000004364014,8|8|8,0:0|0:0|0:3,0:0:0:0:
253,331,63146,1,4,0:0:0:0:
46,282,64346,6,0,P|78:248|170:199,1,130,4|8,0:0|0:0,0:0:0:0:
215,185,64796,1,0,0:0:0:0:
346,192,65096,1,0,0:0:0:0:
355,127,65246,1,8,0:0:0:0:
291,98,65396,1,2,0:0:0:0:
419,27,65696,5,0,0:0:0:0:
484,91,65846,2,0,P|497:152|344:241,1,260,10|10,0:0|0:0,0:0:0:0:
120,345,66746,6,0,L|276:329,1,130,4|8,0:0|0:0,0:0:0:0:
185,264,67196,1,0,0:0:0:0:
54,267,67496,1,0,0:0:0:0:
45,202,67646,1,8,0:0:0:0:
201,94,67796,5,4,0:0:0:0:
309,30,68096,1,0,0:0:0:0:
245,54,68246,2,0,P|172:71|112:126,2,130,8|4|8,0:0|0:3|0:0,0:0:0:0:
481,92,69146,6,0,P|480:132|397:187,1,130,4|8,0:0|0:0,0:0:0:0:
351,197,69596,1,0,0:0:0:0:
221,349,69896,1,0,0:0:0:0:
221,284,70046,1,8,0:0:0:0:
283,251,70196,1,2,0:0:0:0:
158,146,70496,5,0,0:0:0:0:
96,149,70646,2,0,P|54:158|-1:227,2,130,10|2|10,0:0|0:0|0:0,0:0:0:0:
331,30,71546,6,0,L|182:38,1,130,4|8,0:0|0:0,0:0:0:0:
136,32,71996,1,0,0:0:0:0:
239,146,72296,1,0,0:0:0:0:
304,146,72446,1,8,0:0:0:0:
461,142,72596,5,4,0:0:0:0:
356,245,72896,1,0,0:0:0:0:
291,245,73046,1,8,0:0:0:0:
422,350,73346,2,0,P|456:323|420:246,1,130,8|4,0:0|0:3,0:0:0:0:
183,133,73946,6,0,P|148:158|177:238,1,130,4|8,0:0|0:0,0:0:0:0:
280,317,74546,1,0,0:0:0:0:
344,319,74696,1,0,0:0:0:0:
409,321,74846,1,8,0:0:0:0:
277,216,75146,6,0,L|131:192,1,130,0|8,0:0|0:0,0:0:0:0:
280,102,75746,2,0,L|437:84,1,130,0|8,0:0|0:0,0:0:0:0:
175,265,76346,6,0,P|150:228|208:175,1,130,2|8,0:0|0:0,0:0:0:0:
317,78,76946,1,0,0:0:0:0:
252,74,77096,1,0,0:0:0:0:
187,71,77246,1,8,0:0:0:0:
60,105,77546,6,0,L|50:237,1,130,0|8,0:0|0:0,0:0:0:0:
180,313,78146,2,0,L|38:314,1,130,0|8,0:0|0:0,0:0:0:0:
285,214,78746,6,0,L|419:215,1,130,2|8,0:0|0:0,0:0:0:0:
286,118,79346,1,0,0:0:0:0:
221,118,79496,1,0,0:0:0:0:
286,118,79646,1,8,0:0:0:0:
418,25,79946,6,0,P|408:68|331:109,1,130,0|8,0:0|0:0,0:0:0:0:
208,221,80546,2,0,L|350:244,1,130,0|8,0:0|0:0,0:0:0:0:
103,345,81146,6,0,P|21:279|136:202,1,260,2|0,0:0|0:0,0:0:0:0:
179,188,81896,1,0,0:0:0:0:
250,191,82046,1,8,0:0:0:0:
119,16,82346,6,0,P|66:23|23:110,1,130,2|10,0:0|0:0,0:0:0:0:
153,251,82946,1,8,0:3:0:0:
88,251,83096,1,4,0:3:0:0:
23,252,83246,1,10,0:0:0:0:
258,318,83546,6,0,L|406:289,2,130,4|8|0,0:0|0:0|0:0,0:0:0:0:
193,321,84296,1,0,0:0:0:0:
323,225,84596,6,0,P|361:187|321:131,1,130,2|0,0:0|0:0,0:0:0:0:
192,56,85196,1,2,0:0:0:0:
258,51,85346,2,0,L|402:52,1,130,0|8,0:0|0:0,0:0:0:0:
153,242,85946,6,0,P|228:254|290:299,2,130,2|8|0,0:0|0:0|0:0,0:0:0:0:
218,174,86696,1,0,0:0:0:0:
87,349,86996,6,0,L|231:342,1,130,2|0,0:0|0:0,0:0:0:0:
346,306,87596,1,2,0:0:0:0:
411,279,87746,2,0,P|409:224|350:171,1,130,0|8,0:0|0:0,0:0:0:0:
122,86,88346,6,0,L|262:142,2,130,6|8|0,0:0|0:0|0:0,0:0:0:0:
187,33,89096,1,0,0:0:0:0:
278,208,89396,1,0,0:0:0:0:
121,213,89546,6,0,P|94:182|136:111,1,130,4|8,0:0|0:0,0:0:0:0:
196,104,89996,1,0,0:0:0:0:
66,347,90296,2,0,L|141:347,1,65,0|8,0:0|0:0,0:0:0:0:
358,122,90746,6,0,P|444:167|351:262,1,260,4|0,0:0|0:0,0:0:0:0:
232,271,91646,1,8,0:0:0:0:
467,89,91946,6,0,L|324:93,1,130,4|0,0:0|0:0,0:0:0:0:
466,184,92546,1,8,0:0:0:0:
467,248,92696,1,8,0:0:0:0:
469,313,92846,1,8,0:3:0:0:
221,233,93146,6,0,P|154:197|236:139,1,195,4|0,0:0|0:0,0:0:0:0:
282,126,93746,1,8,0:0:0:0:
406,298,94046,2,0,L|320:300,1,65,0|0,0:0|0:0,0:0:0:0:
277,231,94346,6,0,L|420:208,2,130,2|2|10,0:0|0:0|0:0,0:0:0:0:
406,58,95246,1,2,0:0:0:0:
161,77,95546,6,0,P|96:102|57:286,1,260,4|8,0:0|0:0,0:0:0:0:
153,304,96446,1,0,0:0:0:0:
386,278,96746,6,0,P|332:243|250:46,1,260,2|10,0:0|0:0,0:0:0:0:
379,30,97646,1,2,0:0:0:0:
139,225,97946,6,0,L|291:232,1,130,4|0,0:0|0:0,0:0:0:0:
210,154,98396,1,0,0:0:0:0:
149,154,98546,1,8,0:0:0:0:
276,41,98846,1,0,0:0:0:0:
37,95,99146,6,0,L|28:237,1,130,2|2,0:0|0:0,0:0:0:0:
156,328,99746,1,14,0:0:0:0:
91,328,99896,1,0,0:0:0:0:
26,328,100046,1,8,0:0:0:0:
257,245,100346,6,0,L|401:245,1,130,4|8,0:0|0:0,0:0:0:0:
258,134,100946,1,0,0:0:0:0:
388,132,101246,1,12,0:0:0:0:
154,343,101546,5,0,0:0:0:0:
152,278,101696,1,0,0:0:0:0:
151,213,101846,1,4,0:0:0:0:
372,50,102146,1,10,0:0:0:0:
500,44,102446,1,8,0:0:0:0:
242,284,102746,6,0,P|207:257|242:177,1,143.000004364014,4|8,0:0|0:0,0:0:0:0:
371,56,103346,2,0,L|220:96,1,143.000004364014,0|8,0:0|0:0,0:0:0:0:
462,276,103946,5,0,0:0:0:0:
346,207,104246,2,0,P|297:187|231:113,2,143.000004364014,8|0|8,0:0|0:0|0:0,0:0:0:0:
103,346,105146,6,0,L|258:283,1,143.000004364014,4|8,0:0|0:0,0:0:0:0:
106,236,105746,2,0,P|74:211|108:120,1,143.000004364014,0|8,0:0|0:0,0:0:0:0:
340,62,106346,5,2,0:0:0:0:
411,59,106496,1,2,0:0:0:0:
482,57,106646,1,10,0:0:0:0:
353,183,106946,2,0,L|354:280,1,71.5000021820069,2|2,0:0|0:0,0:0:0:0:
426,264,107246,1,10,0:0:0:0:
184,346,107546,6,0,P|136:339|69:276,2,143.000004364014,4|8|0,0:0|0:0|0:0,0:0:0:0:
312,347,108446,1,8,0:0:0:0:
68,250,108746,6,0,L|232:224,1,143.000004364014,4|8,0:0|0:0,0:0:0:0:
325,116,109346,1,0,0:0:0:0:
195,120,109646,1,8,0:0:0:0:
438,270,109946,5,2,0:0:0:0:
310,276,110246,1,10,0:0:0:0:
310,276,110546,1,2,0:0:0:0:
182,278,110846,1,10,0:0:0:0:
182,278,111146,5,2,0:0:0:0:
38,280,111446,1,8,0:0:0:0:
182,278,111746,2,0,L|25:278,1,143.000004364014,2|8,0:0|0:0,0:0:0:0:
276,143,112346,6,0,L|425:142,2,143.000004364014,4|8|0,0:0|0:0|0:0,0:0:0:0:
147,140,113246,1,8,0:0:0:0:
381,343,113546,5,0,0:0:0:0:
496,268,113846,2,0,L|322:238,2,143.000004364014,8|0|8,0:0|0:0|0:0,0:0:0:0:
253,199,114746,6,0,P|219:188|214:88,1,143.000004364014,4|8,0:0|0:0,0:0:0:0:
336,47,115346,2,0,L|483:45,1,143.000004364014,0|8,0:0|0:0,0:0:0:0:
247,342,115946,5,0,0:0:0:0:
118,274,116246,2,0,P|132:227|213:168,1,143.000004364014,8|0,0:0|0:0,0:0:0:0:
72,87,116846,1,8,0:0:0:0:
313,49,117146,5,4,0:0:0:0:
186,176,117446,2,0,P|244:191|327:245,2,143.000004364014,8|0|8,0:0|0:0|0:0,0:0:0:0:
418,324,118346,1,4,0:0:0:0:
115,323,119546,6,0,P|96:278|169:237,1,130,12|8,0:0|0:0,0:0:0:0:
216,219,119996,1,8,0:0:0:0:
406,108,121946,6,0,L|252:100,1,130,12|8,0:0|0:0,0:0:0:0:
343,41,122396,1,8,0:0:0:0:
90,341,124346,6,0,P|71:304|121:233,1,130,12|8,0:0|0:0,0:0:0:0:
179,212,124796,1,8,0:0:0:0:
352,310,126746,5,8,0:0:0:0:
175,309,126896,2,0,P|88:280|83:182,1,195,4|4,0:0|0:0,0:0:0:0:
209,176,127646,1,8,0:0:0:0:
384,172,127796,6,0,P|422:152|352:64,1,195,4|4,0:0|0:0,0:0:0:0:
226,48,128546,1,8,0:0:0:0:
217,112,128696,1,8,0:0:0:0:
209,176,128846,1,8,0:0:0:0:
455,308,129146,5,4,0:0:0:0:
221,317,129746,2,0,P|219:265|386:158,1,260,10|0,0:0|0:0,0:0:0:0:
305,89,130496,1,8,0:0:0:0:
110,292,130946,2,0,P|52:280|48:109,1,260,10|6,0:0|0:0,0:0:0:0:
106,89,131696,5,8,0:0:0:0:
304,53,132146,2,0,P|311:196|206:215,1,260,10|0,0:0|0:0,0:0:0:0:
152,219,132896,1,8,0:0:0:0:
329,349,133346,2,0,L|472:348,1,130,10|0,0:0|0:0,0:0:0:0:
219,288,133946,6,0,P|166:271|235:134,1,260,6|14,0:0|0:0,0:0:0:0:
342,154,134846,1,0,0:0:0:0:
409,149,134996,2,0,P|431:254|422:296,1,130,2|10,0:0|0:0,0:0:0:0:
297,351,135596,1,2,0:0:0:0:
229,293,135746,2,0,L|370:278,1,130,10|0,0:0|0:0,0:0:0:0:
133,287,136346,5,4,0:0:0:0:
147,157,136646,1,8,0:0:0:0:
162,28,136946,1,8,0:0:0:0:
294,26,137246,1,8,0:0:0:0:
59,292,137546,5,8,0:0:0:0:
188,289,137846,1,8,0:0:0:0:
318,286,138146,1,8,0:0:0:0:
188,113,138446,1,8,0:0:0:0:
427,109,138746,5,4,0:0:0:0:
266,279,139946,1,4,0:0:0:0:
24,190,141146,1,4,0:0:0:0:
256,294,142346,1,4,0:0:0:0:
483,192,143246,1,0,0:0:0:0:
249,203,143546,6,0,L|122:152,2,130,4|8|8,0:0|0:0|0:0,0:0:0:0:
379,310,144446,1,8,0:0:0:0:
315,325,144596,1,8,0:0:0:0:
153,330,144746,6,0,P|89:312|64:246,2,130,8|8|8,0:0|0:0|0:0,0:0:0:0:
23,202,145646,1,8,0:0:0:0:
87,205,145796,1,8,0:0:0:0:
265,192,145946,5,10,0:0:0:0:
314,331,148346,6,0,P|341:290|350:190,1,143.000004364014,4|8,0:0|0:0,0:0:0:0:
222,163,148946,2,0,L|68:133,1,143.000004364014,0|8,0:0|0:0,0:0:0:0:
319,38,149546,5,0,0:0:0:0:
184,128,149846,2,0,P|132:136|43:201,2,143.000004364014,8|0|8,0:0|0:0|0:0,0:0:0:0:
426,309,150746,6,0,L|270:280,1,143.000004364014,0|8,0:0|0:0,0:0:0:0:
414,211,151346,2,0,P|448:175|419:81,1,143.000004364014,0|8,0:0|0:0,0:0:0:0:
188,40,151946,5,0,0:0:0:0:
317,114,152246,2,0,P|334:156|320:265,1,143.000004364014,8|0,0:0|0:0,0:0:0:0:
199,262,152846,1,8,0:0:0:0:
437,346,153146,5,4,0:0:0:0:
310,283,153446,2,0,P|247:273|167:202,2,143.000004364014,8|0|8,0:0|0:0|0:0,0:0:0:0:
73,127,154346,6,0,L|235:97,1,143.000004364014,4|8,0:0|0:0,0:0:0:0:
345,91,154946,1,0,0:0:0:0:
349,162,155096,1,0,0:0:0:0:
353,233,155246,1,8,0:0:0:0:
121,343,155546,6,0,P|72:326|128:265,1,143.000004364014,4|8,0:0|0:0,0:0:0:0:
232,175,156146,1,0,0:0:0:0:
161,164,156296,1,0,0:0:0:0:
90,153,156446,1,8,0:0:0:0:
329,86,156746,6,0,L|502:79,1,143.000004364014,12|8,0:0|0:0,0:0:0:0:
357,227,157346,1,8,0:0:0:0:
291,199,157496,1,4,0:3:0:0:
349,273,157646,1,12,0:0:0:0:
411,307,157796,1,0,0:0:0:0:
260,160,157946,6,0,P|224:142|279:79,1,143.000004364014,4|10,0:0|0:0,0:0:0:0:
394,38,158546,2,0,L|238:35,1,143.000004364014,10|10,0:0|0:0,0:0:0:0:
10,200,159146,6,0,P|83:214|163:256,2,143.000004364014,10|10|10,0:0|0:0|0:0,0:0:0:0:
126,345,160046,1,12,0:0:0:0:
376,195,160346,6,0,L|208:175,1,143.000004364014,4|10,0:0|0:0,0:0:0:0:
103,48,160946,2,0,P|54:90|74:172,1,143.000004364014,10|10,0:0|0:0,0:0:0:0:
299,325,161546,6,0,L|131:286,2,143.000004364014,10|10|10,0:0|0:0|0:0,0:0:0:0:
435,159,162446,1,12,0:0:0:0:
192,80,162746,6,0,L|367:53,1,143.000004364014,4|10,0:0|0:0,0:0:0:0:
463,70,163346,2,0,P|490:128|469:215,1,143.000004364014,10|10,0:0|0:0,0:0:0:0:
240,336,163946,6,0,P|292:325|383:286,2,143.000004364014,10|10|10,0:0|0:0|0:0,0:0:0:0:
112,144,164846,1,10,0:0:0:0:
183,147,164996,1,8,0:0:0:0:
341,146,165146,5,10,0:0:0:0:
483,148,165446,1,12,0:0:0:0:
483,148,165746,1,2,0:0:0:0:
341,146,166046,1,12,0:0:0:0:
341,146,166346,5,2,0:0:0:0:
197,142,166646,1,12,0:0:0:0:
341,146,166946,2,0,L|186:146,1,143.000004364014,2|8,0:0|0:0,0:0:0:0:
261,225,167396,1,8,0:0:0:0:
413,226,167546,6,0,P|446:190|432:98,1,143.000004364014,4|10,0:0|0:0,0:0:0:0:
309,51,168146,2,0,L|466:40,1,143.000004364014,10|10,0:0|0:0,0:0:0:0:
207,267,168746,6,0,P|248:269|361:311,2,143.000004364014,10|10|10,0:0|0:0|0:0,0:0:0:0:
334,101,169646,1,12,0:0:0:0:
91,321,169946,6,0,L|247:304,1,143.000004364014,4|10,0:0|0:0,0:0:0:0:
109,234,170546,2,0,P|65:191|103:105,1,143.000004364014,10|10,0:0|0:0,0:0:0:0:
354,24,171146,5,10,0:0:0:0:
476,82,171446,1,10,0:0:0:0:
483,218,171746,1,10,0:0:0:0:
366,288,172046,1,10,0:0:0:0:
108,289,172346,5,4,0:0:0:0:
406,297,173546,1,4,0:3:0:0:
99,328,174746,6,0,P|67:280|108:216,1,130,4|8,0:0|0:0,0:0:0:0:
162,193,175196,1,0,0:0:0:0:
293,103,175496,1,0,0:0:0:0:
357,99,175646,1,8,0:0:0:0:
293,103,175796,1,2,0:0:0:0:
161,298,176096,5,0,0:0:0:0:
96,255,176246,2,0,P|56:243|1:172,2,130,10|2|10,0:0|0:0|0:0,0:0:0:0:
331,132,177146,6,0,L|475:133,1,130,4|8,0:0|0:0,0:0:0:0:
396,211,177596,1,0,0:0:0:0:
266,346,177896,1,0,0:0:0:0:
330,343,178046,1,8,0:0:0:0:
486,341,178196,5,4,0:0:0:0:
369,240,178496,1,0,0:0:0:0:
305,184,178646,2,0,P|231:167|180:110,2,130,8|4|8,0:0|0:3|0:0,0:0:0:0:
71,36,179546,6,0,P|36:70|74:134,1,130,4|8,0:0|0:0,0:0:0:0:
136,134,179996,1,0,0:0:0:0:
264,319,180296,1,0,0:0:0:0:
274,254,180446,1,8,0:0:0:0:
210,225,180596,1,2,0:0:0:0:
341,137,180896,5,0,0:0:0:0:
406,113,181046,2,0,P|456:106|530:61,2,130,10|2|10,0:0|0:0|0:0,0:0:0:0:
177,293,181946,6,0,L|333:302,1,130,4|8,0:0|0:0,0:0:0:0:
371,302,182396,1,0,0:0:0:0:
254,177,182696,1,0,0:0:0:0:
189,178,182846,1,8,0:0:0:0:
345,63,182996,5,4,0:0:0:0:
464,233,183296,1,0,0:0:0:0:
399,233,183446,1,8,0:0:0:0:
267,345,183746,1,8,0:0:0:0:
265,280,183896,1,8,0:0:0:0:
330,251,184046,1,8,0:0:0:0:
335,186,184196,1,8,0:0:0:0:
177,122,184346,6,0,L|35:117,1,130,4|8,0:0|0:0,0:0:0:0:
112,190,184796,1,0,0:0:0:0:
241,322,185096,1,0,0:0:0:0:
176,316,185246,1,8,0:0:0:0:
111,311,185396,1,2,0:0:0:0:
240,183,185696,5,0,0:0:0:0:
174,182,185846,2,0,P|155:133|190:56,1,130,10|2,0:0|0:0,0:0:0:0:
312,28,186446,1,10,0:0:0:0:
85,313,186746,6,0,L|229:295,1,130,4|8,0:0|0:0,0:0:0:0:
279,285,187196,1,0,0:0:0:0:
411,136,187496,1,0,0:0:0:0:
346,135,187646,1,8,0:0:0:0:
189,137,187796,5,4,0:0:0:0:
61,270,188096,1,0,0:0:0:0:
126,273,188246,2,0,P|174:288|243:351,2,130,8|4|8,0:0|0:3|0:0,0:0:0:0:
359,193,189146,6,0,P|402:162|345:107,1,130,4|8,0:0|0:0,0:0:0:0:
305,101,189596,1,0,0:0:0:0:
436,27,189896,1,0,0:0:0:0:
441,91,190046,1,8,0:0:0:0:
447,156,190196,1,2,0:0:0:0:
318,341,190496,5,0,0:0:0:0:
255,305,190646,2,0,P|194:286|126:230,2,130,10|2|10,0:0|0:0|0:0,0:0:0:0:
22,312,191546,6,0,P|18:254|86:218,1,130,4|8,0:0|0:0,0:0:0:0:
140,212,191996,1,4,0:0:0:0:
271,116,192296,1,0,0:0:0:0:
335,114,192446,1,8,0:0:0:0:
179,36,192596,5,4,0:0:0:0:
179,36,192896,1,0,0:0:0:0:
176,100,193046,1,8,0:0:0:0:
333,199,193196,1,4,0:0:0:0:
464,337,193496,1,0,0:0:0:0:
399,337,193646,1,8,0:0:0:0:
241,338,193796,5,4,0:0:0:0:
256,192,194096,12,4,196196,0:0:0:0:
