osu file format v14

[General]
AudioFilename: audio.mp3
AudioLeadIn: 0
PreviewTime: 46871
Countdown: 0
SampleSet: Soft
StackLeniency: 0.7
Mode: 2
LetterboxInBreaks: 0
WidescreenStoryboard: 0

[Editor]
DistanceSpacing: 1.1
BeatDivisor: 4
GridSize: 32
TimelineZoom: 2

[Metadata]
Title:START
TitleUnicode:START
Artist:Ito Kashitaro
ArtistUnicode:伊東歌詞太郎
Creator:-Hex-
Version:Overdose
Source:
Tags:イトヲカシ LeftymonsterP Miyata Ryo itowokashi Onkochishin rock japanese Milan- rew0825
BeatmapID:2751742
BeatmapSetID:1328366

[Difficulty]
HPDrainRate:6
CircleSize:4.2
OverallDifficulty:9.4
ApproachRate:9.4
SliderMultiplier:1.95
SliderTickRate:2

[Events]
//Background and Video events
0,0,"bg.jpg",0,0
//Break Periods
//Storyboard Layer 0 (Background)
//Storyboard Layer 1 (Fail)
//Storyboard Layer 2 (Pass)
//Storyboard Layer 3 (Foreground)
//Storyboard Layer 4 (Overlay)
//Storyboard Sound Samples

[TimingPoints]
1946,300,4,2,1,55,1,0
9146,-100,4,2,1,60,0,0
18746,-100,4,2,1,40,0,0
28046,-90.9090909090909,4,2,1,40,0,0
28346,-100,4,2,1,50,0,0
37946,-100,4,2,1,40,0,0
45146,-100,4,2,1,50,0,0
46946,-100,4,2,1,35,0,0
47546,-90.9090909090909,4,2,1,60,0,1
47846,-90.9090909090909,4,2,1,60,0,1
53546,-90.9090909090909,4,2,1,60,0,1
53846,-90.9090909090909,4,2,1,60,0,1
54446,-90.9090909090909,4,2,1,60,0,1
55046,-90.9090909090909,4,2,1,60,0,1
55646,-90.9090909090909,4,2,1,60,0,1
56246,-90.9090909090909,4,2,1,60,0,1
56546,-90.9090909090909,4,2,1,60,0,1
56846,-90.9090909090909,4,2,1,60,0,0
57146,-90.9090909090909,4,2,1,60,0,1
61946,-90.9090909090909,4,2,1,60,0,1
63146,-100,4,2,1,60,0,0
64346,-100,4,2,1,60,0,0
73946,-100,4,2,1,40,0,0
83246,-100,4,2,1,40,0,0
83546,-100,4,2,1,50,0,0
93146,-100,4,2,1,40,0,0
101246,-100,4,2,1,50,0,0
101546,-100,4,2,1,50,0,0
101846,-100,4,2,1,50,0,0
102146,-100,4,2,1,40,0,0
102746,-90.9090909090909,4,2,1,60,0,1
112046,-90.9090909090909,4,2,1,60,0,0
112346,-90.9090909090909,4,2,1,60,0,1
118346,-100,4,2,1,60,0,0
118946,-100,4,2,1,40,0,0
119546,-100,4,2,1,40,0,0
126896,-100,4,2,1,50,0,0
129146,-100,4,2,1,40,0,0
138746,-100,4,2,1,50,0,0
138821,-100,4,2,1,30,0,0
139946,-100,4,2,1,50,0,0
140021,-100,4,2,1,30,0,0
141146,-100,4,2,1,50,0,0
141221,-100,4,2,1,30,0,0
142346,-100,4,2,1,50,0,0
142421,-100,4,2,1,30,0,0
143546,-100,4,2,1,50,0,0
143846,-100,4,2,1,50,0,0
147596,-100,4,2,1,35,0,0
148346,-90.9090909090909,4,2,1,60,0,1
157946,-90.9090909090909,4,2,1,60,0,0
160046,-90.9090909090909,4,2,1,60,0,0
160346,-90.9090909090909,4,2,1,52,0,0
162446,-90.9090909090909,4,2,1,52,0,0
162746,-90.9090909090909,4,2,1,52,0,0
165446,-90.9090909090909,4,2,1,52,0,0
166046,-90.9090909090909,4,2,1,52,0,0
166646,-90.9090909090909,4,2,1,52,0,0
167546,-90.9090909090909,4,2,1,52,0,0
172646,-100,4,2,1,40,0,0
173246,-100,4,2,1,40,0,0
174746,-100,4,2,1,60,0,0

[Colours]
Combo1 : 153,81,86
Combo2 : 216,112,119
Combo3 : 252,202,141

[HitObjects]
144,293,6746,5,4,0:0:0:0:
119,126,7046,1,0,0:0:0:0:
355,112,7646,1,0,0:0:0:0:
82,121,7946,1,4,0:3:0:0:
426,342,9146,6,0,L|298:334,1,97.5,4|0,0:0|0:0,0:0:0:0:
451,241,9446,1,8,0:0:0:0:
201,247,9596,2,0,P|236:184|365:123,1,195,0|0,0:0|0:0,0:0:0:0:
463,116,10046,1,8,0:0:0:0:
229,65,10196,6,0,L|13:63,1,195,2|0,0:0|0:0,0:0:0:0:
190,138,10646,1,10,0:0:0:0:
83,135,10796,2,0,L|72:243,1,97.5,0|2,0:0|0:0,0:0:0:0:
180,232,11096,1,0,0:0:0:0:
428,57,11246,2,0,L|437:178,1,97.5,10|0,0:0|0:0,0:0:0:0:
202,330,11546,6,0,L|328:327,1,97.5,4|0,0:0|0:0,0:0:0:0:
421,319,11846,1,8,0:0:0:0:
212,221,11996,2,0,P|160:191|235:107,1,195,0|0,0:0|0:0,0:0:0:0:
343,101,12446,1,8,0:0:0:0:
92,279,12596,6,0,L|320:263,1,195,4|0,0:0|0:0,0:0:0:0:
130,190,13046,2,0,L|-5:174,1,97.5,8|8,0:0|0:3,0:0:0:0:
92,108,13271,1,8,0:3:0:0:
152,105,13346,1,8,0:3:0:0:
276,97,13496,1,4,0:3:0:0:
33,295,13646,2,0,L|161:292,1,97.5,8|0,0:0|0:0,0:0:0:0:
414,283,13946,6,0,L|277:277,1,97.5,4|0,0:0|0:0,0:0:0:0:
438,180,14246,1,8,0:0:0:0:
191,182,14396,2,0,P|229:122|360:86,1,195,0|0,0:0|0:0,0:0:0:0:
218,32,14846,1,8,0:0:0:0:
460,67,14996,6,0,P|466:145|354:170,1,195,2|0,0:0|0:0,0:0:0:0:
204,176,15446,1,10,0:0:0:0:
300,179,15596,2,0,L|309:76,1,97.5,0|2,0:0|0:0,0:0:0:0:
198,64,15896,1,0,0:0:0:0:
471,34,16046,2,0,L|478:143,1,97.5,10|0,0:0|0:0,0:0:0:0:
161,343,16346,6,0,L|286:334,1,97.5,4|0,0:0|0:0,0:0:0:0:
137,200,16646,1,8,0:0:0:0:
377,45,16796,2,0,L|157:34,1,195,0|0,0:0|0:0,0:0:0:0:
305,118,17246,1,8,0:0:0:0:
55,126,17396,6,0,P|53:194|172:242,1,195,4|8,0:0|0:0,0:0:0:0:
310,323,17846,2,0,L|319:214,1,97.5,8|8,0:0|0:0,0:0:0:0:
258,204,18071,1,8,0:0:0:0:
75,206,18146,1,8,0:0:0:0:
192,150,18296,1,8,0:3:0:0:
45,123,18446,1,4,0:3:0:0:
163,69,18596,1,8,0:3:0:0:
447,47,18746,6,0,P|475:123|451:247,1,195,4|0,0:0|0:0,0:0:0:0:
370,224,19196,1,0,0:0:0:0:
214,231,19346,2,0,L|204:132,1,97.5,0|0,0:0|0:0,0:0:0:0:
294,113,19646,1,0,0:0:0:0:
441,303,19796,6,0,L|340:303,1,97.5,2|0,0:0|0:0,0:0:0:0:
441,303,20096,2,0,L|354:244,1,97.5,0|0,0:0|0:0,0:0:0:0:
474,306,20396,2,0,L|471:204,1,97.5,2|0,0:0|0:0,0:0:0:0:
315,137,20696,2,0,L|430:136,1,97.5,2|0,0:0|0:0,0:0:0:0:
314,47,20996,1,2,0:0:0:0:
62,53,21146,6,0,L|60:282,1,195,2|0,0:0|0:0,0:0:0:0:
147,248,21596,1,0,0:0:0:0:
305,246,21746,2,0,L|306:143,1,97.5,0|0,0:0|0:0,0:0:0:0:
218,138,22046,1,0,0:0:0:0:
62,50,22196,6,0,L|169:48,1,97.5,2|0,0:0|0:0,0:0:0:0:
62,50,22496,2,0,L|146:126,1,97.5,0|0,0:0|0:0,0:0:0:0:
24,46,22796,2,0,L|22:164,1,97.5,2|0,0:0|0:0,0:0:0:0:
182,289,23096,2,0,L|306:284,1,97.5,2|0,0:0|0:0,0:0:0:0:
150,185,23396,1,2,0:0:0:0:
405,190,23546,6,0,P|461:120|377:62,1,195,4|0,0:0|0:0,0:0:0:0:
311,62,23996,1,0,0:0:0:0:
448,273,24146,2,0,L|321:278,1,97.5,0|0,0:0|0:0,0:0:0:0:
439,201,24446,1,0,0:0:0:0:
280,228,24596,6,0,L|267:116,1,97.5,2|0,0:0|0:0,0:0:0:0:
405,53,24896,2,0,L|286:54,1,97.5,0|0,0:0|0:0,0:0:0:0:
440,165,25196,2,0,L|326:166,1,97.5,2|0,0:0|0:0,0:0:0:0:
189,295,25496,2,0,L|301:293,1,97.5,2|0,0:0|0:0,0:0:0:0:
394,293,25796,1,2,0:0:0:0:
131,210,25946,6,0,P|112:148|214:88,1,195,2|0,0:0|0:0,0:0:0:0:
351,87,26396,2,0,L|448:75,2,97.5,0|0|0,0:0|0:0|0:0,0:0:0:0:
203,94,26846,2,0,L|97:97,1,97.5,0|0,0:0|0:0,0:0:0:0:
356,313,27146,5,0,0:0:0:0:
211,317,27296,1,2,0:3:0:0:
461,219,27446,2,0,L|463:104,1,97.5,2|0,0:3|0:0,0:0:0:0:
201,105,27746,2,0,L|77:108,1,97.5,10|0,0:0|0:0,0:0:0:0:
367,278,28046,2,0,L|192:277,1,160.875004909516,2|0,0:0|0:0,0:0:0:0:
413,65,28346,6,0,P|426:147|360:162,1,146.25,4|0,0:0|0:0,0:0:0:0:
207,264,28646,2,0,L|321:271,1,97.5,8|0,0:0|0:0,0:0:0:0:
396,278,28946,1,0,0:0:0:0:
246,179,29096,2,0,L|241:68,1,97.5,0|8,0:0|0:0,0:0:0:0:
475,27,29396,6,0,L|363:27,1,97.5,2|0,0:0|0:0,0:0:0:0:
233,110,29696,2,0,L|220:213,1,97.5,0|8,0:0|0:0,0:0:0:0:
366,214,29996,2,0,L|377:326,1,97.5,2|0,0:0|0:0,0:0:0:0:
228,344,30296,2,0,L|337:345,1,97.5,2|8,0:0|0:0,0:0:0:0:
433,350,30596,1,0,0:0:0:0:
191,229,30746,6,0,L|31:227,1,146.25,2|0,0:0|0:0,0:0:0:0:
197,125,31046,2,0,L|306:115,1,97.5,8|0,0:0|0:0,0:0:0:0:
203,49,31346,1,0,0:0:0:0:
349,19,31496,2,0,L|359:122,1,97.5,0|8,0:0|0:0,0:0:0:0:
134,343,31796,6,0,L|23:337,1,97.5,2|0,0:0|0:0,0:0:0:0:
173,243,32096,2,0,L|280:234,1,97.5,0|8,0:0|0:0,0:0:0:0:
125,35,32396,2,0,L|104:151,1,97.5,2|0,0:0|0:0,0:0:0:0:
255,151,32696,2,0,L|264:279,1,97.5,2|8,0:0|0:0,0:0:0:0:
141,271,32996,1,0,0:0:0:0:
399,351,33146,6,0,L|233:341,1,146.25,4|0,0:0|0:0,0:0:0:0:
397,262,33446,2,0,L|498:257,1,97.5,8|0,0:0|0:0,0:0:0:0:
366,187,33746,1,0,0:0:0:0:
493,51,33896,2,0,L|503:156,1,97.5,0|8,0:0|0:0,0:0:0:0:
396,166,34196,1,0,0:0:0:0:
162,174,34346,6,0,L|285:162,2,97.5,4|0|8,0:0|0:0|0:0,0:0:0:0:
21,240,34796,2,0,L|9:353,1,97.5,0|0,0:0|0:0,0:0:0:0:
148,356,35096,2,0,L|263:345,1,97.5,0|8,0:0|0:0,0:0:0:0:
138,256,35396,1,0,0:0:0:0:
406,101,35546,6,0,L|191:89,1,195,4|8,0:0|0:0,0:0:0:0:
339,186,35996,2,0,L|454:189,2,97.5,0|0|0,0:0|0:0|0:0,0:0:0:0:
202,182,36446,2,0,L|188:297,1,97.5,8|0,0:0|0:0,0:0:0:0:
450,341,36746,6,0,L|465:235,1,97.5,4|8,0:0|0:0,0:0:0:0:
403,224,36971,1,8,0:0:0:0:
204,227,37046,1,8,0:0:0:0:
333,126,37196,1,8,0:0:0:0:
206,55,37346,1,8,0:0:0:0:
69,21,37496,2,0,L|157:79,2,97.5,8|4|8,0:3|0:3|0:3,0:0:0:0:
380,25,37946,6,0,P|449:41|470:172,1,195,4|0,0:0|0:0,0:0:0:0:
285,306,38546,2,0,L|161:277,2,97.5,0|0|0,0:0|0:0|0:0,0:0:0:0:
373,314,38996,1,0,0:0:0:0:
133,319,39146,6,0,L|121:208,1,97.5,2|0,0:0|0:0,0:0:0:0:
211,213,39446,2,0,L|317:204,1,97.5,0|0,0:0|0:0,0:0:0:0:
157,113,39746,2,0,L|165:6,1,97.5,2|0,0:0|0:0,0:0:0:0:
15,224,40046,2,0,L|7:116,1,97.5,2|2,0:0|0:3,0:0:0:0:
277,323,40346,6,0,L|476:307,1,195,2|0,0:0|0:0,0:0:0:0:
382,237,40796,1,0,0:0:0:0:
236,236,40946,2,0,P|232:176|364:111,1,195,0|0,0:0|0:0,0:0:0:0:
425,96,41396,1,0,0:0:0:0:
180,202,41546,6,0,P|123:171|203:99,1,195,2|0,0:0|0:0,0:0:0:0:
333,66,41996,2,0,L|338:190,1,97.5,0|2,0:0|0:0,0:0:0:0:
191,291,42296,1,2,0:0:0:0:
287,218,42446,2,0,L|155:214,1,97.5,0|8,0:0|0:0,0:0:0:0:
245,151,42671,1,8,0:0:0:0:
445,43,42746,6,0,L|459:163,1,97.5,4|0,0:0|0:0,0:0:0:0:
320,308,43046,2,0,L|435:296,1,97.5,0|0,0:0|0:0,0:0:0:0:
279,227,43346,2,0,L|149:221,3,97.5,0|0|0|0,0:0|0:0|0:0|0:0,0:0:0:0:
441,94,43946,6,0,L|306:91,1,97.5,2|0,0:0|0:0,0:0:0:0:
196,126,44246,2,0,L|179:238,1,97.5,0|0,0:0|0:0,0:0:0:0:
330,251,44546,2,0,L|454:259,1,97.5,2|0,0:0|0:0,0:0:0:0:
165,356,44846,2,0,L|68:346,1,97.5,2|8,0:0|0:0,0:0:0:0:
125,285,45071,1,8,0:0:0:0:
350,282,45146,6,0,L|366:170,1,97.5,6|0,0:0|0:0,0:0:0:0:
208,128,45446,2,0,L|95:116,1,97.5,2|0,0:0|0:0,0:0:0:0:
353,52,45746,2,0,L|463:36,1,97.5,2|0,0:0|0:0,0:0:0:0:
201,240,46046,2,0,L|304:228,1,97.5,2|0,0:0|0:0,0:0:0:0:
23,349,46346,5,8,0:0:0:0:
322,335,46496,1,8,0:0:0:0:
24,343,46646,1,8,0:0:0:0:
170,275,46946,2,0,P|108:246|206:106,1,292.5,2|0,0:0|0:0,0:0:0:0:
470,70,47546,6,0,L|232:57,1,214.500006546021,4|8,0:0|0:0,0:0:0:0:
354,129,47996,1,0,0:0:0:0:
133,180,48146,2,0,L|115:314,1,107.25000327301,0|0,0:0|0:0,0:0:0:0:
336,338,48446,2,0,L|458:338,1,107.25000327301,8|0,0:0|0:0,0:0:0:0:
149,277,48746,6,0,L|142:157,1,107.25000327301,0|0,0:0|0:0,0:0:0:0:
287,155,49046,2,0,L|409:146,1,107.25000327301,8|0,0:0|0:0,0:0:0:0:
253,73,49346,2,0,L|136:58,1,107.25000327301,0|0,0:0|0:0,0:0:0:0:
287,33,49646,2,0,L|418:20,1,107.25000327301,8|0,0:0|0:0,0:0:0:0:
119,119,49946,6,0,P|57:146|133:227,1,214.500006546021,4|8,0:0|0:0,0:0:0:0:
214,223,50396,1,0,0:0:0:0:
467,360,50546,2,0,L|328:355,1,107.25000327301,0|0,0:0|0:0,0:0:0:0:
122,350,50846,2,0,L|103:226,1,107.25000327301,8|0,0:0|0:0,0:0:0:0:
353,187,51146,5,2,0:0:0:0:
464,182,51296,1,2,0:0:0:0:
315,34,51446,2,0,L|292:163,1,107.25000327301,10|0,0:0|0:0,0:0:0:0:
150,307,51746,1,2,0:0:0:0:
41,312,51896,1,2,0:0:0:0:
305,223,52046,2,0,L|322:100,1,107.25000327301,10|0,0:0|0:0,0:0:0:0:
35,61,52346,6,0,L|266:38,1,214.500006546021,4|8,0:0|0:0,0:0:0:0:
137,123,52796,1,0,0:0:0:0:
367,150,52946,2,0,L|373:278,1,107.25000327301,0|0,0:0|0:0,0:0:0:0:
242,340,53246,2,0,L|430:327,1,160.875004909516,8|0,0:0|0:0,0:0:0:0:
216,260,53546,6,0,P|151:197|249:162,1,214.500006546021,4|8,0:0|0:0,0:0:0:0:
331,157,53996,1,0,0:0:0:0:
192,72,54146,2,0,L|78:64,1,107.25000327301,0|0,0:0|0:0,0:0:0:0:
332,211,54446,2,0,L|502:198,1,160.875004909516,8|0,0:0|0:0,0:0:0:0:
284,333,54746,5,2,0:0:0:0:
393,321,54896,1,2,0:0:0:0:
125,259,55046,2,0,L|120:135,1,107.25000327301,14|0,0:0|0:0,0:0:0:0:
256,49,55346,1,2,0:0:0:0:
133,44,55496,1,2,0:0:0:0:
399,133,55646,6,0,L|416:251,1,107.25000327301,14|0,0:0|0:0,0:0:0:0:
278,346,55946,1,10,0:0:0:0:
399,331,56096,1,8,0:0:0:0:
141,253,56246,2,0,L|25:239,1,107.25000327301,12|0,0:0|0:0,0:0:0:0:
185,151,56546,2,0,L|304:137,1,107.25000327301,2|0,0:0|0:0,0:0:0:0:
35,353,56846,2,0,L|115:353,1,53.6250016365052,8|8,0:0|0:0,0:0:0:0:
261,350,56996,2,0,L|323:350,1,53.6250016365052,8|8,0:0|0:0,0:0:0:0:
97,227,57146,6,0,P|26:167|118:123,1,214.500006546021,4|8,0:0|0:0,0:0:0:0:
203,116,57596,1,0,0:0:0:0:
443,313,57746,2,0,L|438:183,1,107.25000327301,0|0,0:0|0:0,0:0:0:0:
187,256,58046,2,0,L|70:238,1,107.25000327301,8|0,0:0|0:0,0:0:0:0:
365,137,58346,6,0,L|479:120,1,107.25000327301,0|0,0:0|0:0,0:0:0:0:
320,197,58646,2,0,L|310:310,1,107.25000327301,8|0,0:0|0:0,0:0:0:0:
169,348,58946,2,0,L|279:338,1,107.25000327301,0|0,0:0|0:0,0:0:0:0:
415,247,59246,2,0,L|285:228,1,107.25000327301,8|0,0:0|0:0,0:0:0:0:
57,41,59546,6,0,L|271:51,1,214.500006546021,4|8,0:0|0:0,0:0:0:0:
372,50,59996,1,0,0:0:0:0:
149,148,60146,2,0,L|116:274,1,107.25000327301,0|0,0:0|0:0,0:0:0:0:
363,217,60446,2,0,L|526:205,1,160.875004909516,8|0,0:0|0:0,0:0:0:0:
336,340,60746,5,0,0:0:0:0:
216,334,60896,1,0,0:0:0:0:
364,252,61046,2,0,L|375:130,1,107.25000327301,8|0,0:0|0:0,0:0:0:0:
117,166,61346,2,0,L|2:161,1,107.25000327301,0|0,0:0|0:0,0:0:0:0:
253,278,61646,2,0,P|310:235|245:189,1,160.875004909516,8|0,0:0|0:0,0:0:0:0:
56,179,61946,6,0,P|56:108|194:67,1,214.500006546021,4|8,0:0|0:0,0:0:0:0:
328,53,62396,2,0,L|248:52,1,53.6250016365052,8|8,0:0|0:0,0:0:0:0:
65,96,62546,1,8,0:0:0:0:
182,167,62696,1,8,0:0:0:0:
438,271,62846,1,8,0:3:0:0:
331,182,62996,2,0,L|265:182,1,53.6250016365052,4|0,0:3|0:3,0:0:0:0:
82,188,63146,5,4,0:0:0:0:
476,307,64046,1,4,0:3:0:0:
66,202,64346,6,0,L|174:200,1,97.5,4|0,0:0|0:0,0:0:0:0:
45,78,64646,1,8,0:0:0:0:
287,27,64796,2,0,P|353:62|275:126,1,195,0|0,0:0|0:0,0:0:0:0:
169,149,65246,1,8,0:0:0:0:
396,314,65396,6,0,L|175:298,1,195,2|0,0:0|0:0,0:0:0:0:
55,300,65846,2,0,L|46:192,1,97.5,10|0,0:0|0:0,0:0:0:0:
174,141,66146,2,0,L|73:135,1,97.5,2|0,0:0|0:0,0:0:0:0:
207,228,66446,2,0,L|216:338,1,97.5,10|0,0:0|0:0,0:0:0:0:
446,361,66746,6,0,L|310:349,1,97.5,4|0,0:0|0:0,0:0:0:0:
226,342,67046,1,8,0:0:0:0:
454,268,67196,2,0,P|442:209|323:138,1,195,0|0,0:0|0:0,0:0:0:0:
457,41,67646,1,8,0:0:0:0:
188,286,67796,6,0,L|392:263,1,195,4|0,0:0|0:0,0:0:0:0:
239,187,68246,2,0,L|127:183,1,97.5,8|8,0:0|0:3,0:0:0:0:
199,121,68471,1,8,0:3:0:0:
257,116,68546,1,4,0:3:0:0:
139,32,68696,1,8,0:3:0:0:
383,250,68846,2,0,L|487:240,1,97.5,8|0,0:0|0:0,0:0:0:0:
212,340,69146,6,0,L|98:333,1,97.5,4|0,0:0|0:0,0:0:0:0:
236,150,69446,1,8,0:0:0:0:
19,51,69596,2,0,L|243:27,1,195,0|0,0:0|0:0,0:0:0:0:
90,129,70046,1,8,0:0:0:0:
333,45,70196,6,0,P|407:112|334:143,1,195,2|0,0:0|0:0,0:0:0:0:
194,266,70646,1,10,0:0:0:0:
293,264,70796,2,0,L|293:155,1,97.5,0|2,0:0|0:0,0:0:0:0:
392,122,71096,1,0,0:0:0:0:
149,41,71246,2,0,L|282:40,1,97.5,10|0,0:0|0:0,0:0:0:0:
489,344,71546,6,0,L|358:334,1,97.5,4|0,0:0|0:0,0:0:0:0:
509,228,71846,1,8,0:0:0:0:
266,243,71996,2,0,P|284:149|377:118,1,195,0|0,0:0|0:0,0:0:0:0:
497,32,72446,1,8,0:0:0:0:
249,161,72596,6,0,L|36:156,1,195,4|0,0:0|0:0,0:0:0:0:
209,295,73046,2,0,L|74:282,1,97.5,8|0,0:0|0:0,0:0:0:0:
350,360,73346,2,0,L|372:218,1,97.5,8|8,0:0|0:3,0:0:0:0:
149,119,73646,2,0,L|310:120,1,146.25,4|0,0:3|0:0,0:0:0:0:
125,38,73946,6,0,P|52:74|116:136,1,195,4|8,0:0|0:0,0:0:0:0:
207,134,74396,1,0,0:0:0:0:
51,209,74546,1,0,0:0:0:0:
205,212,74696,2,0,L|205:326,1,97.5,0|8,0:0|0:0,0:0:0:0:
444,353,74996,6,0,L|321:351,1,97.5,2|0,0:0|0:0,0:0:0:0:
200,348,75296,2,0,L|181:230,1,97.5,0|8,0:0|0:0,0:0:0:0:
331,224,75596,2,0,L|344:93,1,97.5,2|0,0:0|0:0,0:0:0:0:
203,69,75896,1,2,0:0:0:0:
340,66,76046,2,0,L|464:65,1,97.5,8|2,0:0|0:0,0:0:0:0:
200,161,76346,6,0,L|3:164,1,195,2|8,0:0|0:0,0:0:0:0:
102,232,76796,1,0,0:0:0:0:
242,233,76946,1,0,0:0:0:0:
101,318,77096,2,0,L|-20:316,1,97.5,0|8,0:0|0:0,0:0:0:0:
241,317,77396,6,0,L|350:314,1,97.5,2|0,0:0|0:0,0:0:0:0:
201,236,77696,2,0,L|198:132,1,97.5,0|8,0:0|0:0,0:0:0:0:
344,111,77996,2,0,L|476:109,1,97.5,2|0,0:0|0:0,0:0:0:0:
314,192,78296,1,2,0:0:0:0:
441,185,78446,2,0,L|447:292,1,97.5,8|2,0:0|0:0,0:0:0:0:
214,57,78746,6,0,L|442:42,1,195,2|8,0:0|0:0,0:0:0:0:
320,116,79196,1,0,0:0:0:0:
458,102,79346,1,0,0:0:0:0:
320,202,79496,2,0,L|309:307,1,97.5,0|8,0:0|0:0,0:0:0:0:
66,336,79796,6,0,L|206:341,1,97.5,2|0,0:0|0:0,0:0:0:0:
308,339,80096,2,0,L|316:221,1,97.5,0|8,0:0|0:0,0:0:0:0:
173,175,80396,2,0,L|170:47,1,97.5,2|0,0:0|0:0,0:0:0:0:
298,28,80696,1,2,0:0:0:0:
170,24,80846,2,0,L|50:25,1,97.5,8|2,0:0|0:0,0:0:0:0:
337,203,81146,6,0,P|409:158|338:110,1,195,2|8,0:0|0:0,0:0:0:0:
217,107,81596,2,0,L|96:106,2,97.5,0|0|0,0:0|0:0|0:0,0:0:0:0:
346,101,82046,2,0,L|358:210,1,97.5,8|0,0:0|0:0,0:0:0:0:
206,313,82346,6,0,L|66:308,1,97.5,2|0,0:0|0:0,0:0:0:0:
246,238,82646,2,0,L|261:109,1,97.5,10|0,0:0|0:0,0:0:0:0:
100,70,82946,1,8,0:3:0:0:
217,65,83096,1,4,0:3:0:0:
463,52,83246,2,0,P|481:112|404:138,1,146.25,10|0,0:0|0:0,0:0:0:0:
217,282,83546,6,0,L|395:272,1,146.25,4|0,0:0|0:0,0:0:0:0:
226,193,83846,2,0,L|87:187,1,97.5,8|0,0:0|0:0,0:0:0:0:
266,52,84146,1,0,0:0:0:0:
130,47,84296,2,0,L|114:155,1,97.5,0|8,0:0|0:0,0:0:0:0:
356,166,84596,6,0,L|370:286,1,97.5,2|0,0:0|0:0,0:0:0:0:
225,259,84896,2,0,L|220:363,1,97.5,0|8,0:0|0:0,0:0:0:0:
373,359,85196,2,0,L|254:356,1,97.5,2|0,0:0|0:0,0:0:0:0:
412,249,85496,1,2,0:0:0:0:
272,252,85646,2,0,L|257:137,1,97.5,8|0,0:0|0:0,0:0:0:0:
496,30,85946,6,0,L|311:33,1,146.25,2|0,0:0|0:0,0:0:0:0:
198,126,86246,2,0,L|326:127,1,97.5,8|0,0:0|0:0,0:0:0:0:
437,125,86546,1,0,0:0:0:0:
297,197,86696,2,0,L|294:302,1,97.5,0|8,0:0|0:0,0:0:0:0:
59,345,86996,6,0,L|183:345,1,97.5,2|0,0:0|0:0,0:0:0:0:
20,210,87296,2,0,L|131:210,1,97.5,0|8,0:0|0:0,0:0:0:0:
275,36,87596,2,0,L|282:134,1,97.5,2|0,0:0|0:0,0:0:0:0:
144,134,87896,1,2,0:0:0:0:
289,222,88046,2,0,L|394:217,1,97.5,8|0,0:0|0:0,0:0:0:0:
118,329,88346,6,0,P|54:320|57:223,1,146.25,6|0,0:0|0:0,0:0:0:0:
182,154,88646,2,0,L|314:141,1,97.5,8|0,0:0|0:0,0:0:0:0:
417,132,88946,1,0,0:0:0:0:
278,207,89096,2,0,L|251:323,1,97.5,0|8,0:0|0:0,0:0:0:0:
394,308,89396,1,0,0:0:0:0:
115,330,89546,6,0,L|97:201,1,97.5,4|0,0:0|0:0,0:0:0:0:
199,177,89846,1,8,0:0:0:0:
52,40,89996,2,0,L|160:44,1,97.5,0|0,0:0|0:0,0:0:0:0:
294,146,90296,2,0,L|160:145,1,97.5,0|8,0:0|0:0,0:0:0:0:
332,36,90596,1,0,0:0:0:0:
68,244,90746,6,0,L|299:253,1,195,4|8,0:0|0:0,0:0:0:0:
166,169,91196,1,0,0:0:0:0:
304,68,91346,2,0,L|315:177,1,97.5,0|0,0:0|0:0,0:0:0:0:
155,271,91646,2,0,L|285:267,1,97.5,8|0,0:0|0:0,0:0:0:0:
503,361,91946,6,0,L|262:348,1,195,4|0,0:0|0:0,0:0:0:0:
456,241,92396,1,8,0:0:0:0:
320,239,92546,1,8,0:0:0:0:
456,241,92696,2,0,L|355:238,2,97.5,8|8|4,0:0|0:3|0:3,0:0:0:0:
196,37,93146,6,0,P|121:54|138:171,1,195,4|0,0:0|0:0,0:0:0:0:
208,153,93596,1,0,0:0:0:0:
362,259,93746,2,0,L|160:294,1,195,8|0,0:0|0:0,0:0:0:0:
267,349,94196,1,0,0:0:0:0:
113,343,94346,5,2,0:0:0:0:
102,248,94496,1,8,0:0:0:0:
165,177,94646,1,2,0:0:0:0:
260,176,94796,1,0,0:0:0:0:
490,192,94946,2,0,L|482:72,1,97.5,10|0,0:0|0:0,0:0:0:0:
348,59,95246,2,0,L|357:172,1,97.5,2|0,0:0|0:0,0:0:0:0:
129,331,95546,6,0,L|342:322,1,195,4|0,0:0|0:0,0:0:0:0:
415,320,95996,1,0,0:0:0:0:
257,253,96146,2,0,P|253:188|373:146,1,195,8|0,0:0|0:0,0:0:0:0:
457,136,96596,1,0,0:0:0:0:
202,136,96746,6,0,P|144:101|227:50,1,195,2|2,0:0|0:0,0:0:0:0:
307,45,97196,1,0,0:0:0:0:
466,44,97346,2,0,L|481:244,1,195,10|2,0:0|0:0,0:0:0:0:
26,332,97946,6,0,L|251:315,1,195,4|0,0:0|0:0,0:0:0:0:
127,256,98396,1,0,0:0:0:0:
273,246,98546,2,0,L|252:140,1,97.5,8|0,0:0|0:0,0:0:0:0:
109,97,98846,2,0,L|241:88,1,97.5,0|0,0:0|0:0,0:0:0:0:
437,37,99146,6,0,L|442:135,1,97.5,2|8,0:0|0:0,0:0:0:0:
289,265,99446,2,0,L|408:265,1,97.5,2|0,0:0|0:0,0:0:0:0:
231,172,99746,2,0,L|117:169,1,97.5,14|0,0:0|0:0,0:0:0:0:
374,69,100046,1,8,0:0:0:0:
239,66,100196,1,8,0:0:0:0:
470,157,100346,6,0,L|477:257,1,97.5,4|0,0:0|0:0,0:0:0:0:
321,352,100646,2,0,L|441:350,1,97.5,8|0,0:0|0:0,0:0:0:0:
162,287,100946,2,0,L|153:166,1,97.5,0|0,0:0|0:0,0:0:0:0:
429,50,101246,2,0,L|320:50,1,97.5,12|0,0:0|0:0,0:0:0:0:
67,162,101546,5,0,0:0:0:0:
213,165,101696,1,0,0:0:0:0:
457,269,101846,2,0,L|337:265,1,97.5,4|0,0:0|0:0,0:0:0:0:
486,147,102146,1,10,0:0:0:0:
29,162,102446,1,8,0:0:0:0:
470,336,102746,6,0,P|451:237|335:221,1,214.500006546021,4|8,0:0|0:0,0:0:0:0:
461,120,103196,1,0,0:0:0:0:
228,301,103346,2,0,L|96:296,1,107.25000327301,0|0,0:0|0:0,0:0:0:0:
348,216,103646,2,0,L|358:102,1,107.25000327301,8|0,0:0|0:0,0:0:0:0:
110,65,103946,5,0,0:0:0:0:
207,56,104096,1,0,0:0:0:0:
58,146,104246,2,0,L|38:255,1,107.25000327301,8|0,0:0|0:0,0:0:0:0:
193,310,104546,2,0,L|73:307,1,107.25000327301,0|0,0:0|0:0,0:0:0:0:
243,216,104846,2,0,L|365:209,1,107.25000327301,8|0,0:0|0:0,0:0:0:0:
91,155,105146,6,0,P|46:124|133:45,1,214.500006546021,4|8,0:0|0:0,0:0:0:0:
228,41,105596,1,0,0:0:0:0:
471,257,105746,2,0,L|346:267,1,107.25000327301,0|0,0:0|0:0,0:0:0:0:
123,283,106046,2,0,L|109:147,1,107.25000327301,8|0,0:0|0:0,0:0:0:0:
375,66,106346,5,2,0:0:0:0:
264,65,106496,1,2,0:0:0:0:
414,150,106646,2,0,L|422:265,1,107.25000327301,10|0,0:0|0:0,0:0:0:0:
261,348,106946,1,2,0:0:0:0:
366,344,107096,1,2,0:0:0:0:
102,286,107246,2,0,L|91:163,1,107.25000327301,10|8,0:0|0:0,0:0:0:0:
391,42,107546,6,0,L|173:49,1,214.500006546021,4|8,0:0|0:0,0:0:0:0:
274,112,107996,1,0,0:0:0:0:
113,184,108146,2,0,L|106:306,1,107.25000327301,0|0,0:0|0:0,0:0:0:0:
270,302,108446,2,0,L|452:296,1,160.875004909516,8|0,0:0|0:0,0:0:0:0:
229,222,108746,6,0,P|158:170|254:132,1,214.500006546021,4|8,0:0|0:0,0:0:0:0:
331,118,109196,1,0,0:0:0:0:
487,30,109346,2,0,L|349:32,1,107.25000327301,0|0,0:0|0:0,0:0:0:0:
144,228,109646,2,0,L|336:226,1,160.875004909516,8|0,0:0|0:0,0:0:0:0:
146,145,109946,5,2,0:0:0:0:
30,145,110096,1,2,0:0:0:0:
274,33,110246,2,0,L|291:167,1,107.25000327301,10|0,0:0|0:0,0:0:0:0:
433,144,110546,1,2,0:0:0:0:
325,151,110696,1,2,0:0:0:0:
61,286,110846,2,0,L|206:285,1,107.25000327301,10|0,0:0|0:0,0:0:0:0:
320,207,111146,5,2,0:0:0:0:
210,209,111296,1,0,0:0:0:0:
468,41,111446,2,0,L|353:41,1,107.25000327301,8|0,0:0|0:0,0:0:0:0:
221,121,111746,2,0,L|341:116,1,107.25000327301,2|0,0:0|0:0,0:0:0:0:
88,339,112046,2,0,L|8:340,1,53.6250016365052,8|8,0:0|0:0,0:0:0:0:
198,232,112196,2,0,L|279:232,1,53.6250016365052,8|8,0:0|0:0,0:0:0:0:
35,156,112346,6,0,P|29:82|157:32,1,214.500006546021,4|8,0:0|0:0,0:0:0:0:
237,26,112796,1,0,0:0:0:0:
399,56,112946,2,0,L|412:172,1,107.25000327301,0|0,0:0|0:0,0:0:0:0:
149,291,113246,2,0,L|23:284,1,107.25000327301,8|0,0:0|0:0,0:0:0:0:
282,183,113546,5,0,0:0:0:0:
386,177,113696,1,0,0:0:0:0:
227,37,113846,2,0,L|215:144,1,107.25000327301,8|0,0:0|0:0,0:0:0:0:
352,204,114146,2,0,L|356:330,1,107.25000327301,0|0,0:0|0:0,0:0:0:0:
498,352,114446,2,0,L|357:356,1,107.25000327301,8|0,0:0|0:0,0:0:0:0:
138,101,114746,6,0,L|367:89,1,214.500006546021,4|8,0:0|0:0,0:0:0:0:
459,87,115196,1,0,0:0:0:0:
221,269,115346,2,0,L|101:266,1,107.25000327301,0|0,0:0|0:0,0:0:0:0:
358,171,115646,2,0,L|468:166,1,107.25000327301,8|0,0:0|0:0,0:0:0:0:
188,139,115946,5,0,0:0:0:0:
80,137,116096,1,0,0:0:0:0:
221,48,116246,2,0,L|348:50,1,107.25000327301,8|0,0:0|0:0,0:0:0:0:
87,313,116546,2,0,L|76:197,1,107.25000327301,0|0,0:0|0:0,0:0:0:0:
326,166,116846,2,0,L|509:163,1,160.875004909516,8|0,0:0|0:0,0:0:0:0:
316,276,117146,6,0,P|245:249|326:193,1,214.500006546021,4|8,0:0|0:0,0:0:0:0:
421,190,117596,1,0,0:0:0:0:
160,202,117746,2,0,L|155:82,1,107.25000327301,0|0,0:0|0:0,0:0:0:0:
308,47,118046,2,0,L|425:37,1,107.25000327301,8|0,0:0|0:0,0:0:0:0:
96,54,118346,5,4,0:0:0:0:
466,248,119546,5,12,0:0:0:0:
321,157,119696,1,8,0:0:0:0:
466,248,119846,1,8,0:0:0:0:
151,42,119996,1,8,0:0:0:0:
32,267,121946,5,12,0:0:0:0:
178,176,122096,1,8,0:0:0:0:
323,121,122246,1,8,0:0:0:0:
70,38,122396,1,8,0:0:0:0:
478,265,124346,5,12,0:0:0:0:
332,174,124496,1,8,0:0:0:0:
479,70,124646,1,8,0:0:0:0:
163,59,124796,1,8,0:0:0:0:
470,190,126746,5,8,0:0:0:0:
190,311,126896,2,0,P|116:290|190:221,1,195,4|8,0:0|0:0,0:0:0:0:
417,198,127346,2,0,P|481:182|438:71,1,195,4|8,0:0|0:0,0:0:0:0:
179,53,127796,6,0,L|411:40,1,195,4|8,0:0|0:0,0:0:0:0:
125,143,128246,1,4,0:0:0:0:
253,139,128396,1,8,0:0:0:0:
255,187,128471,1,8,0:0:0:0:
258,236,128546,1,8,0:0:0:0:
114,253,128696,2,0,L|211:259,2,97.5,8|8|8,0:0|0:0|0:0,0:0:0:0:
398,320,129146,5,4,0:0:0:0:
272,266,129296,2,0,L|269:138,1,97.5,8|0,0:0|0:0,0:0:0:0:
363,145,129596,1,0,0:0:0:0:
217,130,129746,2,0,L|429:133,1,195,10|0,0:0|0:0,0:0:0:0:
316,202,130196,1,2,0:0:0:0:
75,37,130346,5,0,0:0:0:0:
203,43,130496,2,0,L|207:158,1,97.5,8|0,0:0|0:0,0:0:0:0:
108,137,130796,1,0,0:0:0:0:
255,245,130946,2,0,L|55:254,1,195,10|0,0:0|0:0,0:0:0:0:
155,322,131396,1,0,0:0:0:0:
416,122,131546,5,6,0:0:0:0:
288,54,131696,2,0,L|290:168,1,97.5,8|0,0:0|0:0,0:0:0:0:
385,54,131996,1,0,0:0:0:0:
240,158,132146,2,0,L|26:157,1,195,10|0,0:0|0:0,0:0:0:0:
142,230,132596,1,2,0:0:0:0:
368,369,132746,5,0,0:0:0:0:
231,326,132896,2,0,L|223:220,1,97.5,8|0,0:0|0:0,0:0:0:0:
321,183,133196,1,0,0:0:0:0:
478,66,133346,2,0,L|481:275,1,195,10|0,0:0|0:0,0:0:0:0:
30,243,133946,6,0,L|249:253,1,195,6|0,0:0|0:0,0:0:0:0:
313,244,134396,1,0,0:0:0:0:
170,142,134546,2,0,L|58:142,2,97.5,14|0|0,0:0|0:0|0:0,0:0:0:0:
410,132,134996,6,0,L|424:248,1,97.5,2|0,0:0|0:0,0:0:0:0:
274,224,135296,2,0,L|281:333,1,97.5,10|0,0:0|0:0,0:0:0:0:
367,325,135596,1,2,0:0:0:0:
212,326,135746,2,0,L|7:306,1,195,10|0,0:0|0:0,0:0:0:0:
482,92,136346,5,4,0:0:0:0:
287,94,136646,1,8,0:0:0:0:
91,89,136946,1,8,0:0:0:0:
481,210,137246,1,8,0:0:0:0:
32,211,137546,5,8,0:0:0:0:
287,206,137846,1,8,0:0:0:0:
32,211,138146,1,8,0:0:0:0:
476,347,138446,1,8,0:0:0:0:
33,356,138746,5,4,0:0:0:0:
255,192,139946,1,4,0:0:0:0:
498,351,141146,1,4,0:0:0:0:
11,191,142346,5,4,0:0:0:0:
19,192,143246,1,0,0:0:0:0:
487,197,143546,6,0,P|470:116|385:89,1,146.25,4|0,0:0|0:0,0:0:0:0:
223,85,143846,1,8,0:0:0:0:
86,77,143996,1,8,0:0:0:0:
242,159,144146,1,8,0:0:0:0:
105,162,144296,1,8,0:0:0:0:
339,308,144446,1,8,0:0:0:0:
485,312,144596,1,8,0:0:0:0:
223,264,144746,5,8,0:0:0:0:
205,129,144896,1,8,0:0:0:0:
352,32,145046,1,8,0:0:0:0:
203,32,145196,1,8,0:0:0:0:
469,352,145346,1,8,0:0:0:0:
323,355,145496,1,8,0:0:0:0:
57,175,145646,1,8,0:0:0:0:
301,173,145796,1,8,0:0:0:0:
38,276,145946,5,10,0:0:0:0:
47,305,147746,2,0,P|28:206|241:141,1,341.25,4|0,0:3|0:0,0:0:0:0:
456,63,148346,6,0,L|446:314,1,214.500006546021,4|8,0:0|0:0,0:0:0:0:
339,123,148796,1,0,0:0:0:0:
113,287,148946,2,0,L|246:303,1,107.25000327301,0|0,0:0|0:0,0:0:0:0:
456,314,149246,2,0,L|468:182,1,107.25000327301,8|0,0:0|0:0,0:0:0:0:
223,118,149546,5,0,0:0:0:0:
355,110,149696,1,0,0:0:0:0:
132,337,149846,2,0,L|-2:332,1,107.25000327301,8|0,0:0|0:0,0:0:0:0:
276,256,150146,2,0,L|285:144,1,107.25000327301,0|0,0:0|0:0,0:0:0:0:
32,29,150446,2,0,L|178:31,1,107.25000327301,8|0,0:0|0:0,0:0:0:0:
448,139,150746,6,0,L|207:145,1,214.500006546021,0|8,0:0|0:0,0:0:0:0:
343,79,151196,1,0,0:0:0:0:
107,317,151346,2,0,L|91:196,1,107.25000327301,0|0,0:0|0:0,0:0:0:0:
353,126,151646,2,0,L|477:114,1,107.25000327301,8|0,0:0|0:0,0:0:0:0:
190,37,151946,5,0,0:0:0:0:
307,35,152096,1,0,0:0:0:0:
146,121,152246,2,0,L|127:252,1,107.25000327301,8|0,0:0|0:0,0:0:0:0:
369,353,152546,2,0,L|250:350,1,107.25000327301,0|0,0:0|0:0,0:0:0:0:
500,291,152846,2,0,P|489:200|416:173,1,160.875004909516,8|0,0:0|0:0,0:0:0:0:
260,172,153146,6,0,P|191:128|286:72,1,214.500006546021,4|8,0:0|0:0,0:0:0:0:
366,66,153596,1,0,0:0:0:0:
139,298,153746,2,0,L|266:303,1,107.25000327301,0|0,0:0|0:0,0:0:0:0:
470,310,154046,2,0,L|488:191,1,107.25000327301,8|0,0:0|0:0,0:0:0:0:
229,144,154346,6,0,P|183:104|282:33,1,214.500006546021,4|8,0:0|0:0,0:0:0:0:
357,31,154796,1,0,0:0:0:0:
206,234,154946,2,0,L|65:242,1,107.25000327301
249,153,155246,2,0,L|368:147,1,107.25000327301,8|0,0:0|0:0,0:0:0:0:
66,37,155546,6,0,L|298:42,1,214.500006546021,4|8,0:0|0:0,0:0:0:0:
195,105,155996,1,0,0:0:0:0:
338,237,156146,2,0,L|453:231,1,107.25000327301,0|0,0:0|0:0,0:0:0:0:
197,337,156446,2,0,L|184:225,1,107.25000327301,8|8,0:0|0:0,0:0:0:0:
246,196,156671,1,8,0:0:0:0:
431,91,156746,6,0,L|453:207,1,107.25000327301,12|0,0:0|0:0,0:0:0:0:
303,324,157046,2,0,L|435:321,1,107.25000327301,8|0,0:0|0:0,0:0:0:0:
146,246,157346,2,0,L|54:241,1,53.6250016365052,8|0,0:0|0:0,0:0:0:0:
263,131,157496,2,0,L|363:122,1,53.6250016365052,4|0,0:3|0:0,0:0:0:0:
103,136,157646,2,0,P|55:110|122:54,1,160.875004909516,12|0,0:0|0:0,0:0:0:0:
332,32,157946,6,0,L|504:35,1,160.875004909516,4|0,0:0|0:0,0:0:0:0:
316,126,158246,1,10,0:0:0:0:
421,130,158396,2,0,L|428:239,1,107.25000327301,0|10,0:0|0:0,0:0:0:0:
181,331,158696,1,0,0:0:0:0:
434,241,158846,2,0,L|293:245,1,107.25000327301,10|0,0:0|0:0,0:0:0:0:
85,257,159146,6,0,L|70:139,1,107.25000327301,10|0,0:0|0:0,0:0:0:0:
327,38,159446,2,0,L|179:46,1,107.25000327301,10|0,0:0|0:0,0:0:0:0:
462,102,159746,2,0,L|487:217,1,107.25000327301,10|0,0:0|0:0,0:0:0:0:
236,347,160046,2,0,B|223:283|223:283|329:261,1,160.875004909516,12|0,0:0|0:0,0:0:0:0:
112,208,160346,6,0,P|46:185|99:115,1,160.875004909516,4|0,0:0|0:0,0:0:0:0:
236,82,160646,2,0,L|348:73,2,107.25000327301,10|0|10,0:0|0:0|0:0,0:0:0:0:
120,96,161096,1,0,0:0:0:0:
350,162,161246,2,0,L|366:289,1,107.25000327301,10|0,0:0|0:0,0:0:0:0:
101,346,161546,6,0,L|221:348,1,107.25000327301,10|0,0:0|0:0,0:0:0:0:
462,241,161846,2,0,L|303:248,1,107.25000327301,10|0,0:0|0:0,0:0:0:0:
101,252,162146,2,0,L|88:127,1,107.25000327301,10|0,0:0|0:0,0:0:0:0:
341,21,162446,2,0,L|165:20,1,160.875004909516,12|0,0:0|0:0,0:0:0:0:
354,106,162746,6,0,P|410:127|341:182,1,160.875004909516,4|0,0:0|0:0,0:0:0:0:
196,243,163046,1,10,0:0:0:0:
301,238,163196,2,0,L|316:351,1,107.25000327301,0|10,0:0|0:0,0:0:0:0:
69,351,163496,2,0,L|297:335,1,214.500006546021,0|0,0:0|0:0,0:0:0:0:
38,240,163946,6,0,L|25:112,1,107.25000327301,10|0,0:0|0:0,0:0:0:0:
285,50,164246,2,0,L|402:46,1,107.25000327301,10|0,0:0|0:0,0:0:0:0:
135,177,164546,2,0,L|-15:179,1,107.25000327301,10|0,0:0|0:0,0:0:0:0:
190,354,164846,2,0,L|199:221,1,107.25000327301,10|8,0:0|0:0,0:0:0:0:
143,222,165071,1,8,0:0:0:0:
322,143,165146,5,10,0:0:0:0:
452,130,165296,1,0,0:0:0:0:
215,25,165446,2,0,L|198:155,1,107.25000327301,12|0,0:0|0:0,0:0:0:0:
352,195,165746,1,2,0:0:0:0:
211,197,165896,1,0,0:0:0:0:
465,366,166046,6,0,L|459:243,1,107.25000327301,12|0,0:0|0:0,0:0:0:0:
307,129,166346,1,2,0:0:0:0:
445,99,166496,1,0,0:0:0:0:
166,275,166646,2,0,L|294:276,1,107.25000327301,12|0,0:0|0:0,0:0:0:0:
415,174,166946,2,0,L|295:172,1,107.25000327301,2|0,0:0|0:0,0:0:0:0:
32,60,167246,2,0,L|119:57,1,53.6250016365052,8|8,0:0|0:0,0:0:0:0:
236,142,167396,2,0,L|156:142,1,53.6250016365052,8|8,0:0|0:0,0:0:0:0:
29,351,167546,6,0,P|15:283|100:245,1,160.875004909516,4|0,0:0|0:0,0:0:0:0:
258,231,167846,1,10,0:0:0:0:
121,176,167996,2,0,L|129:47,1,107.25000327301,0|10,0:0|0:0,0:0:0:0:
367,28,168296,1,0,0:0:0:0:
108,256,168446,2,0,L|243:256,1,107.25000327301,10|0,0:0|0:0,0:0:0:0:
485,264,168746,6,0,L|346:260,1,107.25000327301,10|0,0:0|0:0,0:0:0:0:
127,344,169046,2,0,L|114:230,1,107.25000327301,10|0,0:0|0:0,0:0:0:0:
379,190,169346,2,0,L|398:62,1,107.25000327301,10|0,0:0|0:0,0:0:0:0:
136,39,169646,2,0,L|317:35,1,160.875004909516,12|0,0:0|0:0,0:0:0:0:
103,117,169946,6,0,P|50:154|118:199,1,160.875004909516,4|0,0:0|0:0,0:0:0:0:
275,245,170246,2,0,L|279:365,1,107.25000327301,10|0,0:0|0:0,0:0:0:0:
37,334,170546,2,0,L|277:345,1,214.500006546021,10|10,0:0|0:0,0:0:0:0:
349,344,170996,1,0,0:0:0:0:
103,262,171146,6,0,L|99:130,1,107.25000327301,10|0,0:0|0:0,0:0:0:0:
245,60,171446,2,0,L|111:58,1,107.25000327301,10|0,0:0|0:0,0:0:0:0:
424,33,171746,2,0,L|435:147,1,107.25000327301,10|0,0:0|0:0,0:0:0:0:
164,296,172046,2,0,P|116:247|186:191,1,160.875004909516,10|0,0:0|0:0,0:0:0:0:
369,140,172346,5,4,0:0:0:0:
77,69,173546,1,4,0:3:0:0:
67,273,174746,6,0,L|186:271,1,97.5,4|0,0:0|0:0,0:0:0:0:
38,108,175046,1,8,0:0:0:0:
278,102,175196,2,0,P|346:58|258:25,1,195,0|0,0:0|0:0,0:0:0:0:
149,21,175646,1,8,0:0:0:0:
399,110,175796,6,0,P|407:191|296:220,1,195,2|0,0:0|0:0,0:0:0:0:
167,338,176246,1,10,0:0:0:0:
274,346,176396,2,0,L|290:220,1,97.5,0|2,0:0|0:0,0:0:0:0:
180,215,176696,1,0,0:0:0:0:
408,100,176846,2,0,L|529:94,1,97.5,10|0,0:0|0:0,0:0:0:0:
257,337,177146,6,0,L|153:337,1,97.5,4|0,0:0|0:0,0:0:0:0:
286,238,177446,1,8,0:0:0:0:
54,234,177596,2,0,P|44:170|159:119,1,195,0|0,0:0|0:0,0:0:0:0:
28,25,178046,1,8,0:0:0:0:
293,347,178196,6,0,L|77:341,1,195,4|0,0:0|0:0,0:0:0:0:
244,276,178646,2,0,L|253:167,1,97.5,8|8,0:0|0:3,0:0:0:0:
199,153,178871,1,8,0:3:0:0:
144,139,178946,1,4,0:3:0:0:
278,54,179096,1,8,0:3:0:0:
57,24,179246,2,0,L|193:28,1,97.5,8|0,0:0|0:0,0:0:0:0:
411,318,179546,6,0,L|301:320,1,97.5,4|0,0:0|0:0,0:0:0:0:
188,318,179846,1,8,0:0:0:0:
424,234,179996,2,0,P|433:161|300:111,1,195,0|0,0:0|0:0,0:0:0:0:
215,99,180446,1,8,0:0:0:0:
453,36,180596,6,0,L|258:37,1,195,2|0,0:0|0:0,0:0:0:0:
404,127,181046,1,10,0:0:0:0:
307,130,181196,2,0,L|300:244,1,97.5,0|2,0:0|0:0,0:0:0:0:
410,236,181496,1,0,0:0:0:0:
191,362,181646,2,0,L|69:355,1,97.5,10|0,0:0|0:0,0:0:0:0:
352,311,181946,6,0,L|471:304,1,97.5,4|0,0:0|0:0,0:0:0:0:
322,233,182246,1,8,0:0:0:0:
92,69,182396,2,0,L|322:68,1,195,0|0,0:0|0:0,0:0:0:0:
155,158,182846,1,8,0:0:0:0:
395,342,182996,6,0,L|194:344,1,195,4|0,0:0|0:0,0:0:0:0:
419,268,183446,2,0,L|434:156,1,97.5,8|0,0:0|0:0,0:0:0:0:
209,205,183746,2,0,L|126:206,1,48.75,8|8,0:0|0:0,0:0:0:0:
301,121,183896,2,0,L|363:119,1,48.75,8|8,0:0|0:0,0:0:0:0:
189,35,184046,1,8,0:0:0:0:
315,33,184196,1,8,0:0:0:0:
84,325,184346,6,0,L|197:320,1,97.5,4|0,0:0|0:0,0:0:0:0:
49,231,184646,1,8,0:0:0:0:
307,236,184796,2,0,P|357:199|278:122,1,195,0|0,0:0|0:0,0:0:0:0:
160,123,185246,1,8,0:0:0:0:
417,51,185396,6,0,L|194:55,1,195,2|0,0:0|0:0,0:0:0:0:
360,338,185846,1,10,0:0:0:0:
259,242,185996,2,0,L|374:240,1,97.5,0|2,0:0|0:0,0:0:0:0:
454,238,186296,1,0,0:0:0:0:
210,140,186446,2,0,L|86:139,1,97.5,10|0,0:0|0:0,0:0:0:0:
366,353,186746,6,0,L|381:237,1,97.5,4|0,0:0|0:0,0:0:0:0:
252,205,187046,1,8,0:0:0:0:
474,39,187196,2,0,P|475:96|351:111,1,195,0|0,0:0|0:0,0:0:0:0:
488,252,187646,1,8,0:0:0:0:
194,353,187796,6,0,L|435:337,1,195,4|0,0:0|0:0,0:0:0:0:
240,273,188246,2,0,L|97:255,1,97.5,8|8,0:0|0:3,0:0:0:0:
197,190,188471,1,8,0:3:0:0:
252,182,188546,1,4,0:3:0:0:
378,162,188696,1,8,0:3:0:0:
152,92,188846,2,0,L|22:96,1,97.5,8|0,0:0|0:0,0:0:0:0:
302,355,189146,6,0,L|425:347,1,97.5,4|0,0:0|0:0,0:0:0:0:
272,263,189446,1,8,0:0:0:0:
478,205,189596,2,0,P|477:150|344:91,1,195,0|0,0:0|0:0,0:0:0:0:
241,85,190046,1,8,0:0:0:0:
465,344,190196,6,0,L|249:336,1,195,2|0,0:0|0:0,0:0:0:0:
121,333,190646,2,0,L|141:192,1,97.5,10|0,0:0|0:0,0:0:0:0:
281,197,190946,2,0,L|297:86,1,97.5,2|0,0:0|0:0,0:0:0:0:
57,34,191246,2,0,L|198:33,1,97.5,10|0,0:0|0:0,0:0:0:0:
401,343,191546,6,0,L|268:342,1,97.5,4|0,0:0|0:0,0:0:0:0:
79,151,191846,1,8,0:0:0:0:
350,33,191996,2,0,L|129:33,1,195,4|0,0:0|0:0,0:0:0:0:
293,108,192446,1,8,0:0:0:0:
61,247,192596,6,0,L|271:247,1,195,4|0,0:0|0:0,0:0:0:0:
111,142,193046,1,8,0:0:0:0:
395,47,193196,2,0,L|170:47,1,195,4|0,0:0|0:0,0:0:0:0:
460,225,193646,1,8,0:0:0:0:
159,314,193796,1,4,0:0:0:0:
256,192,193946,12,0,194846,0:0:0:0:
99,326,194996,6,0,L|88:204,1,97.5,4|0,0:0|0:0,0:0:0:0:
193,176,195296,1,8,0:0:0:0:
428,175,195446,2,0,L|447:61,1,97.5,0|0,0:0|0:0,0:0:0:0:
189,324,195746,1,8,0:0:0:0:
326,317,195896,1,8,0:3:0:0:
189,228,196046,1,4,0:3:0:0:
461,41,196196,5,4,0:0:0:0:
