osu file format v14

[General]
AudioFilename: audio.mp3
AudioLeadIn: 0
PreviewTime: 59775
Countdown: 0
SampleSet: None
StackLeniency: 0.7
Mode: 2
LetterboxInBreaks: 0
WidescreenStoryboard: 0

[Editor]
DistanceSpacing: 1.4
BeatDivisor: 4
GridSize: 32
TimelineZoom: 1.9

[Metadata]
Title:Kiritorisen
TitleUnicode:キリトリセン
Artist:Ito Kashitaro
ArtistUnicode:伊東歌詞太郎
Creator:Ascendance
Version:Benny's Platter
Source:Megpoid the Music♯
Tags:40mp meterp megpoid gumi vocaloid utaite cover shano chano cutoff line シャノ × 40㍍ jbhyperion bennybananas benny- benita paranoid grapes wonjae nikakis zonthem
BeatmapID:1759294
BeatmapSetID:831857

[Difficulty]
HPDrainRate:5
CircleSize:3.5
OverallDifficulty:8
ApproachRate:8
SliderMultiplier:1.75
SliderTickRate:2

[Events]
//Background and Video events
0,0,"kiritosen BG but not badly resized because ascendance is a dunce and likes anime.jpg",0,0
//Break Periods
//Storyboard Layer 0 (Background)
//Storyboard Layer 1 (Fail)
//Storyboard Layer 2 (Pass)
//Storyboard Layer 3 (Foreground)
//Storyboard Sound Samples

[TimingPoints]
1685,363.636363636364,4,3,0,50,1,0
2957,-100,4,2,0,50,0,0
4594,-100,4,3,0,50,0,0
5866,-100,4,2,0,50,0,0
7503,-100,4,3,0,50,0,0
8775,-100,4,2,0,50,0,0
10412,-100,4,3,0,50,0,0
10957,-100,4,2,0,50,0,0
11503,-100,4,2,1,80,0,0
13594,-100,4,2,1,5,0,0
13685,-100,4,2,1,80,0,0
24957,-100,4,2,1,100,0,0
25321,-100,4,2,1,90,0,0
48230,-100,4,2,1,70,0,0
54048,-100,4,2,1,80,0,0
58230,-100,4,2,1,100,0,0
59866,-100,4,2,1,100,0,1
71139,-100,4,2,1,100,0,0
71503,-100,4,2,1,100,0,1
83139,-100,4,2,1,100,0,0
86048,-100,4,2,1,5,0,0

[Colours]
Combo1 : 152,135,145
Combo2 : 250,189,168
Combo3 : 104,124,157
Combo4 : 255,113,45

[HitObjects]
255,264,11503,5,8,0:0:0:0:
89,257,11685,2,0,P|48:183|88:108,1,175,2|8,0:0|0:0,0:0:0:0:
174,90,12230,1,0,0:0:0:0:
340,73,12412,2,0,L|166:77,1,175,2|8,0:0|0:0,0:0:0:0:
253,139,12957,2,0,L|267:240,1,87.5,8|2,0:0|0:0,0:0:0:0:
98,261,13321,5,2,0:0:0:0:
337,254,13685,2,0,L|148:238,1,175,12|0,0:0|0:0,0:0:0:0:
250,166,14230,2,0,L|257:66,1,87.5,2|8,0:0|0:0,0:0:0:0:
89,68,14594,6,0,L|264:66,1,175,2|2,0:0|0:0,0:0:0:0:
352,59,15139,1,8,0:0:0:0:
186,177,15321,2,0,L|10:227,2,175,2|2|0,0:0|0:0|0:0,0:0:0:0:
446,300,16230,6,0,P|496:273|437:188,1,175,0|8,0:0|0:0,0:0:0:0:
232,185,16957,2,0,L|220:89,1,87.5,2|2,0:0|0:0,0:0:0:0:
309,91,17321,1,8,0:0:0:0:
65,317,17503,6,0,P|9:281|83:197,1,175,2|2,0:0|0:0,0:0:0:0:
135,216,18048,1,8,0:0:0:0:
301,231,18230,2,0,L|477:161,2,175,2|2|0,0:0|0:0|0:0,0:0:0:0:
467,293,19139,5,2,0:0:0:0:
204,315,19503,2,0,L|392:314,1,175,8|0,0:0|0:0,0:0:0:0:
291,238,20048,2,0,L|190:232,1,87.5,2|8,0:0|0:0,0:0:0:0:
371,190,20412,6,0,P|411:158|361:52,1,175,2|2,0:0|0:0,0:0:0:0:
288,57,20957,1,8,0:0:0:0:
122,195,21139,2,0,L|310:191,2,175,2|2|0,0:0|0:0|0:0,0:0:0:0:
374,268,22048,6,0,P|424:241|365:156,1,175,2|8,0:0|0:0,0:0:0:0:
292,149,22594,1,0,0:0:0:0:
118,140,22775,1,0,0:0:0:0:
18,188,22957,1,8,0:0:0:0:
23,275,23139,1,8,0:0:0:0:
267,318,23321,6,0,P|323:282|249:198,1,175,2|8,0:0|0:0,0:0:0:0:
176,189,23866,1,8,0:0:0:0:
420,212,24048,2,0,P|448:153|357:83,1,175,2|8,0:0|0:0,0:0:0:0:
228,72,24594,1,8,0:0:0:0:
185,67,24684,1,8,0:0:0:0:
141,62,24775,1,2,0:0:0:0:
385,264,24957,5,6,0:0:0:0:
210,258,25321,2,0,L|203:160,1,87.5,10|0,0:0|0:0,0:0:0:0:
317,171,25685,2,0,L|323:70,1,87.5,2|2,0:0|0:0,0:0:0:0:
211,62,26048,1,8,0:0:0:0:
377,204,26230,6,0,L|180:211,2,175,2|2|2,0:0|0:0|0:0,0:0:0:0:
465,203,27139,1,0,0:0:0:0:
299,168,27321,2,0,L|313:68,1,87.5,2|8,0:0|0:0,0:0:0:0:
399,83,27685,1,0,0:0:0:0:
131,227,27866,6,0,P|84:205|143:120,1,175,0|8,0:0|0:0,0:0:0:0:
296,116,28412,2,0,L|116:112,2,175,0|2|2,0:0|0:0|0:0,0:0:0:0:
190,134,29321,5,0,0:0:0:0:
117,176,29502,1,2,0:0:0:0:
113,260,29684,1,8,0:0:0:0:
181,310,29866,1,0,0:0:0:0:
425,317,30048,2,0,L|429:217,1,87.5,2|8,0:0|0:0,0:0:0:0:
183,227,30412,2,0,L|158:131,1,87.5,8|8,0:0|0:0,0:0:0:0:
405,173,30775,5,2,0:0:0:0:
231,224,31139,1,8,0:0:0:0:
126,216,31321,1,0,0:0:0:0:
21,205,31503,1,2,0:0:0:0:
188,274,31685,2,0,L|199:185,1,87.5,2|8,0:0|0:0,0:0:0:0:
32,142,32048,6,0,L|207:149,2,175,2|2|0,0:0|0:0|0:0,0:0:0:0:
109,210,32957,1,0,0:0:0:0:
275,249,33139,2,0,L|275:344,1,87.5,2|8,0:0|0:0,0:0:0:0:
186,346,33503,1,0,0:0:0:0:
431,347,33685,6,0,P|473:312|393:218,1,175,0|8,0:0|0:0,0:0:0:0:
264,201,34230,2,0,L|84:197,2,175,0|2|2,0:0|0:0|0:0,0:0:0:0:
352,157,35139,5,0,0:0:0:0:
425,199,35320,1,0,0:0:0:0:
429,283,35502,1,8,0:0:0:0:
361,333,35684,1,0,0:0:0:0:
107,338,35866,2,0,L|30:290,1,87.5,2|8,0:0|0:0,0:0:0:0:
283,272,36230,2,0,L|378:222,1,87.5,8|8,0:0|0:0,0:0:0:0:
100,203,36594,5,6,0:0:0:0:
231,259,36957,2,0,L|238:161,1,87.5,8|0,0:0|0:0,0:0:0:0:
101,104,37321,2,0,L|212:99,1,87.5,2|2,0:0|0:0,0:0:0:0:
312,57,37684,1,8,0:0:0:0:
146,207,37866,6,0,L|343:214,2,175,2|2|2,0:0|0:0|0:0,0:0:0:0:
47,203,38775,1,0,0:0:0:0:
131,200,38957,2,0,L|237:185,2,87.5,2|8|0,0:0|0:0|0:0,0:0:0:0:
381,227,39502,6,0,P|428:205|369:120,1,175,0|8,0:0|0:0,0:0:0:0:
216,116,40048,2,0,L|396:112,2,175,2|2|0,0:0|0:0|0:0,0:0:0:0:
304,125,40957,5,0,0:0:0:0:
377,167,41138,1,0,0:0:0:0:
381,251,41320,1,8,0:0:0:0:
313,301,41502,1,0,0:0:0:0:
59,306,41684,2,0,L|46:206,1,87.5,2|8,0:0|0:0,0:0:0:0:
294,218,42048,2,0,L|319:122,1,87.5,8|8,0:0|0:0,0:0:0:0:
71,166,42411,5,2,0:0:0:0:
247,262,42775,2,0,L|360:251,2,87.5,8|0|2,0:0|0:0|0:0,0:0:0:0:
143,255,43321,2,0,L|141:159,1,87.5,2|8,0:0|0:0,0:0:0:0:
315,138,43684,6,0,L|490:131,2,175,2|2|0,0:0|0:0|0:0,0:0:0:0:
403,210,44593,1,0,0:0:0:0:
237,249,44775,2,0,L|237:344,1,87.5,2|8,0:0|0:0,0:0:0:0:
326,346,45139,1,0,0:0:0:0:
81,347,45321,6,0,P|39:312|119:218,1,175,0|8,0:0|0:0,0:0:0:0:
248,201,45866,2,0,L|428:197,2,175,2|2|2,0:0|0:0|0:0,0:0:0:0:
160,157,46775,5,0,0:0:0:0:
87,199,46956,1,0,0:0:0:0:
83,283,47138,1,8,0:0:0:0:
151,333,47320,1,0,0:0:0:0:
404,339,47503,2,0,L|495:284,1,87.5,2|8,0:0|0:0,0:0:0:0:
170,250,47866,2,0,L|106:177,1,87.5,8|8,0:0|0:0,0:0:0:0:
394,210,48230,6,0,P|450:155|349:27,1,262.5,6|0,0:0|0:0,0:0:0:0:
197,127,48957,2,0,L|382:121,1,175,8|2,0:0|0:0,0:0:0:0:
358,75,49503,1,10,0:0:0:0:
96,198,49866,6,0,P|99:126|186:76,1,175,8|2,0:0|0:0,0:0:0:0:
359,179,50412,1,8,0:0:0:0:
421,122,50593,1,0,0:0:0:0:
410,38,50775,1,2,0:0:0:0:
335,0,50957,1,0,0:0:0:0:
90,162,51139,6,0,P|44:195|154:301,1,262.5,8|0,0:0|0:0,0:0:0:0:
312,273,51866,2,0,L|113:274,1,175,8|8,0:0|0:0,0:0:0:0:
304,204,52412,1,8,0:0:0:0:
99,163,52775,6,0,L|275:160,1,175,8|0,0:0|0:0,0:0:0:0:
107,210,53321,2,0,L|89:313,1,87.5,8|8,0:0|0:0,0:0:0:0:
259,315,53685,2,0,L|297:337,2,43.75,8|8|2,0:0|0:0|0:0,0:0:0:0:
15,333,54048,6,0,P|13:264|92:195,1,175,6|8,0:0|0:0,0:0:0:0:
254,194,54594,2,0,L|58:195,1,175,0|2,0:0|0:0,0:0:0:0:
166,130,55139,1,8,0:0:0:0:
411,293,55321,6,0,P|458:245|386:149,1,175,2|2,0:0|0:0,0:0:0:0:
326,161,55866,1,8,0:0:0:0:
151,164,56048,2,0,L|364:150,1,175,0|2,0:0|0:0,0:0:0:0:
208,104,56594,1,8,0:0:0:0:
377,105,56775,6,0,L|392:196,1,87.5,0|2,0:0|0:0,0:0:0:0:
215,211,57139,2,0,L|45:135,2,175,0|0|2,0:0|0:0|0:0,0:0:0:0:
339,202,58048,1,8,0:0:0:0:
42,266,58230,6,0,P|37:194|137:119,1,175,12|8,0:0|0:0,0:0:0:0:
191,125,58775,1,8,0:0:0:0:
437,218,58957,2,0,P|481:187|397:107,1,175,6|6,0:0|0:0,0:0:0:0:
62,210,59866,5,6,0:0:0:0:
251,179,60230,2,0,L|53:170,1,175,8|2,0:0|0:0,0:0:0:0:
150,166,60775,1,0,0:0:0:0:
24,130,60957,1,8,0:0:0:0:
287,134,61139,6,0,L|471:131,1,175,2|2,0:0|0:0,0:0:0:0:
374,76,61685,1,8,0:0:0:0:
198,164,61866,2,0,L|186:266,1,87.5,2|0,0:0|0:0,0:0:0:0:
364,283,62230,2,0,L|458:229,2,87.5,2|8|0,0:0|0:0|0:0,0:0:0:0:
101,282,62775,6,0,P|54:248|107:168,1,175,6|8,0:0|0:0,0:0:0:0:
201,163,63321,1,0,0:0:0:0:
367,235,63503,2,0,L|259:232,2,87.5,2|8|8,0:0|0:0|0:0,0:0:0:0:
121,290,64048,6,0,P|77:270|127:171,1,175,2|8,0:0|0:0,0:0:0:0:
204,167,64594,1,0,0:0:0:0:
453,169,64775,2,0,P|470:123|410:17,1,175,2|8,0:0|0:0,0:0:0:0:
238,54,65321,2,0,L|174:117,1,87.5,8|8,0:0|0:0,0:0:0:0:
423,227,65685,6,0,P|466:189|396:94,1,175,6|8,0:0|0:0,0:0:0:0:
158,154,66412,2,0,L|168:262,1,87.5,2|2,0:0|0:0,0:0:0:0:
278,263,66775,1,8,0:0:0:0:
33,268,66957,6,0,P|18:203|127:134,1,175,2|2,0:0|0:0,0:0:0:0:
182,132,67503,1,8,0:0:0:0:
359,198,67685,2,0,L|169:207,2,175,0|2|0,0:0|0:0|0:0,0:0:0:0:
104,262,68594,6,0,P|50:230|116:138,1,175,2|8,0:0|0:0,0:0:0:0:
244,88,69139,1,0,0:0:0:0:
244,88,69321,1,0,0:0:0:0:
108,65,69503,1,8,0:0:0:0:
420,214,69866,6,0,L|231:206,1,175,2|8,0:0|0:0,0:0:0:0:
152,198,70412,1,0,0:0:0:0:
405,196,70594,2,0,P|450:162|384:62,1,175,2|8,0:0|0:0,0:0:0:0:
239,83,71139,2,0,L|200:113,2,43.75,8|8|2,0:0|0:0|0:0,0:0:0:0:
487,114,71503,5,6,0:0:0:0:
313,157,71866,2,0,P|256:223|322:287,1,175,8|2,0:0|0:0,0:0:0:0:
440,284,72412,1,0,0:0:0:0:
323,321,72594,1,8,0:0:0:0:
79,324,72775,6,0,P|26:279|89:187,1,175,2|2,0:0|0:0,0:0:0:0:
151,80,73322,1,8,0:0:0:0:
327,168,73503,2,0,L|339:270,1,87.5,2|0,0:0|0:0,0:0:0:0:
161,287,73866,2,0,L|157:174,1,87.5,2|8,0:0|0:0,0:0:0:0:
291,169,74230,1,0,0:0:0:0:
42,183,74412,6,0,P|25:125|108:57,1,175,6|8,0:0|0:0,0:0:0:0:
192,55,74958,1,0,0:0:0:0:
366,129,75139,2,0,L|342:214,1,87.5,2|8,0:0|0:0,0:0:0:0:
219,234,75503,1,8,0:0:0:0:
464,282,75685,6,0,P|489:229|402:156,1,175,2|8,0:0|0:0,0:0:0:0:
328,156,76231,1,8,0:0:0:0:
84,162,76412,2,0,P|40:144|103:61,1,175,2|8,0:0|0:0,0:0:0:0:
258,129,76957,1,8,0:0:0:0:
150,184,77139,1,8,0:0:0:0:
395,225,77321,6,0,P|442:210|385:111,1,175,6|8,0:0|0:0,0:0:0:0:
154,145,78049,2,0,L|258:145,2,87.5,2|2|8,0:0|0:0|0:0,0:0:0:0:
479,268,78594,6,0,P|493:202|380:143,1,175,2|2,0:0|0:0,0:0:0:0:
330,133,79140,1,8,0:0:0:0:
155,194,79322,2,0,L|4:83,2,175,0|2|0,0:0|0:0|0:0,0:0:0:0:
400,266,80230,6,0,P|449:239|435:122,1,175,2|8,0:0|0:0,0:0:0:0:
355,75,80776,1,0,0:0:0:0:
259,54,80958,1,2,0:0:0:0:
355,75,81140,1,8,0:0:0:0:
58,216,81503,6,0,L|247:208,1,175,2|8,0:0|0:0,0:0:0:0:
145,162,82048,1,8,0:0:0:0:
399,200,82231,2,0,P|444:166|378:66,1,175,2|8,0:0|0:0,0:0:0:0:
233,87,82776,2,0,L|194:117,2,43.75,8|8|2,0:0|0:0|0:0,0:0:0:0:
481,91,83139,5,6,0:0:0:0:
256,192,83321,12,0,86048,0:0:0:0:
