osu file format v14

[General]
AudioFilename: audio.mp3
AudioLeadIn: 0
PreviewTime: 96240
Countdown: 0
SampleSet: Soft
StackLeniency: 0.6
Mode: 0
LetterboxInBreaks: 0
WidescreenStoryboard: 0

[Editor]
DistanceSpacing: 1
BeatDivisor: 4
GridSize: 32
TimelineZoom: 1.9

[Metadata]
Title:Izu no Odoriko
TitleUnicode:伊豆の踊子
Artist:Ito Kashitaro
ArtistUnicode:伊東歌詞太郎
Creator:William K
Version:Magnificence
Source:
Tags:itou kashitarou たるとP TarutoP まきのせな makinosena off Dancer Dancing girl Itowokashi イトヲカシ
BeatmapID:2303787
BeatmapSetID:593423

[Difficulty]
HPDrainRate:6
CircleSize:4
OverallDifficulty:7
ApproachRate:8.5
SliderMultiplier:2.4
SliderTickRate:1

[Events]
//Background and Video events
0,0,"2017-03-29_22-24-01.jpg",0,0
Video,0,"Vid.avi"
//Break Periods
//Storyboard Layer 0 (Background)
//Storyboard Layer 1 (Fail)
//Storyboard Layer 2 (Pass)
//Storyboard Layer 3 (Foreground)
//Storyboard Layer 4 (Overlay)
//Storyboard Sound Samples

[TimingPoints]
-704,740.740740740741,4,2,1,30,1,0
1518,-133.333333333333,4,2,1,30,0,0
14110,-100,4,2,1,55,0,0
24110,-133.333333333333,4,2,1,55,0,0
25221,-133.333333333333,4,2,1,40,0,0
49666,-111.111111111111,4,2,1,45,0,0
73370,-133.333333333333,4,2,1,35,0,0
79296,-133.333333333333,4,2,1,40,0,0
85221,-120.481927710843,4,2,1,40,0,0
91147,-111.111111111111,4,2,1,45,0,0
94018,-111.111111111111,4,2,1,5,0,0
94110,-111.111111111111,4,2,1,45,0,0
95592,-111.111111111111,4,2,1,50,0,0
96333,-111.111111111111,4,2,1,40,0,0
97073,-100,4,2,1,55,0,1
123740,-100,4,2,1,45,0,0
133740,-133.333333333333,4,2,1,45,0,0
135499,-133.333333333333,4,2,1,5,0,0
135592,-111.111111111111,4,2,1,45,0,0
159296,-120.481927710843,4,2,1,45,0,0
171055,-120.481927710843,4,2,1,5,0,0
171147,-120.481927710843,4,2,1,45,0,0
177073,-111.111111111111,4,2,1,50,0,0
179944,-111.111111111111,4,2,1,5,0,0
180036,-111.111111111111,4,2,1,50,0,0
182258,-111.111111111111,4,2,1,40,0,0
182999,-100,4,2,1,55,0,1
206610,-100,4,2,1,5,0,1
206703,-100,4,2,1,55,0,1
209666,-100,4,2,1,50,0,0
233277,-100,4,2,1,5,0,0
233370,-100,4,2,1,45,0,0
257073,-100,4,2,1,45,0,0
258555,-100,4,2,1,30,0,0
260036,-133.333333333333,4,2,1,30,0,0
271888,-133.333333333333,4,2,1,40,0,0
282629,-133.333333333333,4,2,1,20,0,0
282814,-133.333333333333,4,2,1,30,0,0
282999,-133.333333333333,4,2,1,40,0,0
283647,-133.333333333333,4,2,1,5,0,0
283740,-100,4,2,1,50,0,0
284758,-100,4,2,1,5,0,0
284851,-100,4,2,1,50,0,0
285129,-100,4,2,1,5,0,0
285221,-100,4,2,1,50,0,0
287444,-100,4,2,1,52,0,0
288184,-100,4,2,1,55,0,0
289666,-90.9090909090909,4,2,1,60,0,1
319296,-133.333333333333,4,2,1,45,0,0
324481,-90.9090909090909,4,2,1,60,0,1
328184,-100,4,2,1,40,0,0
330407,-133.333333333333,4,2,1,40,0,0
342073,-133.333333333333,4,2,1,5,0,0
342258,-133.333333333333,4,2,1,40,0,0
351916,740.740740740741,4,2,1,40,1,0
351916,-133.333333333333,4,2,1,40,0,0
353397,759.493670886076,4,2,1,40,1,0
353397,-133.333333333333,4,2,1,40,0,0
354915,789.473684210526,4,2,1,40,1,0
354915,-133.333333333333,4,2,1,40,0,0
356099,821.917808219178,4,2,1,40,1,0
356099,-133.333333333333,4,2,1,40,0,0
356920,895.522388059701,4,2,1,40,1,0
357367,967.741935483871,4,2,1,40,1,0
357367,-133.333333333333,4,2,1,40,0,0
357850,1052.63157894737,4,2,1,40,1,0
358376,1250,4,2,1,40,1,0
359001,722.89156626506,4,2,1,40,1,0
359001,-133.333333333333,4,2,1,40,0,0
359723,869.565217391304,4,2,1,40,1,0
360157,810.810810810811,4,2,1,40,1,0
360157,-133.333333333333,4,2,1,40,0,0
360562,895.522388059701,4,2,1,40,1,0
361009,1090.90909090909,4,2,1,40,1,0
361009,-133.333333333333,4,2,1,40,0,0
361554,1363.63636363636,4,2,1,40,1,0
362235,1111.11111111111,4,2,1,40,1,0
363346,1500,4,2,1,40,1,0
364846,-100,4,2,1,30,0,0
366346,-100,4,2,1,20,0,0
367846,-100,4,2,1,10,0,0
369346,-100,4,2,1,5,0,0

[Colours]
Combo1 : 255,117,117
Combo2 : 255,182,147
Combo3 : 155,255,255
Combo4 : 210,105,0

[HitObjects]
100,126,1519,6,0,L|95:78,2,45.0000017166138,2|0|0,0:0|0:0|0:0,0:0:0:0:
91,211,2073,1,0,0:0:0:0:
178,154,2258,6,0,P|219:132|201:256,1,270.000010299683,2|2,0:0|0:0,0:0:0:0:
76,307,3740,2,0,P|121:308|159:332,1,90.0000034332277,2|0,0:0|0:0,0:0:0:0:
217,260,4481,2,0,P|261:259|299:235,1,90.0000034332277,2|0,0:0|0:0,0:0:0:0:
389,151,5221,6,0,L|384:255,2,90.0000034332277,2|0|2,0:0|0:0|0:0,0:0:0:0:
394,61,6333,1,0,0:0:0:0:
307,151,6703,1,2,0:0:0:0:
307,151,7444,2,0,L|253:141,1,45.0000017166138,2|0,0:0|0:0,0:0:0:0:
343,227,7814,2,0,L|298:235,1,45.0000017166138,2|0,0:0|0:0,0:0:0:0:
160,211,8184,6,0,P|218:210|245:318,1,180.000006866455,2|0,0:0|0:0,0:0:0:0:
158,305,9296,1,2,0:0:0:0:
70,189,9666,2,0,P|93:147|133:123,2,90.0000034332277,2|0|2,0:0|0:0|0:0,0:0:0:0:
160,211,10777,1,0,0:0:0:0:
190,49,11147,6,0,P|213:91|253:115,1,90.0000034332277,2|0,0:0|0:0,0:0:0:0:
332,100,11703,1,0,0:0:0:0:
409,171,11888,2,0,P|410:217|406:263,1,90.0000034332277,2|0,0:0|0:0,0:0:0:0:
417,86,12629,1,2,0:0:0:0:
417,86,13184,1,8,0:0:0:0:
417,86,13277,1,8,0:0:0:0:
417,86,13370,5,10,0:0:0:0:
406,260,13555,1,10,0:3:0:0:
496,174,13740,1,6,0:3:0:0:
408,171,13925,1,0,0:0:0:0:
399,345,14110,6,0,L|260:329,1,120,6|0,0:0|0:0,0:0:0:0:
117,254,14851,2,0,P|170:278|193:332,1,120,2|6,0:0|0:3,0:0:0:0:
52,207,15592,2,0,P|46:135|55:69,2,120,2|4|10,0:0|0:3|0:0,0:0:0:0:
136,57,16703,1,0,0:0:0:0:
201,147,16888,1,8,0:0:0:0:
201,147,16981,1,8,0:0:0:0:
201,147,17073,6,0,P|263:154|321:108,1,120,10|0,0:3|0:0,0:0:0:0:
270,297,17814,2,0,P|246:244|266:189,1,120,10|8,0:0|0:3,0:0:0:0:
91,258,18555,2,0,L|222:247,1,120,6|8,0:3|0:0,0:0:0:0:
210,247,19296,1,10,0:0:0:0:
269,379,19666,1,2,0:0:0:0:
388,190,20036,6,0,L|386:320,1,120,6|0,0:0|0:0,0:0:0:0:
465,147,20777,2,0,P|432:113|349:112,1,120,10|0,0:0|0:0,0:0:0:0:
263,59,21333,1,8,0:0:0:0:
263,59,21425,1,8,0:0:0:0:
263,59,21518,1,10,0:3:0:0:
268,160,21703,1,8,0:0:0:0:
162,43,21888,2,0,L|100:37,1,60,8|0,0:3|0:0,0:0:0:0:
48,203,22258,2,0,P|74:147|158:128,1,120,10|0,0:0|0:0,0:0:0:0:
140,271,22814,1,8,0:0:0:0:
140,271,22907,1,8,0:0:0:0:
140,271,22999,6,0,L|132:199,1,60,6|0,0:0|0:0,0:0:0:0:
230,262,23370,2,0,L|223:321,1,60,2|0,0:0|0:0,0:0:0:0:
222,164,23740,2,0,P|257:160|285:167,1,60,6|0,0:3|0:0,0:0:0:0:
372,377,24110,6,0,B|333:290|418:282|365:187,1,180.000006866455,14|8,0:0|0:3,0:0:0:0:
391,113,25221,2,0,P|436:97|492:112,1,90.0000034332277,2|4,0:0|0:3,0:0:0:0:
362,22,25962,6,0,P|283:64|212:14,1,180.000006866455,6|2,0:0|0:0,0:0:0:0:
147,81,27073,1,0,0:0:0:0:
196,237,27444,2,0,L|204:131,2,90.0000034332277,2|0|2,0:0|0:0|0:0,0:0:0:0:
166,323,28555,1,0,0:0:0:0:
279,259,28925,6,0,P|328:244|381:259,1,90.0000034332277,6|0,0:3|0:0,0:0:0:0:
197,238,29666,2,0,P|152:244|110:229,1,90.0000034332277,2|0,0:0|0:0,0:0:0:0:
275,169,30407,2,0,L|279:262,2,90.0000034332277,2|0|2,0:0|0:0|0:0,0:0:0:0:
197,238,31518,1,4,0:3:0:0:
90,144,31888,6,0,P|149:131|195:134,1,90.0000034332277,6|0,0:3|0:0,0:0:0:0:
350,68,32629,1,2,0:0:0:0:
274,11,32999,1,0,0:0:0:0:
336,162,33370,2,0,P|390:161|431:141,2,90.0000034332277,2|0|2,0:0|0:0|0:0,0:0:0:0:
350,68,34481,1,0,0:0:0:0:
455,128,34851,6,0,B|448:229,2,90.0000034332277,6|0|2,0:3|0:0|0:0,0:0:0:0:
413,1,35962,1,0,0:0:0:0:
350,68,36333,2,0,P|302:55|258:61,1,90.0000034332277,2|0,0:0|0:0,0:0:0:0:
194,194,37073,1,2,0:0:0:0:
191,103,37444,1,4,0:3:0:0:
63,272,37814,6,0,B|165:244|140:309|248:271,1,180.000006866455,6|2,0:0|0:0,0:0:0:0:
194,194,38925,1,0,0:0:0:0:
328,317,39296,2,0,P|372:306|423:318,1,90.0000034332277,2|0,0:0|0:0,0:0:0:0:
481,186,40036,1,2,0:0:0:0:
505,316,40407,1,0,0:0:0:0:
389,212,40777,6,0,P|386:159|415:116,2,90.0000034332277,6|0|2,0:3|0:0|0:0,0:0:0:0:
481,186,41888,1,0,0:0:0:0:
451,46,42258,2,0,L|358:33,1,90.0000034332277,2|0,0:0|0:0,0:0:0:0:
280,118,42999,1,2,0:0:0:0:
265,26,43370,1,4,0:3:0:0:
220,195,43740,6,0,L|228:292,2,90.0000034332277,6|0|2,0:3|0:0|0:0,0:0:0:0:
280,118,44851,1,0,0:0:0:0:
140,226,45221,2,0,P|83:233|26:176,1,135.000005149841,2|0,0:0|0:0,0:0:0:0:
28,183,45962,2,0,P|36:229|28:287,1,90.0000034332277,2|0,0:0|0:0,0:0:0:0:
105,146,46703,6,0,L|101:45,2,90.0000034332277,6|0|2,0:3|0:0|0:0,0:0:0:0:
140,226,47814,1,0,0:0:0:0:
28,183,48184,1,2,0:0:0:0:
195,156,48555,1,4,0:0:0:0:
130,329,48925,5,10,0:0:0:0:
130,329,49110,1,8,0:0:0:0:
220,290,49296,2,0,P|254:279|291:279,1,67.5000025749207,10|0,0:3|0:0,0:0:0:0:
285,278,49666,6,0,P|288:230|356:191,1,107.999996704102,6|0,0:0|0:0,0:0:0:0:
394,106,50407,2,0,L|274:98,1,107.999996704102,2|4,0:0|0:3,0:0:0:0:
481,43,51147,2,0,P|503:92|496:145,2,107.999996704102,10|0|10,0:3|0:0|0:0,0:0:0:0:
394,106,52258,1,0,0:0:0:0:
381,11,52444,1,8,0:0:0:0:
381,11,52536,1,8,0:0:0:0:
381,11,52629,6,0,L|264:-1,2,107.999996704102,10|0|2,0:3|0:0|0:0,0:0:0:0:
481,43,53740,1,4,0:3:0:0:
420,188,54110,2,0,P|413:250|419:318,1,107.999996704102,10|0,0:3|0:0,0:0:0:0:
257,266,54851,2,0,P|306:286|330:333,1,107.999996704102,10|0,0:0|0:0,0:0:0:0:
180,326,55407,1,8,0:0:0:0:
180,326,55499,1,8,0:0:0:0:
180,326,55592,6,0,L|174:211,1,107.999996704102,10|0,0:3|0:0,0:0:0:0:
77,381,56333,1,2,0:0:0:0:
81,273,56703,1,4,0:3:0:0:
272,226,57073,2,0,P|215:240|171:215,2,107.999996704102,10|0|10,0:3|0:0|0:0,0:0:0:0:
355,155,58184,1,0,0:0:0:0:
260,112,58370,1,8,0:0:0:0:
260,112,58462,1,8,0:0:0:0:
260,112,58555,6,0,L|142:117,2,107.999996704102,10|0|2,0:3|0:0|0:0,0:0:0:0:
355,155,59666,1,4,0:3:0:0:
449,103,60036,2,0,L|459:-8,1,107.999996704102,10|0,0:3|0:0,0:0:0:0:
355,155,60777,1,10,0:0:0:0:
462,290,61147,1,0,0:0:0:0:
493,198,61333,1,8,0:0:0:0:
493,198,61425,1,8,0:0:0:0:
493,198,61518,6,0,P|439:193|386:227,1,107.999996704102,10|0,0:3|0:0,0:0:0:0:
306,320,62258,2,0,L|311:193,1,107.999996704102,2|4,0:0|0:3,0:0:0:0:
181,142,62999,2,0,P|219:175|222:243,1,107.999996704102,10|0,0:3|0:0,0:0:0:0:
125,61,63740,1,10,0:0:0:0:
137,219,64110,1,0,0:0:0:0:
181,142,64296,1,8,0:0:0:0:
181,142,64388,1,8,0:0:0:0:
181,142,64481,6,0,P|238:132|289:138,1,107.999996704102,10|0,0:3|0:0,0:0:0:0:
137,219,65221,2,0,P|83:224|30:214,1,107.999996704102,2|12,0:0|0:3,0:0:0:0:
188,34,65962,2,0,L|180:154,1,107.999996704102,10|0,0:3|0:0,0:0:0:0:
340,229,66703,1,10,0:0:0:0:
287,137,67073,1,0,0:0:0:0:
342,56,67258,1,8,0:0:0:0:
342,56,67351,1,8,0:0:0:0:
342,56,67444,6,0,P|391:44|453:77,1,107.999996704102,10|0,0:3|0:0,0:0:0:0:
432,220,68184,1,2,0:0:0:0:
512,147,68555,1,4,0:3:0:0:
498,308,68925,2,0,P|470:324|380:319,1,107.999996704102,10|0,0:3|0:0,0:0:0:0:
432,220,69666,1,10,0:0:0:0:
310,334,70037,1,0,0:0:0:0:
342,244,70221,1,8,0:0:0:0:
342,244,70314,1,8,0:0:0:0:
342,244,70407,6,0,P|291:238|230:283,1,107.999996704102,10|0,0:3|0:0,0:0:0:0:
170,340,71147,1,2,0:0:0:0:
276,155,71518,5,14,0:0:0:0:
276,155,72258,1,4,0:3:0:0:
236,56,72629,2,0,P|171:38|120:43,1,107.999996704102,8|0,0:3|0:0,0:0:0:0:
49,81,73184,1,2,0:0:0:0:
49,81,73277,1,2,0:0:0:0:
49,81,73370,6,0,B|88:169|1:154|55:266,1,180.000006866455,6|2,0:3|0:0,0:0:0:0:
184,274,74481,1,0,0:0:0:0:
130,200,74851,2,0,P|163:185|271:261,1,180.000006866455,2|2,0:0|0:0,0:0:0:0:
311,159,75962,1,0,0:0:0:0:
368,303,76333,6,0,L|473:293,2,90.0000034332277,6|0|2,0:3|0:0|0:0,0:0:0:0:
311,159,77444,1,0,0:0:0:0:
398,185,77814,2,0,P|396:129|299:69,1,180.000006866455,2|2,0:0|0:0,0:0:0:0:
380,0,78925,1,0,0:0:0:0:
224,113,79296,6,0,B|130:69|147:150|45:100,1,180.000006866455,6|2,0:0|0:0,0:0:0:0:
104,32,80407,1,0,0:0:0:0:
182,188,80777,2,0,P|187:238|187:298,1,90.0000034332277,6|0,0:3|0:0,0:0:0:0:
315,368,81518,1,2,0:0:0:0:
344,201,81888,1,0,0:0:0:0:
191,319,82258,6,0,P|146:328|88:310,2,90.0000034332277,6|0|2,0:3|0:0|0:0,0:0:0:0:
296,351,83370,1,4,0:0:0:0:
353,263,83740,2,0,P|344:221|342:170,1,90.0000034332277,10|8,0:3|0:3,0:0:0:0:
448,290,84481,2,0,P|445:334|436:378,1,90.0000034332277,6|4,0:3|0:3,0:0:0:0:
488,209,85221,6,0,P|494:128|387:89,1,199.200002887573,6|2,0:0|0:0,0:0:0:0:
243,134,86333,1,2,0:0:0:0:
146,109,86703,2,0,P|215:41|309:60,1,199.200002887573,2|10,0:0|0:0,0:0:0:0:
338,160,87814,1,2,0:0:0:0:
162,200,88184,6,0,P|120:199|44:180,1,99.6000014437866,6|0,0:0|0:0,0:0:0:0:
192,294,88925,2,0,P|240:280|308:291,1,99.6000014437866,2|8,0:0|0:3,0:0:0:0:
169,164,89666,2,0,P|127:163|51:144,1,99.6000014437866,2|8,0:0|0:3,0:0:0:0:
196,329,90407,2,0,P|244:315|312:326,1,99.6000014437866,10|4,0:0|0:3,0:0:0:0:
458,367,91147,6,0,B|409:260|512:258|451:143,1,215.999993408203,6|8,0:0|0:3,0:0:0:0:
425,65,92258,1,0,0:0:0:0:
359,137,92629,2,0,L|251:123,1,107.999996704102,2|2,0:0|0:0,0:0:0:0:
102,119,93370,5,8,0:0:0:0:
151,37,93555,1,8,0:0:0:0:
163,191,93740,2,0,P|163:231|151:294,1,80.9999975280763,8|0,0:3|0:0,0:0:0:0:
157,271,94110,6,0,P|195:248|271:275,1,107.999996704102,6|0,0:0|0:0,0:0:0:0:
459,383,94851,5,10,0:0:0:0:
486,290,95036,1,8,0:3:0:0:
370,219,95221,1,6,0:3:0:0:
397,312,95407,1,2,0:0:0:0:
485,151,95592,5,10,0:0:0:0:
485,151,95962,1,10,0:0:0:0:
485,151,96333,6,0,P|465:106|484:43,1,107.999996704102,2|2,0:0|0:0,0:0:0:0:
255,84,97073,6,0,P|317:90|356:155,1,120,6|2,0:0|0:0,0:0:0:0:
150,187,97814,2,0,L|285:172,1,120,10|2,0:0|0:0,0:0:0:0:
346,221,98370,1,8,0:0:0:0:
254,366,98555,2,0,L|155:355,1,60,10|8,0:3|0:0,0:0:0:0:
264,268,98925,2,0,L|144:281,1,120,6|10,0:3|0:0,0:0:0:0:
81,84,99666,1,2,0:0:0:0:
176,52,99851,1,8,0:0:0:0:
176,52,99944,1,8,0:0:0:0:
176,52,100036,6,0,P|218:63|259:48,1,60,10|0,0:3|0:0,0:0:0:0:
300,115,100407,2,0,P|342:104|383:119,1,60,2|0,0:0|0:0,0:0:0:0:
178,27,100777,2,0,P|220:38|261:23,1,60,10|0,0:0|0:0,0:0:0:0:
304,147,101147,2,0,P|346:136|387:151,1,60,2|8,0:0|0:0,0:0:0:0:
454,233,101518,1,10,0:3:0:0:
439,321,101703,1,8,0:0:0:0:
358,280,101888,2,0,P|307:298|281:375,1,120,4|8,0:3|0:0,0:0:0:0:
65,362,102629,2,0,P|64:328|75:294,1,60,2|10,0:0|0:0,0:0:0:0:
131,241,102907,1,8,0:0:0:0:
131,241,102999,6,0,P|89:211|74:147,1,120,6|2,0:0|0:0,0:0:0:0:
101,61,103555,1,2,0:0:0:0:
215,156,103740,1,8,0:0:0:0:
215,156,104110,2,0,P|249:162|289:151,1,60,2|8,0:0|0:0,0:0:0:0:
371,64,104481,2,0,P|357:118|358:146,1,60,10|8,0:3|0:0,0:0:0:0:
276,1,104851,1,6,0:3:0:0:
212,65,105036,1,2,0:0:0:0:
343,207,105221,1,8,0:0:0:0:
343,207,105592,1,2,0:0:0:0:
414,324,105777,1,8,0:0:0:0:
414,324,105870,1,8,0:0:0:0:
414,324,105962,6,0,L|336:317,1,60,10|0,0:3|0:0,0:0:0:0:
343,207,106333,2,0,L|265:214,1,60,2|0,0:0|0:0,0:0:0:0:
409,362,106703,2,0,L|331:355,1,60,10|0,0:0|0:0,0:0:0:0:
340,174,107073,2,0,L|262:181,1,60,2|8,0:0|0:0,0:0:0:0:
239,346,107444,1,10,0:3:0:0:
211,264,107629,1,8,0:0:0:0:
121,273,107814,2,0,L|42:284,1,60,4|0,0:3|0:0,0:0:0:0:
3,177,108184,2,0,P|50:150|63:73,1,120,10|2,0:0|0:0,0:0:0:0:
125,22,108740,1,8,0:0:0:0:
125,22,108833,1,8,0:0:0:0:
125,22,108925,6,0,P|170:46|197:43,1,60,6|0,0:0|0:0,0:0:0:0:
252,103,109296,2,0,P|297:79|324:82,1,60,2|0,0:0|0:0,0:0:0:0:
405,9,109666,2,0,L|391:148,1,120,10|2,0:0|0:0,0:0:0:0:
314,171,110221,1,8,0:0:0:0:
438,290,110407,2,0,P|407:271|377:268,1,60,10|8,0:3|0:0,0:0:0:0:
312,317,110777,2,0,P|281:336|251:339,1,60,6|0,0:3|0:0,0:0:0:0:
150,358,111147,2,0,P|171:325|142:246,1,120,10|2,0:0|0:0,0:0:0:0:
41,243,111703,1,8,0:0:0:0:
41,243,111796,1,8,0:0:0:0:
41,243,111888,6,0,P|56:209|52:165,1,60,10|0,0:3|0:0,0:0:0:0:
165,308,112258,2,0,P|151:281|148:251,1,60,2|0,0:0|0:0,0:0:0:0:
10,231,112629,2,0,P|25:197|21:153,1,60,10|0,0:0|0:0,0:0:0:0:
201,299,112999,2,0,P|187:272|184:242,1,60,2|8,0:0|0:0,0:0:0:0:
231,107,113370,1,10,0:3:0:0:
263,191,113555,1,8,0:0:0:0:
325,125,113740,2,0,L|454:115,1,120,4|8,0:3|0:0,0:0:0:0:
486,291,114481,1,2,0:0:0:0:
398,366,114666,1,10,0:0:0:0:
398,366,114758,1,8,0:0:0:0:
398,366,114851,6,0,L|274:358,1,120,6|2,0:0|0:0,0:0:0:0:
228,287,115407,2,0,L|154:301,1,60,2|0,0:0|0:0,0:0:0:0:
316,278,115962,1,6,0:3:0:0:
271,101,116333,1,2,0:0:0:0:
489,158,116703,2,0,L|429:151,1,60,10|2,0:3|0:0,0:0:0:0:
271,101,117073,1,8,0:0:0:0:
271,101,117444,5,2,0:0:0:0:
331,168,117629,1,2,0:0:0:0:
323,27,117814,6,0,P|270:10|197:50,1,120,6|2,0:0|0:0,0:0:0:0:
182,119,118370,2,0,P|133:110|110:90,1,60,2|0,0:0|0:0,0:0:0:0:
331,168,118925,1,6,0:3:0:0:
143,208,119296,1,2,0:0:0:0:
326,347,119666,2,0,L|248:331,1,60,10|2,0:3|0:0,0:0:0:0:
143,208,120036,2,0,L|3:224,1,120,8|6,0:0|0:3,0:0:0:0:
245,57,120777,5,6,0:0:0:0:
255,351,121147,1,2,0:0:0:0:
419,106,121518,1,10,0:0:0:0:
143,208,121888,1,2,0:0:0:0:
426,289,122258,1,8,0:0:0:0:
477,236,123740,6,0,P|484:186|476:107,1,120,6|0,0:0|0:0,0:0:0:0:
331,267,124481,2,0,P|376:236|392:166,1,120,10|0,0:0|0:0,0:0:0:0:
307,182,125036,1,8,0:0:0:0:
348,102,125221,1,10,0:3:0:0:
307,182,125407,1,8,0:0:0:0:
280,48,125592,1,6,0:3:0:0:
280,48,125962,2,0,P|223:21|167:43,1,120,10|0,0:0|0:0,0:0:0:0:
78,22,126518,1,8,0:0:0:0:
78,22,126610,1,8,0:0:0:0:
78,22,126703,6,0,L|68:98,1,60,10|0,0:3|0:0,0:0:0:0:
179,98,127073,2,0,L|171:38,1,60,0|0,0:0|0:0,0:0:0:0:
109,174,127444,2,0,P|159:199|232:184,1,120,10|0,0:0|0:0,0:0:0:0:
304,138,127999,1,8,0:0:0:0:
304,138,128092,1,8,0:0:0:0:
304,138,128184,1,10,0:3:0:0:
308,227,128370,1,8,0:0:0:0:
387,119,128555,1,6,0:3:0:0:
387,119,128925,2,0,P|427:89|509:112,1,120,10|0,0:0|0:0,0:0:0:0:
509,209,129481,1,8,0:0:0:0:
509,209,129573,1,8,0:0:0:0:
509,209,129666,6,0,L|494:343,1,120,6|0,0:0|0:0,0:0:0:0:
288,295,130407,2,0,P|332:266|411:288,1,120,10|0,0:0|0:0,0:0:0:0:
357,361,130962,1,8,0:0:0:0:
357,361,131055,1,0,0:0:0:0:
357,361,131147,1,10,0:3:0:0:
395,275,131333,1,8,0:0:0:0:
266,383,131518,1,6,0:3:0:0:
266,383,131888,2,0,P|202:359|149:381,1,120,10|0,0:0|0:0,0:0:0:0:
52,285,132444,1,8,0:0:0:0:
52,285,132536,1,8,0:0:0:0:
52,285,132629,6,0,L|55:363,1,60,6|0,0:0|0:0,0:0:0:0:
192,283,132999,2,0,P|153:275|125:284,1,60,2|0,0:0|0:0,0:0:0:0:
30,193,133370,2,0,P|69:201|97:192,1,60,2|0,0:0|0:0,0:0:0:0:
144,100,133740,6,0,L|132:298,1,180.000006866455,6|8,0:0|0:0,0:0:0:0:
62,110,134851,1,10,0:0:0:0:
93,33,135036,1,8,0:0:0:0:
149,105,135221,2,0,P|196:111|222:100,1,67.5000025749207,2|0,0:0|0:0,0:0:0:0:
214,104,135592,6,0,L|205:219,2,107.999996704102,6|0|10,0:0|0:0|0:0,0:0:0:0:
309,231,136703,1,10,0:3:0:0:
388,137,136888,1,8,0:0:0:0:
388,137,136981,1,8,0:0:0:0:
388,137,137073,2,0,P|424:128|460:134,1,53.9999983520508,10|8,0:3|0:0,0:0:0:0:
505,179,137351,1,8,0:0:0:0:
505,179,137444,1,4,0:3:0:0:
319,330,137814,2,0,P|305:288|345:220,1,107.999996704102,10|2,0:0|0:0,0:0:0:0:
231,301,138370,1,8,0:0:0:0:
231,301,138462,1,8,0:0:0:0:
231,301,138555,6,0,P|199:320|131:307,1,107.999996704102,10|2,0:3|0:0,0:0:0:0:
328,231,139296,2,0,P|376:252|426:237,1,107.999996704102,10|6,0:0|0:3,0:0:0:0:
440,128,139851,1,8,0:0:0:0:
440,128,139944,1,8,0:0:0:0:
440,128,140036,2,0,L|432:60,1,53.9999983520508,10|8,0:3|0:0,0:0:0:0:
430,2,140314,1,8,0:0:0:0:
430,2,140407,1,4,0:3:0:0:
229,178,140777,1,10,0:0:0:0:
263,13,141147,2,0,P|227:6|200:15,1,53.9999983520508,2|0,0:0|0:0,0:0:0:0:
131,166,141518,6,0,P|168:152|240:197,1,107.999996704102,10|0,0:3|0:0,0:0:0:0:
97,54,142258,1,10,0:0:0:0:
172,244,142629,1,10,0:3:0:0:
291,119,142814,1,8,0:0:0:0:
291,119,142907,1,8,0:0:0:0:
291,119,142999,2,0,P|329:109|352:112,1,53.9999983520508,10|8,0:3|0:0,0:0:0:0:
430,172,143277,1,8,0:0:0:0:
430,172,143370,2,0,L|421:93,1,53.9999983520508,6|0,0:3|0:0,0:0:0:0:
341,306,143740,2,0,L|350:193,1,107.999996704102,10|2,0:0|0:0,0:0:0:0:
253,287,144296,1,8,0:0:0:0:
253,287,144388,1,8,0:0:0:0:
253,287,144481,6,0,P|216:264|144:283,2,107.999996704102,10|0|10,0:3|0:0|0:0,0:0:0:0:
75,340,145592,1,6,0:3:0:0:
64,241,145777,1,8,0:0:0:0:
64,241,145870,1,8,0:0:0:0:
64,241,145962,2,0,L|56:169,1,53.9999983520508,10|8,0:3|0:0,0:0:0:0:
49,107,146240,1,8,0:0:0:0:
49,107,146333,1,4,0:3:0:0:
153,278,146703,1,10,0:0:0:0:
135,44,147073,1,2,0:0:0:0:
349,128,147444,6,0,P|403:123|457:152,2,107.999996704102,10|0|10,0:3|0:0|0:0,0:0:0:0:
503,229,148555,1,10,0:3:0:0:
377,311,148740,2,8,L|375:260,1,26.9999991760254,8|8,0:0|0:0,0:0:0:0:
372,259,148925,2,0,P|341:282|313:284,1,53.9999983520508,10|8,0:3|0:0,0:0:0:0:
246,272,149203,1,8,0:0:0:0:
246,272,149296,1,4,0:3:0:0:
324,375,149666,1,10,0:0:0:0:
270,176,150036,1,2,0:0:0:0:
246,272,150221,1,8,0:0:0:0:
187,140,150407,6,0,P|140:117|74:137,1,107.999996704102,10|2,0:3|0:0,0:0:0:0:
261,76,151147,2,0,L|388:64,1,107.999996704102,10|6,0:0|0:3,0:0:0:0:
418,190,151703,2,8,L|376:192,1,26.9999991760254,8|8,0:0|0:0,0:0:0:0:
368,212,151888,2,0,L|361:143,1,53.9999983520508,10|8,0:3|0:0,0:0:0:0:
368,65,152166,1,8,0:0:0:0:
368,65,152259,1,4,0:3:0:0:
301,266,152629,1,10,0:0:0:0:
261,76,152999,1,2,0:0:0:0:
176,216,153370,6,0,P|136:189|62:189,2,107.999996704102,10|0|10,0:3|0:0|0:0,0:0:0:0:
223,321,154481,1,10,0:3:0:0:
307,271,154666,2,8,L|319:316,1,26.9999991760254,8|8,0:0|0:0,0:0:0:0:
319,325,154851,2,0,P|357:313|381:311,1,53.9999983520508,10|8,0:3|0:0,0:0:0:0:
443,354,155129,1,8,0:0:0:0:
443,354,155221,1,4,0:3:0:0:
401,206,155592,1,10,0:0:0:0:
223,321,155962,1,2,0:0:0:0:
287,213,156147,1,8,0:0:0:0:
287,213,156240,1,8,0:0:0:0:
287,213,156333,6,0,P|276:163|290:99,2,107.999996704102,10|0|10,0:3|0:0|0:0,0:0:0:0:
446,53,157444,6,0,B|348:17|332:113|223:45,1,215.999993408203,14|8,0:0|0:0,0:0:0:0:
66,136,158555,5,10,0:0:0:0:
87,41,158740,1,8,0:0:0:0:
156,108,158925,1,10,0:0:0:0:
18,215,159110,1,2,0:0:0:0:
18,215,159203,1,2,0:0:0:0:
18,215,159296,6,0,P|64:230|124:206,1,99.6000014437866,4|0,0:0|0:0,0:0:0:0:
234,299,160036,2,0,P|185:285|134:300,1,99.6000014437866,10|0,0:3|0:0,0:0:0:0:
262,213,160777,2,0,P|308:228|368:204,1,99.6000014437866,10|0,0:3|0:0,0:0:0:0:
436,103,161518,1,6,0:3:0:0:
432,282,161888,5,10,0:0:0:0:
474,196,162073,1,8,0:0:0:0:
499,344,162258,6,0,P|467:367|396:366,2,99.6000014437866,6|2|10,0:0|0:0|0:3,0:0:0:0:
474,196,163370,1,2,0:0:0:0:
350,218,163740,2,0,L|291:213,2,49.8000007218933,10|8|4,0:3|0:3|0:3,0:0:0:0:
244,116,164481,2,0,L|298:112,2,49.8000007218933,10|8|6,0:3|0:3|0:3,0:0:0:0:
187,314,165221,6,0,L|199:202,1,99.6000014437866,6|0,0:0|0:0,0:0:0:0:
95,111,165962,2,8,L|105:210,1,99.6000014437866,10|0,0:3|0:0,0:0:0:0:
244,116,166703,1,6,0:0:0:0:
136,21,167073,1,2,0:0:0:0:
105,210,167444,1,10,0:3:0:0:
220,32,167814,1,2,0:0:0:0:
336,207,168184,6,0,L|471:185,1,99.6000014437866,6|2,0:0|0:0,0:0:0:0:
474,336,168925,2,0,P|444:293|390:285,1,99.6000014437866,10|2,0:3|0:0,0:0:0:0:
230,342,169666,2,0,P|278:335|314:289,1,99.6000014437866,10|8,0:3|0:0,0:0:0:0:
281,141,170407,5,10,0:0:0:0:
336,207,170592,1,4,0:3:0:0:
350,88,170777,2,0,P|344:40|350:-2,1,74.70000108284,10|0,0:3|0:0,0:0:0:0:
347,14,171147,6,0,B|258:69|259:-12|151:21,1,199.200002887573,6|10,0:0|0:0,0:0:0:0:
281,141,172258,1,2,0:0:0:0:
138,136,172629,2,0,P|170:152|149:293,1,199.200002887573,2|10,0:0|0:0,0:0:0:0:
281,141,173740,1,6,0:3:0:0:
121,215,174110,6,0,P|74:218|20:187,1,99.6000014437866,6|0,0:0|0:0,0:0:0:0:
213,340,174851,2,0,P|214:309|264:247,1,99.6000014437866,10|8,0:0|0:3,0:0:0:0:
129,183,175592,2,0,P|82:185|35:162,1,99.6000014437866,2|8,0:0|0:3,0:0:0:0:
245,356,176333,2,0,P|246:325|298:264,1,99.6000014437866,10|8,0:0|0:0,0:0:0:0:
388,296,176888,1,8,0:0:0:0:
452,206,177073,6,0,L|441:93,1,107.999996704102,6|4,0:0|0:3,0:0:0:0:
261,181,177814,2,0,P|304:185|358:138,1,107.999996704102,10|4,0:0|0:3,0:0:0:0:
250,55,178555,2,0,L|369:44,1,107.999996704102,10|4,0:0|0:3,0:0:0:0:
185,131,179296,5,10,0:0:0:0:
250,55,179481,1,8,0:0:0:0:
261,181,179666,2,0,L|252:279,1,80.9999975280763,10|0,0:3|0:0,0:0:0:0:
253,261,180036,6,0,P|211:244|154:272,1,107.999996704102,6|0,0:0|0:0,0:0:0:0:
401,239,180777,5,10,0:0:0:0:
360,326,180962,1,8,0:3:0:0:
477,250,181147,1,6,0:3:0:0:
436,162,181332,1,2,0:0:0:0:
450,384,181518,5,10,0:0:0:0:
450,384,181888,1,10,0:0:0:0:
450,384,182258,6,0,P|431:345|453:265,1,107.999996704102,2|2,0:0|0:0,0:0:0:0:
506,112,182999,6,0,P|478:131|434:128,1,60,6|0,0:0|0:0,0:0:0:0:
393,67,183370,2,0,P|369:49|339:45,1,60,2|0,0:0|0:0,0:0:0:0:
296,151,183740,2,0,P|273:97|200:75,1,120,10|2,0:0|0:0,0:0:0:0:
67,36,184296,1,8,0:0:0:0:
67,36,184388,1,8,0:0:0:0:
67,36,184481,2,0,L|74:109,1,60,10|8,0:3|0:0,0:0:0:0:
114,176,184851,2,0,L|107:249,1,60,6|0,0:3|0:0,0:0:0:0:
68,347,185221,2,0,P|108:317|187:350,1,120,10|2,0:0|0:0,0:0:0:0:
229,226,185777,1,8,0:0:0:0:
229,226,185870,1,0,0:0:0:0:
229,226,185962,6,0,P|251:250|287:261,1,60,10|0,0:3|0:0,0:0:0:0:
369,333,186333,2,0,P|391:309|427:298,1,60,2|0,0:0|0:0,0:0:0:0:
243,198,186703,2,0,P|265:222|301:233,1,60,10|0,0:0|0:0,0:0:0:0:
387,362,187073,2,0,P|409:338|445:327,1,60,2|8,0:0|0:0,0:0:0:0:
486,177,187444,1,10,0:3:0:0:
504,265,187629,1,8,0:0:0:0:
486,177,187814,2,0,L|502:48,1,120,4|8,0:3|0:0,0:0:0:0:
415,245,188555,1,2,0:0:0:0:
413,96,188740,1,10,0:0:0:0:
413,96,188833,1,8,0:0:0:0:
413,96,188925,6,0,P|351:63|303:81,1,120,6|2,0:0|0:0,0:0:0:0:
266,0,189481,1,2,0:0:0:0:
250,146,189666,1,8,0:0:0:0:
250,146,190036,2,0,P|206:149|169:128,1,60,2|8,0:0|0:0,0:0:0:0:
98,70,190407,2,0,L|106:148,1,60,10|8,0:3|0:0,0:0:0:0:
57,284,190777,1,6,0:3:0:0:
41,196,190962,1,2,0:0:0:0:
205,300,191147,1,8,0:0:0:0:
205,300,191518,2,0,L|270:294,1,60,2|8,0:0|0:0,0:0:0:0:
350,360,191796,1,8,0:0:0:0:
350,360,191888,6,0,P|355:321|374:289,1,60,10|0,0:3|0:0,0:0:0:0:
470,190,192258,2,0,P|465:151|446:119,1,60,2|0,0:0|0:0,0:0:0:0:
382,368,192629,2,0,P|387:329|406:297,1,60,10|0,0:0|0:0,0:0:0:0:
501,185,192999,2,0,P|496:146|477:114,1,60,2|8,0:0|0:0,0:0:0:0:
457,45,193277,1,8,0:0:0:0:
457,45,193370,2,0,L|372:34,1,60,10|0,0:3|0:0,0:0:0:0:
328,72,193647,1,0,0:0:0:0:
328,72,193740,1,4,0:3:0:0:
97,23,194110,2,0,L|110:152,1,120,10|2,0:0|0:0,0:0:0:0:
74,335,194666,2,8,L|113:341,1,30,8|8,0:0|0:0,0:0:0:0:
16,272,194851,6,0,P|46:254|84:254,1,60,6|0,0:0|0:0,0:0:0:0:
180,291,195221,2,0,P|204:307|234:311,1,60,2|0,0:0|0:0,0:0:0:0:
384,371,195592,2,0,P|367:315|405:250,1,120,10|2,0:0|0:0,0:0:0:0:
493,127,196147,1,8,0:0:0:0:
493,127,196240,1,8,0:0:0:0:
493,127,196333,6,0,P|460:139|417:137,1,60,10|8,0:3|0:0,0:0:0:0:
325,164,196703,2,0,P|292:152|249:154,1,60,6|0,0:3|0:0,0:0:0:0:
97,157,197073,2,0,L|108:300,1,120,10|2,0:0|0:0,0:0:0:0:
213,330,197629,1,8,0:0:0:0:
213,330,197721,1,8,0:0:0:0:
213,330,197814,6,0,L|296:325,1,60,10|0,0:3|0:0,0:0:0:0:
192,218,198184,2,0,L|275:223,1,60,2|0,0:0|0:0,0:0:0:0:
212,364,198555,2,0,L|295:359,1,60,10|0,0:0|0:0,0:0:0:0:
193,179,198925,2,0,L|276:184,1,60,2|8,0:0|0:0,0:0:0:0:
334,250,199203,1,8,0:0:0:0:
334,250,199296,1,10,0:3:0:0:
350,153,199481,1,8,0:0:0:0:
420,216,199666,2,0,P|444:156|419:89,1,120,4|8,0:3|0:0,0:0:0:0:
303,27,200407,1,2,0:0:0:0:
150,74,200592,2,8,L|102:67,1,30,10|8,0:0|0:0,0:0:0:0:
213,140,200777,6,0,L|344:122,1,120,6|2,0:0|0:0,0:0:0:0:
340,39,201333,2,0,L|420:52,1,60,2|0,0:0|0:0,0:0:0:0:
150,74,201888,1,6,0:3:0:0:
331,123,202258,1,2,0:0:0:0:
144,250,202629,2,0,L|229:245,1,60,10|2,0:3|0:0,0:0:0:0:
150,74,202999,1,8,0:0:0:0:
76,331,203370,5,2,0:0:0:0:
32,238,203555,1,2,0:0:0:0:
180,353,203740,6,0,P|225:318|305:330,1,120,6|0,0:0|0:0,0:0:0:0:
374,370,204296,1,2,0:0:0:0:
339,228,204481,2,0,P|392:200|466:227,1,120,0|6,0:0|0:3,0:0:0:0:
448,212,205221,1,2,0:0:0:0:
251,116,205592,2,0,L|333:97,1,60,10|2,0:3|0:0,0:0:0:0:
285,319,205962,5,8,0:0:0:0:
285,319,206147,1,4,0:3:0:0:
199,274,206333,2,0,P|225:242|296:223,1,90,10|0,0:3|0:0,0:0:0:0:
357,263,206703,5,6,0:0:0:0:
98,69,207073,1,10,0:0:0:0:
193,378,207444,1,10,0:0:0:0:
298,72,207814,1,10,0:0:0:0:
34,259,208184,1,12,0:0:0:0:
357,263,208555,1,8,0:0:0:0:
357,263,208740,1,10,0:0:0:0:
285,319,208925,5,10,0:0:0:0:
269,223,209110,1,8,0:0:0:0:
436,197,209296,1,10,0:0:0:0:
452,293,209481,1,10,0:0:0:0:
253,132,209666,6,0,P|258:44|283:18,1,120,6|8,0:0|0:3,0:0:0:0:
332,91,210221,1,2,0:0:0:0:
269,223,210407,1,6,0:3:0:0:
269,223,210777,2,0,B|192:201|225:245|144:221,1,120,10|8,0:0|0:3,0:0:0:0:
179,138,211333,1,2,0:0:0:0:
241,304,211518,1,6,0:3:0:0:
241,304,211888,1,8,0:0:0:0:
329,289,212073,2,0,L|363:285,2,30,0|2|8,0:0|0:0|0:3,0:0:0:0:
241,304,212444,2,0,L|211:307,1,30,2|2,0:0|0:0,0:0:0:0:
304,376,212629,6,0,L|430:362,1,120,6|10,0:0|0:3,0:0:0:0:
485,299,213184,2,0,P|475:262|479:224,1,60,2|4,0:0|0:3,0:0:0:0:
502,154,213555,1,2,0:0:0:0:
394,241,213740,2,0,P|341:240|283:193,1,120,10|8,0:0|0:3,0:0:0:0:
367,153,214296,2,0,P|390:126|417:115,2,60,0|6|0,0:0|0:3|0:0,0:0:0:0:
296,326,214851,2,0,L|214:315,1,60,10|2,0:0|0:0,0:0:0:0:
170,278,215129,1,2,0:0:0:0:
170,278,215221,2,0,P|160:309|166:349,1,60,10|2,0:3|0:0,0:0:0:0:
101,170,215592,6,0,L|105:241,1,60,6|0,0:0|0:0,0:0:0:0:
188,132,215962,2,0,L|184:203,1,60,10|2,0:3|0:0,0:0:0:0:
115,83,216333,1,6,0:3:0:0:
101,170,216518,1,0,0:0:0:0:
205,39,216703,1,10,0:0:0:0:
40,11,216888,1,0,0:0:0:0:
188,132,217073,6,0,L|259:119,1,60,10|2,0:3|0:0,0:0:0:0:
328,92,217351,1,2,0:0:0:0:
328,92,217444,2,0,P|322:138|326:168,1,60,10|0,0:3|0:0,0:0:0:0:
488,166,217814,5,10,0:0:0:0:
462,66,217999,1,0,0:0:0:0:
394,224,218184,1,6,0:3:0:0:
381,15,218370,1,2,0:0:0:0:
486,258,218555,6,0,L|479:336,1,60,6|0,0:0|0:0,0:0:0:0:
394,224,218925,1,10,0:3:0:0:
389,384,219110,2,0,L|383:324,1,60,2|4,0:0|0:3,0:0:0:0:
311,187,219481,1,2,0:0:0:0:
288,343,219666,1,10,0:0:0:0:
250,260,219851,1,2,0:0:0:0:
250,260,219944,1,2,0:0:0:0:
250,260,220036,5,10,0:0:0:0:
201,384,220221,1,8,0:0:0:0:
169,304,220407,2,0,L|160:222,1,60,4|0,0:3|0:0,0:0:0:0:
171,153,220777,6,0,P|206:152|223:158,2,40,10|8|4,0:0|0:0|0:3,0:0:0:0:
79,228,221147,2,0,P|44:229|27:223,2,40,10|8|4,0:3|0:3|0:3,0:0:0:0:
70,99,221518,6,0,L|75:8,1,60,6|0,0:0|0:0,0:0:0:0:
171,153,221888,1,10,0:3:0:0:
234,69,222073,2,0,L|231:10,1,60,2|4,0:0|0:3,0:0:0:0:
171,153,222444,1,10,0:3:0:0:
320,127,222629,2,0,L|444:103,1,120,10|4,0:0|0:3,0:0:0:0:
504,166,223184,1,2,0:0:0:0:
466,249,223370,2,0,P|461:284|464:325,1,60,0|0,0:0|0:0,0:0:0:0:
291,279,223740,2,0,P|339:259|374:264,1,60,8|0,0:0|0:0,0:0:0:0:
378,343,224018,1,2,0:0:0:0:
378,343,224110,1,4,0:3:0:0:
461,308,224296,1,2,0:0:0:0:
283,379,224481,6,0,L|208:371,1,60,6|0,0:0|0:0,0:0:0:0:
134,364,224851,1,10,0:3:0:0:
291,279,225036,2,0,L|216:287,1,60,2|4,0:0|0:3,0:0:0:0:
134,364,225407,1,10,0:3:0:0:
169,193,225592,2,0,P|216:228|231:285,1,120,10|4,0:0|0:3,0:0:0:0:
223,372,226147,1,2,0:0:0:0:
142,278,226333,1,0,0:0:0:0:
51,370,226518,1,2,0:0:0:0:
51,370,226610,1,8,0:0:0:0:
51,370,226703,5,10,0:0:0:0:
230,284,226888,1,8,0:0:0:0:
72,164,227073,1,10,0:0:0:0:
134,371,227258,1,8,0:0:0:0:
257,200,227444,6,0,L|245:76,1,120,6|8,0:0|0:3,0:0:0:0:
340,67,227999,1,2,0:0:0:0:
354,217,228184,2,0,L|348:142,1,60,10|0,0:0|0:0,0:0:0:0:
445,148,228555,1,10,0:3:0:0:
453,298,228740,2,0,L|447:223,1,60,2|8,0:0|0:0,0:0:0:0:
354,217,229110,1,2,0:0:0:0:
371,375,229296,2,0,L|365:300,1,60,10|0,0:3|0:0,0:0:0:0:
258,384,229666,2,0,L|263:238,1,120,10|0,0:0|0:0,0:0:0:0:
275,167,230221,1,0,0:0:0:0:
169,283,230407,6,0,P|110:288|54:242,1,120,6|8,0:0|0:3,0:0:0:0:
135,189,230962,1,2,0:0:0:0:
262,264,231147,2,0,L|260:347,1,60,10|0,0:0|0:0,0:0:0:0:
133,129,231518,2,0,L|135:211,1,60,10|0,0:0|0:0,0:0:0:0:
328,189,231888,2,0,P|301:170|258:170,1,60,10|0,0:0|0:0,0:0:0:0:
115,305,232258,2,0,P|144:300|168:282,1,60,10|0,0:0|0:0,0:0:0:0:
214,74,232629,5,10,0:0:0:0:
274,166,232814,1,8,0:0:0:0:
331,34,232999,2,0,P|374:30|425:58,1,90,10|0,0:3|0:0,0:0:0:0:
415,49,233370,6,0,P|375:101|390:170,1,120,6|0,0:0|0:0,0:0:0:0:
408,334,234110,2,0,P|382:273|315:251,1,120,10|0,0:0|0:0,0:0:0:0:
274,166,234666,1,8,0:0:0:0:
274,166,234758,1,8,0:0:0:0:
274,166,234851,1,10,0:3:0:0:
336,251,235036,1,8,0:0:0:0:
189,233,235221,1,4,0:3:0:0:
189,233,235592,1,10,0:0:0:0:
379,152,235962,1,2,0:0:0:0:
282,55,236147,1,8,0:0:0:0:
282,55,236240,1,8,0:0:0:0:
282,55,236333,6,0,P|245:40|212:43,1,60,10|0,0:3|0:0,0:0:0:0:
132,247,236703,2,0,P|161:245|188:232,1,60,2|0,0:0|0:0,0:0:0:0:
243,142,237073,2,0,L|111:150,1,120,10|2,0:0|0:0,0:0:0:0:
43,211,237629,1,8,0:0:0:0:
43,211,237721,1,8,0:0:0:0:
43,211,237814,1,10,0:3:0:0:
123,149,237999,1,8,0:0:0:0:
52,308,238184,1,4,0:3:0:0:
52,308,238555,1,10,0:0:0:0:
31,109,238925,1,2,0:0:0:0:
123,149,239110,1,8,0:0:0:0:
123,149,239203,1,8,0:0:0:0:
123,149,239296,6,0,P|158:107|243:117,1,120,10|0,0:3|0:0,0:0:0:0:
235,290,240036,2,0,P|196:245|196:186,1,120,10|0,0:0|0:0,0:0:0:0:
291,210,240592,1,8,0:0:0:0:
291,210,240684,1,8,0:0:0:0:
291,210,240777,1,10,0:3:0:0:
196,186,240962,1,8,0:0:0:0:
343,131,241147,1,4,0:3:0:0:
343,131,241518,2,0,P|377:182|371:256,1,120,10|2,0:0|0:0,0:0:0:0:
308,306,242073,1,8,0:0:0:0:
308,306,242166,1,8,0:0:0:0:
308,306,242258,6,0,P|345:329|374:332,1,60,10|0,0:3|0:0,0:0:0:0:
429,213,242629,2,0,P|400:221|376:238,1,60,2|0,0:0|0:0,0:0:0:0:
261,366,242999,2,0,L|246:234,1,120,10|2,0:0|0:0,0:0:0:0:
174,183,243555,1,8,0:0:0:0:
174,183,243647,1,8,0:0:0:0:
174,183,243740,1,8,0:3:0:0:
247,246,243925,1,8,0:0:0:0:
237,105,244110,2,0,P|233:71|241:32,1,60,4|0,0:3|0:0,0:0:0:0:
174,183,244481,2,0,P|143:181|109:159,1,60,10|0,0:0|0:0,0:0:0:0:
247,246,244851,2,0,P|273:232|303:230,1,60,2|8,0:0|0:0,0:0:0:0:
388,250,245129,1,8,0:0:0:0:
388,250,245221,6,0,L|379:381,1,120,6|0,0:0|0:0,0:0:0:0:
459,206,245962,2,0,L|450:86,1,120,10|0,0:0|0:0,0:0:0:0:
370,154,246518,1,8,0:0:0:0:
370,154,246610,1,8,0:0:0:0:
370,154,246703,1,10,0:3:0:0:
450,86,246888,1,8,0:0:0:0:
303,76,247073,1,4,0:3:0:0:
303,76,247444,1,10,0:0:0:0:
459,206,247814,1,2,0:0:0:0:
370,154,247999,1,8,0:0:0:0:
370,154,248092,1,8,0:0:0:0:
370,154,248184,6,0,P|359:200|361:232,1,60,10|0,0:3|0:0,0:0:0:0:
260,369,248555,2,0,P|257:339|248:310,1,60,2|0,0:0|0:0,0:0:0:0:
157,237,248925,2,0,L|279:227,1,120,10|2,0:0|0:0,0:0:0:0:
348,313,249481,1,8,0:0:0:0:
348,313,249573,1,8,0:0:0:0:
348,313,249666,1,10,0:3:0:0:
276,227,249851,1,8,0:0:0:0:
165,359,250036,1,4,0:3:0:0:
165,359,250407,2,0,P|121:321|49:335,1,120,10|2,0:0|0:0,0:0:0:0:
0,260,250962,1,8,0:0:0:0:
0,260,251055,1,8,0:0:0:0:
0,260,251147,6,0,P|41:220|33:161,1,120,6|0,0:0|0:0,0:0:0:0:
33,161,251888,2,0,P|83:149|114:155,1,60,10|0,0:0|0:0,0:0:0:0:
222,347,252258,2,0,P|172:359|141:353,1,60,8|0,0:0|0:0,0:0:0:0:
199,129,252629,2,0,P|249:117|280:123,1,60,10|0,0:0|0:0,0:0:0:0:
385,311,252999,2,0,P|335:323|304:317,1,60,10|0,0:0|0:0,0:0:0:0:
74,303,253370,2,0,L|84:218,1,60,10|0,0:0|0:0,0:0:0:0:
337,175,253740,2,0,L|344:234,1,60,10|0,0:0|0:0,0:0:0:0:
256,117,254110,6,0,P|296:85|372:83,1,120,6|8,0:0|0:3,0:0:0:0:
337,175,254666,1,2,0:0:0:0:
455,104,254851,1,4,0:3:0:0:
455,104,255221,2,0,L|449:250,1,120,8|2,0:0|0:0,0:0:0:0:
362,80,255962,1,8,0:3:0:0:
309,266,256333,1,10,0:3:0:0:
496,220,256703,1,4,0:3:0:0:
256,144,257073,6,0,B|203:112|159:165|183:213|183:213|204:245|245:239|260:288,1,240,6|2,0:0|0:0,0:0:0:0:
256,144,258555,6,0,B|309:112|353:165|329:213|329:213|308:245|267:239|256:280,1,240,6|2,0:0|0:0,0:0:0:0:
256,277,259666,1,2,0:0:0:0:
256,380,260036,6,0,P|289:361|351:366,1,90.0000034332277,2|0,0:0|0:0,0:0:0:0:
430,377,260777,2,0,L|426:286,1,90.0000034332277,0|0,0:0|0:0,0:0:0:0:
512,192,261518,2,0,P|499:149|466:119,1,90.0000034332277,2|0,0:0|0:0,0:0:0:0:
424,200,262258,2,0,L|323:213,1,90.0000034332277,0|0,0:0|0:0,0:0:0:0:
226,115,262999,6,0,P|176:114|134:145,1,90.0000034332277,2|0,0:0|0:0,0:0:0:0:
290,178,263740,2,0,P|315:135|310:83,1,90.0000034332277,2|0,0:0|0:0,0:0:0:0:
138,43,264481,2,0,L|149:231,1,180.000006866455,2|2,0:0|0:0,0:0:0:0:
157,313,265592,2,0,P|185:310|209:317,1,45.0000017166138,2|0,0:0|0:0,0:0:0:0:
240,337,265962,6,0,P|247:295|296:263,1,90.0000034332277,2|0,0:0|0:0,0:0:0:0:
327,268,266518,2,0,P|332:307|425:343,1,135.000005149841,2|0,0:0|0:0,0:0:0:0:
492,217,267444,2,0,P|467:197|406:198,1,90.0000034332277,2|0,0:0|0:0,0:0:0:0:
369,214,267999,2,0,P|400:156|359:90,1,135.000005149841,2|0,0:0|0:0,0:0:0:0:
182,65,268925,6,0,L|192:166,1,90.0000034332277,2|0,0:0|0:0,0:0:0:0:
122,214,269666,2,0,L|113:303,1,90.0000034332277,2|0,0:0|0:0,0:0:0:0:
0,375,270407,2,0,B|79:340|91:426|181:358,1,180.000006866455,2|2,0:0|0:0,0:0:0:0:
247,311,271518,1,0,0:0:0:0:
426,377,271888,6,0,P|418:349|440:286,1,90.0000034332277,2|0,0:0|0:0,0:0:0:0:
501,205,272629,2,0,L|405:188,1,90.0000034332277,2|0,0:0|0:0,0:0:0:0:
303,80,273370,2,0,P|269:54|212:57,1,90.0000034332277,2|0,0:0|0:0,0:0:0:0:
122,91,274110,2,0,P|138:118|135:182,1,90.0000034332277,2|0,0:0|0:0,0:0:0:0:
77,352,274851,6,0,P|102:325|164:319,1,90.0000034332277,2|0,0:0|0:0,0:0:0:0:
10,211,275592,2,0,P|35:238|97:244,1,90.0000034332277,2|0,0:0|0:0,0:0:0:0:
233,384,276333,2,0,P|240:346|372:314,1,180.000006866455,2|2,0:0|0:0,0:0:0:0:
460,345,277444,2,0,P|457:311|466:283,1,45.0000017166138,2|0,0:0|0:0,0:0:0:0:
501,229,277814,6,0,P|505:186|471:131,1,90.0000034332277,2|0,0:0|0:0,0:0:0:0:
442,85,278370,2,0,P|406:103|322:50,1,135.000005149841,2|0,0:0|0:0,0:0:0:0:
150,37,279296,2,0,L|160:139,1,90.0000034332277,2|0,0:0|0:0,0:0:0:0:
163,202,279851,2,0,P|136:174|46:204,1,135.000005149841,2|2,0:0|0:0,0:0:0:0:
32,269,280592,1,0,0:0:0:0:
75,332,280777,6,0,L|178:325,1,90.0000034332277,2|0,0:0|0:0,0:0:0:0:
217,382,281333,2,0,P|211:332|291:289,1,135.000005149841,2|0,0:0|0:0,0:0:0:0:
403,368,282258,2,0,L|401:278,1,90.0000034332277,2|6,0:0|0:0,0:0:0:0:
397,201,282814,1,2,0:0:0:0:
486,324,282999,5,8,0:0:0:0:
512,143,283184,1,8,0:0:0:0:
397,201,283370,2,0,P|349:210|322:204,1,67.5000025749207,10|0,0:3|0:0,0:0:0:0:
331,206,283740,6,0,P|349:177|321:95,1,120,6|10,0:0|0:3,0:0:0:0:
240,132,284296,1,4,0:3:0:0:
179,17,284481,2,0,P|149:44|85:49,1,90,10|0,0:3|0:0,0:0:0:0:
68,47,284851,2,0,P|92:84|85:146,1,90,10|0,0:0|0:0,0:0:0:0:
81,161,285221,5,8,0:0:0:0:
240,132,285407,1,8,0:0:0:0:
179,17,285592,1,8,0:3:0:0:
134,233,285777,1,10,0:0:0:0:
134,233,285870,1,8,0:0:0:0:
134,233,285962,5,10,0:0:0:0:
179,17,286147,1,8,0:0:0:0:
260,90,286333,1,10,0:3:0:0:
155,124,286518,1,6,0:3:0:0:
287,240,286703,6,0,L|412:224,1,120,14|0,0:0|0:0,0:0:0:0:
179,17,287444,2,0,L|304:33,1,120,14|0,0:0|0:0,0:0:0:0:
9,254,288184,2,0,L|120:237,1,90,14|8,0:0|0:0,0:0:0:0:
134,233,288555,5,8,0:0:0:0:
68,47,288740,1,8,0:0:0:0:
287,240,288925,5,10,0:0:0:0:
100,140,289110,1,8,0:0:0:0:
255,333,289296,5,10,0:0:0:0:
321,147,289481,1,8,0:0:0:0:
165,326,289666,6,0,L|90:344,1,66.0000020141602,6|0,0:0|0:0,0:0:0:0:
39,226,290036,2,0,L|119:243,1,66.0000020141602,2|0,0:0|0:0,0:0:0:0:
190,64,290407,2,0,P|133:79|98:143,1,132.00000402832,10|2,0:0|0:0,0:0:0:0:
264,118,290962,1,8,0:0:0:0:
264,118,291055,1,8,0:0:0:0:
264,118,291147,2,0,P|282:77|280:33,1,66.0000020141602,10|8,0:3|0:0,0:0:0:0:
182,159,291518,2,0,P|196:185|202:220,1,66.0000020141602,6|0,0:3|0:0,0:0:0:0:
383,243,291888,2,0,P|352:228|268:271,1,132.00000402832,10|2,0:0|0:0,0:0:0:0:
456,309,292444,1,8,0:0:0:0:
456,309,292536,1,8,0:0:0:0:
456,309,292629,6,0,L|523:299,1,66.0000020141602,10|0,0:3|0:0,0:0:0:0:
285,292,292999,2,0,L|351:301,1,66.0000020141602,2|0,0:0|0:0,0:0:0:0:
453,340,293370,2,0,L|518:328,1,66.0000020141602,10|0,0:0|0:0,0:0:0:0:
279,260,293740,2,0,L|345:268,1,66.0000020141602,2|8,0:0|0:0,0:0:0:0:
416,232,294018,1,8,0:0:0:0:
416,232,294110,1,10,0:3:0:0:
399,108,294296,1,8,0:0:0:0:
277,171,294481,2,0,P|280:138|291:94,1,66.0000020141602,4|0,0:3|0:0,0:0:0:0:
180,237,294851,2,0,P|149:210|54:234,1,132.00000402832,8|2,0:0|0:0,0:0:0:0:
108,358,295407,1,10,0:0:0:0:
108,358,295499,1,8,0:0:0:0:
108,358,295592,6,0,P|114:325|112:272,1,66.0000020141602,6|0,0:0|0:0,0:0:0:0:
30,143,295962,1,2,0:0:0:0:
28,308,296147,1,2,0:0:0:0:
90,75,296333,1,8,0:0:0:0:
90,75,296703,2,0,P|132:65|172:77,1,66.0000020141602,2|8,0:0|0:0,0:0:0:0:
238,21,296981,1,8,0:0:0:0:
238,21,297073,2,0,L|226:112,1,66.0000020141602,10|8,0:3|0:0,0:0:0:0:
180,237,297444,1,6,0:3:0:0:
153,68,297629,1,2,0:0:0:0:
379,105,297814,1,8,0:0:0:0:
379,105,298184,2,0,L|384:189,1,66.0000020141602,2|8,0:0|0:0,0:0:0:0:
390,273,298462,1,8,0:0:0:0:
390,273,298555,6,0,P|348:242|311:237,1,66.0000020141602,10|0,0:3|0:0,0:0:0:0:
94,273,298925,2,0,P|118:249|149:237,1,66.0000020141602,2|0,0:0|0:0,0:0:0:0:
392,303,299296,2,0,P|350:272|313:267,1,66.0000020141602,10|0,0:0|0:0,0:0:0:0:
91,303,299666,2,0,P|115:279|145:267,1,66.0000020141602,2|8,0:0|0:0,0:0:0:0:
247,327,299944,1,8,0:0:0:0:
247,327,300036,2,0,L|253:245,1,66.0000020141602,10|8,0:3|0:0,0:0:0:0:
234,168,300314,1,8,0:0:0:0:
234,168,300407,2,0,L|228:81,1,66.0000020141602,4|0,0:3|0:0,0:0:0:0:
443,201,300777,2,0,P|387:169|320:193,1,132.00000402832,10|2,0:0|0:0,0:0:0:0:
166,100,301333,1,8,0:0:0:0:
166,100,301425,1,0,0:0:0:0:
166,100,301518,6,0,P|200:108|232:102,1,66.0000020141602,6|0,0:0|0:0,0:0:0:0:
87,37,301888,2,0,P|66:80|67:109,1,66.0000020141602,2|0,0:0|0:0,0:0:0:0:
253,162,302258,2,0,P|246:128|228:100,1,66.0000020141602,10|0,0:0|0:0,0:0:0:0:
1,104,302628,2,0,P|30:107|69:94,1,66.0000020141602,2|8,0:0|0:0,0:0:0:0:
119,173,302907,1,8,0:0:0:0:
119,173,302999,6,0,L|110:255,1,66.0000020141602,10|8,0:3|0:0,0:0:0:0:
252,187,303370,2,0,L|245:115,1,66.0000020141602,6|0,0:3|0:0,0:0:0:0:
112,232,303740,2,0,L|103:314,1,66.0000020141602,10|0,0:0|0:0,0:0:0:0:
245,246,304111,2,0,L|237:178,1,66.0000020141602,2|8,0:0|0:0,0:0:0:0:
186,314,304388,1,8,0:0:0:0:
186,314,304481,6,0,P|221:334|259:335,1,66.0000020141602,10|0,0:3|0:0,0:0:0:0:
99,238,304851,2,0,P|71:255|38:263,1,66.0000020141602,2|0,0:0|0:0,0:0:0:0:
181,340,305221,2,0,P|219:362|258:365,1,66.0000020141602,10|0,0:0|0:0,0:0:0:0:
89,204,305592,2,0,P|61:221|28:229,1,66.0000020141602,2|8,0:0|0:0,0:0:0:0:
31,151,305870,1,8,0:0:0:0:
31,151,305962,1,10,0:3:0:0:
175,151,306147,1,8,0:0:0:0:
119,78,306333,2,0,P|154:58|200:55,1,66.0000020141602,4|0,0:3|0:0,0:0:0:0:
286,184,306703,2,0,P|247:196|171:142,1,132.00000402832,8|2,0:0|0:0,0:0:0:0:
265,47,307258,1,10,0:0:0:0:
265,47,307351,1,8,0:0:0:0:
265,47,307444,6,0,P|309:34|378:83,1,132.00000402832,6|2,0:0|0:0,0:0:0:0:
384,168,307999,1,2,0:0:0:0:
472,14,308184,2,0,L|489:158,1,132.00000402832,8|2,0:0|0:0,0:0:0:0:
381,233,308740,1,8,0:0:0:0:
381,233,308833,1,8,0:0:0:0:
381,233,308925,2,0,L|384:152,1,66.0000020141602,10|8,0:3|0:0,0:0:0:0:
509,294,309296,1,6,0:3:0:0:
487,145,309481,1,2,0:0:0:0:
413,315,309666,2,0,B|340:342|363:291|282:313,1,132.00000402832,8|2,0:0|0:0,0:0:0:0:
114,335,310221,1,10,0:0:0:0:
114,335,310314,1,8,0:0:0:0:
114,335,310407,6,0,P|161:321|224:378,1,132.00000402832,6|2,0:0|0:0,0:0:0:0:
282,227,310962,1,2,0:0:0:0:
165,98,311147,2,0,P|170:150|178:237,1,132.00000402832,8|2,0:0|0:0,0:0:0:0:
31,265,311703,1,8,0:0:0:0:
107,371,311888,2,0,P|115:342|110:298,1,66.0000020141602,10|8,0:3|0:0,0:0:0:0:
23,135,312258,1,6,0:3:0:0:
21,352,312444,1,2,0:0:0:0:
119,136,312629,2,0,P|171:121|247:167,1,132.00000402832,8|2,0:0|0:0,0:0:0:0:
369,111,313184,1,8,0:0:0:0:
369,111,313277,1,8,0:0:0:0:
369,111,313370,6,0,P|325:94|287:102,1,66.0000020141602,6|0,0:0|0:0,0:0:0:0:
238,240,313740,2,0,P|267:239|299:217,1,66.0000020141602,6|0,0:3|0:0,0:0:0:0:
204,40,314110,2,0,L|190:128,1,66.0000020141602,10|0,0:0|0:0,0:0:0:0:
399,266,314481,2,0,L|389:198,1,66.0000020141602,10|0,0:3|0:0,0:0:0:0:
84,228,314851,2,0,P|112:202|185:193,1,99.0000030212403,8|0,0:0|0:0,0:0:0:0:
238,240,315221,5,8,0:0:0:0:
417,46,315407,1,10,0:0:0:0:
318,272,315592,1,10,0:0:0:0:
194,99,315777,1,8,0:3:0:0:
301,187,315962,1,10,0:3:0:0:
251,333,316147,1,6,0:3:0:0:
194,99,316333,6,0,P|205:62|292:30,1,132.00000402832,6|4,0:0|0:3,0:0:0:0:
339,105,316888,1,8,0:3:0:0:
417,46,317073,2,0,P|475:37|501:46,1,66.0000020141602,2|0,0:0|0:0,0:0:0:0:
285,28,317444,2,0,P|220:52|148:21,1,132.00000402832,4|0,0:0|0:0,0:0:0:0:
209,296,318184,2,0,P|252:282|315:307,1,99.0000030212403,8|8,0:0|0:0,0:0:0:0:
366,353,318555,5,8,0:0:0:0:
339,105,318740,1,8,0:0:0:0:
421,234,318925,2,0,L|349:227,1,66.0000020141602,10|0,0:3|0:0,0:0:0:0:
238,143,319296,6,0,P|271:182|273:226,1,90.0000034332277,2|0,0:0|0:0,0:0:0:0:
185,216,319851,2,0,L|39:199,1,135.000005149841,2|0,0:0|0:0,0:0:0:0:
72,378,320777,2,0,P|39:339|37:295,1,90.0000034332277,2|0,0:0|0:0,0:0:0:0:
125,303,321333,2,0,L|276:320,1,135.000005149841,2|2,0:0|0:0,0:0:0:0:
329,372,322073,1,0,0:0:0:0:
389,301,322258,6,0,P|385:264|409:212,1,90.0000034332277,2|0,0:0|0:0,0:0:0:0:
469,155,322814,2,0,P|421:182|352:149,1,135.000005149841,2|0,0:0|0:0,0:0:0:0:
191,71,323740,2,0,P|195:108|171:160,1,90.0000034332277,2|2,0:0|0:0,0:0:0:0:
111,217,324296,1,2,0:0:0:0:
42,126,324481,6,0,P|76:123|102:122,2,44.0000013427735,8|8|8,0:3|0:0|0:0,0:0:0:0:
265,100,324851,1,10,0:0:0:0:
233,80,324975,2,0,P|198:72|170:69,1,44.0000013427735,8|4,0:3|0:3,0:0:0:0:
111,217,325221,6,0,P|99:256|98:297,1,66.0000020141602,6|0,0:0|0:0,0:0:0:0:
199,332,325592,2,0,P|196:293|185:265,1,66.0000020141602,2|0,0:0|0:0,0:0:0:0:
218,37,325962,2,0,P|193:112|232:174,1,132.00000402832,10|2,0:0|0:0,0:0:0:0:
273,235,326518,1,0,0:0:0:0:
316,44,326703,2,0,L|464:26,1,132.00000402832,8|0,0:3|0:0,0:0:0:0:
503,101,327258,1,2,0:0:0:0:
325,107,327444,2,0,P|317:38|322:24,1,66.0000020141602,10|0,0:0|0:0,0:0:0:0:
492,260,327814,2,0,P|501:193|496:179,1,66.0000020141602,10|2,0:0|0:0,0:0:0:0:
503,101,328184,5,0,0:0:0:0:
256,192,328370,12,0,330221,0:0:0:0:
321,102,330407,6,0,P|332:137|332:157,1,45.0000017166138,2|0,0:0|0:0,0:0:0:0:
234,111,330777,2,0,P|234:81|242:65,1,45.0000017166138,2|0,0:0|0:0,0:0:0:0:
258,203,331147,6,0,B|132:285|133:119|-9:205,1,270.000010299683,2|2,0:0|0:0,0:0:0:0:
52,359,332629,2,0,P|70:313|56:256,1,90.0000034332277,2|0,0:0|0:0,0:0:0:0:
126,122,333370,2,0,P|121:166|138:207,1,90.0000034332277,2|0,0:0|0:0,0:0:0:0:
298,301,334110,6,0,P|253:278|196:289,2,90.0000034332277,2|0|2,0:0|0:0|0:0,0:0:0:0:
388,374,335221,1,2,0:0:0:0:
440,187,335592,1,2,0:0:0:0:
440,187,336333,2,0,L|383:174,1,45.0000017166138,2|0,0:0|0:0,0:0:0:0:
512,91,336703,2,0,L|468:101,1,45.0000017166138,2|0,0:0|0:0,0:0:0:0:
318,122,337073,6,0,P|348:168|252:253,1,180.000006866455,2|2,0:0|0:0,0:0:0:0:
177,219,338184,1,2,0:0:0:0:
232,47,338555,2,0,L|229:144,2,90.0000034332277,2|0|2,0:0|0:0|0:0,0:0:0:0:
177,219,339666,1,0,0:0:0:0:
72,76,340036,6,0,P|100:131|93:173,1,90.0000034332277,2|0,0:0|0:0,0:0:0:0:
60,229,340592,1,0,0:0:0:0:
105,299,340777,2,0,P|149:281|212:307,1,90.0000034332277,2|0,0:0|0:0,0:0:0:0:
336,355,341518,2,0,B|308:290|365:286|326:219,1,135.000005149841,2|0,0:0|0:0,0:0:0:0:
310,144,342258,2,0,P|273:161|254:192,1,45.0000017166138,2|0,0:0|0:0,0:0:0:0:
390,167,342629,2,0,P|408:180|429:186,1,45.0000017166138,2|0,0:0|0:0,0:0:0:0:
466,26,342999,6,0,P|442:77|451:130,2,90.0000034332277,2|0|2,0:0|0:0|0:0,0:0:0:0:
349,49,344110,1,2,0:0:0:0:
349,49,344481,2,0,P|297:72|251:60,1,90.0000034332277,2|0,0:0|0:0,0:0:0:0:
187,181,345221,2,0,P|239:158|285:170,1,90.0000034332277,2|0,0:0|0:0,0:0:0:0:
256,334,345962,6,0,L|246:223,1,90.0000034332277,2|0,0:0|0:0,0:0:0:0:
354,139,346703,2,0,L|344:250,1,90.0000034332277,2|0,0:0|0:0,0:0:0:0:
187,181,347444,2,0,P|239:158|285:170,1,90.0000034332277,2|0,0:0|0:0,0:0:0:0:
126,251,348184,2,0,P|98:203|107:131,1,90.0000034332277,2|0,0:0|0:0,0:0:0:0:
195,91,348925,6,0,L|185:199,1,90.0000034332277,2|0,0:0|0:0,0:0:0:0:
47,283,349666,2,0,P|112:249|137:253,1,90.0000034332277,2|0,0:0|0:0,0:0:0:0:
223,361,350407,2,0,L|214:271,1,90.0000034332277,2|0,0:0|0:0,0:0:0:0:
361,235,351147,2,0,P|316:230|290:205,1,67.5000025749207,2|0,0:0|0:0,0:0:0:0:
277,192,351518,2,0,L|284:126,1,45.0000017166138,2|0,0:0|0:0,0:0:0:0:
301,56,351916,6,0,P|357:68|407:45,2,90.0000034332277,2|0|2,0:0|0:0|0:0,0:0:0:0:
191,15,353027,1,0,0:0:0:0:
106,89,353397,2,0,P|129:137|126:191,1,90.0000034332277,2|0,0:0|0:0,0:0:0:0:
62,341,354156,2,0,P|65:296|86:256,1,90.0000034332277,2|0,0:0|0:0,0:0:0:0:
264,254,354915,6,0,P|220:265|169:249,2,90.0000034332277,2|0|2,0:0|0:0|0:0,0:0:0:0:
219,0,356099,6,0,B|180:81|268:87|223:175,1,180.000006866455,2|2,0:0|0:0,0:0:0:0:
267,339,357367,2,0,P|254:289|274:238,1,90.0000034332277,2|2,0:0|0:0,0:0:0:0:
347,202,358200,1,2,0:0:0:0:
347,202,358288,1,2,0:0:0:0:
347,202,358376,6,0,P|394:216|449:171,1,120,2|2,0:0|0:0,0:0:0:0:
377,93,359362,2,0,L|274:85,1,90.0000034332277,2|0,0:0|0:0,0:0:0:0:
167,108,360157,2,0,P|204:154|202:209,1,90.0000034332277,2|0,0:0|0:0,0:0:0:0:
87,263,361009,2,0,P|94:218|125:186,1,90.0000034332277,2|0,0:0|0:0,0:0:0:0:
347,202,362235,1,2,0:0:0:0:
167,108,363346,5,2,0:0:0:0:
256,192,363533,12,0,369346,0:0:0:0:
