osu file format v14

[General]
AudioFilename: audio.mp3
AudioLeadIn: 0
PreviewTime: 72755
Countdown: 0
SampleSet: Soft
StackLeniency: 0.4
Mode: 0
LetterboxInBreaks: 0
WidescreenStoryboard: 1

[Editor]
Bookmarks: 18433,32148,45862,59576,73291,87005,100719,112719,114433,128148,140148,141862,155576,165862,169291,181719,183005,196719,203576,210433,224148,237862,244719
DistanceSpacing: 1
BeatDivisor: 4
GridSize: 4
TimelineZoom: 2.2

[Metadata]
Title:Hyakka Ryouran
TitleUnicode:百火繚乱
Artist:ITO KASHITARO
ArtistUnicode:伊東歌詞太郎
Creator:appleeaterx
Version:kanor's Hard
Source:
Tags:milan- kanor itou kashitarou うつくしまYOSAKOIまつり おもてなし温楽彩
BeatmapID:1445591
BeatmapSetID:617188

[Difficulty]
HPDrainRate:5
CircleSize:3.8
OverallDifficulty:6
ApproachRate:7.5
SliderMultiplier:1.3
SliderTickRate:1

[Events]
//Background and Video events
0,0,"hkrr.jpg",0,0
Video,-1775,"i do not know how to encode stuff.avi"
//Break Periods
2,100919,113608
2,145491,154751
2,183205,195894
//Storyboard Layer 0 (Background)
//Storyboard Layer 1 (Fail)
//Storyboard Layer 2 (Pass)
//Storyboard Layer 3 (Foreground)
//Storyboard Sound Samples

[TimingPoints]
862,428.571428571429,4,2,19,50,1,0
1291,428.571428571429,4,2,20,40,1,0
1291,-125,4,2,20,40,0,0
2148,-125,4,2,19,30,0,0
3005,-125,4,2,20,40,0,0
3433,-125,4,2,20,20,0,0
3862,-125,4,2,20,45,0,0
4719,-125,4,2,19,40,0,0
5576,-125,4,2,19,30,0,0
6219,-125,4,2,20,20,0,0
6433,-125,4,2,20,40,0,0
6862,-125,4,2,20,20,0,0
7291,-125,4,2,19,30,0,0
8148,-125,4,2,20,40,0,0
9005,-125,4,2,19,30,0,0
9862,-125,4,2,19,30,0,0
10291,-125,4,2,20,20,0,0
10719,-125,4,2,19,30,0,0
11576,-125,4,2,19,40,0,0
12433,-125,4,2,19,30,0,0
13076,-125,4,2,20,20,0,0
13291,-125,4,2,19,30,0,0
13719,-125,4,2,20,20,0,0
14148,-125,4,2,19,30,0,0
15005,-125,4,2,22,40,0,0
16719,-125,4,2,19,45,0,0
18005,-125,4,2,19,55,0,0
18433,-100,4,2,19,55,0,0
21433,-100,4,2,19,47,0,0
21862,-100,4,2,19,55,0,0
24433,-100,4,2,19,47,0,0
24862,-100,4,2,19,55,0,0
28291,-100,4,2,19,47,0,0
28505,-100,4,2,19,55,0,0
32148,-125,4,2,19,45,0,0
35362,-125,4,2,19,20,0,0
35576,-125,4,2,19,45,0,0
42219,-125,4,2,19,20,0,0
42433,-125,4,2,19,45,0,0
45433,-125,4,2,19,20,0,0
45541,-125,4,2,19,45,0,0
45862,-111.111111111111,4,2,19,50,0,0
51433,-111.111111111111,4,2,19,25,0,0
51541,-111.111111111111,4,2,19,50,0,0
51862,-111.111111111111,4,2,19,25,0,0
51969,-111.111111111111,4,2,19,50,0,0
59576,-111.111111111111,4,2,19,45,0,0
59683,-111.111111111111,4,2,19,50,0,0
65576,-111.111111111111,4,2,19,45,0,0
66433,-111.111111111111,4,2,19,50,0,0
72005,-111.111111111111,4,2,19,40,0,0
72112,-111.111111111111,4,2,19,45,0,0
72219,-111.111111111111,4,2,19,50,0,0
72326,-111.111111111111,4,2,19,55,0,0
72433,-111.111111111111,4,2,19,30,0,0
72862,-111.111111111111,4,2,19,20,0,0
73076,-111.111111111111,4,2,19,50,0,0
73291,-100,4,2,19,70,0,1
73933,-100,4,2,19,50,0,1
74041,-100,4,2,19,70,0,1
76291,-100,4,2,19,50,0,1
76398,-100,4,2,19,70,0,1
77362,-100,4,2,19,50,0,1
77469,-100,4,2,19,70,0,1
84433,-100,4,2,19,50,0,1
84541,-100,4,2,19,70,0,1
85291,-100,4,2,19,65,0,1
85505,-100,4,2,19,70,0,1
86148,-100,4,2,19,50,0,1
86255,-100,4,2,19,60,0,1
86576,-100,4,2,19,70,0,1
86791,-100,4,2,19,65,0,1
87005,-100,4,2,19,70,0,1
87648,-100,4,2,19,50,0,1
87755,-100,4,2,19,70,0,1
90005,-100,4,2,19,50,0,1
90112,-100,4,2,19,70,0,1
91076,-100,4,2,19,50,0,1
91183,-100,4,2,19,70,0,1
92148,-100,4,2,19,50,0,1
92576,-100,4,2,19,55,0,1
93005,-100,4,2,19,60,0,1
93433,-100,4,2,19,65,0,1
93862,-100,4,2,19,70,0,1
95576,-100,4,2,19,50,0,1
95630,-100,4,2,19,70,0,1
96433,-100,4,2,19,50,0,1
96487,-100,4,2,19,70,0,1
99862,-100,4,2,19,65,0,1
100076,-100,4,2,19,60,0,1
100291,-100,4,2,19,63,0,1
100505,-100,4,2,19,57,0,1
100719,-100,4,2,19,70,0,0
114433,-111.111111111111,4,2,19,50,0,0
120005,-111.111111111111,4,2,19,40,0,0
120219,-111.111111111111,4,2,19,45,0,0
120433,-111.111111111111,4,2,19,50,0,0
120862,-111.111111111111,4,2,19,25,0,0
120916,-111.111111111111,4,2,19,50,0,0
140576,-111.111111111111,4,2,19,40,0,0
141005,-111.111111111111,4,2,19,55,0,0
141433,-111.111111111111,4,2,19,45,0,0
141862,-111.111111111111,4,2,19,55,0,0
155576,-100,4,2,19,60,0,0
162005,-100,4,2,19,40,0,0
162058,-100,4,2,19,60,0,0
163076,-100,4,2,19,40,0,0
163130,-100,4,2,19,62,0,0
165862,-100,4,2,19,65,0,0
169291,-111.111111111111,4,2,19,52,0,0
169719,-111.111111111111,4,2,19,45,0,0
170362,-111.111111111111,4,2,19,52,0,0
172291,-111.111111111111,4,2,19,45,0,0
172719,-111.111111111111,4,2,19,52,0,0
177433,-111.111111111111,4,2,19,45,0,0
177862,-111.111111111111,4,2,19,52,0,0
180433,-111.111111111111,4,2,19,40,0,0
180487,-111.111111111111,4,2,19,52,0,0
181291,-111.111111111111,4,2,19,40,0,0
181344,-111.111111111111,4,2,19,52,0,0
181719,-111.111111111111,4,2,19,40,0,0
181826,-111.111111111111,4,2,19,45,0,0
181933,-111.111111111111,4,2,19,50,0,0
182041,-111.111111111111,4,2,19,55,0,0
182148,-111.111111111111,4,2,19,50,0,0
183005,-111.111111111111,4,2,19,65,0,0
183058,-111.111111111111,4,2,19,40,0,0
196719,-111.111111111111,4,2,19,45,0,0
199719,-111.111111111111,4,2,19,30,0,0
199773,-111.111111111111,4,2,19,45,0,0
200148,-111.111111111111,4,2,19,50,0,0
201862,-111.111111111111,4,2,19,35,0,0
202291,-111.111111111111,4,2,19,40,0,0
202719,-111.111111111111,4,2,19,45,0,0
203148,-111.111111111111,4,2,19,50,0,0
203576,-111.111111111111,4,2,19,55,0,0
204433,-111.111111111111,4,2,19,40,0,0
204541,-111.111111111111,4,2,19,55,0,0
205291,-111.111111111111,4,2,19,70,0,0
206148,-111.111111111111,4,2,19,50,0,0
206255,-111.111111111111,4,2,19,70,0,0
206362,-111.111111111111,4,2,19,50,0,0
209576,-111.111111111111,4,2,19,60,0,0
210005,-111.111111111111,4,2,19,50,0,0
210112,-111.111111111111,4,2,19,65,0,0
210433,-100,4,2,19,83,0,1
211076,-100,4,2,19,60,0,1
211183,-100,4,2,19,83,0,1
212148,-100,4,2,19,60,0,1
212255,-100,4,2,19,83,0,1
214505,-100,4,2,19,60,0,1
214612,-100,4,2,19,83,0,1
215576,-100,4,2,19,60,0,1
215683,-100,4,2,19,83,0,1
216862,-100,4,2,19,60,0,1
216969,-100,4,2,19,83,0,1
219005,-100,4,2,19,60,0,1
219112,-100,4,2,19,83,0,1
221576,-100,4,2,19,60,0,1
221683,-100,4,2,19,83,0,1
222433,-100,4,2,19,70,0,1
222862,-100,4,2,19,75,0,1
223291,-100,4,2,19,60,0,1
223398,-100,4,2,19,70,0,1
223719,-100,4,2,19,75,0,1
223933,-100,4,2,19,80,0,1
224148,-100,4,2,19,83,0,1
224791,-100,4,2,19,60,0,1
224898,-100,4,2,19,83,0,1
225862,-100,4,2,19,60,0,1
225969,-100,4,2,19,83,0,1
228219,-100,4,2,19,60,0,1
228326,-100,4,2,19,83,0,1
229076,-100,4,2,19,60,0,1
229183,-100,4,2,19,83,0,1
229291,-100,4,2,19,60,0,1
229719,-100,4,2,19,65,0,1
230148,-100,4,2,19,70,0,1
230576,-100,4,2,19,75,0,1
231005,-100,4,2,19,83,0,1
232719,-100,4,2,19,60,0,1
232826,-100,4,2,19,83,0,1
233576,-100,4,2,19,60,0,1
233683,-100,4,2,19,83,0,1
237005,-100,4,2,19,75,0,1
237219,-100,4,2,19,70,0,1
237433,-100,4,2,19,73,0,1
237648,-100,4,2,19,65,0,1
237862,-111.111111111111,4,2,19,60,0,0
238505,-111.111111111111,4,2,19,40,0,0
238719,-111.111111111111,4,2,19,60,0,0
243005,-111.111111111111,4,2,19,55,0,0
243433,-111.111111111111,4,2,19,57,0,0
243862,-111.111111111111,4,2,19,60,0,0
244719,-111.111111111111,4,2,19,85,0,0

[Colours]
Combo1 : 1,166,254
Combo2 : 255,128,64
Combo3 : 201,255,128
Combo4 : 242,24,57

[HitObjects]
40,80,862,6,0,L|104:84,1,65,12|8,2:3|2:3,0:0:0:0:
177,40,1290,5,12,3:2:0:0:
192,40,2148,1,2,0:0:0:0:
252,96,3005,2,0,L|356:92,2,104,2|2|2,1:2|1:2|0:0,0:0:0:0:
396,24,4719,6,0,P|432:84|388:168,1,156,14|0,3:0|0:0,0:0:0:0:
340,208,5576,2,0,B|456:208|456:208|512:232,1,156,2|8,0:0|1:2,0:0:0:0:
436,288,6433,2,0,L|320:288,2,104,8|8|6,1:2|1:2|0:1,0:0:0:0:
264,240,8148,5,12,3:2:0:0:
256,268,9005,1,2,0:0:0:0:
184,240,9862,2,0,P|132:228|84:248,1,104,6|10,0:1|1:2,0:0:0:0:
40,340,10719,2,0,P|92:352|140:332,1,104,6|0,0:1|0:0,0:0:0:0:
86,246,11576,5,14,3:0:0:0:
68,232,12433,2,0,P|80:140|48:72,1,156,6|8,0:1|1:2,0:0:0:0:
104,20,13291,2,0,L|208:12,1,104,6|10,0:1|1:2,0:0:0:0:
168,96,14148,2,0,L|272:88,1,104,6|0,0:1|0:0,0:0:0:0:
364,36,15005,1,4,0:0:0:0:
256,192,15112,12,0,18005,0:0:0:0:
480,344,18433,6,0,P|424:356|376:340,1,97.5,2|0,3:2|0:0,0:0:0:0:
356,316,18862,2,0,L|340:228,1,65,8|8,0:0|3:1,0:0:0:0:
272,213,19291,1,2,0:0:0:0:
272,213,19505,1,8,0:1:0:0:
224,279,19719,2,0,L|235:342,1,65,8|8,0:0|0:1,0:0:0:0:
152,244,20148,6,0,P|96:256|48:240,1,97.5,2|0,3:2|3:0,0:0:0:0:
22,224,20576,2,0,L|6:136,1,65,8|0,0:0|3:0,0:0:0:0:
80,118,21005,2,0,L|64:30,1,65,10|10,0:1|3:1,0:0:0:0:
140,14,21433,1,10,0:0:0:0:
140,14,21541,1,0,0:0:0:0:
140,14,21648,1,2,3:2:0:0:
230,99,21862,6,0,P|278:84|333:104,1,97.5,2|0,3:2|0:0,0:0:0:0:
362,106,22291,2,0,P|394:96|444:98,1,65,8|0,0:0|3:0,0:0:0:0:
472,161,22719,1,2,0:0:0:0:
472,161,22933,1,8,0:1:0:0:
433,233,23148,2,0,P|400:231|369:221,1,65,8|0,0:0|3:0,0:0:0:0:
512,232,23576,6,0,L|508:352,1,97.5,2|0,3:2|0:0,0:0:0:0:
472,349,24005,2,0,P|439:350|408:360,1,65,8|8,0:0|0:1,0:0:0:0:
345,308,24433,2,0,P|312:306|281:296,1,65,10|0,0:1|3:0,0:0:0:0:
219,351,24862,1,8,0:0:0:0:
219,351,24969,1,0,3:0:0:0:
219,351,25076,1,0,0:0:0:0:
64,304,25291,6,0,L|176:292,1,97.5,2|0,3:2|0:0,0:0:0:0:
186,261,25719,2,0,P|194:225|184:192,1,65,8|8,0:0|0:1,0:0:0:0:
129,139,26148,1,2,0:0:0:0:
129,139,26362,1,8,3:1:0:0:
54,172,26576,2,0,P|46:136|56:103,1,65,8|8,0:0|0:1,0:0:0:0:
184,72,27005,6,0,P|244:72|286:35,1,97.5,2|0,3:2|0:0,0:0:0:0:
311,35,27433,2,0,L|319:119,1,65,8|8,0:0|0:1,0:0:0:0:
397,116,27862,2,0,L|389:200,1,65,10|2,0:1|3:2,0:0:0:0:
312,205,28291,1,10,0:0:0:0:
312,205,28398,1,0,3:0:0:0:
312,205,28505,1,0,3:0:0:0:
464,260,28719,6,0,P|412:252|372:268,1,97.5,2|0,3:2|0:0,0:0:0:0:
351,304,29148,2,0,L|343:380,1,65,8|8,0:0|0:1,0:0:0:0:
268,332,29576,1,10,0:1:0:0:
268,332,29791,1,2,3:2:0:0:
192,362,30005,2,0,L|185:297,1,65,8|8,0:0|0:1,0:0:0:0:
68,228,30433,6,0,B|96:240|96:240|192:220,1,97.5,2|0,3:2|0:0,0:0:0:0:
195,202,30862,2,0,L|195:118,1,65,8|10,0:0|0:1,0:0:0:0:
114,152,31291,2,0,L|114:68,1,65,8|0,0:0|3:0,0:0:0:0:
184,44,31719,1,8,0:0:0:0:
264,58,31933,2,0,L|310:54,1,32.5,0|0,3:0|3:0,0:0:0:0:
328,60,32148,6,0,L|448:52,1,104,2|8,3:2|0:0,0:0:0:0:
480,132,32791,1,8,0:1:0:0:
480,132,33005,2,0,L|376:138,1,104,0|10,3:0|0:1,0:0:0:0:
344,224,33648,1,10,0:1:0:0:
344,224,33862,6,0,L|447:217,1,104,2|8,3:2|0:0,0:0:0:0:
488,292,34505,1,8,0:1:0:0:
448,360,34719,1,0,3:0:0:0:
428,364,35148,2,0,L|337:361,1,78,10|0,0:1|0:0,0:0:0:0:
320,360,35576,6,0,P|264:372|208:348,1,104,2|8,3:2|0:0,0:0:0:0:
220,357,36219,1,2,0:0:0:0:
152,316,36433,2,0,P|96:304|40:328,1,104,0|10,3:0|0:1,0:0:0:0:
52,318,37076,1,8,0:1:0:0:
16,248,37291,6,0,L|12:128,1,104,2|8,3:2|0:0,0:0:0:0:
36,68,37933,1,8,0:1:0:0:
120,60,38148,1,0,3:0:0:0:
136,72,38576,2,0,L|204:72,1,52,8|8,0:0|0:1,0:0:0:0:
222,58,38898,1,0,0:0:0:0:
222,58,39005,6,0,P|279:68|332:40,1,104,2|8,3:2|0:0,0:0:0:0:
420,64,39648,1,8,0:1:0:0:
420,64,39862,2,0,P|382:108|380:168,1,104,0|10,3:0|0:1,0:0:0:0:
320,236,40505,1,10,0:1:0:0:
320,236,40719,6,0,P|300:181|249:149,1,104,2|8,3:2|0:0,0:0:0:0:
236,228,41362,1,8,0:1:0:0:
184,168,41576,1,0,3:0:0:0:
168,156,42005,2,0,P|128:144|88:152,1,78,8|0,0:1|0:0,0:0:0:0:
58,162,42433,6,0,L|42:270,1,104,2|8,3:2|0:0,0:0:0:0:
42,264,43076,1,8,0:1:0:0:
128,220,43291,2,0,L|112:328,1,104,0|10,3:0|0:1,0:0:0:0:
112,322,43933,1,10,0:1:0:0:
200,292,44148,5,2,3:2:0:0:
212,300,44576,2,0,L|256:296,3,26,8|2|10|0,0:0|0:0|0:1|0:0,0:0:0:0:
264,308,45005,2,0,P|312:292|376:312,1,104,2|14,3:2|0:0,0:0:0:0:
488,360,45648,1,12,0:3:0:0:
488,360,45755,1,12,0:3:0:0:
488,360,45862,6,0,L|496:232,1,116.999996429443,2|10,3:2|0:1,0:0:0:0:
495,243,46505,1,8,0:0:0:0:
456,132,46719,2,0,L|460:52,1,58.4999982147217,8|0,0:1|0:0,0:0:0:0:
379,94,47148,2,0,L|371:152,1,58.4999982147217,8|4,0:0|3:0,0:0:0:0:
369,192,47469,1,0,0:0:0:0:
369,192,47576,6,0,P|313:171|253:188,1,116.999996429443,2|10,3:2|0:1,0:0:0:0:
307,250,48219,1,8,0:0:0:0:
184,216,48433,2,0,L|106:207,1,58.4999982147217,8|0,0:1|3:0,0:0:0:0:
117,291,48862,2,0,L|58:284,1,58.4999982147217,8|8,0:0|0:1,0:0:0:0:
24,262,49183,1,8,0:1:0:0:
24,262,49291,6,0,P|2:192|25:142,1,116.999996429443,2|10,3:2|0:1,0:0:0:0:
78,206,49933,1,8,0:0:0:0:
88,64,50148,2,0,L|92:128,1,58.4999982147217,8|0,0:1|3:0,0:0:0:0:
164,36,50576,2,0,L|168:100,1,58.4999982147217,8|4,0:0|3:0,0:0:0:0:
200,120,50898,1,0,0:0:0:0:
200,120,51005,6,0,P|240:128|296:112,1,87.7499973220826,2|0,3:2|0:0,0:0:0:0:
311,86,51433,2,0,L|307:27,1,58.4999982147217,12|8,0:1|0:0,0:0:0:0:
396,108,51862,2,0,L|392:49,1,58.4999982147217,12|8,3:1|0:0,0:0:0:0:
475,143,52291,1,8,0:0:0:0:
444,218,52505,1,0,3:0:0:0:
324,216,52719,6,0,P|378:198|443:222,1,116.999996429443,2|10,3:2|0:1,0:0:0:0:
503,274,53362,1,8,0:0:0:0:
378,337,53576,2,0,L|378:265,1,58.4999982147217,8|0,0:1|0:0,0:0:0:0:
298,353,54005,2,0,L|298:281,1,58.4999982147217,8|4,0:0|3:0,0:0:0:0:
278,268,54326,1,0,3:0:0:0:
278,268,54433,6,0,P|218:283|166:259,1,116.999996429443,2|10,3:2|0:1,0:0:0:0:
228,208,55076,1,8,0:0:0:0:
95,235,55291,2,0,L|81:155,1,58.4999982147217,8|2,0:1|3:2,0:0:0:0:
12,215,55719,2,0,L|-2:135,1,58.4999982147217,8|8,0:0|0:1,0:0:0:0:
0,128,56041,1,8,0:1:0:0:
0,100,56148,6,0,P|65:95|114:53,1,116.999996429443,2|10,3:2|0:1,0:0:0:0:
105,65,56791,1,8,0:0:0:0:
176,152,57005,2,0,L|200:232,1,58.4999982147217,8|0,0:1|0:0,0:0:0:0:
272,104,57433,2,0,L|267:187,1,58.4999982147217,8|4,0:0|3:0,0:0:0:0:
368,152,57862,6,0,B|336:223|336:223|368:280,1,116.999996429443,2|10,3:2|0:1,0:0:0:0:
355,257,58505,1,8,0:0:0:0:
488,228,58719,2,0,L|404:220,1,58.4999982147217,6|6,3:0|3:0,0:0:0:0:
424,304,59148,2,0,L|482:309,1,58.4999982147217,10|0,0:0|3:0,0:0:0:0:
348,336,59576,6,0,P|288:324|232:344,1,116.999996429443,6|8,3:2|0:0,0:0:0:0:
236,341,60219,1,10,3:1:0:0:
108,320,60648,1,0,0:0:0:0:
25,292,60862,1,10,0:0:0:0:
44,372,61076,1,2,3:2:0:0:
136,312,61291,6,0,P|148:248|132:196,1,116.999996429443,2|8,3:2|0:0,0:0:0:0:
133,199,61933,1,10,3:1:0:0:
60,72,62362,1,8,0:1:0:0:
140,40,62576,1,10,0:0:0:0:
124,120,62791,2,0,L|176:120,1,29.2499991073609,0|2,0:0|0:0,0:0:0:0:
220,64,63005,6,0,P|204:116|228:176,1,116.999996429443,2|8,3:2|0:0,0:0:0:0:
340,116,63648,2,0,P|304:111|272:120,1,58.4999982147217,10|0,3:1|0:0,0:0:0:0:
276,240,64076,2,0,P|297:211|306:179,1,58.4999982147217,0|10,3:0|0:0,0:0:0:0:
282,116,64505,1,2,3:2:0:0:
384,192,64719,6,0,P|398:224|421:248,1,58.4999982147217,2|8,3:2|0:1,0:0:0:0:
500,128,65148,2,0,P|485:160|462:184,1,58.4999982147217,8|10,0:0|3:1,0:0:0:0:
448,316,65576,1,10,3:0:0:0:
448,316,65791,1,10,3:0:0:0:
413,241,66005,1,10,0:0:0:0:
360,304,66219,2,0,L|356:352,1,29.2499991073609,8|8,0:1|0:1,0:0:0:0:
280,360,66433,6,0,L|292:240,1,116.999996429443,2|8,3:2|0:0,0:0:0:0:
291,243,67076,1,10,3:1:0:0:
152,268,67505,1,0,0:0:0:0:
212,216,67719,1,10,0:0:0:0:
291,243,67933,1,2,3:2:0:0:
152,268,68148,6,0,L|28:264,1,116.999996429443,2|8,3:2|0:0,0:0:0:0:
35,264,68791,1,8,0:0:0:0:
8,188,69005,2,0,P|4:152|16:108,1,58.4999982147217,0|2,3:0|0:0,0:0:0:0:
76,80,69433,2,0,P|80:44|68:0,1,58.4999982147217,10|2,3:1|0:0,0:0:0:0:
80,156,69862,6,0,L|196:152,1,116.999996429443,2|8,3:2|0:0,0:0:0:0:
262,100,70505,1,8,0:0:0:0:
262,100,70719,2,0,P|274:60|274:32,1,58.4999982147217,2|0,0:0|0:0,0:0:0:0:
350,100,71148,2,0,P|362:139|362:168,1,58.4999982147217,10|4,0:1|3:0,0:0:0:0:
440,100,71576,6,0,P|452:60|452:32,1,58.4999982147217,2|0,3:2|0:0,0:0:0:0:
468,172,72005,2,0,L|488:216,3,29.2499991073609,10|2|2|2,0:0|0:0|0:0|0:0,0:0:0:0:
483,239,72433,2,0,B|463:323|463:323|439:287,1,116.999996429443,4|4,3:1|0:1,0:0:0:0:
316,284,73076,1,6,3:0:0:0:
316,284,73183,1,6,3:0:0:0:
316,284,73291,6,0,L|244:288,1,65,6|10,3:2|0:1,0:0:0:0:
191,356,73719,1,10,0:0:0:0:
184,236,73933,1,8,0:1:0:0:
184,236,74041,1,0,0:0:0:0:
184,236,74148,2,0,L|112:240,1,65,2|2,0:0|3:0,0:0:0:0:
59,308,74576,1,10,0:2:0:0:
44,192,74791,1,0,3:0:0:0:
44,192,74898,1,0,3:0:0:0:
44,192,75005,6,0,P|40:144|52:108,1,65,2|0,3:2|3:0,0:0:0:0:
172,120,75433,2,0,P|132:147|95:155,1,65,8|8,3:2|0:1,0:0:0:0:
48,40,75862,2,0,P|91:60|116:88,1,65,4|10,3:0|0:1,0:0:0:0:
103,71,76183,1,0,3:0:0:0:
103,71,76291,1,12,0:1:0:0:
184,36,76505,1,8,0:3:0:0:
256,152,76719,6,0,L|260:80,1,65,2|10,3:2|0:1,0:0:0:0:
328,27,77148,1,10,0:0:0:0:
424,100,77362,1,8,0:1:0:0:
424,100,77469,1,0,0:0:0:0:
424,100,77576,2,0,L|428:28,1,65,2|2,0:0|3:2,0:0:0:0:
512,0,78005,1,10,0:0:0:0:
504,144,78219,1,0,3:0:0:0:
504,144,78326,1,0,3:0:0:0:
504,144,78433,6,0,L|500:216,1,65,2|0,3:2|0:0,0:0:0:0:
424,184,78862,2,0,L|420:256,1,65,8|8,3:2|0:1,0:0:0:0:
320,340,79291,2,0,L|316:268,1,65,4|10,0:3|0:1,0:0:0:0:
240,300,79719,2,0,L|236:228,1,65,8|8,0:0|0:1,0:0:0:0:
44,292,80148,6,0,P|102:301|146:277,1,97.5,6|0,3:2|0:0,0:0:0:0:
160,272,80576,2,0,L|156:200,1,65,8|0,0:0|0:0,0:0:0:0:
40,152,81005,1,2,0:0:0:0:
80,220,81219,1,2,3:2:0:0:
148,128,81433,2,0,L|144:56,1,65,10|0,0:0|3:0,0:0:0:0:
160,36,81755,1,0,3:0:0:0:
160,36,81862,6,0,P|218:27|262:51,1,97.5,2|0,3:2|3:0,0:0:0:0:
276,56,82291,2,0,L|272:128,1,65,8|8,0:0|0:1,0:0:0:0:
359,93,82719,2,0,L|355:157,1,65,10|0,3:1|0:0,0:0:0:0:
492,208,83148,1,8,0:0:0:0:
436,148,83362,1,0,3:2:0:0:
348,236,83576,6,0,L|220:228,1,97.5,2|0,3:2|3:0,0:0:0:0:
220,240,84005,2,0,L|136:232,1,65,8|8,0:0|0:1,0:0:0:0:
80,280,84433,1,4,0:1:0:0:
80,280,84541,1,0,3:0:0:0:
80,280,84648,1,0,3:0:0:0:
12,232,84862,1,10,0:0:0:0:
84,196,85076,2,0,L|88:140,1,32.5,8|0,0:1|0:0,0:0:0:0:
72,132,85291,6,0,L|72:80,3,32.5,2|0|0|0,3:2|0:0|3:0|0:0,0:0:0:0:
113,81,85719,2,0,L|113:29,3,32.5,10|0|0|8,0:1|0:0|3:0|0:0,0:0:0:0:
158,39,86148,2,0,L|158:-13,3,32.5,12|10|2|10,0:1|0:1|3:2|0:1,0:0:0:0:
222,83,86576,1,10,3:2:0:0:
236,76,86683,1,10,0:1:0:0:
248,68,86791,1,6,3:0:0:0:
260,60,86898,1,6,3:0:0:0:
272,56,87005,6,0,P|280:96|272:128,1,65,6|10,3:2|0:1,0:0:0:0:
240,200,87433,1,10,0:0:0:0:
348,168,87648,1,8,0:1:0:0:
348,168,87755,1,0,0:0:0:0:
348,168,87862,2,0,P|388:176|420:168,1,65,2|0,0:0|3:0,0:0:0:0:
488,124,88291,1,10,0:0:0:0:
460,248,88505,1,0,3:0:0:0:
460,248,88612,1,0,3:0:0:0:
460,248,88719,6,0,P|452:288|460:320,1,65,2|0,3:2|3:0,0:0:0:0:
364,292,89148,2,0,P|372:332|364:364,1,65,8|8,3:2|0:1,0:0:0:0:
288,256,89576,2,0,P|280:296|288:328,1,65,4|10,0:3|0:1,0:0:0:0:
284,319,89898,1,0,3:0:0:0:
284,319,90005,1,12,0:1:0:0:
204,360,90219,1,0,0:0:0:0:
64,320,90433,6,0,P|102:315|140:328,1,65,2|10,3:2|0:1,0:0:0:0:
204,360,90862,1,10,0:0:0:0:
168,240,91076,1,8,0:1:0:0:
168,240,91183,1,0,0:0:0:0:
167,239,91291,2,0,P|147:214|137:184,1,65,2|0,0:0|3:0,0:0:0:0:
160,112,91719,1,10,0:0:0:0:
56,188,91933,1,0,3:0:0:0:
56,188,92041,1,0,3:0:0:0:
56,188,92148,6,0,P|45:218|25:243,1,65,6|0,3:1|3:0,0:0:0:0:
20,116,92576,2,0,P|51:109|83:114,1,65,6|8,0:1|0:1,0:0:0:0:
216,172,93005,2,0,P|247:178|279:173,1,65,6|0,0:1|3:0,0:0:0:0:
432,140,93433,2,0,L|484:140,3,32.5,10|8|10|8,3:2|0:0|0:0|0:0,0:0:0:0:
504,156,93862,6,0,P|488:224|508:284,1,130,6|8,3:0|0:0,0:0:0:0:
412,236,94505,1,2,0:0:0:0:
412,236,94719,2,0,P|376:232|340:240,1,65,6|0,0:1|3:0,0:0:0:0:
347,328,95148,2,0,P|378:333|411:329,1,65,10|0,0:0|3:0,0:0:0:0:
272,280,95576,6,0,P|207:265|152:296,1,130,6|8,3:1|0:0,0:0:0:0:
220,344,96219,1,8,0:1:0:0:
68,304,96433,2,0,P|83:239|52:184,1,130,6|8,0:1|0:0,0:0:0:0:
0,252,97076,1,10,0:1:0:0:
20,108,97291,6,0,L|104:108,1,65,6|0,3:0|3:0,0:0:0:0:
43,27,97719,2,0,L|127:27,1,65,8|10,0:0|0:1,0:0:0:0:
176,87,98148,1,10,0:0:0:0:
176,87,98255,1,0,0:0:0:0:
176,87,98362,1,8,0:1:0:0:
253,39,98576,1,10,0:1:0:0:
258,130,98791,1,8,0:0:0:0:
334,80,99005,6,0,L|386:69,3,32.5,6|0|0|0,3:1|0:0|0:0|3:0,0:0:0:0:
393,109,99433,2,0,L|445:98,3,32.5,10|0|8|8,0:0|0:0|0:1|0:1,0:0:0:0:
453,138,99862,2,0,L|505:127,3,32.5,6|2|2|2,3:0|3:2|0:0|3:2,0:0:0:0:
396,188,100291,1,10,3:2:0:0:
404,200,100398,1,2,0:0:0:0:
412,212,100505,1,6,3:0:0:0:
420,224,100612,1,6,3:0:0:0:
428,236,100719,5,6,3:2:0:0:
56,316,114433,6,0,P|80:256|52:192,1,116.999996429443,2|8,3:2|0:1,0:0:0:0:
0,256,115076,1,8,0:0:0:0:
56,132,115291,2,0,L|52:52,1,58.4999982147217,0|0,3:0|0:0,0:0:0:0:
131,96,115719,2,0,L|134:158,1,58.4999982147217,8|4,0:0|3:0,0:0:0:0:
143,192,116041,1,0,0:0:0:0:
143,192,116148,6,0,P|199:171|259:188,1,116.999996429443,2|8,3:2|0:1,0:0:0:0:
205,250,116791,1,8,0:0:0:0:
328,216,117005,2,0,L|406:207,1,58.4999982147217,0|10,3:0|0:1,0:0:0:0:
395,291,117433,2,0,L|454:284,1,58.4999982147217,8|2,0:0|0:0,0:0:0:0:
488,262,117755,1,8,0:1:0:0:
488,262,117862,6,0,P|510:192|487:142,1,116.999996429443,2|8,3:2|0:1,0:0:0:0:
434,206,118505,1,8,0:0:0:0:
424,64,118719,2,0,L|420:128,1,58.4999982147217,0|0,3:0|3:0,0:0:0:0:
348,36,119148,2,0,L|344:100,1,58.4999982147217,8|4,0:0|3:0,0:0:0:0:
312,120,119469,1,0,0:0:0:0:
312,120,119576,6,0,P|272:128|216:112,1,87.7499973220826,2|0,3:2|0:0,0:0:0:0:
193,93,120005,1,10,0:0:0:0:
184,84,120112,1,2,0:0:0:0:
176,76,120219,1,10,0:0:0:0:
168,68,120326,1,2,0:0:0:0:
160,60,120433,2,0,P|124:56|84:64,1,58.4999982147217,6|4,3:0|3:0,0:0:0:0:
22,37,120862,1,12,0:1:0:0:
40,116,121076,2,0,L|43:154,1,29.2499991073609,0|0,3:0|3:0,0:0:0:0:
4,212,121291,6,0,P|59:195|113:213,1,116.999996429443,2|8,3:2|0:1,0:0:0:0:
56,272,121933,1,8,0:0:0:0:
188,253,122148,2,0,L|188:312,1,58.4999982147217,0|0,3:0|0:0,0:0:0:0:
268,269,122576,2,0,L|268:328,1,58.4999982147217,8|4,0:0|3:0,0:0:0:0:
293,359,122898,1,8,0:1:0:0:
293,359,123005,6,0,P|353:374|405:350,1,116.999996429443,2|8,3:2|0:1,0:0:0:0:
344,296,123648,1,8,0:0:0:0:
480,340,123862,2,0,L|494:260,1,58.4999982147217,0|2,3:0|3:2,0:0:0:0:
439,217,124291,2,0,L|453:137,1,58.4999982147217,8|0,0:0|3:0,0:0:0:0:
452,118,124612,1,0,3:0:0:0:
452,118,124719,6,0,P|391:102|331:118,1,116.999996429443,2|8,3:2|0:1,0:0:0:0:
312,188,125362,1,8,0:0:0:0:
200,128,125576,2,0,P|232:124|276:136,1,58.4999982147217,0|0,3:0|3:0,0:0:0:0:
148,184,126005,2,0,P|128:158|124:112,1,58.4999982147217,8|4,0:0|3:0,0:0:0:0:
224,204,126433,6,0,B|224:276|224:276|184:252,1,116.999996429443,2|8,3:2|0:0,0:0:0:0:
148,184,127076,1,8,0:0:0:0:
24,228,127291,2,0,L|82:222,1,58.4999982147217,6|6,3:0|3:0,0:0:0:0:
88,304,127719,2,0,L|30:309,1,58.4999982147217,10|10,0:0|0:1,0:0:0:0:
164,336,128148,6,0,P|224:324|280:344,1,116.999996429443,6|8,3:2|0:0,0:0:0:0:
276,341,128791,1,10,3:1:0:0:
412,324,129219,1,0,0:0:0:0:
496,296,129433,1,10,0:0:0:0:
476,376,129648,1,2,3:2:0:0:
384,316,129862,6,0,P|372:252|388:200,1,116.999996429443,2|8,3:2|0:0,0:0:0:0:
387,203,130505,1,10,3:1:0:0:
452,72,130933,1,0,3:0:0:0:
372,40,131148,1,10,0:0:0:0:
388,120,131362,2,0,L|336:120,1,29.2499991073609,2|0,0:0|3:0,0:0:0:0:
292,64,131576,6,0,P|308:116|284:176,1,116.999996429443,2|8,3:2|0:0,0:0:0:0:
172,116,132219,2,0,P|208:111|240:120,1,58.4999982147217,2|0,3:2|0:0,0:0:0:0:
236,240,132648,2,0,P|215:211|206:179,1,58.4999982147217,0|10,3:0|0:0,0:0:0:0:
230,116,133076,1,2,3:2:0:0:
316,248,133291,6,0,L|320:320,1,58.4999982147217,2|0,3:2|3:0,0:0:0:0:
396,292,133719,2,0,P|395:330|380:364,1,58.4999982147217,10|8,0:0|0:1,0:0:0:0:
236,304,134148,1,6,3:0:0:0:
236,304,134362,1,6,3:0:0:0:
196,372,134576,1,10,0:0:0:0:
152,304,134791,2,0,L|104:308,1,29.2499991073609,6|0,3:0|3:0,0:0:0:0:
72,364,135005,6,0,L|64:236,1,116.999996429443,2|8,3:2|0:0,0:0:0:0:
64,247,135648,1,10,3:1:0:0:
208,200,136076,1,0,0:0:0:0:
128,192,136291,1,10,0:0:0:0:
64,247,136505,1,2,3:2:0:0:
208,200,136719,6,0,L|220:80,1,116.999996429443,2|10,3:2|0:0,0:0:0:0:
219,83,137362,1,8,0:0:0:0:
296,52,137576,2,0,P|332:44|368:48,1,58.4999982147217,2|0,3:2|3:0,0:0:0:0:
423,87,138005,2,0,P|459:95|495:91,1,58.4999982147217,10|0,0:1|3:0,0:0:0:0:
492,196,138433,6,0,P|420:185|372:200,1,116.999996429443,2|8,3:2|0:1,0:0:0:0:
339,269,139076,1,8,0:0:0:0:
339,269,139291,2,0,P|327:309|327:337,1,58.4999982147217,2|0,3:2|3:0,0:0:0:0:
251,269,139719,2,0,P|239:230|239:201,1,58.4999982147217,8|2,0:1|3:2,0:0:0:0:
159,285,140148,6,0,P|147:325|147:353,1,58.4999982147217,2|0,3:2|0:0,0:0:0:0:
80,256,140576,2,0,P|50:259|18:247,1,58.4999982147217,4|0,0:1|0:0,0:0:0:0:
124,148,141005,2,0,P|141:172|147:206,1,58.4999982147217,10|0,3:2|0:0,0:0:0:0:
8,164,141433,2,0,P|20:136|46:114,1,58.4999982147217,12|0,0:1|0:0,0:0:0:0:
188,92,141862,5,6,3:2:0:0:
256,192,141969,12,0,145291,0:0:0:0:
40,80,155576,6,0,P|82:73|119:85,1,65,6|0,3:2|0:0,0:0:0:0:
149,95,155898,2,0,P|180:101|212:96,1,65,2|0,0:0|0:0,0:0:0:0:
258,80,156219,1,2,0:2:0:0:
350,50,156433,1,0,3:0:0:0:
350,50,156541,1,0,0:0:0:0:
350,50,156648,1,0,3:0:0:0:
440,84,156862,2,0,L|440:173,1,65,10|8,0:0|0:1,0:0:0:0:
496,252,157291,6,0,P|453:245|417:257,1,65,2|0,3:2|0:0,0:0:0:0:
395,282,157612,2,0,P|363:288|331:283,1,65,2|0,0:0|0:0,0:0:0:0:
284,271,157933,1,2,0:0:0:0:
229,351,158148,1,8,0:1:0:0:
229,351,158255,1,0,0:0:0:0:
229,351,158362,1,0,3:0:0:0:
172,271,158576,2,0,L|82:268,1,65,10|10,0:0|0:1,0:0:0:0:
47,166,159005,6,0,P|40:123|52:87,1,65,2|0,3:2|0:0,0:0:0:0:
86,76,159326,2,0,P|126:91|151:119,1,65,2|0,0:0|0:0,0:0:0:0:
155,153,159648,1,2,0:0:0:0:
236,99,159862,2,0,L|329:94,1,65,8|0,0:1|3:0,0:0:0:0:
353,178,160291,2,0,L|288:181,1,65,10|8,0:0|0:1,0:0:0:0:
424,144,160719,6,0,P|432:181|426:210,1,65,2|0,3:2|3:0,0:0:0:0:
378,292,161148,2,0,P|373:323|381:355,1,65,8|0,0:0|0:0,0:0:0:0:
478,352,161576,2,0,P|485:320|481:288,1,65,2|0,0:0|3:0,0:0:0:0:
426,207,162005,1,6,0:1:0:0:
426,207,162112,1,0,0:0:0:0:
426,207,162219,1,8,0:1:0:0:
288,181,162433,6,0,P|312:173|351:177,2,65,2|0|10,3:2|0:0|0:0,0:0:0:0:
204,130,163076,2,0,P|217:108|250:87,2,65,6|0|2,0:1|3:0|3:2,0:0:0:0:
106,125,163719,6,0,P|107:99|124:64,2,65,8|0|2,0:1|0:0|3:2,0:0:0:0:
29,185,164362,2,0,P|17:162|15:123,2,65,2|8|8,0:0|0:0|0:1,0:0:0:0:
114,233,165005,2,0,L|101:313,1,65,0|0,3:0|3:0,0:0:0:0:
175,362,165433,1,10,0:0:0:0:
175,362,165541,1,0,0:0:0:0:
175,362,165648,1,8,0:1:0:0:
263,320,165862,6,0,P|311:308|370:325,2,97.5,2|2|2,3:2|0:0|0:0,0:0:0:0:
239,225,166719,2,0,L|249:160,1,65,8|2,0:1|0:0,0:0:0:0:
154,136,167148,2,0,L|164:71,1,65,8|0,0:1|0:0,0:0:0:0:
246,19,167576,6,0,P|277:13|326:26,1,65,2|10,3:2|0:0,0:0:0:0:
388,77,168005,2,0,P|419:82|468:70,1,65,8|10,0:0|0:1,0:0:0:0:
506,157,168433,1,10,0:0:0:0:
506,157,168648,1,2,3:2:0:0:
472,248,168862,1,10,0:0:0:0:
472,248,169076,1,8,0:1:0:0:
348,336,169291,6,0,P|288:324|232:344,1,116.999996429443,6|10,3:2|0:0,0:0:0:0:
236,341,169933,1,10,0:1:0:0:
56,344,170362,1,2,0:0:0:0:
139,316,170576,1,10,0:0:0:0:
56,344,170791,1,0,3:0:0:0:
156,300,171005,6,0,P|168:236|152:184,1,116.999996429443,2|8,3:2|0:0,0:0:0:0:
154,187,171648,1,2,3:2:0:0:
162,27,172076,1,10,0:1:0:0:
130,107,172291,1,10,0:0:0:0:
210,91,172505,2,0,L|210:143,1,29.2499991073609,10|0,0:1|3:0,0:0:0:0:
154,187,172719,6,0,P|206:171|266:195,1,116.999996429443,2|8,3:2|0:0,0:0:0:0:
336,216,173362,2,0,P|341:180|332:148,1,58.4999982147217,2|0,3:1|0:0,0:0:0:0:
380,83,173791,2,0,P|409:104|441:113,1,58.4999982147217,0|8,3:0|0:0,0:0:0:0:
447,35,174219,1,4,3:0:0:0:
475,183,174433,6,0,P|443:197|419:220,1,58.4999982147217,2|8,3:2|0:1,0:0:0:0:
491,323,174862,2,0,P|494:288|486:256,1,58.4999982147217,8|0,0:0|3:0,0:0:0:0:
412,356,175291,1,6,3:0:0:0:
412,356,175505,1,6,3:0:0:0:
324,320,175719,1,10,0:0:0:0:
238,342,175933,2,0,L|190:338,1,29.2499991073609,2|8,3:2|0:1,0:0:0:0:
166,327,176148,6,0,P|98:318|55:336,1,116.999996429443,2|8,3:2|0:1,0:0:0:0:
54,336,176791,1,10,0:0:0:0:
22,175,177219,1,10,0:1:0:0:
60,252,177433,1,10,0:0:0:0:
22,175,177648,1,10,0:1:0:0:
140,112,177862,6,0,P|207:103|251:121,1,116.999996429443,2|8,3:2|0:1,0:0:0:0:
251,121,178505,1,8,0:0:0:0:
320,163,178719,2,0,P|328:199|324:235,1,58.4999982147217,10|0,0:1|0:0,0:0:0:0:
285,290,179148,2,0,P|277:326|281:362,1,58.4999982147217,8|0,0:1|3:0,0:0:0:0:
432,328,179576,6,0,B|354:329|354:329|388:356,1,116.999996429443,2|8,3:2|0:0,0:0:0:0:
500,296,180219,1,8,0:0:0:0:
500,296,180433,2,0,P|512:256|512:228,1,58.4999982147217,4|0,0:1|0:0,0:0:0:0:
429,213,180862,2,0,P|417:173|417:145,1,58.4999982147217,8|0,0:0|3:0,0:0:0:0:
446,73,181291,5,4,3:1:0:0:
446,73,181505,1,0,0:0:0:0:
366,34,181719,2,0,L|336:30,3,29.2499991073609,10|2|2|2,0:0|0:0|3:2|0:0,0:0:0:0:
308,24,182148,2,0,B|288:108|288:108|264:72,1,116.999996429443,6|0,3:0|0:0,0:0:0:0:
216,28,182791,1,4,3:0:0:0:
216,28,182898,1,4,3:0:0:0:
216,28,183005,5,6,3:2:0:0:
469,37,196719,6,0,B|461:85|461:85|472:115|472:115|461:164,1,116.999996429443,6|8,3:2|0:0,0:0:0:0:
381,153,197362,2,0,B|388:117|388:117|377:87|377:87|385:39,1,116.999996429443,10|0,3:1|3:0,0:0:0:0:
303,39,198005,1,8,0:0:0:0:
307,121,198219,1,8,0:1:0:0:
307,121,198326,1,8,0:1:0:0:
307,121,198433,6,0,L|182:124,1,116.999996429443,2|8,3:2|0:0,0:0:0:0:
194,205,199076,2,0,L|310:202,1,116.999996429443,10|0,0:1|3:0,0:0:0:0:
383,240,199719,1,12,0:1:0:0:
433,304,199933,1,0,0:0:0:0:
433,304,200041,1,0,0:0:0:0:
433,304,200148,6,0,P|373:321|325:298,1,116.999996429443,2|8,3:2|0:0,0:0:0:0:
249,329,200791,2,0,P|196:351|141:334,1,116.999996429443,8|0,0:1|3:0,0:0:0:0:
62,353,201433,1,8,0:0:0:0:
9,289,201648,1,8,0:1:0:0:
9,289,201755,1,0,3:0:0:0:
9,289,201862,6,0,B|21:243|21:243|7:166,1,116.999996429443,2|6,3:2|0:1,0:0:0:0:
96,84,202719,2,0,B|84:130|84:130|98:207,1,116.999996429443,6|6,0:1|3:0,0:0:0:0:
173,169,203362,1,8,0:1:0:0:
173,169,203469,1,0,3:0:0:0:
173,169,203576,6,0,P|210:167|242:179,1,58.4999982147217,2|0,3:2|0:0,0:0:0:0:
233,91,204005,2,0,P|268:101|294:123,1,58.4999982147217,0|2,0:0|0:0,0:0:0:0:
316,38,204433,2,0,P|345:60|362:90,1,58.4999982147217,6|0,0:1|0:0,0:0:0:0:
414,18,204862,2,0,P|434:49|439:82,1,58.4999982147217,0|2,0:0|0:0,0:0:0:0:
488,176,205291,6,0,L|488:268,1,87.7499973220826,2|2,3:2|3:2,0:0:0:0:
459,292,205719,2,0,P|416:285|383:292,1,58.4999982147217,0|2,0:0|0:0,0:0:0:0:
333,332,206148,2,0,P|282:342|227:328,1,87.7499973220826,6|2,0:1|3:2,0:0:0:0:
207,325,206576,2,0,L|207:246,1,58.4999982147217,0|2,0:0|0:0,0:0:0:0:
256,192,207005,12,2,208719,3:2:0:0:
60,88,209576,6,0,L|52:52,3,29.2499991073609,2|8|8|0,3:2|0:1|0:1|3:0,0:0:0:0:
100,84,210005,2,0,L|104:47,3,29.2499991073609,12|10|6|6,0:1|0:0|3:0|3:0,0:0:0:0:
136,100,210433,6,0,L|140:172,1,65,6|10,3:2|0:1,0:0:0:0:
64,188,210862,1,10,0:0:0:0:
220,152,211076,1,8,0:1:0:0:
220,152,211183,1,0,0:0:0:0:
220,152,211291,2,0,L|224:224,1,65,2|2,0:0|3:2,0:0:0:0:
148,240,211719,1,8,0:0:0:0:
296,264,211933,1,8,0:1:0:0:
296,264,212041,1,0,3:0:0:0:
296,264,212148,6,0,P|344:268|380:256,1,65,6|0,3:1|3:0,0:0:0:0:
368,136,212576,2,0,P|341:176|333:213,1,65,10|8,3:2|0:1,0:0:0:0:
448,260,213005,2,0,P|428:217|400:192,1,65,4|10,3:0|0:1,0:0:0:0:
416,204,213326,1,0,3:0:0:0:
416,204,213433,1,10,0:1:0:0:
452,124,213648,1,6,3:0:0:0:
512,263,213862,6,0,L|440:259,1,65,6|10,3:2|0:1,0:0:0:0:
464,340,214291,1,10,0:0:0:0:
359,264,214505,1,2,0:0:0:0:
359,264,214612,1,0,0:0:0:0:
359,264,214719,2,0,L|287:260,1,65,2|2,0:0|3:2,0:0:0:0:
311,341,215148,1,8,0:0:0:0:
148,344,215362,1,0,3:0:0:0:
148,344,215469,1,2,0:0:0:0:
148,344,215576,6,0,L|152:272,1,65,6|0,3:1|3:0,0:0:0:0:
48,348,216005,2,0,L|44:284,1,65,10|8,3:2|0:1,0:0:0:0:
151,279,216433,2,0,L|155:207,1,65,6|0,3:1|3:0,0:0:0:0:
43,283,216862,2,0,L|39:219,1,65,10|8,3:2|0:1,0:0:0:0:
42,78,217291,6,0,P|100:69|144:93,1,97.5,6|0,3:2|0:0,0:0:0:0:
160,108,217719,2,0,L|232:104,1,65,10|0,0:0|3:0,0:0:0:0:
272,172,218148,1,2,0:0:0:0:
312,104,218362,1,0,3:0:0:0:
328,232,218576,2,0,L|400:236,1,65,8|8,0:0|0:1,0:0:0:0:
432,248,218898,1,0,3:0:0:0:
432,248,219005,6,0,P|441:306|417:350,1,97.5,6|0,3:1|3:0,0:0:0:0:
400,356,219433,2,0,L|328:352,1,65,8|8,0:0|0:1,0:0:0:0:
239,315,219862,2,0,L|243:251,1,65,10|0,0:1|3:0,0:0:0:0:
184,192,220291,1,10,0:0:0:0:
164,268,220505,1,10,0:1:0:0:
268,168,220719,6,0,L|396:176,1,97.5,6|0,3:2|3:0,0:0:0:0:
396,164,221148,2,0,P|404:120|396:96,1,65,10|10,0:0|0:1,0:0:0:0:
364,20,221576,1,6,0:1:0:0:
364,20,221683,1,0,0:0:0:0:
364,20,221791,1,2,3:2:0:0:
316,88,222005,1,10,0:0:0:0:
272,16,222219,2,0,L|216:20,1,32.5,0|0,3:0|3:0,0:0:0:0:
208,26,222433,6,0,L|208:78,3,32.5,2|0|0|0,3:2|0:0|3:0|0:0,0:0:0:0:
195,88,222862,2,0,L|143:88,3,32.5,6|0|8|8,0:1|0:0|0:1|0:0,0:0:0:0:
132,100,223291,2,0,L|132:152,3,32.5,6|10|2|10,0:1|0:0|3:2|0:1,0:0:0:0:
60,172,223719,1,10,3:2:0:0:
53,186,223826,1,2,0:0:0:0:
45,198,223933,1,6,3:0:0:0:
37,210,224041,1,6,3:0:0:0:
33,222,224148,6,0,P|73:230|105:222,1,65,6|10,3:2|0:1,0:0:0:0:
180,204,224576,1,10,0:0:0:0:
264,120,224791,1,8,0:1:0:0:
264,120,224898,1,0,0:0:0:0:
264,120,225005,2,0,P|256:160|264:192,1,65,2|2,0:2|3:2,0:0:0:0:
304,252,225433,1,10,0:0:0:0:
376,356,225648,1,8,0:3:0:0:
376,356,225755,1,2,0:0:0:0:
376,356,225862,6,0,P|384:316|376:284,1,65,6|0,3:1|3:0,0:0:0:0:
448,240,226291,2,0,P|440:200|448:168,1,65,10|8,3:2|0:1,0:0:0:0:
400,112,226719,2,0,P|408:72|400:40,1,65,4|10,3:0|0:1,0:0:0:0:
404,49,227041,1,0,3:0:0:0:
404,49,227148,1,10,0:1:0:0:
488,16,227362,1,6,3:0:0:0:
328,72,227576,6,0,P|290:67|252:80,1,65,6|4,3:2|3:0,0:0:0:0:
188,112,228005,1,10,0:0:0:0:
160,248,228219,1,10,0:3:0:0:
160,248,228326,1,0,0:0:0:0:
161,247,228433,2,0,P|181:222|191:192,1,65,2|4,0:2|3:0,0:0:0:0:
188,112,228862,1,10,0:0:0:0:
84,20,229076,1,8,0:3:0:0:
84,20,229183,1,0,0:0:0:0:
84,20,229291,6,0,P|95:50|115:75,1,65,6|2,3:1|3:2,0:0:0:0:
112,184,229719,2,0,P|81:191|49:186,1,65,6|8,0:1|0:1,0:0:0:0:
188,112,230148,2,0,P|219:106|251:111,1,65,6|0,0:1|3:0,0:0:0:0:
376,176,230576,2,0,L|376:220,3,32.5,10|8|10|8,3:2|0:0|0:0|0:0,0:0:0:0:
360,236,231005,6,0,P|420:220|488:264,1,130,6|8,3:2|0:0,0:0:0:0:
408,360,231648,1,2,0:0:0:0:
408,360,231862,2,0,L|412:288,1,65,6|0,0:1|3:0,0:0:0:0:
336,276,232291,2,0,L|329:360,1,65,8|0,0:0|3:0,0:0:0:0:
264,248,232719,6,0,P|199:233|144:264,1,130,6|8,3:1|0:0,0:0:0:0:
212,316,233362,1,8,0:1:0:0:
80,208,233576,2,0,P|65:273|96:328,1,130,6|8,0:1|0:0,0:0:0:0:
145,261,234219,1,10,0:1:0:0:
120,140,234433,6,0,P|68:128|36:136,1,65,6|6,3:2|3:0,0:0:0:0:
20,64,234862,2,0,P|52:52|84:52,1,65,10|10,0:0|0:1,0:0:0:0:
196,24,235291,1,10,3:2:0:0:
196,24,235398,1,0,0:0:0:0:
196,24,235505,1,10,3:1:0:0:
208,112,235719,1,10,0:1:0:0:
281,57,235933,1,8,0:0:0:0:
296,144,236148,6,0,L|307:196,3,32.5,2|0|0|0,3:2|0:0|0:0|3:0,0:0:0:0:
329,193,236576,2,0,L|381:182,3,32.5,8|0|10|8,0:0|0:0|0:1|0:0,0:0:0:0:
393,188,237005,2,0,L|404:240,3,32.5,6|2|2|2,0:1|0:0|3:2|0:0,0:0:0:0:
476,240,237433,1,10,3:2:0:0:
484,252,237541,1,10,0:0:0:0:
492,264,237648,1,10,0:0:0:0:
500,276,237755,1,10,0:0:0:0:
508,288,237862,6,0,B|496:372|496:372|476:328,1,116.999996429443,6|0,3:2|3:0,0:0:0:0:
404,344,238505,2,0,B|391:374|391:374|379:290,1,116.999996429443,14|0,0:1|0:0,0:0:0:0:
308,248,239148,2,0,L|236:248,1,58.4999982147217,8|2,0:1|3:2,0:0:0:0:
189,314,239576,6,0,P|204:259|169:210,1,116.999996429443,6|0,3:1|3:0,0:0:0:0:
129,274,240219,1,8,0:1:0:0:
129,274,240433,2,0,P|144:219|109:170,1,116.999996429443,2|10,3:2|0:1,0:0:0:0:
65,234,241076,1,10,0:1:0:0:
65,234,241291,6,0,P|80:179|45:130,1,116.999996429443,6|0,3:1|3:0,0:0:0:0:
113,66,241933,2,0,P|154:107|214:101,1,116.999996429443,6|10,0:1|0:1,0:0:0:0:
285,71,242576,2,0,L|349:75,1,58.4999982147217,10|8,0:0|0:0,0:0:0:0:
420,105,243005,6,0,P|444:131|452:158,1,58.4999982147217,6|8,3:1|0:0,0:0:0:0:
372,172,243433,2,0,P|348:198|340:225,1,58.4999982147217,8|10,0:0|0:1,0:0:0:0:
465,258,243862,1,6,0:0:0:0:
465,258,244076,1,8,0:1:0:0:
317,314,244291,1,8,0:0:0:0:
317,314,244505,1,6,3:0:0:0:
445,366,244719,5,6,3:2:0:0:
