osu file format v14

[General]
AudioFilename: audio.mp3
AudioLeadIn: 0
PreviewTime: 72755
Countdown: 0
SampleSet: Soft
StackLeniency: 1
Mode: 0
LetterboxInBreaks: 0
WidescreenStoryboard: 1

[Editor]
Bookmarks: 18433,32148,45862,59576,73291,87005,100719,112719,114433,128148,140148,141862,155576,165862,169291,181719,183005,196719,203576,210433,224148,237862,244719,273862
DistanceSpacing: 1.4
BeatDivisor: 4
GridSize: 32
TimelineZoom: 2.799999

[Metadata]
Title:Hyakka Ryouran
TitleUnicode:百火繚乱
Artist:ITO KASHITARO
ArtistUnicode:伊東歌詞太郎
Creator:appleeaterx
Version:Milan-'s Insane
Source:
Tags:milan- kanor itou kashitarou うつくしまYOSAKOIまつり おもてなし温楽彩
BeatmapID:1411701
BeatmapSetID:617188

[Difficulty]
HPDrainRate:6
CircleSize:4.3
OverallDifficulty:7
ApproachRate:8.5
SliderMultiplier:1.7
SliderTickRate:1

[Events]
//Background and Video events
0,0,"hkrr.jpg",0,0
Video,-1775,"i do not know how to encode stuff.avi"
//Break Periods
2,100919,113758
2,183205,196044
//Storyboard Layer 0 (Background)
//Storyboard Layer 1 (Fail)
//Storyboard Layer 2 (Pass)
//Storyboard Layer 3 (Foreground)
//Storyboard Sound Samples

[TimingPoints]
862,428.571428571429,4,2,19,50,1,0
1291,428.571428571429,4,2,20,40,1,0
1291,-200,4,2,20,40,0,0
1398,-200,4,2,19,40,0,0
2148,-200,4,2,19,30,0,0
3005,-200,4,2,20,40,0,0
3433,-200,4,2,20,20,0,0
3862,-200,4,2,20,45,0,0
4719,-200,4,2,19,40,0,0
5576,-200,4,2,19,30,0,0
6433,-200,4,2,20,40,0,0
6862,-200,4,2,20,20,0,0
7291,-200,4,2,19,30,0,0
7719,-200,4,2,19,40,0,0
8148,-200,4,2,20,40,0,0
9005,-200,4,2,19,30,0,0
9862,-200,4,2,19,30,0,0
10291,-200,4,2,20,20,0,0
10719,-200,4,2,19,30,0,0
11576,-200,4,2,19,40,0,0
12433,-200,4,2,19,30,0,0
13291,-200,4,2,19,30,0,0
13719,-200,4,2,20,20,0,0
14148,-200,4,2,19,30,0,0
15005,-200,4,2,22,40,0,0
16719,-200,4,2,19,45,0,0
18005,-100,4,2,19,55,0,0
18219,-83.3333333333333,4,2,19,40,0,0
18433,-100,4,2,19,55,0,0
21433,-100,4,2,19,47,0,0
21862,-100,4,2,19,55,0,0
24433,-100,4,2,19,47,0,0
24862,-100,4,2,19,55,0,0
28291,-100,4,2,19,47,0,0
28505,-100,4,2,19,55,0,0
32148,-142.857142857143,4,2,19,45,0,0
35362,-142.857142857143,4,2,19,20,0,0
35576,-142.857142857143,4,2,19,45,0,0
42219,-142.857142857143,4,2,19,20,0,0
42433,-142.857142857143,4,2,19,45,0,0
45433,-66.6666666666667,4,2,19,20,0,0
45541,-66.6666666666667,4,2,19,45,0,0
45862,-125,4,2,19,50,0,0
51433,-125,4,2,19,25,0,0
51541,-125,4,2,19,50,0,0
51862,-125,4,2,19,25,0,0
51969,-125,4,2,19,50,0,0
59576,-111.111111111111,4,2,19,45,0,0
59683,-111.111111111111,4,2,19,50,0,0
65576,-111.111111111111,4,2,19,45,0,0
66433,-111.111111111111,4,2,19,50,0,0
72005,-111.111111111111,4,2,19,40,0,0
72112,-111.111111111111,4,2,19,45,0,0
72219,-111.111111111111,4,2,19,50,0,0
72326,-111.111111111111,4,2,19,55,0,0
72433,-166.666666666667,4,2,19,30,0,0
72862,-66.6666666666667,4,2,19,20,0,0
73076,-66.6666666666667,4,2,19,50,0,0
73291,-76.9230769230769,4,2,19,70,0,1
73719,-90.9090909090909,4,2,19,70,0,1
73933,-90.9090909090909,4,2,19,50,0,1
74041,-90.9090909090909,4,2,19,70,0,1
76291,-90.9090909090909,4,2,19,50,0,1
76398,-90.9090909090909,4,2,19,70,0,1
77362,-90.9090909090909,4,2,19,50,0,1
77469,-90.9090909090909,4,2,19,70,0,1
84433,-90.9090909090909,4,2,19,50,0,1
84541,-90.9090909090909,4,2,19,70,0,1
85291,-90.9090909090909,4,2,19,65,0,1
85505,-90.9090909090909,4,2,19,70,0,1
86148,-90.9090909090909,4,2,19,50,0,1
86255,-90.9090909090909,4,2,19,60,0,1
86576,-90.9090909090909,4,2,19,70,0,1
86791,-90.9090909090909,4,2,19,65,0,1
86898,-90.9090909090909,4,2,19,65,0,0
87005,-76.9230769230769,4,2,19,70,0,1
87112,-90.9090909090909,4,2,19,70,0,1
87648,-90.9090909090909,4,2,19,50,0,1
87755,-90.9090909090909,4,2,19,70,0,1
90005,-90.9090909090909,4,2,19,50,0,1
90112,-90.9090909090909,4,2,19,70,0,1
91076,-90.9090909090909,4,2,19,50,0,1
91183,-90.9090909090909,4,2,19,70,0,1
92148,-90.9090909090909,4,2,19,50,0,1
92576,-90.9090909090909,4,2,19,55,0,1
93005,-90.9090909090909,4,2,19,60,0,1
93433,-90.9090909090909,4,2,19,65,0,1
93862,-90.9090909090909,4,2,19,70,0,1
94719,-90.9090909090909,4,2,19,50,0,1
94826,-90.9090909090909,4,2,19,70,0,1
95576,-90.9090909090909,4,2,19,50,0,1
95630,-90.9090909090909,4,2,19,70,0,1
96433,-90.9090909090909,4,2,19,50,0,1
96487,-90.9090909090909,4,2,19,70,0,1
99862,-90.9090909090909,4,2,19,65,0,1
100076,-90.9090909090909,4,2,19,60,0,1
100291,-90.9090909090909,4,2,19,63,0,1
100505,-90.9090909090909,4,2,19,57,0,1
100719,-90.9090909090909,4,2,19,70,0,0
112719,-90.9090909090909,4,2,19,55,0,0
114433,-125,4,2,19,50,0,0
120005,-125,4,2,19,40,0,0
120219,-125,4,2,19,45,0,0
120433,-125,4,2,19,50,0,0
120862,-83.3333333333333,4,2,19,25,0,0
120916,-83.3333333333333,4,2,19,50,0,0
121291,-125,4,2,19,50,0,0
128148,-111.111111111111,4,2,19,50,0,0
140576,-111.111111111111,4,2,19,40,0,0
141005,-111.111111111111,4,2,19,55,0,0
141433,-111.111111111111,4,2,19,45,0,0
141862,-100,4,2,19,55,0,0
147862,-100,4,2,19,45,0,0
148291,-100,4,2,19,50,0,0
148719,-100,4,2,19,40,0,0
149148,-100,4,2,19,45,0,0
149576,-100,4,2,19,50,0,0
150005,-100,4,2,19,55,0,0
155148,-100,4,2,19,40,0,0
155201,-100,4,2,19,60,0,0
162005,-100,4,2,19,40,0,0
162058,-100,4,2,19,60,0,0
163076,-100,4,2,19,40,0,0
163130,-100,4,2,19,62,0,0
165862,-100,4,2,19,65,0,0
169291,-111.111111111111,4,2,19,52,0,0
169719,-111.111111111111,4,2,19,45,0,0
170362,-111.111111111111,4,2,19,52,0,0
172291,-111.111111111111,4,2,19,45,0,0
172719,-111.111111111111,4,2,19,52,0,0
177433,-111.111111111111,4,2,19,45,0,0
177862,-111.111111111111,4,2,19,52,0,0
180433,-111.111111111111,4,2,19,40,0,0
180487,-111.111111111111,4,2,19,52,0,0
181291,-111.111111111111,4,2,19,40,0,0
181344,-111.111111111111,4,2,19,52,0,0
181719,-66.6666666666667,4,2,19,40,0,0
181826,-66.6666666666667,4,2,19,45,0,0
181933,-66.6666666666667,4,2,19,50,0,0
182041,-66.6666666666667,4,2,19,55,0,0
182148,-166.666666666667,4,2,19,50,0,0
183005,-166.666666666667,4,2,19,65,0,0
183058,-166.666666666667,4,2,19,40,0,0
186005,-166.666666666667,4,2,19,25,0,0
186058,-166.666666666667,4,2,19,40,0,0
189433,-166.666666666667,4,2,19,25,0,0
189541,-166.666666666667,4,2,19,40,0,0
193362,-166.666666666667,4,2,19,15,0,0
194148,-166.666666666667,4,2,19,40,0,0
194219,-166.666666666667,4,2,19,20,0,0
195005,-166.666666666667,4,2,19,40,0,0
195076,-166.666666666667,4,2,19,10,0,0
195433,-166.666666666667,4,2,19,35,0,0
195505,-166.666666666667,4,2,19,8,0,0
195862,-166.666666666667,4,2,19,30,0,0
195933,-166.666666666667,4,2,19,6,0,0
196291,-76.9230769230769,4,2,19,35,0,0
196719,-142.857142857143,4,2,19,45,0,0
199719,-142.857142857143,4,2,19,30,0,0
199773,-142.857142857143,4,2,19,45,0,0
200148,-142.857142857143,4,2,19,50,0,0
201862,-142.857142857143,4,2,19,35,0,0
202291,-142.857142857143,4,2,19,40,0,0
202719,-142.857142857143,4,2,19,45,0,0
203148,-142.857142857143,4,2,19,50,0,0
203576,-142.857142857143,4,2,19,55,0,0
204433,-142.857142857143,4,2,19,40,0,0
204541,-142.857142857143,4,2,19,55,0,0
205291,-142.857142857143,4,2,19,70,0,0
206148,-142.857142857143,4,2,19,50,0,0
206255,-142.857142857143,4,2,19,70,0,0
206362,-142.857142857143,4,2,19,50,0,0
209576,-142.857142857143,4,2,19,60,0,0
210005,-66.6666666666667,4,2,19,50,0,0
210112,-66.6666666666667,4,2,19,65,0,0
210433,-76.9230769230769,4,2,19,83,0,1
210541,-90.9090909090909,4,2,19,83,0,1
211076,-90.9090909090909,4,2,19,60,0,1
211183,-90.9090909090909,4,2,19,83,0,1
212148,-90.9090909090909,4,2,19,60,0,1
212255,-90.9090909090909,4,2,19,83,0,1
214505,-90.9090909090909,4,2,19,60,0,1
214612,-90.9090909090909,4,2,19,83,0,1
215576,-90.9090909090909,4,2,19,60,0,1
215683,-90.9090909090909,4,2,19,83,0,1
216862,-90.9090909090909,4,2,19,60,0,1
216969,-90.9090909090909,4,2,19,83,0,1
219005,-90.9090909090909,4,2,19,60,0,1
219112,-90.9090909090909,4,2,19,83,0,1
221576,-90.9090909090909,4,2,19,60,0,1
221683,-90.9090909090909,4,2,19,83,0,1
222433,-90.9090909090909,4,2,19,70,0,1
222862,-90.9090909090909,4,2,19,75,0,1
223291,-90.9090909090909,4,2,19,60,0,1
223398,-90.9090909090909,4,2,19,70,0,1
223719,-90.9090909090909,4,2,19,75,0,1
223933,-90.9090909090909,4,2,19,80,0,1
224148,-76.9230769230769,4,2,19,83,0,1
224255,-90.9090909090909,4,2,19,83,0,1
224791,-90.9090909090909,4,2,19,60,0,1
224898,-90.9090909090909,4,2,19,83,0,1
225862,-90.9090909090909,4,2,19,60,0,1
225969,-90.9090909090909,4,2,19,83,0,1
228219,-90.9090909090909,4,2,19,60,0,1
228326,-90.9090909090909,4,2,19,83,0,1
229076,-90.9090909090909,4,2,19,60,0,1
229183,-90.9090909090909,4,2,19,83,0,1
229291,-90.9090909090909,4,2,19,60,0,1
229719,-90.9090909090909,4,2,19,65,0,1
230148,-90.9090909090909,4,2,19,70,0,1
230576,-90.9090909090909,4,2,19,75,0,1
231005,-90.9090909090909,4,2,19,83,0,1
231862,-90.9090909090909,4,2,19,60,0,1
231969,-90.9090909090909,4,2,19,83,0,1
232719,-90.9090909090909,4,2,19,60,0,1
232826,-90.9090909090909,4,2,19,83,0,1
233576,-90.9090909090909,4,2,19,60,0,1
233683,-90.9090909090909,4,2,19,83,0,1
237005,-90.9090909090909,4,2,19,75,0,1
237219,-90.9090909090909,4,2,19,70,0,1
237433,-90.9090909090909,4,2,19,73,0,1
237648,-90.9090909090909,4,2,19,65,0,1
237862,-125,4,2,19,60,0,1
238505,-125,4,2,19,40,0,1
238719,-125,4,2,19,60,0,1
243005,-125,4,2,19,55,0,1
243433,-125,4,2,19,57,0,1
243862,-125,4,2,19,60,0,1
244719,-125,4,2,19,85,0,0

[Colours]
Combo1 : 1,166,254
Combo2 : 255,128,64
Combo3 : 201,255,128
Combo4 : 242,24,57

[HitObjects]
435,163,862,5,12,2:3:0:0:
435,163,1076,1,8,2:3:0:0:
435,163,1291,2,0,P|379:199|286:150,1,170,12|2,3:2|0:0,0:0:0:0:
291,159,3005,2,0,P|300:199|287:239,2,85,2|2|2,1:2|1:2|0:0,0:0:0:0:
65,107,4719,6,0,P|121:71|214:120,1,170,14|2,3:0|0:0,0:0:0:0:
209,111,6433,2,0,P|199:70|200:56,1,42.5,8|0,1:2|0:0,0:0:0:0:
284,73,6862,2,0,P|292:53|305:37,1,42.5,8|0,1:2|0:0,0:0:0:0:
370,96,7291,2,0,P|410:86|464:103,1,85,6|0,0:1|0:0,0:0:0:0:
412,340,8148,6,0,B|445:256|378:266|412:176,1,170,12|2,3:2|0:0,0:0:0:0:
412,175,9862,2,0,P|382:210|330:217,2,85,6|10|6,0:1|1:2|0:1,0:0:0:0:
100,340,11576,6,0,B|67:256|134:266|100:176,1,170,14|6,3:0|0:1,0:0:0:0:
100,175,13291,2,0,P|127:206|139:214,1,42.5,6|0,0:1|0:0,0:0:0:0:
178,92,13719,2,0,P|175:113|176:135,1,42.5,10|0,1:2|0:0,0:0:0:0:
334,86,14148,2,0,P|293:93|261:120,1,85,6|0,0:1|0:0,0:0:0:0:
427,107,15005,5,4,0:0:0:0:
256,192,15112,12,0,17576,0:0:0:0:
445,222,18005,5,8,0:0:0:0:
371,196,18112,1,0,3:0:0:0:
440,201,18219,2,0,L|386:214,1,50.9999984436036,4|0,3:0|3:0,0:0:0:0:
346,307,18433,6,0,P|387:316|429:313,1,85,2|0,3:2|3:0,0:0:0:0:
301,241,18755,1,0,0:0:0:0:
284,238,18862,2,0,P|254:268|237:307,1,85,8|8,0:0|3:1,0:0:0:0:
91,239,19291,1,2,0:0:0:0:
153,296,19505,1,8,0:1:0:0:
140,87,19719,1,8,0:0:0:0:
143,171,19933,1,8,0:1:0:0:
143,171,20041,1,0,3:0:0:0:
143,171,20148,6,0,P|181:168|227:131,1,85,2|0,3:2|0:0,0:0:0:0:
275,8,20469,1,0,3:0:0:0:
288,0,20576,2,0,P|292:40|275:79,1,85,8|0,0:0|3:0,0:0:0:0:
62,118,21005,1,10,0:1:0:0:
140,87,21219,1,10,3:1:0:0:
255,259,21433,1,10,0:0:0:0:
255,259,21541,2,0,P|229:253|193:242,1,42.5,0|2,0:0|3:2,0:0:0:0:
328,204,21755,1,0,0:0:0:0:
328,204,21862,6,0,P|401:190|435:173,1,85,2|0,3:2|3:0,0:0:0:0:
506,291,22183,1,0,0:0:0:0:
512,306,22291,2,0,P|471:292|429:288,1,85,8|0,0:0|3:0,0:0:0:0:
353,124,22719,1,2,0:0:0:0:
410,186,22933,1,8,0:1:0:0:
266,99,23148,1,8,0:0:0:0:
323,37,23362,1,0,3:0:0:0:
323,37,23469,1,8,0:1:0:0:
323,37,23576,6,0,P|279:18|218:28,1,85,2|0,3:2|3:0,0:0:0:0:
124,107,23898,1,0,0:0:0:0:
107,109,24005,2,0,P|128:73|163:49,1,85,8|8,0:0|0:1,0:0:0:0:
353,124,24433,2,0,L|359:182,1,42.5,10|2,0:1|0:0,0:0:0:0:
278,184,24648,2,0,L|274:227,1,42.5,0|0,3:0|0:0,0:0:0:0:
426,221,24862,1,8,0:0:0:0:
426,221,24969,2,0,P|465:206|484:205,1,42.5,0|0,3:0|0:0,0:0:0:0:
409,304,25183,1,8,0:0:0:0:
409,304,25291,6,0,P|369:290|326:291,1,85,2|8,3:2|0:1,0:0:0:0:
179,330,25612,1,0,0:0:0:0:
168,343,25719,2,0,P|211:343|251:330,1,85,8|8,0:0|0:1,0:0:0:0:
426,221,26148,1,2,0:0:0:0:
358,170,26362,1,8,3:1:0:0:
221,206,26576,1,8,0:0:0:0:
271,137,26791,1,8,0:1:0:0:
271,137,26898,1,0,3:0:0:0:
271,137,27005,6,0,P|221:126|183:135,1,85,2|2,3:2|0:0,0:0:0:0:
86,238,27326,1,0,0:0:0:0:
71,245,27433,2,0,P|86:205|116:176,1,85,8|8,0:0|0:1,0:0:0:0:
281,46,27862,1,10,0:1:0:0:
196,44,28076,1,2,3:2:0:0:
358,170,28291,1,10,0:0:0:0:
358,170,28398,2,0,L|404:162,1,42.5,0|0,3:0|3:0,0:0:0:0:
452,87,28612,1,2,0:0:0:0:
452,87,28719,6,0,P|416:73|359:78,1,85,2|8,3:2|0:1,0:0:0:0:
486,173,29041,1,0,0:0:0:0:
500,164,29148,2,0,P|502:206|487:245,1,85,8|8,0:0|0:1,0:0:0:0:
287,102,29576,1,10,0:1:0:0:
370,74,29791,1,2,3:2:0:0:
139,29,30005,1,8,0:0:0:0:
200,99,30219,1,8,0:1:0:0:
200,99,30326,1,0,3:0:0:0:
199,98,30433,6,0,P|201:141|188:181,1,85,2|8,3:2|0:1,0:0:0:0:
81,129,30755,1,0,0:0:0:0:
75,144,30862,2,0,P|101:136|141:131,1,42.5,8|0,0:0|0:0,0:0:0:0:
278,262,31076,2,0,P|252:254|212:249,1,42.5,10|0,0:1|0:0,0:0:0:0:
83,238,31291,2,0,P|106:223|143:208,1,42.5,8|0,0:0|0:0,0:0:0:0:
274,350,31505,2,0,P|250:335|213:320,1,42.5,0|8,3:0|0:0,0:0:0:0:
112,336,31719,2,0,P|130:316|162:291,1,42.5,8|0,0:0|0:0,0:0:0:0:
268,173,31933,1,0,3:0:0:0:
188,181,32041,1,0,3:0:0:0:
262,157,32148,6,0,P|205:158|175:109,1,118.999996368408,2|8,3:2|0:0,0:0:0:0:
329,39,32791,2,0,L|338:85,1,29.7499990921021,8|0,0:1|0:0,0:0:0:0:
335,69,33005,2,0,P|391:69|421:20,1,118.999996368408,0|10,3:0|0:1,0:0:0:0:
488,78,33648,1,10,0:1:0:0:
444,210,33862,6,0,L|438:151,1,59.4999981842042,2|0,3:2|0:0,0:0:0:0:
257,111,34291,2,0,L|250:170,1,59.4999981842042,8|8,0:0|0:1,0:0:0:0:
376,278,34719,2,0,P|335:238|280:253,1,118.999996368408,0|10,3:0|0:1,0:0:0:0:
133,251,35362,1,0,0:0:0:0:
133,251,35469,1,0,0:0:0:0:
132,251,35576,6,0,L|191:239,1,59.4999981842042,2|0,3:2|0:0,0:0:0:0:
62,71,36005,2,0,L|120:83,1,59.4999981842042,8|2,0:0|0:0,0:0:0:0:
39,245,36433,2,0,P|53:190|14:149,1,118.999996368408,0|10,3:0|0:1,0:0:0:0:
62,71,37076,1,8,0:1:0:0:
230,96,37291,6,0,P|189:135|135:121,1,118.999996368408,2|8,3:2|0:0,0:0:0:0:
145,32,37933,1,8,0:1:0:0:
318,84,38148,1,0,3:0:0:0:
318,84,38255,2,0,L|308:145,1,59.4999981842042,0|0,0:0|0:0,0:0:0:0:
307,148,38576,2,0,L|317:209,1,59.4999981842042,8|8,0:0|0:1,0:0:0:0:
324,214,38898,1,0,0:0:0:0:
324,214,39005,6,0,P|378:198|420:237,1,118.999996368408,2|8,3:2|0:0,0:0:0:0:
293,333,39648,2,0,L|300:279,1,29.7499990921021,8|0,0:1|0:0,0:0:0:0:
297,304,39862,2,0,P|243:288|201:327,1,118.999996368408,0|10,3:0|0:1,0:0:0:0:
116,296,40505,1,10,0:1:0:0:
4,374,40719,6,0,L|63:367,1,59.4999981842042,2|0,3:2|0:0,0:0:0:0:
38,204,41148,2,0,L|97:211,1,59.4999981842042,8|8,0:0|0:1,0:0:0:0:
172,61,41576,2,0,P|211:102|195:157,1,118.999996368408,0|8,3:0|0:1,0:0:0:0:
110,128,42219,1,0,0:0:0:0:
110,128,42326,1,0,0:0:0:0:
110,128,42433,6,0,L|51:121,2,59.4999981842042,2|0|8,3:2|0:0|0:0,0:0:0:0:
193,257,43076,1,8,0:1:0:0:
193,257,43183,1,0,0:0:0:0:
193,257,43291,2,0,P|234:217|289:233,1,118.999996368408,0|10,3:0|0:1,0:0:0:0:
352,171,43933,1,10,0:1:0:0:
380,384,44148,6,0,L|387:265,1,118.999996368408,2|8,3:2|0:0,0:0:0:0:
387,265,44683,1,2,0:0:0:0:
387,265,44791,2,0,L|436:253,1,29.7499990921021,10|0,0:1|0:0,0:0:0:0:
483,179,45005,2,0,B|447:158|447:158|388:162,1,89.2499972763062,2|0,3:2|0:0,0:0:0:0:
314,137,45433,6,0,P|361:141|366:34,1,127.500004863739,14|12,0:0|0:3,0:0:0:0:
399,161,45755,1,12,0:3:0:0:
417,67,45862,6,0,L|272:49,1,136,2|10,3:2|0:1,0:0:0:0:
127,110,46505,1,8,0:0:0:0:
191,51,46719,2,0,P|209:79|212:112,1,68,8|0,0:1|0:0,0:0:0:0:
0,154,47148,1,8,0:0:0:0:
127,110,47362,1,4,3:0:0:0:
216,204,47576,6,0,L|82:186,1,136,2|10,3:2|0:1,0:0:0:0:
38,330,48219,1,8,0:0:0:0:
116,370,48433,2,0,P|125:316|111:276,1,68,8|0,0:1|3:0,0:0:0:0:
299,226,48862,2,0,P|289:252|267:278,1,34,8|0,0:0|0:0,0:0:0:0:
216,204,49076,2,0,P|190:215|156:218,1,34,8|8,0:1|0:1,0:0:0:0:
166,131,49291,6,0,P|124:89|115:57,1,68,2|0,3:2|0:0,0:0:0:0:
333,98,49719,2,0,L|398:80,1,68,10|8,0:1|0:0,0:0:0:0:
244,81,50148,2,0,P|244:21|260:-7,1,68,8|0,0:1|3:0,0:0:0:0:
483,115,50576,1,8,0:0:0:0:
420,177,50791,1,4,3:0:0:0:
420,177,50898,1,0,0:0:0:0:
420,177,51005,1,2,3:2:0:0:
420,177,51433,5,12,0:1:0:0:
332,162,51648,1,8,0:0:0:0:
300,324,51862,1,12,3:1:0:0:
394,312,52076,1,8,0:0:0:0:
394,312,52183,1,8,0:1:0:0:
394,312,52291,2,0,L|384:256,1,34,8|8,0:0|0:1,0:0:0:0:
300,324,52505,2,0,L|305:357,1,34,0|0,3:0|0:0,0:0:0:0:
232,267,52719,6,0,P|197:241|97:262,1,136,2|10,3:2|0:1,0:0:0:0:
159,132,53362,1,8,0:0:0:0:
77,166,53576,2,0,P|71:125|91:76,1,68,8|0,0:1|0:0,0:0:0:0:
237,18,54005,1,8,0:0:0:0:
159,132,54219,1,4,3:0:0:0:
231,251,54433,6,0,P|295:267|353:235,1,136,2|10,3:2|0:1,0:0:0:0:
457,118,55076,1,8,0:0:0:0:
380,72,55291,2,0,P|368:112|376:151,1,68,8|2,0:1|3:2,0:0:0:0:
512,212,55719,2,0,P|495:207|452:194,1,34,8|0,0:0|0:0,0:0:0:0:
453,276,55933,2,0,P|436:280|420:285,1,34,8|8,0:1|0:1,0:0:0:0:
353,235,56148,6,0,P|334:233|267:206,1,68,2|0,3:2|0:0,0:0:0:0:
107,156,56576,2,0,L|115:223,1,68,10|8,0:1|0:0,0:0:0:0:
236,295,57005,2,0,P|216:267|202:237,1,68,8|0,0:1|0:0,0:0:0:0:
49,89,57433,1,8,0:0:0:0:
141,71,57648,1,4,3:0:0:0:
141,71,57755,1,0,0:0:0:0:
141,71,57862,1,2,3:2:0:0:
141,71,58291,5,10,0:1:0:0:
49,89,58505,1,8,0:0:0:0:
230,182,58719,1,6,3:0:0:0:
138,164,58933,1,6,3:0:0:0:
327,31,59148,1,10,0:0:0:0:
235,49,59362,1,0,3:0:0:0:
409,219,59576,6,0,P|440:262|411:364,1,152.999995330811,6|8,3:2|0:0,0:0:0:0:
293,224,60219,1,10,3:1:0:0:
352,290,60433,2,0,P|320:311|282:313,1,76.4999976654053,0|0,0:0|0:0,0:0:0:0:
409,219,60862,1,10,0:0:0:0:
198,276,61076,1,2,3:2:0:0:
264,89,61291,6,0,P|307:150|293:224,1,152.999995330811,2|8,3:2|0:0,0:0:0:0:
218,170,61933,2,0,P|175:109|189:35,1,152.999995330811,10|8,3:1|0:1,0:0:0:0:
211,261,62576,2,0,L|80:254,1,114.749996498108,10|2,0:0|0:0,0:0:0:0:
96,254,63005,6,0,P|108:304|103:335,1,76.4999976654053,2|8,3:2|0:1,0:0:0:0:
17,299,63433,1,8,0:0:0:0:
92,160,63648,2,0,P|162:185|190:253,1,152.999995330811,10|0,3:1|3:0,0:0:0:0:
6,193,64291,1,10,0:0:0:0:
174,95,64505,1,2,3:2:0:0:
0,11,64719,6,0,L|14:99,1,76.4999976654053,2|8,3:2|0:1,0:0:0:0:
174,95,65148,1,8,0:0:0:0:
91,54,65362,1,10,3:1:0:0:
162,238,65576,1,10,3:0:0:0:
250,212,65791,1,10,3:0:0:0:
93,152,66005,2,0,L|88:210,1,38.2499988327027,10|0,0:0|0:0,0:0:0:0:
162,238,66219,2,0,L|167:296,1,38.2499988327027,8|8,0:1|0:1,0:0:0:0:
105,339,66433,6,0,P|188:301|240:333,1,152.999995330811,2|8,3:2|0:0,0:0:0:0:
407,312,67076,1,10,3:1:0:0:
335,369,67291,2,0,P|318:310|328:269,1,76.4999976654053,0|0,0:0|0:0,0:0:0:0:
498,328,67719,1,10,0:0:0:0:
341,209,67933,1,2,3:2:0:0:
508,103,68148,6,0,P|439:130|377:91,1,152.999995330811,2|8,3:2|0:0,0:0:0:0:
314,23,68791,2,0,P|245:-4|183:34,1,152.999995330811,8|2,0:0|0:0,0:0:0:0:
88,152,69433,2,0,L|90:37,1,114.749996498108,10|0,3:1|3:0,0:0:0:0:
91,38,69862,5,2,3:2:0:0:
167,195,70076,2,0,L|171:109,1,76.4999976654053,8|8,0:1|0:0,0:0:0:0:
250,163,70505,1,8,0:0:0:0:
104,261,70719,2,0,P|173:289|238:253,1,152.999995330811,2|10,0:0|0:1,0:0:0:0:
335,125,71362,1,4,3:0:0:0:
167,195,71576,1,2,3:2:0:0:
167,195,72005,5,10,0:0:0:0:
250,163,72112,1,2,0:0:0:0:
167,195,72219,1,2,0:0:0:0:
250,163,72326,1,2,0:0:0:0:
167,195,72433,6,0,L|171:110,1,76.4999976654053,4|0,3:1|0:0,0:0:0:0:
106,61,72862,6,0,P|161:87|208:48,1,127.500004863739,4|6,0:1|3:0,0:0:0:0:
170,118,73183,1,6,3:0:0:0:
214,34,73291,6,0,P|256:12|329:28,1,110.499994941712,6|10,3:2|0:1,0:0:0:0:
463,91,73612,1,0,0:0:0:0:
474,101,73719,2,0,P|428:105|387:84,1,93.5000028533936,10|8,0:0|0:1,0:0:0:0:
311,205,74148,2,0,L|297:113,1,93.5000028533936,2|2,0:0|3:0,0:0:0:0:
385,258,74469,1,0,0:0:0:0:
394,246,74576,2,0,L|379:338,1,93.5000028533936,10|0,0:2|3:0,0:0:0:0:
238,331,74898,1,0,3:0:0:0:
222,340,75005,6,0,P|280:328|305:270,1,93.5000028533936,2|0,3:2|3:0,0:0:0:0:
155,225,75326,1,0,3:0:0:0:
137,220,75433,2,0,P|186:252|245:229,1,93.5000028533936,8|8,3:2|0:1,0:0:0:0:
345,77,75862,2,0,P|333:135|275:159,1,93.5000028533936,4|10,3:0|0:1,0:0:0:0:
224,20,76183,1,0,3:0:0:0:
222,2,76291,2,0,P|240:21|247:52,1,46.7500014266968,12|0,0:1|0:0,0:0:0:0:
130,105,76505,2,0,P|138:83|154:66,1,46.7500014266968,8|0,0:3|0:0,0:0:0:0:
214,135,76719,6,0,L|226:237,1,93.5000028533936,2|10,3:2|0:1,0:0:0:0:
306,336,77041,1,0,0:0:0:0:
296,348,77148,2,0,L|306:255,1,93.5000028533936,10|8,0:0|0:1,0:0:0:0:
390,137,77576,1,2,0:0:0:0:
224,227,77791,1,2,3:2:0:0:
390,137,78005,2,0,P|347:141|293:112,1,93.5000028533936,10|0,0:0|3:0,0:0:0:0:
177,14,78326,1,0,3:0:0:0:
185,0,78433,6,0,P|211:36|215:83,1,93.5000028533936,2|0,3:2|0:0,0:0:0:0:
161,230,78755,1,0,3:0:0:0:
169,245,78862,2,0,P|189:203|228:177,1,93.5000028533936,8|8,3:2|0:1,0:0:0:0:
410,262,79291,2,0,L|317:246,1,93.5000028533936,4|10,0:3|0:1,0:0:0:0:
200,344,79612,1,0,3:0:0:0:
187,357,79719,2,0,L|279:341,1,93.5000028533936,8|8,0:0|0:1,0:0:0:0:
387,173,80148,5,6,3:2:0:0:
279,340,80362,1,0,3:2:0:0:
386,173,80576,2,0,P|386:126|367:84,1,93.5000028533936,8|0,0:0|0:0,0:0:0:0:
226,177,81005,2,0,P|227:223|246:265,1,93.5000028533936,2|2,0:0|3:2,0:0:0:0:
274,96,81433,1,10,0:0:0:0:
142,214,81648,1,0,3:0:0:0:
142,214,81755,1,0,3:0:0:0:
142,214,81862,6,0,P|113:212|80:205,1,46.7500014266968,2|0,3:2|0:0,0:0:0:0:
129,129,82076,2,0,P|109:107|91:78,1,46.7500014266968,0|0,0:0|3:0,0:0:0:0:
181,61,82291,2,0,P|206:19|274:-2,1,93.5000028533936,8|8,0:0|0:1,0:0:0:0:
244,185,82719,1,10,3:1:0:0:
337,157,82933,1,0,0:0:0:0:
337,157,83041,1,8,3:1:0:0:
337,157,83148,2,0,P|312:115|244:94,1,93.5000028533936,8|0,0:0|3:2,0:0:0:0:
404,100,83469,1,0,0:0:0:0:
419,110,83576,6,0,P|432:154|420:198,1,93.5000028533936,2|0,3:2|3:0,0:0:0:0:
468,297,83898,1,0,3:0:0:0:
451,291,84005,2,0,P|493:266|514:198,1,93.5000028533936,8|8,0:0|0:1,0:0:0:0:
337,157,84433,1,4,0:1:0:0:
337,157,84541,1,0,3:0:0:0:
337,157,84648,2,0,L|247:158,1,46.7500014266968,0|0,3:0|0:0,0:0:0:0:
286,251,84862,1,10,0:0:0:0:
286,251,84969,1,0,0:0:0:0:
286,251,85076,2,0,L|376:250,1,46.7500014266968,8|0,0:1|0:0,0:0:0:0:
319,348,85291,6,0,L|272:348,1,46.7500014266968,2|0,3:2|0:0,0:0:0:0:
185,246,85505,1,0,3:0:0:0:
185,246,85612,1,0,0:0:0:0:
185,246,85719,2,0,L|195:301,1,46.7500014266968,10|0,0:1|0:0,0:0:0:0:
90,357,85933,5,0,3:0:0:0:
90,357,86041,1,8,0:0:0:0:
90,357,86148,2,0,L|100:302,1,46.7500014266968,12|10,0:1|0:1,0:0:0:0:
261,184,86362,2,0,L|271:239,1,46.7500014266968,2|10,3:2|0:1,0:0:0:0:
16,299,86576,2,0,L|26:244,1,46.7500014266968,10|10,3:2|0:1,0:0:0:0:
170,151,86791,1,6,3:0:0:0:
87,174,86898,1,6,3:0:0:0:
183,167,87005,6,0,L|62:147,1,110.499994941712,6|10,3:2|0:1,0:0:0:0:
227,81,87326,1,0,0:0:0:0:
239,94,87433,2,0,L|353:76,1,93.5000028533936,10|8,0:0|0:1,0:0:0:0:
298,284,87862,2,0,P|278:226|296:175,1,93.5000028533936,2|0,0:0|3:0,0:0:0:0:
380,305,88183,1,0,0:0:0:0:
392,291,88291,2,0,P|397:336|378:379,1,93.5000028533936,10|0,0:0|3:0,0:0:0:0:
435,224,88612,1,0,3:0:0:0:
433,205,88719,6,0,P|469:233|485:277,1,93.5000028533936,2|0,3:2|3:0,0:0:0:0:
419,126,89041,1,0,3:0:0:0:
404,113,89148,2,0,P|449:107|492:126,1,93.5000028533936,8|8,3:2|0:1,0:0:0:0:
328,184,89576,6,0,P|282:189|239:170,1,93.5000028533936,4|10,0:3|0:1,0:0:0:0:
193,52,89898,1,0,3:0:0:0:
177,44,90005,2,0,P|180:80|188:101,1,46.7500014266968,12|0,0:1|0:0,0:0:0:0:
109,143,90219,2,0,P|137:166|157:175,1,46.7500014266968,0|0,0:0|0:0,0:0:0:0:
187,252,90433,6,0,P|148:278|102:284,1,93.5000028533936,2|10,3:2|0:1,0:0:0:0:
33,364,90755,1,0,0:0:0:0:
30,347,90862,2,0,P|68:373|114:379,1,93.5000028533936,10|8,0:0|0:1,0:0:0:0:
284,285,91291,1,2,0:0:0:0:
102,284,91505,1,0,3:0:0:0:
284,285,91719,2,0,L|272:188,1,93.5000028533936,10|0,0:0|3:0,0:0:0:0:
324,25,92041,1,0,3:0:0:0:
342,24,92148,6,0,P|336:70|273:96,1,93.5000028533936,6|0,3:1|3:0,0:0:0:0:
203,117,92469,1,10,3:0:0:0:
185,118,92576,2,0,P|191:72|254:46,1,93.5000028533936,6|8,0:1|0:1,0:0:0:0:
272,192,92898,1,8,0:0:0:0:
290,191,93005,2,0,P|284:237|221:263,1,93.5000028533936,6|0,0:1|3:0,0:0:0:0:
117,208,93326,1,0,3:0:0:0:
131,196,93433,2,0,P|149:219|157:253,1,46.7500014266968,10|8,3:2|0:0,0:0:0:0:
154,366,93648,2,0,P|162:344|177:326,1,46.7500014266968,10|8,0:0|0:0,0:0:0:0:
270,354,93862,5,6,3:0:0:0:
67,291,94076,1,0,3:0:0:0:
270,354,94291,2,0,L|386:333,1,93.5000028533936,8|2,0:0|0:0,0:0:0:0:
247,263,94719,1,6,0:1:0:0:
450,200,94933,1,0,3:0:0:0:
247,263,95148,2,0,L|131:242,1,93.5000028533936,10|0,0:0|3:0,0:0:0:0:
47,155,95469,1,0,3:0:0:0:
35,169,95576,6,0,P|101:182|142:149,1,93.5000028533936,6|0,3:1|3:0,0:0:0:0:
264,120,95898,1,0,0:0:0:0:
276,107,96005,2,0,P|220:144|214:196,1,93.5000028533936,8|8,0:0|0:1,0:0:0:0:
333,296,96433,2,0,L|327:196,1,93.5000028533936,6|0,0:1|3:0,0:0:0:0:
414,103,96755,1,0,3:0:0:0:
425,89,96862,2,0,L|419:182,1,93.5000028533936,8|10,0:0|0:1,0:0:0:0:
247,263,97291,5,6,3:0:0:0:
333,296,97505,1,0,3:0:0:0:
257,102,97719,1,8,0:0:0:0:
166,125,97933,1,10,0:1:0:0:
327,202,98148,1,10,0:0:0:0:
327,202,98255,1,0,0:0:0:0:
327,202,98362,1,8,0:1:0:0:
80,152,98576,1,10,0:1:0:0:
290,6,98791,1,8,0:0:0:0:
290,6,98898,1,0,0:0:0:0:
289,5,99005,6,0,P|344:46|352:114,1,140.25000428009,6|0,3:1|3:0,0:0:0:0:
424,188,99433,1,10,0:0:0:0:
424,188,99541,1,0,0:0:0:0:
424,188,99648,2,0,P|451:193|477:191,1,46.7500014266968,8|8,0:1|0:1,0:0:0:0:
327,202,99862,2,0,P|300:207|274:205,1,46.7500014266968,6|2,3:0|3:2,0:0:0:0:
457,275,100076,2,0,P|481:286|507:291,1,46.7500014266968,2|2,0:0|3:2,0:0:0:0:
292,291,100291,2,0,P|267:302|241:307,1,46.7500014266968,10|2,3:2|0:0,0:0:0:0:
429,361,100505,1,6,3:0:0:0:
379,297,100612,1,6,3:0:0:0:
351,371,100719,5,6,3:2:0:0:
106,250,114433,6,0,P|154:236|187:198,1,102,2|0,3:2|3:0,0:0:0:0:
186,197,114862,2,0,L|276:203,1,68,8|8,0:1|0:0,0:0:0:0:
364,127,115291,2,0,L|229:116,1,136,0|8,3:0|0:0,0:0:0:0:
229,116,115826,1,0,0:0:0:0:
229,116,115933,2,0,P|226:101|221:61,1,34,4|0,3:0|0:0,0:0:0:0:
173,15,116148,6,0,P|136:42|57:25,1,102,2|0,3:2|3:0,0:0:0:0:
81,40,116576,2,0,P|94:65|99:116,1,68,8|8,0:1|0:0,0:0:0:0:
35,245,117005,2,0,P|39:211|54:180,1,68,0|10,3:0|0:1,0:0:0:0:
222,229,117433,1,8,0:0:0:0:
135,248,117648,1,2,0:0:0:0:
135,248,117755,1,8,0:1:0:0:
134,247,117862,6,0,P|158:292|161:343,1,102,2|0,3:2|3:0,0:0:0:0:
161,343,118291,2,0,P|195:339|255:323,1,68,8|8,0:1|0:0,0:0:0:0:
417,332,118719,2,0,P|351:324|300:281,1,136,0|8,3:0|0:0,0:0:0:0:
386,146,119362,1,4,3:0:0:0:
386,146,119469,1,0,0:0:0:0:
385,146,119576,6,0,P|399:194|389:243,1,102,2|0,3:2|0:0,0:0:0:0:
388,243,120005,2,0,L|439:230,1,34,10|2,0:0|0:0,0:0:0:0:
308,198,120219,2,0,L|275:206,1,34,10|2,0:0|0:0,0:0:0:0:
417,332,120433,1,6,3:0:0:0:
502,309,120648,1,4,3:0:0:0:
299,279,120862,2,0,P|280:326|293:374,1,101.999996887207,12|0,0:1|3:0,0:0:0:0:
310,289,121183,1,0,3:0:0:0:
310,289,121291,6,0,L|195:278,1,102,2|0,3:2|3:0,0:0:0:0:
208,279,121719,2,0,P|199:233|212:188,1,68,8|8,0:1|0:0,0:0:0:0:
79,128,122148,2,0,L|214:117,1,136,0|8,3:0|0:0,0:0:0:0:
214,116,122683,1,0,0:0:0:0:
214,116,122791,2,0,P|212:98|206:61,1,34,4|8,3:0|0:1,0:0:0:0:
172,19,123005,6,0,P|211:38|283:23,1,102,2|0,3:2|3:0,0:0:0:0:
267,31,123433,2,0,L|364:26,1,68,8|8,0:1|0:0,0:0:0:0:
475,79,123862,2,0,L|408:76,1,68,0|2,3:0|3:2,0:0:0:0:
284,202,124291,1,8,0:0:0:0:
342,135,124505,1,0,3:0:0:0:
342,135,124612,1,0,3:0:0:0:
342,135,124719,6,0,P|368:180|369:231,1,102,2|0,3:2|3:0,0:0:0:0:
369,228,125148,2,0,P|352:268|350:324,1,68,8|8,0:1|0:0,0:0:0:0:
159,173,125576,2,0,P|217:206|284:202,1,136,0|8,3:0|0:0,0:0:0:0:
107,250,126219,1,4,3:0:0:0:
107,250,126326,1,0,0:0:0:0:
107,250,126433,6,0,P|57:255|15:282,1,102,2|0,3:2|0:0,0:0:0:0:
14,283,126862,2,0,P|31:313|39:348,1,68,8|8,0:0|0:0,0:0:0:0:
202,227,127291,1,6,3:0:0:0:
185,313,127505,1,6,3:0:0:0:
76,99,127719,2,0,L|87:150,1,34,10|8,0:0|0:1,0:0:0:0:
99,216,127933,2,0,L|110:267,1,34,10|0,0:1|0:1,0:0:0:0:
226,139,128148,6,0,P|280:89|354:96,1,152.999995330811,6|8,3:2|0:0,0:0:0:0:
512,157,128791,1,10,3:1:0:0:
422,151,129005,2,0,P|430:114|455:86,1,76.4999976654053,0|0,0:0|0:0,0:0:0:0:
464,233,129433,1,10,0:0:0:0:
354,96,129648,1,2,3:2:0:0:
464,233,129862,6,0,P|426:268|320:253,1,152.999995330811,2|8,3:2|0:0,0:0:0:0:
271,332,130505,2,0,P|219:329|155:244,1,152.999995330811,10|0,3:1|3:0,0:0:0:0:
193,63,131148,2,0,L|204:178,1,114.749996498108,10|0,0:0|3:0,0:0:0:0:
204,178,131576,6,0,P|169:166|116:172,1,76.4999976654053,2|8,3:2|0:1,0:0:0:0:
66,234,132005,1,8,0:0:0:0:
242,261,132219,2,0,P|312:236|340:168,1,152.999995330811,2|0,3:2|3:0,0:0:0:0:
157,258,132862,1,10,0:0:0:0:
332,322,133076,1,2,3:2:0:0:
249,167,133291,6,0,P|239:142|236:91,1,76.4999976654053,2|0,3:2|3:0,0:0:0:0:
411,42,133719,1,10,0:0:0:0:
328,82,133933,1,8,0:1:0:0:
153,52,134148,1,6,3:0:0:0:
236,92,134362,1,6,3:0:0:0:
61,59,134576,2,0,L|56:117,1,38.2499988327027,10|0,0:0|0:0,0:0:0:0:
130,145,134791,2,0,L|135:203,1,38.2499988327027,6|0,3:0|3:0,0:0:0:0:
66,258,135005,6,0,P|149:220|201:252,1,152.999995330811,2|8,3:2|0:0,0:0:0:0:
357,293,135648,1,10,3:1:0:0:
285,236,135862,2,0,P|268:295|278:336,1,76.4999976654053,0|0,0:0|0:0,0:0:0:0:
431,243,136291,1,10,0:0:0:0:
326,375,136505,1,2,3:2:0:0:
491,176,136719,6,0,P|428:215|359:188,1,152.999995330811,2|10,3:2|0:0,0:0:0:0:
297,120,137362,2,0,P|228:93|166:131,1,152.999995330811,8|0,0:0|3:0,0:0:0:0:
66,247,138005,2,0,L|68:132,1,114.749996498108,10|0,0:1|3:0,0:0:0:0:
69,133,138433,5,2,3:2:0:0:
229,196,138648,2,0,P|189:220|155:223,1,76.4999976654053,0|8,3:0|0:1,0:0:0:0:
165,131,139076,1,8,0:0:0:0:
302,254,139291,2,0,P|322:183|284:119,1,152.999995330811,2|8,3:2|0:1,0:0:0:0:
213,279,139933,1,2,3:2:0:0:
396,264,140148,1,2,3:2:0:0:
396,264,140576,5,4,0:1:0:0:
302,254,140791,1,0,3:0:0:0:
190,129,141005,1,10,3:2:0:0:
284,119,141219,1,0,0:0:0:0:
209,239,141433,2,0,L|171:233,1,38.2499988327027,12|0,0:1|0:0,0:0:0:0:
77,223,141648,2,0,L|39:217,1,38.2499988327027,4|0,0:3|0:0,0:0:0:0:
0,73,141862,6,0,P|31:120|106:125,1,127.5,6|0,3:2|3:0,0:0:0:0:
97,128,142291,2,0,P|97:85|93:36,1,85,8|8,0:0|0:1,0:0:0:0:
261,35,142719,1,2,0:0:0:0:
188,79,142933,1,0,3:0:0:0:
259,125,143148,2,0,P|250:177|248:217,1,85,8|8,0:0|0:1,0:0:0:0:
465,185,143576,6,0,P|416:163|338:187,1,127.5,2|0,3:2|3:0,0:0:0:0:
346,180,144005,2,0,P|355:232|357:272,1,85,8|8,0:0|0:1,0:0:0:0:
240,360,144433,1,8,0:1:0:0:
275,282,144648,1,0,3:0:0:0:
170,243,144862,1,10,0:0:0:0:
169,242,144969,2,0,L|158:292,1,42.5,0|0,3:0|3:0,0:0:0:0:
92,217,145183,1,0,3:0:0:0:
92,217,145291,6,0,P|77:172|75:121,1,85,2|0,3:2|0:0,0:0:0:0:
74,134,145612,1,0,3:0:0:0:
74,134,145719,2,0,P|92:81|90:26,1,85,8|2,0:0|0:0,0:0:0:0:
10,70,146148,1,2,0:0:0:0:
178,99,146362,1,0,3:0:0:0:
178,99,146469,1,0,3:0:0:0:
178,99,146576,2,0,P|208:92|276:83,1,85,8|8,0:0|0:1,0:0:0:0:
417,54,147005,6,0,P|375:44|333:39,1,85,2|2,3:2|3:2,0:0:0:0:
334,40,147326,1,0,0:0:0:0:
334,40,147433,2,0,P|354:92|353:146,1,85,8|8,0:0|0:1,0:0:0:0:
266,275,147862,1,2,0:0:0:0:
289,193,148076,1,0,3:0:0:0:
403,273,148291,1,10,0:0:0:0:
403,273,148398,2,0,L|347:263,1,42.5,0|2,0:0|0:0,0:0:0:0:
317,345,148612,1,0,0:0:0:0:
317,345,148719,6,0,P|263:327|205:362,1,127.5,2|0,3:2|0:0,0:0:0:0:
205,361,149148,2,0,P|166:358|109:346,1,85,10|8,0:0|0:1,0:0:0:0:
0,284,149576,2,0,P|42:281|84:273,1,85,2|0,0:0|3:0,0:0:0:0:
222,218,150005,2,0,P|179:215|138:207,1,85,10|0,0:0|3:0,0:0:0:0:
72,58,150433,6,0,P|70:101|82:142,1,85,2|0,3:2|0:0,0:0:0:0:
81,141,150755,1,2,0:0:0:0:
81,141,150862,2,0,P|102:131|123:122,3,42.5,10|0|8|0,0:0|0:0|0:1|0:0,0:0:0:0:
168,54,151291,2,0,P|199:54|233:61,3,42.5,2|0|0|0,0:0|3:0|3:0|0:0,0:0:0:0:
298,29,151719,1,10,0:0:0:0:
298,29,151826,2,0,P|318:35|345:50,1,42.5,0|8,3:0|0:1,0:0:0:0:
339,132,152041,1,0,0:0:0:0:
339,132,152148,6,0,P|399:132|445:78,1,127.5,2|0,3:2|0:0,0:0:0:0:
442,85,152576,2,0,P|453:142|455:180,1,85,8|8,0:0|0:1,0:0:0:0:
318,230,153005,1,2,0:0:0:0:
318,230,153112,1,0,0:0:0:0:
318,230,153219,1,2,3:2:0:0:
479,251,153433,2,0,P|436:254|394:262,1,85,10|2,0:0|0:0,0:0:0:0:
237,195,153862,5,2,3:2:0:0:
318,230,154076,1,8,0:0:0:0:
257,43,154291,1,4,0:0:0:0:
176,78,154505,1,8,0:1:0:0:
385,165,154719,2,0,L|387:110,1,42.5,8|0,0:0|0:0,0:0:0:0:
337,8,154933,2,0,L|339:51,1,42.5,10|0,0:1|0:0,0:0:0:0:
427,40,155148,2,0,L|478:28,1,42.5,6|0,0:1|3:0,0:0:0:0:
298,132,155362,2,0,L|247:120,1,42.5,0|0,3:0|0:0,0:0:0:0:
432,253,155576,6,0,P|448:298|454:374,1,85,6|0,3:2|0:0,0:0:0:0:
453,334,155898,1,2,0:0:0:0:
453,334,156005,2,0,L|391:339,1,42.5,8|0,0:0|0:0,0:0:0:0:
330,269,156219,2,0,P|285:316|176:298,1,170,2|0,0:2|3:0,0:0:0:0:
186,307,156755,1,0,0:0:0:0:
186,307,156862,2,0,P|196:265|201:192,1,85,10|8,0:0|0:1,0:0:0:0:
45,108,157291,6,0,P|49:150|58:191,1,85,2|0,3:2|0:0,0:0:0:0:
58,191,157612,1,2,0:0:0:0:
58,191,157719,2,0,L|116:176,1,42.5,8|0,0:0|0:0,0:0:0:0:
140,88,157933,2,0,P|196:114|294:52,1,170,2|0,0:0|3:0,0:0:0:0:
286,68,158469,1,0,0:0:0:0:
286,68,158576,1,10,0:0:0:0:
200,223,158791,1,10,0:1:0:0:
402,196,159005,6,0,P|361:195|287:176,1,85,2|0,3:2|0:0,0:0:0:0:
317,187,159326,1,2,0:0:0:0:
317,187,159433,2,0,P|326:208|330:244,1,42.5,8|0,0:0|0:0,0:0:0:0:
360,334,159648,2,0,P|402:281|523:314,1,170,2|0,0:0|3:0,0:0:0:0:
497,286,160183,1,0,0:0:0:0:
497,286,160291,2,0,P|473:357|472:386,1,85,10|8,0:0|0:1,0:0:0:0:
435,177,160719,6,0,P|433:156|428:133,3,42.5,2|0|0|0,3:2|0:0|3:0|3:0,0:0:0:0:
355,175,161148,2,0,P|338:161|318:148,3,42.5,8|0|0|2,0:0|0:0|0:0|0:0,0:0:0:0:
292,232,161576,2,0,P|271:234|248:238,3,42.5,2|0|0|0,0:0|0:0|3:0|0:0,0:0:0:0:
274,327,162005,1,6,0:1:0:0:
274,327,162112,1,0,0:0:0:0:
274,327,162219,2,0,P|253:352|240:376,1,42.5,8|2,0:1|0:0,0:0:0:0:
181,302,162433,6,0,P|165:241|79:197,1,127.5,2|0,3:2|0:0,0:0:0:0:
115,202,162862,2,0,P|72:202|14:199,1,85,10|6,0:0|0:1,0:0:0:0:
94,29,163291,1,0,3:0:0:0:
74,111,163505,1,2,3:2:0:0:
157,95,163719,2,0,P|199:96|241:94,1,85,8|0,0:1|0:0,0:0:0:0:
381,11,164148,6,0,P|340:65|350:150,1,127.5,2|0,3:2|0:0,0:0:0:0:
338,122,164576,2,0,P|347:159|348:211,1,85,8|8,0:0|0:1,0:0:0:0:
189,231,165005,1,0,3:0:0:0:
257,180,165219,1,0,3:0:0:0:
270,306,165433,1,10,0:0:0:0:
270,306,165541,2,0,L|267:264,1,42.5,0|8,0:0|0:1,0:0:0:0:
369,296,165755,1,2,0:0:0:0:
369,296,165862,6,0,P|366:338|354:405,1,85,2|8,3:2|0:1,0:0:0:0:
359,380,166183,1,2,0:0:0:0:
359,380,166291,2,0,L|433:371,1,42.5,0|8,0:0|0:1,0:0:0:0:
478,300,166505,2,0,P|440:256|459:130,1,170,2|2,0:0|0:0,0:0:0:0:
444,149,167041,1,0,0:0:0:0:
444,149,167148,2,0,P|398:146|327:130,1,85,8|0,0:1|0:0,0:0:0:0:
199,151,167576,5,2,3:2:0:0:
337,48,167791,1,10,0:0:0:0:
206,18,168005,1,8,0:0:0:0:
258,85,168219,1,10,0:1:0:0:
88,223,168433,1,10,0:0:0:0:
112,141,168648,1,2,3:2:0:0:
303,218,168862,2,0,L|245:218,1,42.5,10|0,0:0|3:0,0:0:0:0:
204,281,169076,2,0,L|145:270,1,42.5,8|0,0:1|3:0,0:0:0:0:
80,313,169291,5,6,3:2:0:0:
80,313,169505,1,10,0:1:0:0:
80,313,169719,1,10,0:0:0:0:
80,313,169933,1,10,0:1:0:0:
156,363,170148,2,0,P|227:373|296:312,1,152.999995330811,10|10,0:1|0:0,0:0:0:0:
204,281,170791,1,0,3:0:0:0:
397,241,171005,6,0,P|322:250|263:204,1,152.999995330811,2|8,3:2|0:0,0:0:0:0:
346,163,171648,1,2,3:2:0:0:
204,281,171862,1,10,0:1:0:0:
204,281,172076,1,10,0:1:0:0:
204,281,172291,1,10,0:0:0:0:
204,281,172505,1,10,0:1:0:0:
252,130,172719,6,0,P|250:168|263:204,1,76.4999976654053,2|0,3:2|0:0,0:0:0:0:
346,163,173148,1,8,0:0:0:0:
246,40,173362,2,0,P|172:81|156:156,1,152.999995330811,2|0,3:1|3:0,0:0:0:0:
346,163,174005,1,8,0:0:0:0:
178,230,174219,1,4,3:0:0:0:
329,331,174433,6,0,P|341:294|340:256,1,76.4999976654053,2|8,3:2|0:1,0:0:0:0:
178,230,174862,1,8,0:0:0:0:
254,280,175076,1,0,3:0:0:0:
116,148,175291,1,6,3:0:0:0:
204,123,175505,1,6,3:0:0:0:
69,285,175719,2,0,L|80:234,1,38.2499988327027,10|0,0:0|0:0,0:0:0:0:
27,175,175933,2,0,L|23:136,1,38.2499988327027,2|8,3:2|0:1,0:0:0:0:
74,69,176148,6,0,P|151:83|199:17,1,152.999995330811,2|8,3:2|0:1,0:0:0:0:
282,65,176791,1,10,0:0:0:0:
274,254,177005,1,10,0:1:0:0:
274,254,177219,1,10,0:1:0:0:
274,254,177433,1,10,0:0:0:0:
274,254,177648,1,10,0:1:0:0:
482,258,177862,6,0,P|405:272|357:206,1,152.999995330811,2|8,3:2|0:1,0:0:0:0:
274,254,178505,1,8,0:0:0:0:
80,231,178719,2,0,P|131:179|203:195,1,152.999995330811,10|8,0:1|0:1,0:0:0:0:
190,286,179362,1,0,3:0:0:0:
190,286,179469,1,0,3:0:0:0:
190,286,179576,5,2,3:2:0:0:
292,168,179791,2,0,L|285:83,1,76.4999976654053,0|8,3:0|0:0,0:0:0:0:
274,254,180219,1,8,0:0:0:0:
392,52,180433,2,0,P|387:129|378:219,1,152.999995330811,4|8,0:1|0:0,0:0:0:0:
203,195,181076,1,0,3:0:0:0:
359,290,181291,1,4,3:1:0:0:
359,290,181719,6,0,P|309:252|254:281,1,127.500004863739,10|2,0:0|3:2,0:0:0:0:
186,343,182041,1,2,0:0:0:0:
254,293,182148,6,0,P|197:325|126:276,1,152.999995330811,6|4,3:0|3:0,0:0:0:0:
157,205,182898,1,4,3:0:0:0:
121,299,183005,5,6,3:2:0:0:
110,134,196719,5,6,3:2:0:0:
110,134,196933,1,0,0:0:0:0:
110,134,197148,1,8,0:0:0:0:
137,218,197362,1,10,3:1:0:0:
198,47,197576,5,0,0:0:0:0:
198,47,197791,1,0,3:0:0:0:
198,47,198005,1,8,0:0:0:0:
194,141,198219,1,8,0:1:0:0:
194,141,198326,1,8,0:1:0:0:
194,141,198433,6,0,P|223:134|251:116,1,59.4999981842042,2|0,3:2|3:0,0:0:0:0:
375,88,198862,2,0,P|349:72|321:66,1,59.4999981842042,8|10,0:0|0:1,0:0:0:0:
349,232,199291,2,0,P|355:202|348:174,1,59.4999981842042,2|0,3:2|3:0,0:0:0:0:
175,230,199719,2,0,P|168:258|174:288,1,59.4999981842042,12|0,0:1|0:0,0:0:0:0:
174,288,200041,1,0,0:0:0:0:
174,288,200148,6,0,L|251:281,1,59.4999981842042,2|0,3:2|0:0,0:0:0:0:
313,322,200576,1,8,0:0:0:0:
239,373,200791,1,8,0:1:0:0:
367,230,201005,6,0,L|289:233,1,59.4999981842042,8|0,0:1|3:0,0:0:0:0:
233,282,201433,1,8,0:0:0:0:
313,322,201648,1,8,0:1:0:0:
321,139,201862,5,2,3:2:0:0:
321,139,201969,1,0,0:0:0:0:
321,139,202076,1,8,0:1:0:0:
293,224,202291,1,6,0:1:0:0:
234,158,202505,1,8,0:1:0:0:
171,59,202719,5,6,0:1:0:0:
171,59,202826,1,0,0:0:0:0:
171,59,202933,1,0,3:0:0:0:
199,144,203148,1,6,3:0:0:0:
258,78,203362,1,8,0:1:0:0:
110,142,203576,5,2,3:2:0:0:
110,142,203791,2,0,P|79:118|80:27,1,118.999996368408,0|2,0:0|0:0,0:0:0:0:
200,168,204433,2,0,P|198:199|192:235,1,59.4999981842042,6|0,0:1|0:0,0:0:0:0:
193,227,204755,2,0,P|195:258|201:294,1,59.4999981842042,2|0,3:2|0:0,0:0:0:0:
199,286,205076,1,2,0:0:0:0:
392,282,205291,6,0,P|355:257|311:257,1,89.2499972763062,2|2,3:2|3:2,0:0:0:0:
311,257,205719,2,0,P|306:303|303:336,1,59.4999981842042,0|2,0:0|0:0,0:0:0:0:
112,202,206148,2,0,P|148:226|192:226,1,89.2499972763062,6|2,0:1|3:2,0:0:0:0:
192,227,206576,2,0,P|197:181|200:148,1,59.4999981842042,0|2,0:0|0:0,0:0:0:0:
254,16,207005,6,0,P|269:66|264:92,1,59.4999981842042,2|0,3:2|0:0,0:0:0:0:
268,72,207326,2,0,P|229:70|204:63,1,59.4999981842042,4|0,3:0|0:0,0:0:0:0:
209,65,207648,1,0,3:0:0:0:
67,163,207862,2,0,P|102:125|127:116,1,59.4999981842042,6|0,0:1|0:0,0:0:0:0:
108,122,208183,2,0,P|126:156|132:181,1,59.4999981842042,4|0,3:0|0:0,0:0:0:0:
132,177,208505,1,0,3:0:0:0:
294,235,208719,6,0,P|243:222|223:205,1,59.4999981842042,6|0,3:1|0:0,0:0:0:0:
238,219,209041,2,0,P|258:186|277:168,1,59.4999981842042,4|0,3:0|0:0,0:0:0:0:
274,171,209362,1,0,3:0:0:0:
155,300,209576,5,2,3:2:0:0:
140,206,209683,1,8,0:1:0:0:
155,300,209791,1,8,0:1:0:0:
140,206,209898,1,0,3:0:0:0:
155,300,210005,6,0,P|109:294|85:372,1,127.500004863739,12|6,0:1|3:0,0:0:0:0:
84,286,210326,1,6,3:0:0:0:
87,376,210433,6,0,P|173:381|212:348,1,110.499994941712,6|10,3:2|0:1,0:0:0:0:
353,345,210755,1,0,0:0:0:0:
365,337,210862,2,0,P|320:325|276:338,1,93.5000028533936,10|8,0:0|0:1,0:0:0:0:
188,192,211291,2,0,P|185:238|200:282,1,93.5000028533936,2|2,0:0|3:2,0:0:0:0:
269,133,211612,1,0,0:0:0:0:
275,147,211719,2,0,P|290:104|290:55,1,93.5000028533936,8|8,0:0|0:1,0:0:0:0:
138,45,212041,1,0,3:0:0:0:
122,36,212148,6,0,P|180:48|205:106,1,93.5000028533936,6|0,3:1|3:0,0:0:0:0:
98,141,212469,1,0,3:0:0:0:
114,132,212576,2,0,P|56:144|31:202,1,93.5000028533936,10|8,3:2|0:1,0:0:0:0:
39,331,213005,2,0,P|51:273|109:249,1,93.5000028533936,4|10,3:0|0:1,0:0:0:0:
156,352,213326,1,0,3:0:0:0:
158,370,213433,2,0,P|140:351|133:320,1,46.7500014266968,10|0,0:1|0:0,0:0:0:0:
187,212,213648,2,0,P|179:234|163:251,1,46.7500014266968,6|0,3:0|0:0,0:0:0:0:
235,316,213862,6,0,P|299:318|334:300,1,93.5000028533936,6|10,3:2|0:1,0:0:0:0:
466,268,214183,1,0,0:0:0:0:
480,262,214291,2,0,P|436:246|390:252,1,93.5000028533936,10|2,0:0|0:0,0:0:0:0:
244,150,214719,1,2,0:0:0:0:
324,306,214933,1,2,3:2:0:0:
244,150,215148,2,0,L|251:19,1,93.5000028533936,8|0,0:0|3:0,0:0:0:0:
163,187,215469,1,2,0:0:0:0:
165,202,215576,6,0,P|122:189|90:155,1,93.5000028533936,6|0,3:1|3:0,0:0:0:0:
245,243,215898,1,0,3:0:0:0:
243,258,216005,2,0,P|285:245|317:211,1,93.5000028533936,10|8,3:2|0:1,0:0:0:0:
66,256,216433,2,0,L|70:349,1,93.5000028533936,4|10,3:0|0:1,0:0:0:0:
170,373,216755,1,0,3:0:0:0:
159,384,216862,2,0,L|163:290,1,93.5000028533936,6|0,0:1|3:0,0:0:0:0:
69,150,217291,5,6,3:2:0:0:
243,258,217505,1,4,3:0:0:0:
146,81,217719,2,0,P|169:128|165:179,1,93.5000028533936,10|0,0:0|3:0,0:0:0:0:
375,143,218148,2,0,L|271:157,1,93.5000028533936,2|0,0:0|3:0,0:0:0:0:
134,266,218576,1,8,0:0:0:0:
243,258,218791,1,8,0:1:0:0:
243,258,218898,1,0,3:0:0:0:
243,258,219005,6,0,P|253:284|259:323,1,46.7500014266968,6|0,3:1|0:0,0:0:0:0:
337,278,219219,2,0,P|334:336|321:363,1,46.7500014266968,0|0,3:0|3:0,0:0:0:0:
400,383,219433,2,0,P|464:360|485:326,1,93.5000028533936,8|8,0:0|0:1,0:0:0:0:
459,134,219862,1,10,0:1:0:0:
381,187,220076,1,0,3:0:0:0:
381,187,220183,1,0,3:0:0:0:
381,187,220291,2,0,P|414:219|459:228,1,93.5000028533936,10|10,0:0|0:1,0:0:0:0:
316,240,220612,1,0,0:0:0:0:
301,230,220719,6,0,P|288:186|300:142,1,93.5000028533936,6|10,3:2|0:1,0:0:0:0:
252,43,221041,1,0,3:0:0:0:
269,49,221148,2,0,P|227:74|206:142,1,93.5000028533936,10|10,0:0|0:1,0:0:0:0:
79,268,221576,1,6,0:1:0:0:
79,268,221683,1,0,0:0:0:0:
79,268,221791,2,0,L|169:267,1,46.7500014266968,2|0,3:2|0:0,0:0:0:0:
130,174,222005,1,10,0:0:0:0:
130,174,222112,1,0,0:0:0:0:
130,174,222219,2,0,L|40:175,1,46.7500014266968,0|0,3:0|3:0,0:0:0:0:
207,230,222433,6,0,L|213:293,1,46.7500014266968,2|0,3:2|0:0,0:0:0:0:
290,355,222648,1,0,3:0:0:0:
290,355,222755,1,0,0:0:0:0:
290,355,222862,2,0,L|294:308,1,46.7500014266968,6|0,0:1|0:0,0:0:0:0:
257,152,223076,5,8,0:1:0:0:
257,152,223183,1,8,0:0:0:0:
257,152,223291,2,0,L|307:157,1,46.7500014266968,6|10,0:1|0:0,0:0:0:0:
381,341,223505,2,0,L|431:336,1,46.7500014266968,2|10,3:2|0:1,0:0:0:0:
316,50,223719,2,0,L|376:89,1,46.7500014266968,10|2,3:2|0:0,0:0:0:0:
490,261,223933,1,6,3:0:0:0:
409,230,224041,1,6,3:0:0:0:
504,246,224148,6,0,L|381:255,1,110.499994941712,6|10,3:2|0:1,0:0:0:0:
223,243,224469,1,0,0:0:0:0:
212,232,224576,2,0,L|325:240,1,93.5000028533936,10|8,0:0|0:1,0:0:0:0:
145,384,225005,2,0,P|135:310|160:274,1,93.5000028533936,2|2,0:2|3:2,0:0:0:0:
107,135,225326,1,0,0:0:0:0:
122,126,225433,2,0,P|132:200|107:236,1,93.5000028533936,10|8,0:0|0:3,0:0:0:0:
218,136,225755,1,2,0:0:0:0:
227,149,225862,6,0,P|257:96|248:29,1,93.5000028533936,6|0,3:1|3:0,0:0:0:0:
385,191,226183,1,0,3:0:0:0:
376,204,226291,2,0,P|346:151|355:84,1,93.5000028533936,10|8,3:2|0:1,0:0:0:0:
196,253,226719,6,0,P|242:248|285:267,1,93.5000028533936,4|10,3:0|0:1,0:0:0:0:
354,333,227041,1,0,3:0:0:0:
370,341,227148,2,0,P|367:305|359:284,1,46.7500014266968,10|0,0:1|0:0,0:0:0:0:
434,229,227362,2,0,P|416:213|396:201,1,46.7500014266968,6|0,3:0|0:0,0:0:0:0:
460,120,227576,6,0,P|417:102|370:105,1,93.5000028533936,6|4,3:2|3:0,0:0:0:0:
298,56,227898,1,0,0:0:0:0:
281,55,228005,2,0,P|311:20|354:2,1,93.5000028533936,10|10,0:0|0:3,0:0:0:0:
396,199,228433,1,2,0:2:0:0:
440,21,228648,1,4,3:0:0:0:
396,199,228862,2,0,L|278:177,1,93.5000028533936,10|8,0:0|0:3,0:0:0:0:
164,100,229183,1,0,0:0:0:0:
163,82,229291,6,0,P|209:88|235:151,1,93.5000028533936,6|2,3:1|3:2,0:0:0:0:
238,285,229612,1,0,0:0:0:0:
222,294,229719,2,0,P|204:252|222:210,1,93.5000028533936,6|8,0:1|0:1,0:0:0:0:
360,132,230041,1,8,0:0:0:0:
376,139,230148,2,0,P|348:176|303:181,1,93.5000028533936,6|0,0:1|3:0,0:0:0:0:
324,283,230469,1,8,0:1:0:0:
341,276,230576,2,0,P|363:325|360:352,1,46.7500014266968,10|8,3:2|0:0,0:0:0:0:
437,233,230791,2,0,P|444:210|458:192,1,46.7500014266968,10|8,0:0|0:0,0:0:0:0:
457,325,231005,5,6,3:2:0:0:
303,181,231219,1,0,3:0:0:0:
165,342,231433,2,0,L|289:328,1,93.5000028533936,8|2,0:0|0:0,0:0:0:0:
48,245,231862,5,6,0:1:0:0:
202,101,232076,1,0,3:0:0:0:
340,262,232291,2,0,L|216:248,1,93.5000028533936,8|0,0:0|3:0,0:0:0:0:
108,168,232612,1,0,3:0:0:0:
110,149,232719,6,0,P|163:189|166:241,1,93.5000028533936,6|8,3:1|0:1,0:0:0:0:
257,156,233041,1,0,3:0:0:0:
258,172,233148,2,0,P|287:111|267:63,1,93.5000028533936,8|8,0:0|0:1,0:0:0:0:
106,46,233576,2,0,L|227:39,1,93.5000028533936,6|0,0:1|3:0,0:0:0:0:
95,137,233898,1,0,3:0:0:0:
110,149,234005,2,0,L|-11:142,1,93.5000028533936,8|10,0:0|0:1,0:0:0:0:
155,284,234433,5,6,3:2:0:0:
189,197,234648,1,6,3:0:0:0:
309,346,234862,1,10,0:0:0:0:
310,252,235076,1,10,0:1:0:0:
492,341,235291,1,10,3:2:0:0:
446,259,235505,1,10,3:1:0:0:
402,176,235719,1,10,0:1:0:0:
355,95,235933,1,8,0:0:0:0:
355,95,236041,1,0,3:0:0:0:
355,95,236148,6,0,P|302:120|219:75,1,140.25000428009,2|0,3:2|3:0,0:0:0:0:
230,91,236576,1,8,0:0:0:0:
78,84,236791,1,10,0:1:0:0:
78,84,236898,1,8,0:0:0:0:
78,84,237005,2,0,P|126:67|138:57,1,46.7500014266968,6|2,0:1|0:0,0:0:0:0:
194,179,237219,2,0,P|146:162|134:152,1,46.7500014266968,2|2,3:2|0:0,0:0:0:0:
7,189,237433,2,0,P|55:172|67:162,1,46.7500014266968,10|10,3:2|0:0,0:0:0:0:
156,304,237648,1,10,0:0:0:0:
106,240,237755,1,10,0:0:0:0:
78,314,237862,6,0,P|143:321|186:386,1,136,6|0,3:2|3:0,0:0:0:0:
383,231,238505,2,0,P|318:238|275:303,1,136,14|0,0:1|0:0,0:0:0:0:
141,134,239148,2,0,P|168:176|177:225,1,68,8|2,0:1|3:2,0:0:0:0:
299,121,239576,6,0,P|350:14|375:8,1,136,6|0,3:1|3:0,0:0:0:0:
388,100,240219,1,8,0:1:0:0:
260,214,240433,2,0,P|209:171|202:105,1,136,2|10,3:2|0:1,0:0:0:0:
299,121,241076,1,10,0:1:0:0:
177,280,241291,6,0,P|228:321|294:316,1,136,6|0,3:1|3:0,0:0:0:0:
260,214,241933,1,6,0:1:0:0:
76,288,242148,5,10,3:1:0:0:
111,199,242362,1,10,0:1:0:0:
299,121,242576,1,10,0:0:0:0:
264,32,242791,1,8,0:0:0:0:
174,66,243005,5,6,3:1:0:0:
209,155,243219,1,8,0:0:0:0:
451,245,243433,1,8,0:0:0:0:
416,334,243648,1,10,0:1:0:0:
326,299,243862,5,6,0:0:0:0:
361,210,244076,1,8,0:1:0:0:
361,210,244183,1,8,0:0:0:0:
361,210,244291,2,0,L|353:152,1,34,8|8,0:0|0:0,0:0:0:0:
392,64,244505,2,0,L|396:97,1,34,6|6,3:0|3:0,0:0:0:0:
326,299,244719,5,6,3:2:0:0:
