osu file format v14

[General]
AudioFilename: audio.mp3
AudioLeadIn: 0
PreviewTime: 72755
Countdown: 0
SampleSet: Soft
StackLeniency: 0.5
Mode: 0
LetterboxInBreaks: 0
WidescreenStoryboard: 1

[Editor]
Bookmarks: 18433,32148,45862,59576,73291,87005,100719,112719,114433,128148,140148,141862,155576,165862,169291,181719,183005,196719,203576,210433,224148,237862,244719
DistanceSpacing: 1
BeatDivisor: 2
GridSize: 4
TimelineZoom: 2.2

[Metadata]
Title:Hyakka Ryouran
TitleUnicode:百火繚乱
Artist:ITO KASHITARO
ArtistUnicode:伊東歌詞太郎
Creator:appleeaterx
Version:Normal
Source:
Tags:milan- kanor itou kashitarou うつくしまYOSAKOIまつり おもてなし温楽彩
BeatmapID:1456752
BeatmapSetID:617188

[Difficulty]
HPDrainRate:3.5
CircleSize:3.5
OverallDifficulty:4
ApproachRate:5
SliderMultiplier:1
SliderTickRate:1

[Events]
//Background and Video events
0,0,"hkrr.jpg",0,0
Video,-1775,"i do not know how to encode stuff.avi"
//Break Periods
2,100919,110919
//Storyboard Layer 0 (Background)
//Storyboard Layer 1 (Fail)
//Storyboard Layer 2 (Pass)
//Storyboard Layer 3 (Foreground)
//Storyboard Sound Samples

[TimingPoints]
862,428.571428571429,4,2,19,50,1,0
1291,428.571428571429,4,2,20,40,1,0
1398,-100,4,2,19,40,0,0
2148,-100,4,2,19,30,0,0
2791,-100,4,2,20,20,0,0
3005,-100,4,2,20,40,0,0
3433,-100,4,2,20,20,0,0
3862,-100,4,2,20,45,0,0
3969,-100,4,2,20,40,0,0
4719,-100,4,2,19,40,0,0
5576,-100,4,2,19,30,0,0
6219,-100,4,2,20,20,0,0
6433,-100,4,2,20,40,0,0
6862,-100,4,2,20,20,0,0
7291,-100,4,2,19,30,0,0
7719,-100,4,2,19,40,0,0
8148,-100,4,2,20,40,0,0
9005,-100,4,2,19,30,0,0
9648,-100,4,2,20,10,0,0
9862,-100,4,2,19,30,0,0
10291,-100,4,2,20,20,0,0
10719,-100,4,2,19,30,0,0
11576,-100,4,2,19,40,0,0
12433,-100,4,2,19,30,0,0
13076,-100,4,2,20,20,0,0
13291,-100,4,2,19,30,0,0
13719,-100,4,2,20,20,0,0
14148,-100,4,2,19,30,0,0
14791,-100,4,2,19,10,0,0
14898,-100,4,2,19,30,0,0
15005,-100,4,2,22,40,0,0
16719,-100,4,2,19,45,0,0
18005,-100,4,2,19,55,0,0
18219,-100,4,2,19,40,0,0
18433,-100,4,2,19,55,0,0
21433,-100,4,2,19,47,0,0
21862,-100,4,2,19,55,0,0
24433,-100,4,2,19,47,0,0
24862,-100,4,2,19,55,0,0
28291,-100,4,2,19,47,0,0
28505,-100,4,2,19,55,0,0
32148,-100,4,2,19,45,0,0
35362,-100,4,2,19,20,0,0
35576,-100,4,2,19,45,0,0
42219,-100,4,2,19,20,0,0
42433,-100,4,2,19,45,0,0
45433,-100,4,2,19,20,0,0
45541,-100,4,2,19,45,0,0
45862,-100,4,2,19,50,0,0
51433,-100,4,2,19,25,0,0
51541,-100,4,2,19,50,0,0
51862,-100,4,2,19,25,0,0
51969,-100,4,2,19,50,0,0
59576,-100,4,2,19,45,0,0
59683,-100,4,2,19,50,0,0
65576,-100,4,2,19,45,0,0
66433,-100,4,2,19,50,0,0
72005,-100,4,2,19,40,0,0
72112,-100,4,2,19,45,0,0
72219,-100,4,2,19,50,0,0
72326,-100,4,2,19,55,0,0
72433,-100,4,2,19,30,0,0
72862,-100,4,2,19,20,0,0
73076,-100,4,2,19,50,0,0
73291,-100,4,2,19,70,0,1
73933,-100,4,2,19,50,0,1
74041,-100,4,2,19,70,0,1
76291,-100,4,2,19,50,0,1
76398,-100,4,2,19,70,0,1
77362,-100,4,2,19,50,0,1
77469,-100,4,2,19,70,0,1
84433,-100,4,2,19,50,0,1
84541,-100,4,2,19,70,0,1
85291,-100,4,2,19,65,0,1
85505,-100,4,2,19,70,0,1
86148,-100,4,2,19,50,0,1
86255,-100,4,2,19,60,0,1
86576,-100,4,2,19,70,0,1
86791,-100,4,2,19,65,0,0
87005,-100,4,2,19,70,0,1
87648,-100,4,2,19,50,0,1
87755,-100,4,2,19,70,0,1
90005,-100,4,2,19,50,0,1
90112,-100,4,2,19,70,0,1
91076,-100,4,2,19,50,0,1
91183,-100,4,2,19,70,0,1
92148,-100,4,2,19,50,0,1
92576,-100,4,2,19,55,0,1
93005,-100,4,2,19,60,0,1
93433,-100,4,2,19,65,0,1
93862,-100,4,2,19,70,0,1
95576,-100,4,2,19,50,0,1
95630,-100,4,2,19,70,0,1
96433,-100,4,2,19,50,0,1
96487,-100,4,2,19,70,0,1
99862,-100,4,2,19,65,0,1
100076,-100,4,2,19,60,0,1
100291,-100,4,2,19,63,0,1
100505,-100,4,2,19,57,0,1
100719,-100,4,2,19,70,0,0
112719,-100,4,2,19,55,0,0
114433,-100,4,2,19,50,0,0
120005,-100,4,2,19,40,0,0
120219,-100,4,2,19,45,0,0
120433,-100,4,2,19,50,0,0
120862,-100,4,2,19,25,0,0
120916,-100,4,2,19,50,0,0
140576,-100,4,2,19,40,0,0
141005,-100,4,2,19,55,0,0
141433,-100,4,2,19,45,0,0
141862,-100,4,2,19,55,0,0
147862,-100,4,2,19,45,0,0
148291,-100,4,2,19,50,0,0
148719,-100,4,2,19,40,0,0
149148,-100,4,2,19,45,0,0
149576,-100,4,2,19,50,0,0
150005,-100,4,2,19,55,0,0
155148,-100,4,2,19,40,0,0
155201,-100,4,2,19,60,0,0
162005,-100,4,2,19,40,0,0
162058,-100,4,2,19,60,0,0
163076,-100,4,2,19,40,0,0
163130,-100,4,2,19,62,0,0
165862,-100,4,2,19,65,0,0
169291,-100,4,2,19,52,0,0
169719,-100,4,2,19,45,0,0
170362,-100,4,2,19,52,0,0
172291,-100,4,2,19,45,0,0
172719,-100,4,2,19,52,0,0
177433,-100,4,2,19,45,0,0
177862,-100,4,2,19,52,0,0
180433,-100,4,2,19,40,0,0
180487,-100,4,2,19,52,0,0
181291,-100,4,2,19,40,0,0
181344,-100,4,2,19,52,0,0
181719,-100,4,2,19,40,0,0
181826,-100,4,2,19,45,0,0
181933,-100,4,2,19,50,0,0
182041,-100,4,2,19,55,0,0
182148,-100,4,2,19,50,0,0
183005,-100,4,2,19,65,0,0
183058,-100,4,2,19,40,0,0
186005,-100,4,2,19,25,0,0
186058,-100,4,2,19,40,0,0
189433,-100,4,2,19,25,0,0
189541,-100,4,2,19,40,0,0
193362,-100,4,2,19,15,0,0
194148,-100,4,2,19,40,0,0
194219,-100,4,2,19,20,0,0
195005,-100,4,2,19,40,0,0
195076,-100,4,2,19,15,0,0
195433,-100,4,2,19,35,0,0
195505,-100,4,2,19,13,0,0
195862,-100,4,2,19,30,0,0
195933,-100,4,2,19,11,0,0
196291,-100,4,2,19,35,0,0
196719,-100,4,2,19,45,0,0
199719,-100,4,2,19,30,0,0
199773,-100,4,2,19,45,0,0
200148,-100,4,2,19,50,0,0
201862,-100,4,2,19,35,0,0
202291,-100,4,2,19,40,0,0
202719,-100,4,2,19,45,0,0
203148,-100,4,2,19,50,0,0
203576,-100,4,2,19,55,0,0
204433,-100,4,2,19,40,0,0
204541,-100,4,2,19,55,0,0
205291,-100,4,2,19,70,0,0
206148,-100,4,2,19,50,0,0
206255,-100,4,2,19,70,0,0
206362,-100,4,2,19,50,0,0
209576,-100,4,2,19,60,0,0
210005,-100,4,2,19,50,0,0
210112,-100,4,2,19,65,0,0
210433,-100,4,2,19,83,0,1
211076,-100,4,2,19,60,0,1
211183,-100,4,2,19,83,0,1
212148,-100,4,2,19,60,0,1
212255,-100,4,2,19,83,0,1
214505,-100,4,2,19,60,0,1
214612,-100,4,2,19,83,0,1
215576,-100,4,2,19,60,0,1
215683,-100,4,2,19,83,0,1
216862,-100,4,2,19,60,0,1
216969,-100,4,2,19,83,0,1
219005,-100,4,2,19,60,0,1
219112,-100,4,2,19,83,0,1
221576,-100,4,2,19,60,0,1
221683,-100,4,2,19,83,0,1
222433,-100,4,2,19,70,0,1
222862,-100,4,2,19,75,0,1
223291,-100,4,2,19,60,0,1
223398,-100,4,2,19,70,0,1
223719,-100,4,2,19,75,0,1
223933,-100,4,2,19,80,0,0
224148,-100,4,2,19,83,0,1
224791,-100,4,2,19,60,0,1
224898,-100,4,2,19,83,0,1
225862,-100,4,2,19,60,0,1
225969,-100,4,2,19,83,0,1
228219,-100,4,2,19,60,0,1
228326,-100,4,2,19,83,0,1
229076,-100,4,2,19,60,0,1
229183,-100,4,2,19,83,0,1
229291,-100,4,2,19,60,0,1
229719,-100,4,2,19,65,0,1
230148,-100,4,2,19,70,0,1
230576,-100,4,2,19,75,0,1
231005,-100,4,2,19,83,0,1
232719,-100,4,2,19,60,0,1
232826,-100,4,2,19,83,0,1
233576,-100,4,2,19,60,0,1
233683,-100,4,2,19,83,0,1
237005,-100,4,2,19,75,0,1
237219,-100,4,2,19,70,0,1
237433,-100,4,2,19,73,0,1
237648,-100,4,2,19,65,0,0
237862,-100,4,2,19,60,0,1
238505,-100,4,2,19,40,0,1
238719,-100,4,2,19,60,0,1
243005,-100,4,2,19,55,0,1
243433,-100,4,2,19,57,0,1
243862,-100,4,2,19,60,0,1
244719,-100,4,2,19,85,0,0

[Colours]
Combo1 : 1,166,254
Combo2 : 255,128,64
Combo3 : 201,255,128
Combo4 : 242,24,57

[HitObjects]
67,323,862,6,0,L|135:306,1,50,12|8,2:3|2:3,0:0:0:0:
133,264,1290,2,0,P|203:329|301:303,1,200,12|2,3:2|0:0,0:0:0:0:
258,110,3005,2,0,L|236:214,2,100,2|2|2,1:2|1:2|0:0,0:0:0:0:
398,252,4719,6,0,B|273:249|332:302|209:303,1,200,14|2,3:0|0:0,0:0:0:0:
55,175,6433,2,0,L|156:154,1,100,8|8,1:2|1:2,0:0:0:0:
218,78,7291,2,0,L|319:57,1,100,6|0,0:1|0:0,0:0:0:0:
409,93,8148,6,0,P|352:171|357:293,1,200,12|2,3:2|0:0,0:0:0:0:
172,365,9862,2,0,L|155:253,2,100,6|10|6,0:1|1:2|0:1,0:0:0:0:
56,201,11576,6,0,P|148:228|224:155,1,200,14|6,3:0|0:1,0:0:0:0:
373,35,13291,2,0,L|345:144,1,100,6|10,0:1|1:2,0:0:0:0:
392,221,14148,2,0,L|364:330,1,100,6|0,0:1|0:0,0:0:0:0:
276,359,15005,5,4,0:0:0:0:
256,192,15112,12,0,16719,0:0:0:0:
157,87,18005,6,0,L|101:72,1,50,8|4,0:0|3:0,0:0:0:0:
73,37,18433,2,0,P|41:86|39:131,1,100,2|8,3:2|0:0,0:0:0:0:
107,198,19291,2,0,L|210:173,1,100,2|8,0:0|0:0,0:0:0:0:
240,140,19933,1,8,0:1:0:0:
240,140,20148,2,0,P|272:189|274:234,1,100,2|8,3:2|0:0,0:0:0:0:
206,302,21005,2,0,L|147:290,2,50,10|10|10,0:1|3:1|0:0,0:0:0:0:
244,334,21648,1,2,3:2:0:0:
244,334,21862,6,0,L|345:311,1,100,2|8,3:2|0:0,0:0:0:0:
372,350,22505,1,0,3:0:0:0:
372,350,22719,2,0,P|394:303|392:251,1,100,2|8,0:0|0:0,0:0:0:0:
325,181,23576,2,0,L|350:77,1,100,2|8,3:2|0:0,0:0:0:0:
261,61,24433,2,0,L|252:3,2,50,10|0|8,0:1|3:0|0:0,0:0:0:0:
232,102,25076,1,0,0:0:0:0:
232,102,25291,6,0,P|189:131|139:131,1,100,2|8,3:2|0:0,0:0:0:0:
101,103,25933,1,8,0:1:0:0:
101,103,26148,2,0,L|73:211,1,100,2|8,0:0|0:0,0:0:0:0:
4,269,27005,2,0,P|43:296|98:299,1,100,2|8,3:2|0:0,0:0:0:0:
173,239,27862,2,0,L|163:184,2,50,10|2|10,0:1|3:2|0:0,0:0:0:0:
213,269,28505,1,0,3:0:0:0:
213,269,28719,6,0,L|326:245,1,100,2|8,3:2|0:0,0:0:0:0:
351,277,29362,1,8,0:1:0:0:
351,277,29576,2,0,P|369:231|361:172,1,100,10|8,0:1|0:0,0:0:0:0:
303,102,30433,2,0,L|186:81,1,100,2|8,3:2|0:0,0:0:0:0:
120,139,31291,2,0,L|69:150,2,50,8|0|8,0:0|3:0|0:0,0:0:0:0:
147,180,31933,1,0,3:0:0:0:
147,180,32148,6,0,P|94:265|126:373,1,200,2|0,3:2|3:0,0:0:0:0:
198,304,33433,1,10,0:1:0:0:
292,338,33862,2,0,L|393:316,1,100,2|8,3:2|0:0,0:0:0:0:
436,335,34505,1,8,0:1:0:0:
436,335,34719,2,0,P|455:289|455:233,1,100,0|10,3:0|0:1,0:0:0:0:
377,177,35576,6,0,L|360:66,1,100,2|8,3:2|0:0,0:0:0:0:
271,35,36433,2,0,L|255:133,1,100,0|10,3:0|0:1,0:0:0:0:
240,181,37076,1,8,0:1:0:0:
240,181,37291,2,0,P|147:202|77:132,1,200,2|0,3:2|3:0,0:0:0:0:
112,40,38576,1,8,0:0:0:0:
207,69,39005,6,0,L|317:47,1,100,2|8,3:2|0:0,0:0:0:0:
342,82,39648,1,8,0:1:0:0:
342,82,39862,2,0,L|446:60,1,100,0|10,3:0|0:1,0:0:0:0:
492,146,40719,2,0,P|469:187|465:246,1,100,2|8,3:2|0:0,0:0:0:0:
422,266,41362,1,8,0:1:0:0:
422,266,41576,2,0,P|445:309|450:359,1,100,0|8,3:0|0:1,0:0:0:0:
353,333,42433,6,0,L|239:310,1,100,2|8,3:2|0:0,0:0:0:0:
228,278,43076,1,8,0:1:0:0:
228,278,43291,2,0,L|129:297,1,100,0|10,3:0|0:1,0:0:0:0:
51,359,44148,2,0,P|44:260|118:198,1,200,2|2,3:2|3:2,0:0:0:0:
221,367,45862,6,0,L|328:346,1,100,2|10,3:2|0:1,0:0:0:0:
357,379,46505,1,8,0:0:0:0:
357,379,46719,2,0,P|375:340|372:275,1,100,8|8,0:1|0:0,0:0:0:0:
344,243,47362,1,4,3:0:0:0:
344,243,47576,2,0,L|237:264,2,100,2|10|8,3:2|0:1|0:1,0:0:0:0:
366,145,48862,1,8,0:0:0:0:
315,58,49291,6,0,P|273:37|206:44,1,100,2|10,3:2|0:1,0:0:0:0:
191,78,49933,1,8,0:0:0:0:
191,78,50148,2,0,L|73:100,1,100,8|8,0:1|0:0,0:0:0:0:
10,153,51005,1,2,3:2:0:0:
42,247,51433,2,0,L|95:229,1,50,12|8,0:1|0:0,0:0:0:0:
126,197,51862,2,0,P|155:242|159:288,1,100,12|8,3:1|0:0,0:0:0:0:
133,330,52505,1,0,3:0:0:0:
133,330,52719,6,0,L|231:298,1,100,2|10,3:2|0:1,0:0:0:0:
254,256,53362,1,8,0:0:0:0:
254,256,53576,2,0,L|354:275,1,100,8|8,0:1|0:0,0:0:0:0:
394,243,54219,1,4,3:0:0:0:
394,243,54433,2,0,P|414:291|412:346,2,100,2|10|8,3:2|0:1|0:1,0:0:0:0:
393,142,55719,1,8,0:0:0:0:
292,135,56148,6,0,L|184:109,1,100,2|10,3:2|0:1,0:0:0:0:
165,71,56791,1,8,0:0:0:0:
165,71,57005,2,0,P|132:125|126:175,1,100,8|8,0:1|0:0,0:0:0:0:
178,245,57862,2,0,L|65:273,1,100,2|10,3:2|0:1,0:0:0:0:
128,357,58719,2,0,L|199:340,1,50,6|6,3:0|3:0,0:0:0:0:
222,366,59148,2,0,L|293:349,1,50,10|0,0:0|3:0,0:0:0:0:
294,310,59576,6,0,P|346:318|386:356,1,100,6|8,3:2|0:0,0:0:0:0:
423,374,60219,2,0,L|449:263,1,100,10|0,3:1|0:0,0:0:0:0:
484,244,60862,1,10,0:0:0:0:
404,183,61291,2,0,L|432:74,1,100,2|8,3:2|0:0,0:0:0:0:
392,52,61933,2,0,P|342:89|289:81,1,100,10|8,3:1|0:1,0:0:0:0:
267,56,62576,1,10,0:0:0:0:
173,90,63005,6,0,P|123:134|115:228,2,150,2|10|10,3:2|3:1|0:0,0:0:0:0:
204,184,64719,2,0,L|220:291,1,100,2|8,3:2|0:0,0:0:0:0:
277,361,65576,2,0,L|327:348,1,50,10|10,3:0|3:0,0:0:0:0:
372,366,66005,2,0,L|424:351,1,50,10|8,0:0|0:1,0:0:0:0:
452,313,66433,6,0,P|456:264|433:220,1,100,2|8,3:2|0:0,0:0:0:0:
390,194,67076,2,0,L|409:89,1,100,10|0,3:1|0:0,0:0:0:0:
445,62,67719,1,10,0:0:0:0:
355,16,68148,2,0,L|257:37,1,100,2|8,3:2|0:0,0:0:0:0:
210,18,68791,2,0,P|182:64|182:111,1,100,8|2,0:0|0:0,0:0:0:0:
217,144,69433,1,10,3:1:0:0:
306,188,69862,6,0,L|322:302,1,100,2|8,3:2|0:0,0:0:0:0:
279,317,70505,1,8,0:0:0:0:
279,317,70719,2,0,L|180:334,1,100,2|10,0:0|0:1,0:0:0:0:
154,376,71362,1,4,3:0:0:0:
154,376,71576,2,0,P|132:292|9:247,1,200,2|4,3:2|3:1,0:0:0:0:
43,43,73291,6,0,L|141:19,1,100,6|10,3:2|0:0,0:0:0:0:
189,29,73933,1,8,0:1:0:0:
189,29,74148,2,0,P|216:82|212:138,1,100,2|10,0:0|0:2,0:0:0:0:
206,221,75005,2,0,L|304:203,1,100,2|8,3:2|3:2,0:0:0:0:
329,159,75648,1,8,0:1:0:0:
329,159,75862,2,0,L|343:103,2,50,4|10|12,0:3|0:1|0:1,0:0:0:0:
412,214,76719,6,0,P|439:259|436:309,1,100,2|10,3:2|0:0,0:0:0:0:
400,338,77362,1,8,0:1:0:0:
400,338,77576,2,0,L|296:313,1,100,2|10,0:0|0:0,0:0:0:0:
213,269,78433,2,0,L|109:296,1,100,2|8,3:2|3:2,0:0:0:0:
84,332,79076,1,8,0:1:0:0:
84,332,79291,2,0,P|64:286|70:224,1,100,4|8,0:3|0:0,0:0:0:0:
84,138,80148,6,0,L|184:114,1,100,6|8,3:2|0:0,0:0:0:0:
196,66,80791,1,0,0:0:0:0:
196,66,81005,2,0,P|231:104|287:111,1,100,2|10,0:0|0:0,0:0:0:0:
339,35,81862,2,0,L|443:12,1,100,2|8,3:2|0:0,0:0:0:0:
478,41,82505,1,8,0:1:0:0:
478,41,82719,2,0,P|500:85|498:142,1,100,10|8,3:1|0:0,0:0:0:0:
464,170,83362,1,0,3:2:0:0:
464,170,83576,6,0,P|434:230|443:279,1,100,2|8,3:2|0:0,0:0:0:0:
457,306,84219,1,8,0:1:0:0:
457,306,84433,2,0,L|514:288,2,50,4|0|10,0:1|3:0|0:0,0:0:0:0:
369,355,85291,2,0,L|267:328,1,100,2|10,3:2|0:1,0:0:0:0:
180,368,86148,2,0,L|168:311,1,50,12|2,0:1|3:2,0:0:0:0:
120,308,86576,2,0,L|110:246,1,50,10|6,3:2|3:0,0:0:0:0:
79,220,87005,6,0,P|137:225|182:196,1,100,6|10,3:2|0:0,0:0:0:0:
172,155,87648,1,8,0:1:0:0:
172,155,87862,2,0,L|278:130,1,100,2|10,0:0|0:0,0:0:0:0:
343,64,88719,2,0,P|369:113|370:159,1,100,2|8,3:2|3:2,0:0:0:0:
331,188,89362,1,8,0:1:0:0:
331,188,89576,2,0,L|312:253,2,50,4|10|12,0:3|0:1|0:1,0:0:0:0:
414,243,90433,6,0,L|431:345,1,100,2|10,3:2|0:0,0:0:0:0:
385,362,91076,1,8,0:1:0:0:
385,362,91291,2,0,P|339:341|283:345,1,100,2|10,0:0|0:0,0:0:0:0:
194,371,92148,2,0,L|79:341,1,100,6|6,3:1|0:1,0:0:0:0:
58,314,92791,1,8,0:1:0:0:
66,264,93005,2,0,P|62:207|79:162,1,100,6|10,0:1|3:2,0:0:0:0:
109,130,93648,1,10,0:0:0:0:
155,146,93862,6,0,P|225:191|353:42,1,300,6|10,3:0|0:0,0:0:0:0:
440,6,95576,2,0,L|457:115,1,100,6|8,3:1|0:0,0:0:0:0:
491,139,96219,1,8,0:1:0:0:
459,177,96433,2,0,P|428:227|429:278,1,100,6|8,0:1|0:0,0:0:0:0:
408,313,97076,1,10,0:1:0:0:
438,353,97291,6,0,L|497:340,2,50,6|0|8,3:0|3:0|0:0,0:0:0:0:
339,369,98148,2,0,L|234:340,1,100,10|10,0:0|0:1,0:0:0:0:
195,360,98791,1,8,0:0:0:0:
195,360,99005,2,0,P|174:305|185:252,1,100,6|10,3:1|0:0,0:0:0:0:
229,178,99862,2,0,L|283:165,1,50,6|2,3:0|0:0,0:0:0:0:
304,123,100291,1,10,3:2:0:0:
351,138,100505,1,6,3:0:0:0:
398,154,100719,5,6,3:2:0:0:
257,32,112719,6,0,P|222:82|224:146,1,100,2|8,3:2|0:0,0:0:0:0:
298,178,113576,2,0,L|281:237,1,50,10|2,0:0|3:2,0:0:0:0:
333,236,114005,2,0,L|316:295,1,50,8|8,0:0|0:1,0:0:0:0:
333,331,114433,6,0,P|255:331|202:375,2,150,2|8|8,3:2|0:0|0:0,0:0:0:0:
424,371,116148,2,0,L|447:264,1,100,2|8,3:2|0:1,0:0:0:0:
461,225,116791,1,8,0:0:0:0:
461,225,117005,2,0,P|414:226|366:192,1,100,0|8,3:0|0:0,0:0:0:0:
334,104,117862,6,0,L|229:77,1,100,2|8,3:2|0:1,0:0:0:0:
199,45,118505,1,8,0:0:0:0:
199,45,118719,2,0,P|163:98|165:153,1,100,0|8,3:0|0:0,0:0:0:0:
176,231,119576,2,0,L|74:253,1,100,2|10,3:2|0:0,0:0:0:0:
95,350,120433,2,0,L|151:335,1,50,6|4,3:0|3:0,0:0:0:0:
180,371,120862,2,0,L|236:356,1,50,12|0,0:1|3:0,0:0:0:0:
238,309,121291,6,0,L|336:289,1,100,2|8,3:2|0:1,0:0:0:0:
363,330,121933,1,8,0:0:0:0:
363,330,122148,2,0,P|409:365|458:363,1,100,0|8,3:0|0:0,0:0:0:0:
477,269,123005,2,0,L|459:163,1,100,2|8,3:2|0:1,0:0:0:0:
436,128,123648,1,8,0:0:0:0:
436,128,123862,2,0,P|395:111|338:121,1,100,0|8,3:0|0:0,0:0:0:0:
278,198,124719,6,0,P|228:205|176:177,1,100,2|8,3:2|0:1,0:0:0:0:
147,150,125362,1,8,0:0:0:0:
147,150,125576,2,0,L|128:42,1,100,0|8,3:0|0:0,0:0:0:0:
219,6,126433,2,0,P|295:64|408:31,1,200,2|6,3:2|3:0,0:0:0:0:
487,15,127719,1,10,0:0:0:0:
491,114,128148,6,0,L|469:220,1,100,6|8,3:2|0:0,0:0:0:0:
459,260,128791,2,0,P|417:227|361:221,1,100,10|0,3:1|0:0,0:0:0:0:
346,262,129433,1,10,0:0:0:0:
309,355,129862,2,0,L|194:333,1,100,2|8,3:2|0:0,0:0:0:0:
190,290,130505,2,0,P|139:296|91:333,1,100,10|0,3:1|3:0,0:0:0:0:
72,364,131148,1,10,0:0:0:0:
33,271,131576,6,0,L|13:118,2,150,2|2|10,3:2|3:2|0:0,0:0:0:0:
114,211,133291,2,0,L|211:189,1,100,2|10,3:2|0:0,0:0:0:0:
254,98,134148,2,0,L|317:81,1,50,6|6,3:0|3:0,0:0:0:0:
328,42,134576,2,0,L|391:25,1,50,10|6,0:0|3:0,0:0:0:0:
420,53,135005,6,0,L|440:164,1,100,2|8,3:2|0:0,0:0:0:0:
487,157,135648,2,0,P|457:207|451:257,1,100,10|0,3:1|0:0,0:0:0:0:
476,290,136291,1,10,0:0:0:0:
401,356,136719,2,0,L|291:321,1,100,2|10,3:2|0:0,0:0:0:0:
264,354,137362,2,0,P|244:308|255:245,1,100,8|0,0:0|3:0,0:0:0:0:
291,233,138005,1,10,0:1:0:0:
333,142,138433,6,0,L|229:116,1,100,2|8,3:2|0:1,0:0:0:0:
236,67,139076,1,8,0:0:0:0:
236,67,139291,2,0,L|138:91,1,100,2|8,3:2|0:1,0:0:0:0:
93,70,139933,1,2,3:2:0:0:
93,70,140148,2,0,P|62:118|71:180,1,100,2|4,3:2|0:1,0:0:0:0:
110,247,141005,1,10,3:2:0:0:
200,205,141433,1,12,0:1:0:0:
255,288,141862,5,6,3:2:0:0:
256,192,141969,12,0,145291,0:0:0:0:
54,99,146148,6,0,L|41:39,2,50,2|0|8,0:0|3:0|0:0,0:0:0:0:
98,122,146791,1,8,0:1:0:0:
98,122,147005,6,0,P|69:176|71:230,1,100,2|8,3:2|0:0,0:0:0:0:
100,308,147862,2,0,L|202:284,1,100,2|10,0:0|0:0,0:0:0:0:
244,302,148505,1,2,0:0:0:0:
244,302,148719,2,0,L|226:363,2,50,2|8|10,3:2|0:1|0:0,0:0:0:0:
287,212,149576,2,0,L|272:164,2,50,2|0|10,0:0|3:0|0:0,0:0:0:0:
323,245,150219,1,0,3:0:0:0:
323,245,150433,6,0,P|364:266|423:259,1,100,2|10,3:2|0:0,0:0:0:0:
442,218,151076,1,8,0:1:0:0:
442,218,151291,2,0,L|490:205,2,50,2|0|10,0:0|3:0|0:0,0:0:0:0:
390,132,152148,2,0,L|285:112,1,100,2|8,3:2|0:0,0:0:0:0:
261,72,152791,1,8,0:1:0:0:
261,72,153005,2,0,P|218:106|143:107,1,100,2|10,0:0|0:0,0:0:0:0:
88,62,153862,6,0,L|74:118,1,50,2|8,3:2|0:0,0:0:0:0:
65,159,154291,1,4,0:0:0:0:
43,256,154719,1,8,0:0:0:0:
21,353,155148,1,6,0:1:0:0:
119,370,155576,6,0,P|175:336|228:337,1,100,6|8,3:2|0:0,0:0:0:0:
230,289,156219,2,0,P|293:304|330:342,1,100,2|0,0:2|3:0,0:0:0:0:
345,368,156862,1,10,0:0:0:0:
429,317,157291,2,0,L|413:204,1,100,2|8,3:2|0:0,0:0:0:0:
455,189,157933,2,0,L|439:76,1,100,2|0,0:0|3:0,0:0:0:0:
464,45,158576,1,10,0:0:0:0:
365,26,159005,6,0,P|311:53|256:52,1,100,2|8,3:2|0:0,0:0:0:0:
258,103,159648,2,0,P|200:83|162:44,1,100,2|0,0:0|3:0,0:0:0:0:
135,22,160291,1,10,0:0:0:0:
78,104,160719,2,0,L|20:89,2,50,2|0|8,3:2|3:0|0:0,0:0:0:0:
114,197,161576,2,0,P|140:255|134:303,1,100,2|6,0:0|0:1,0:0:0:0:
127,339,162219,1,8,0:1:0:0:
127,339,162433,6,0,L|237:313,1,100,2|10,3:2|0:0,0:0:0:0:
246,271,163076,2,0,L|356:297,1,100,6|2,0:1|3:2,0:0:0:0:
375,332,163719,1,8,0:1:0:0:
462,282,164148,2,0,P|484:227|481:182,1,100,2|8,3:2|0:0,0:0:0:0:
447,150,164791,1,8,0:1:0:0:
447,150,165005,2,0,L|347:178,1,100,0|10,3:0|0:0,0:0:0:0:
286,99,165862,6,0,P|243:78|187:81,1,100,2|2,3:2|0:0,0:0:0:0:
156,115,166505,2,0,L|130:215,1,100,2|2,0:0|0:0,0:0:0:0:
94,246,167148,1,8,0:1:0:0:
122,341,167576,2,0,L|223:316,1,100,2|8,3:2|0:0,0:0:0:0:
303,370,168433,2,0,L|367:352,1,50,10|2,0:0|3:2,0:0:0:0:
370,310,168862,2,0,L|434:292,1,50,10|8,0:0|0:1,0:0:0:0:
445,338,169291,6,0,P|445:271|470:221,1,100,6|10,3:2|0:0,0:0:0:0:
481,197,169933,1,10,0:1:0:0:
481,197,170148,2,0,L|378:167,1,100,10|10,0:1|0:0,0:0:0:0:
310,99,171005,2,0,P|272:128|214:132,1,100,2|8,3:2|0:0,0:0:0:0:
128,95,171862,2,0,L|113:27,2,50,10|10|10,0:1|0:1|0:0,0:0:0:0:
98,135,172505,1,10,0:1:0:0:
98,135,172719,6,0,L|115:238,1,100,2|8,3:2|0:0,0:0:0:0:
100,282,173362,2,0,P|159:298|186:336,1,100,2|0,3:1|3:0,0:0:0:0:
206,370,174005,1,8,0:0:0:0:
280,302,174433,2,0,L|301:193,1,100,2|8,3:2|0:0,0:0:0:0:
264,109,175291,2,0,L|320:93,1,50,6|6,3:0|3:0,0:0:0:0:
343,56,175719,2,0,L|391:69,1,50,10|2,0:0|3:2,0:0:0:0:
433,42,176148,6,0,P|461:88|461:136,1,100,2|8,3:2|0:1,0:0:0:0:
396,208,177005,2,0,L|335:193,2,50,10|10|10,0:1|0:1|0:0,0:0:0:0:
431,243,177648,1,10,0:1:0:0:
431,243,177862,2,0,L|407:346,1,100,2|8,3:2|0:1,0:0:0:0:
367,368,178505,1,8,0:0:0:0:
367,368,178719,2,0,P|323:329|273:328,1,100,10|8,0:1|0:1,0:0:0:0:
192,365,179576,6,0,L|175:261,1,100,2|8,3:2|0:0,0:0:0:0:
127,252,180219,1,8,0:0:0:0:
127,252,180433,2,0,L|105:126,1,100,4|8,0:1|0:0,0:0:0:0:
69,123,181076,2,0,L|58:57,1,50,0|4,0:0|3:1,0:0:0:0:
145,19,181719,1,10,0:0:0:0:
242,40,182148,1,6,3:0:0:0:
437,84,183005,5,6,3:2:0:0:
251,158,183862,1,2,0:0:0:0:
289,354,184719,2,0,L|183:329,1,100,2|0,3:2|0:0,0:0:0:0:
158,368,185362,1,0,0:0:0:0:
158,368,185576,2,0,L|52:343,1,100,2|6,0:0|0:1,0:0:0:0:
4,262,186433,5,6,3:1:0:0:
99,86,187291,2,0,L|84:30,2,50,0|0|2,0:0|0:0|0:0,0:0:0:0:
166,159,188148,2,0,P|229:160|269:136,1,100,2|0,3:2|0:0,0:0:0:0:
294,105,188791,1,0,0:0:0:0:
294,105,189005,2,0,L|269:212,1,100,2|6,0:0|0:1,0:0:0:0:
300,298,189862,6,0,P|387:254|499:262,1,200,2|2,3:2|0:0,0:0:0:0:
396,79,191576,2,0,P|309:35|197:43,1,200,2|2,3:2|0:0,0:0:0:0:
141,113,192862,1,0,0:0:0:0:
45,82,193291,5,10,3:1:0:0:
81,278,194148,1,14,0:1:0:0:
236,166,195005,1,2,3:2:0:0:
256,192,195112,12,0,196719,0:0:0:0:
456,192,197576,6,0,L|358:173,1,100,0|8,0:0|0:0,0:0:0:0:
323,136,198219,1,8,0:1:0:0:
323,136,198433,2,0,P|294:190|297:234,1,100,2|8,3:2|0:0,0:0:0:0:
339,317,199291,2,0,L|392:300,2,50,2|0|12,3:2|3:0|0:1,0:0:0:0:
247,357,200148,6,0,L|136:339,1,100,2|8,3:2|0:0,0:0:0:0:
108,370,200791,1,8,0:1:0:0:
108,370,201005,2,0,P|86:317|94:269,1,100,8|8,0:1|0:0,0:0:0:0:
88,175,201862,1,2,3:2:0:0:
180,213,202291,1,6,0:1:0:0:
181,113,202719,1,6,0:1:0:0:
275,147,203148,1,6,3:0:0:0:
342,73,203576,6,0,P|372:164|311:249,1,200,2|6,3:2|0:1,0:0:0:0:
232,297,204862,1,0,0:0:0:0:
319,345,205291,2,0,L|428:323,1,100,2|0,3:2|0:0,0:0:0:0:
456,356,205933,1,2,0:0:0:0:
456,356,206148,2,0,P|475:295|466:248,1,100,6|0,0:1|0:0,0:0:0:0:
442,218,206791,1,2,0:0:0:0:
442,218,207005,6,0,P|344:226|262:159,1,200,2|6,3:2|0:1,0:0:0:0:
257,67,208291,1,0,0:0:0:0:
158,88,208719,2,0,L|134:194,1,100,6|0,3:1|0:0,0:0:0:0:
43,223,209576,2,0,L|54:287,1,50,2|8,3:2|0:1,0:0:0:0:
101,270,210005,2,0,L|112:334,1,50,12|6,0:1|3:0,0:0:0:0:
142,357,210433,6,0,P|188:323|231:320,1,100,6|10,3:2|0:0,0:0:0:0:
267,352,211076,1,8,0:1:0:0:
267,352,211291,2,0,P|315:345|354:314,1,100,2|8,0:0|0:0,0:0:0:0:
283,244,212148,2,0,L|303:137,1,100,6|10,3:1|3:2,0:0:0:0:
335,109,212791,1,8,0:1:0:0:
335,109,213005,2,0,L|399:93,2,50,4|10|10,3:0|0:1|0:1,0:0:0:0:
252,51,213862,6,0,P|208:86|156:88,1,100,6|10,3:2|0:0,0:0:0:0:
129,55,214505,1,2,0:0:0:0:
129,55,214719,2,0,P|80:61|42:94,1,100,2|8,0:0|0:0,0:0:0:0:
23,192,215576,2,0,L|39:293,1,100,6|10,3:1|3:2,0:0:0:0:
48,339,216219,1,8,0:1:0:0:
48,339,216433,2,0,P|96:345|140:318,1,100,4|6,3:0|0:1,0:0:0:0:
154,220,217291,6,0,P|194:196|251:201,1,100,6|10,3:2|0:0,0:0:0:0:
271,241,217933,1,0,3:0:0:0:
271,241,218148,2,0,L|375:223,1,100,2|8,0:0|0:0,0:0:0:0:
468,212,219005,2,0,P|441:267|442:313,1,100,6|8,3:1|0:0,0:0:0:0:
463,349,219648,1,8,0:1:0:0:
463,349,219862,2,0,L|358:323,1,100,10|10,0:1|0:0,0:0:0:0:
308,242,220719,6,0,L|195:272,1,100,6|10,3:2|0:0,0:0:0:0:
182,308,221362,1,10,0:1:0:0:
182,308,221576,2,0,L|165:369,2,50,6|2|10,0:1|3:2|0:0,0:0:0:0:
102,246,222433,2,0,L|84:138,1,100,2|6,3:2|0:1,0:0:0:0:
166,88,223291,2,0,L|176:150,1,50,6|2,0:1|3:2,0:0:0:0:
221,120,223719,2,0,L|231:182,1,50,10|6,3:2|3:0,0:0:0:0:
231,218,224148,6,0,P|277:194|334:197,1,100,6|10,3:2|0:0,0:0:0:0:
360,235,224791,1,8,0:1:0:0:
360,235,225005,2,0,P|409:234|453:211,1,100,2|10,0:2|0:0,0:0:0:0:
426,112,225862,2,0,L|315:89,1,100,6|10,3:1|3:2,0:0:0:0:
283,67,226505,1,8,0:1:0:0:
283,67,226719,2,0,L|271:15,2,50,4|10|10,3:0|0:1|0:1,0:0:0:0:
200,123,227576,6,0,L|86:97,1,100,6|10,3:2|0:0,0:0:0:0:
62,69,228219,1,10,0:3:0:0:
62,69,228433,2,0,P|34:118|37:169,1,100,2|10,0:2|0:0,0:0:0:0:
117,216,229291,2,0,L|225:190,1,100,6|6,3:1|0:1,0:0:0:0:
250,157,229933,1,8,0:1:0:0:
298,170,230148,2,0,P|320:217|319:273,1,100,6|10,0:1|3:2,0:0:0:0:
302,311,230791,1,10,0:0:0:0:
264,344,231005,6,0,P|161:256|11:302,1,300,6|8,3:2|0:0,0:0:0:0:
19,198,232719,2,0,L|44:93,1,100,6|8,3:1|0:0,0:0:0:0:
52,51,233362,1,8,0:1:0:0:
104,47,233576,2,0,P|155:54|205:25,1,100,6|8,0:1|0:0,0:0:0:0:
241,9,234219,1,10,0:1:0:0:
283,34,234433,6,0,L|269:95,2,50,6|6|10,3:2|3:0|0:0,0:0:0:0:
376,71,235291,2,0,L|385:128,1,50,10|10,3:2|3:1,0:0:0:0:
433,125,235719,2,0,L|424:182,1,50,10|8,0:1|0:0,0:0:0:0:
432,224,236148,2,0,P|385:207|329:220,1,100,2|8,3:2|0:0,0:0:0:0:
293,305,237005,2,0,L|179:288,1,100,6|10,0:1|3:2,0:0:0:0:
162,328,237648,1,10,0:0:0:0:
115,310,237862,6,0,P|74:222|206:100,1,300,6|8,3:2|0:1,0:0:0:0:
290,149,239576,2,0,L|394:132,1,100,6|0,3:1|3:0,0:0:0:0:
425,99,240219,1,8,0:1:0:0:
425,99,240433,2,0,P|449:141|452:198,1,100,2|10,3:2|0:1,0:0:0:0:
415,225,241076,1,10,0:1:0:0:
415,225,241291,6,0,P|390:268|386:317,1,100,6|0,3:1|3:0,0:0:0:0:
393,367,241933,1,6,0:1:0:0:
393,367,242148,2,0,L|287:342,1,100,10|10,3:1|0:0,0:0:0:0:
227,270,243005,2,0,L|129:292,1,100,6|8,3:1|0:0,0:0:0:0:
87,319,243648,1,10,0:1:0:0:
87,319,243862,2,0,P|62:261|74:211,1,100,6|8,0:0|0:0,0:0:0:0:
88,180,244505,1,6,3:0:0:0:
80,130,244719,5,6,3:2:0:0:
