osu file format v14

[General]
AudioFilename: audio.mp3
AudioLeadIn: 0
PreviewTime: 72755
Countdown: 0
SampleSet: Soft
StackLeniency: 0.2
Mode: 0
LetterboxInBreaks: 0
WidescreenStoryboard: 1

[Editor]
Bookmarks: 18433,32148,45862,59576,73291,87005,100719,112719,114433,128148,140148,141862,155576,165862,169291,181719,183005,196719,203576,210433,224148,237862,244719
DistanceSpacing: 1
BeatDivisor: 4
GridSize: 4
TimelineZoom: 2.2

[Metadata]
Title:Hyakka Ryouran
TitleUnicode:百火繚乱
Artist:ITO KASHITARO
ArtistUnicode:伊東歌詞太郎
Creator:appleeaterx
Version:Expert
Source:
Tags:milan- kanor itou kashitarou うつくしまYOSAKOIまつり おもてなし温楽彩
BeatmapID:1301421
BeatmapSetID:617188

[Difficulty]
HPDrainRate:6
CircleSize:4
OverallDifficulty:8
ApproachRate:8.7
SliderMultiplier:1.6
SliderTickRate:1

[Events]
//Background and Video events
0,0,"hkrr.jpg",0,0
Video,-1775,"i do not know how to encode stuff.avi"
//Break Periods
2,100919,111279
//Storyboard Layer 0 (Background)
//Storyboard Layer 1 (Fail)
//Storyboard Layer 2 (Pass)
//Storyboard Layer 3 (Foreground)
//Storyboard Sound Samples

[TimingPoints]
862,428.571428571429,4,2,19,50,1,0
862,-285.714285714286,4,2,19,50,0,0
1291,428.571428571429,4,2,20,40,1,0
1291,-200,4,2,20,40,0,0
1398,-200,4,2,19,40,0,0
2148,-200,4,2,19,30,0,0
2791,-200,4,2,20,20,0,0
3005,-285.714285714286,4,2,20,40,0,0
3433,-285.714285714286,4,2,20,20,0,0
3862,-285.714285714286,4,2,20,45,0,0
3969,-285.714285714286,4,2,20,40,0,0
4719,-200,4,2,19,40,0,0
5576,-200,4,2,19,30,0,0
6219,-200,4,2,20,20,0,0
6433,-285.714285714286,4,2,20,40,0,0
6862,-285.714285714286,4,2,20,20,0,0
7291,-285.714285714286,4,2,19,30,0,0
7719,-285.714285714286,4,2,19,40,0,0
8148,-200,4,2,20,40,0,0
9005,-200,4,2,19,30,0,0
9648,-200,4,2,20,10,0,0
9862,-285.714285714286,4,2,19,30,0,0
10291,-285.714285714286,4,2,20,20,0,0
10719,-285.714285714286,4,2,19,30,0,0
11576,-200,4,2,19,40,0,0
12433,-200,4,2,19,30,0,0
13076,-200,4,2,20,20,0,0
13291,-285.714285714286,4,2,19,30,0,0
13719,-285.714285714286,4,2,20,20,0,0
14148,-285.714285714286,4,2,19,30,0,0
14791,-285.714285714286,4,2,19,10,0,0
14898,-285.714285714286,4,2,19,30,0,0
15005,-285.714285714286,4,2,22,40,0,0
16719,-285.714285714286,4,2,19,45,0,0
18005,-133.333333333333,4,2,19,55,0,0
18219,-133.333333333333,4,2,19,40,0,0
18433,-100,4,2,19,55,0,0
21433,-100,4,2,19,47,0,0
21862,-100,4,2,19,55,0,0
24433,-100,4,2,19,47,0,0
24862,-100,4,2,19,55,0,0
28291,-100,4,2,19,47,0,0
28505,-100,4,2,19,55,0,0
32148,-133.333333333333,4,2,19,45,0,0
35362,-133.333333333333,4,2,19,20,0,0
35576,-133.333333333333,4,2,19,45,0,0
42219,-133.333333333333,4,2,19,20,0,0
42433,-133.333333333333,4,2,19,45,0,0
45433,-133.333333333333,4,2,19,20,0,0
45541,-133.333333333333,4,2,19,45,0,0
45862,-117.647058823529,4,2,19,50,0,0
51433,-117.647058823529,4,2,19,25,0,0
51541,-117.647058823529,4,2,19,50,0,0
51862,-117.647058823529,4,2,19,25,0,0
51969,-117.647058823529,4,2,19,50,0,0
59576,-117.647058823529,4,2,19,45,0,0
59683,-117.647058823529,4,2,19,50,0,0
65576,-117.647058823529,4,2,19,45,0,0
66433,-117.647058823529,4,2,19,50,0,0
72005,-117.647058823529,4,2,19,40,0,0
72112,-117.647058823529,4,2,19,45,0,0
72219,-117.647058823529,4,2,19,50,0,0
72326,-117.647058823529,4,2,19,55,0,0
72433,-117.647058823529,4,2,19,30,0,0
72862,-117.647058823529,4,2,19,20,0,0
73076,-117.647058823529,4,2,19,50,0,0
73291,-100,4,2,19,70,0,1
73933,-100,4,2,19,50,0,1
74041,-100,4,2,19,70,0,1
76291,-100,4,2,19,50,0,1
76398,-100,4,2,19,70,0,1
77362,-100,4,2,19,50,0,1
77469,-100,4,2,19,70,0,1
84433,-100,4,2,19,50,0,1
84541,-100,4,2,19,70,0,1
85291,-100,4,2,19,65,0,1
85505,-100,4,2,19,70,0,1
86148,-100,4,2,19,50,0,1
86255,-100,4,2,19,60,0,1
86576,-100,4,2,19,70,0,1
86791,-100,4,2,19,65,0,0
87005,-100,4,2,19,70,0,1
87648,-100,4,2,19,50,0,1
87755,-100,4,2,19,70,0,1
90005,-100,4,2,19,50,0,1
90112,-100,4,2,19,70,0,1
91076,-100,4,2,19,50,0,1
91183,-100,4,2,19,70,0,1
92148,-100,4,2,19,50,0,1
92576,-83.3333333333333,4,2,19,55,0,1
93005,-71.4285714285714,4,2,19,60,0,1
93433,-62.5,4,2,19,65,0,1
93862,-200,4,2,19,70,0,1
95362,-100,4,2,19,70,0,1
95576,-100,4,2,19,50,0,1
95630,-100,4,2,19,70,0,1
96433,-100,4,2,19,50,0,1
96487,-100,4,2,19,70,0,1
99862,-100,4,2,19,65,0,1
100076,-100,4,2,19,60,0,1
100291,-100,4,2,19,63,0,1
100505,-100,4,2,19,57,0,1
100719,-100,4,2,19,70,0,0
112719,-100,4,2,19,55,0,0
114433,-117.647058823529,4,2,19,50,0,0
120005,-117.647058823529,4,2,19,40,0,0
120219,-117.647058823529,4,2,19,45,0,0
120433,-117.647058823529,4,2,19,50,0,0
120862,-117.647058823529,4,2,19,25,0,0
120916,-117.647058823529,4,2,19,50,0,0
140576,-95.2380952380952,4,2,19,40,0,0
141005,-80,4,2,19,55,0,0
141433,-68.9655172413793,4,2,19,45,0,0
141862,-100,4,2,19,55,0,0
147862,-100,4,2,19,45,0,0
148291,-100,4,2,19,50,0,0
148719,-100,4,2,19,40,0,0
149148,-100,4,2,19,45,0,0
149576,-100,4,2,19,50,0,0
150005,-100,4,2,19,55,0,0
155148,-100,4,2,19,40,0,0
155201,-100,4,2,19,60,0,0
162005,-100,4,2,19,40,0,0
162058,-100,4,2,19,60,0,0
163076,-100,4,2,19,40,0,0
163130,-100,4,2,19,62,0,0
165862,-90.9090909090909,4,2,19,65,0,0
169291,-117.647058823529,4,2,19,52,0,0
169719,-117.647058823529,4,2,19,45,0,0
170362,-117.647058823529,4,2,19,52,0,0
171862,-117.647058823529,4,2,19,52,0,0
172291,-117.647058823529,4,2,19,45,0,0
172719,-117.647058823529,4,2,19,52,0,0
177433,-117.647058823529,4,2,19,45,0,0
177862,-117.647058823529,4,2,19,52,0,0
180433,-117.647058823529,4,2,19,40,0,0
180487,-117.647058823529,4,2,19,52,0,0
181291,-117.647058823529,4,2,19,40,0,0
181344,-117.647058823529,4,2,19,52,0,0
181719,-117.647058823529,4,2,19,40,0,0
181826,-117.647058823529,4,2,19,45,0,0
181933,-117.647058823529,4,2,19,50,0,0
182041,-117.647058823529,4,2,19,55,0,0
182148,-117.647058823529,4,2,19,50,0,0
183005,-117.647058823529,4,2,19,65,0,0
183058,-117.647058823529,4,2,19,40,0,0
185576,-200,4,2,19,40,0,0
186005,-200,4,2,19,25,0,0
186058,-200,4,2,19,40,0,0
189433,-200,4,2,19,25,0,0
189541,-200,4,2,19,40,0,0
193362,-200,4,2,19,15,0,0
194148,-200,4,2,19,40,0,0
194219,-200,4,2,19,20,0,0
195005,-200,4,2,19,40,0,0
195076,-200,4,2,19,15,0,0
195433,-200,4,2,19,35,0,0
195505,-200,4,2,19,13,0,0
195862,-200,4,2,19,30,0,0
195933,-200,4,2,19,11,0,0
196291,-200,4,2,19,35,0,0
196719,-117.647058823529,4,2,19,45,0,0
199719,-117.647058823529,4,2,19,30,0,0
199773,-117.647058823529,4,2,19,45,0,0
200148,-117.647058823529,4,2,19,50,0,0
201862,-117.647058823529,4,2,19,35,0,0
202291,-117.647058823529,4,2,19,40,0,0
202719,-117.647058823529,4,2,19,45,0,0
203148,-117.647058823529,4,2,19,50,0,0
203576,-117.647058823529,4,2,19,55,0,0
204433,-117.647058823529,4,2,19,40,0,0
204541,-117.647058823529,4,2,19,55,0,0
205291,-105.263157894737,4,2,19,70,0,0
206148,-105.263157894737,4,2,19,50,0,0
206255,-105.263157894737,4,2,19,70,0,0
206362,-105.263157894737,4,2,19,50,0,0
209576,-105.263157894737,4,2,19,60,0,0
210005,-105.263157894737,4,2,19,50,0,0
210112,-105.263157894737,4,2,19,65,0,0
210433,-92.5925925925926,4,2,19,83,0,1
211076,-92.5925925925926,4,2,19,60,0,1
211183,-92.5925925925926,4,2,19,83,0,1
212148,-92.5925925925926,4,2,19,60,0,1
212255,-92.5925925925926,4,2,19,83,0,1
214505,-92.5925925925926,4,2,19,60,0,1
214612,-92.5925925925926,4,2,19,83,0,1
215576,-92.5925925925926,4,2,19,60,0,1
215683,-92.5925925925926,4,2,19,83,0,1
216862,-92.5925925925926,4,2,19,60,0,1
216969,-92.5925925925926,4,2,19,83,0,1
219005,-92.5925925925926,4,2,19,60,0,1
219112,-92.5925925925926,4,2,19,83,0,1
221576,-92.5925925925926,4,2,19,60,0,1
221683,-92.5925925925926,4,2,19,83,0,1
222433,-92.5925925925926,4,2,19,70,0,1
222862,-92.5925925925926,4,2,19,75,0,1
223291,-92.5925925925926,4,2,19,60,0,1
223398,-92.5925925925926,4,2,19,70,0,1
223719,-92.5925925925926,4,2,19,75,0,1
223933,-92.5925925925926,4,2,19,80,0,0
224148,-92.5925925925926,4,2,19,83,0,1
224791,-92.5925925925926,4,2,19,60,0,1
224898,-92.5925925925926,4,2,19,83,0,1
225862,-92.5925925925926,4,2,19,60,0,1
225969,-92.5925925925926,4,2,19,83,0,1
228219,-92.5925925925926,4,2,19,60,0,1
228326,-92.5925925925926,4,2,19,83,0,1
229076,-92.5925925925926,4,2,19,60,0,1
229183,-92.5925925925926,4,2,19,83,0,1
229291,-92.5925925925926,4,2,19,60,0,1
229719,-78.125,4,2,19,65,0,1
230148,-67.5675675675676,4,2,19,70,0,1
230576,-59.5238095238095,4,2,19,75,0,1
231005,-200,4,2,19,83,0,1
232505,-92.5925925925926,4,2,19,83,0,1
232719,-92.5925925925926,4,2,19,60,0,1
232826,-92.5925925925926,4,2,19,83,0,1
233576,-92.5925925925926,4,2,19,60,0,1
233683,-92.5925925925926,4,2,19,83,0,1
237005,-92.5925925925926,4,2,19,75,0,1
237219,-92.5925925925926,4,2,19,70,0,1
237433,-92.5925925925926,4,2,19,73,0,1
237648,-92.5925925925926,4,2,19,65,0,0
237862,-133.333333333333,4,2,19,60,0,1
238505,-133.333333333333,4,2,19,40,0,1
238719,-133.333333333333,4,2,19,60,0,1
243005,-133.333333333333,4,2,19,55,0,1
243433,-133.333333333333,4,2,19,57,0,1
243862,-133.333333333333,4,2,19,60,0,1
244719,-133.333333333333,4,2,19,85,0,0

[Colours]
Combo1 : 1,166,254
Combo2 : 255,128,64
Combo3 : 201,255,128
Combo4 : 242,24,57

[HitObjects]
99,21,862,5,12,2:3:0:0:
143,148,1076,2,0,L|121:143,1,13.9999995727539,8|0,2:3|0:0,0:0:0:0:
58,122,1291,6,0,P|137:126|193:72,1,160,12|2,3:2|0:0,0:0:0:0:
184,152,2791,1,8,1:2:0:0:
203,52,3005,6,0,L|193:110,1,55.9999982910157,2|2,1:2|1:2,0:0:0:0:
290,98,3862,2,0,L|280:153,1,55.9999982910157,2|0,0:0|0:0,0:0:0:0:
225,237,4719,6,0,P|281:290|359:285,1,160,14|2,3:0|0:0,0:0:0:0:
357,204,6220,1,8,1:2:0:0:
376,304,6434,6,0,L|366:246,1,55.9999982910157,8|8,1:2|1:2,0:0:0:0:
463,258,7291,2,0,L|453:202,1,55.9999982910157,6|0,0:1|0:0,0:0:0:0:
435,117,7933,2,0,L|429:92,1,13.9999995727539
410,24,8148,6,0,B|374:137|374:137|350:89,1,160,12|2,3:2|0:0,0:0:0:0:
125,186,9648,1,8,1:2:0:0:
85,107,9862,6,0,P|107:132|117:161,1,55.9999982910157,6|10,0:1|1:2,0:0:0:0:
208,180,10719,2,0,P|205:213|192:240,1,55.9999982910157,6|0,0:1|0:0,0:0:0:0:
156,367,11576,6,0,P|218:319|301:323,1,160,14|6,3:0|0:1,0:0:0:0:
394,323,13076,1,8,1:2:0:0:
308,344,13291,6,0,L|375:328,1,55.9999982910157,6|10,0:1|1:2,0:0:0:0:
335,244,14148,2,0,L|402:228,1,55.9999982910157,6|0,0:1|0:0,0:0:0:0:
348,155,14791,2,0,L|325:160,1,13.9999995727539,0|0,3:0|0:0,0:0:0:0:
256,192,15005,5,4,0:0:0:0:
256,192,15112,12,0,16719,0:0:0:0:
20,194,17148,5,0,0:0:0:0:
20,194,17576,5,0,0:0:0:0:
20,194,18005,6,0,L|12:230,1,30.0000011444092,8|0,0:0|3:0,0:0:0:0:
74,311,18219,2,0,L|82:275,1,30.0000011444092,4|0,3:0|3:0,0:0:0:0:
20,194,18433,6,0,L|116:176,1,80,2|0,3:2|3:0,0:0:0:0:
148,115,18755,1,0,0:0:0:0:
139,100,18862,1,8,0:0:0:0:
235,273,19076,1,8,3:1:0:0:
235,273,19183,1,0,0:0:0:0:
235,273,19291,2,0,L|221:325,1,40,2|0,0:0|0:0,0:0:0:0:
314,239,19505,2,0,L|301:193,1,40,8|0,0:1|0:0,0:0:0:0:
378,295,19719,2,0,P|416:320|480:316,1,80,8|8,0:0|0:1,0:0:0:0:
451,232,20041,1,0,3:0:0:0:
441,246,20148,5,2,3:2:0:0:
403,130,20362,1,0,0:0:0:0:
394,145,20469,1,0,3:0:0:0:
384,161,20576,2,0,L|362:73,1,80,8|0,0:0|3:0,0:0:0:0:
292,23,20898,1,0,0:0:0:0:
292,23,21005,6,0,P|279:44|254:57,1,40,10|0,0:1|0:0,0:0:0:0:
258,138,21219,2,0,P|233:137|209:122,1,40,10|0,3:1|0:0,0:0:0:0:
79,94,21433,6,0,P|86:117|80:144,1,40,10|0,0:0|0:0,0:0:0:0:
145,193,21647,2,0,P|128:211|101:219,1,40,2|0,3:2|0:0,0:0:0:0:
37,288,21862,6,0,P|78:290|112:315,1,80,2|0,3:2|3:0,0:0:0:0:
172,360,22184,1,0,0:0:0:0:
166,377,22291,2,0,P|206:347|253:347,1,80,8|0,0:0|3:0,0:0:0:0:
315,380,22612,1,0,0:0:0:0:
315,380,22719,2,0,L|329:324,2,40,2|0|8,0:0|0:0|0:1,0:0:0:0:
224,119,23148,2,0,L|245:208,1,80,8|0,0:0|3:0,0:0:0:0:
316,246,23469,1,8,0:1:0:0:
321,229,23576,5,2,3:2:0:0:
468,147,23791,1,0,3:0:0:0:
463,130,23898,1,0,0:0:0:0:
456,111,24005,2,0,L|361:133,1,80,8|8,0:0|0:1,0:0:0:0:
307,81,24326,1,0,0:0:0:0:
313,64,24433,2,0,L|301:16,2,40,10|2|0,0:1|0:0|3:0,0:0:0:0:
46,192,24862,2,0,L|56:143,2,40,8|0|0,0:0|3:0|0:0,0:0:0:0:
92,265,25183,1,8,0:0:0:0:
92,265,25291,6,0,P|132:289|188:280,1,80,2|8,3:2|0:1,0:0:0:0:
227,338,25612,1,0,0:0:0:0:
224,355,25719,1,8,0:0:0:0:
340,218,25933,1,8,0:1:0:0:
340,218,26041,1,0,0:0:0:0:
340,218,26148,2,0,L|327:163,1,40,2|0,0:0|0:0,0:0:0:0:
407,274,26362,2,0,L|396:316,1,40,8|0,3:1|0:0,0:0:0:0:
484,223,26576,2,0,L|464:125,1,80,8|8,0:0|0:1,0:0:0:0:
419,73,26898,1,0,3:0:0:0:
425,57,27005,5,2,3:2:0:0:
286,105,27219,1,2,0:0:0:0:
292,88,27326,1,0,0:0:0:0:
298,72,27433,1,8,0:0:0:0:
149,144,27648,1,8,0:1:0:0:
155,127,27755,1,0,0:0:0:0:
160,111,27862,6,0,P|146:89|123:70,1,40,10|0,0:1|0:0,0:0:0:0:
67,133,28076,2,0,P|45:147|26:170,1,40,2|0,3:2|0:0,0:0:0:0:
123,242,28291,6,0,P|99:231|69:227,1,40,10|0,0:0|3:0,0:0:0:0:
56,311,28505,2,0,P|45:334|41:364,1,40,0|2,3:0|0:0,0:0:0:0:
141,323,28719,6,0,L|239:303,1,80,2|8,3:2|0:1,0:0:0:0:
290,241,29041,1,0,0:0:0:0:
287,257,29148,2,0,P|324:280|385:274,1,80,8|8,0:0|0:1,0:0:0:0:
431,331,29469,1,0,0:0:0:0:
431,331,29576,2,0,P|442:302|444:277,1,40,10|0,0:1|0:0,0:0:0:0:
423,176,29791,2,0,P|409:215|407:231,1,40,2|0,3:2|0:0,0:0:0:0:
438,71,30005,2,0,P|401:95|355:95,1,80,8|8,0:0|0:1,0:0:0:0:
289,60,30326,1,0,3:0:0:0:
285,78,30433,5,2,3:2:0:0:
118,31,30648,2,0,L|71:44,2,40,8|0|8,0:1|0:0|0:0,0:0:0:0:
253,160,31076,1,10,0:1:0:0:
249,177,31183,1,0,0:0:0:0:
246,194,31290,5,8,0:0:0:0:
138,128,31505,2,0,L|95:141,2,40,0|8|8,3:0|0:0|0:0,0:0:0:0:
396,310,31933,1,0,3:0:0:0:
391,294,32041,1,0,3:0:0:0:
324,257,32148,6,0,P|382:263|438:216,1,120.000004577637,2|8,3:2|0:0,0:0:0:0:
277,331,32791,1,8,0:1:0:0:
277,331,32898,1,0,0:0:0:0:
277,331,33005,2,0,L|214:343,1,60.0000022888184,0|0,3:0|0:0,0:0:0:0:
83,117,33433,1,10,0:1:0:0:
187,163,33648,1,10,0:1:0:0:
85,365,33862,6,0,P|88:303|134:247,1,120.000004577637,2|8,3:2|0:0,0:0:0:0:
83,117,34505,1,8,0:1:0:0:
83,117,34612,1,0,0:0:0:0:
83,117,34719,2,0,P|96:157|99:179,1,60.0000022888184,0|0,3:0|0:0,0:0:0:0:
293,10,35148,1,10,0:1:0:0:
124,28,35362,2,8,B|97:22,2,15.0000005722046
124,28,35576,6,0,P|155:62|248:56,1,120.000004577637,2|8,3:2|0:0,0:0:0:0:
293,10,36219,1,2,0:0:0:0:
293,10,36326,1,0,0:0:0:0:
293,10,36433,1,0,3:0:0:0:
469,242,36863,1,10,0:1:0:0:
502,116,37077,1,8,0:1:0:0:
312,189,37291,6,0,L|443:160,1,120.000004577637,2|8,3:2|0:0,0:0:0:0:
337,11,37933,1,8,0:1:0:0:
366,90,38148,2,0,L|330:98,2,30.0000011444092,0|0|0,3:0|0:0|0:0,0:0:0:0:
260,53,38576,1,8,0:0:0:0:
143,169,38791,1,8,0:1:0:0:
143,169,38898,1,0,0:0:0:0:
143,169,39005,6,0,P|139:117|177:54,1,120.000004577637,2|8,3:2|0:0,0:0:0:0:
199,239,39648,1,8,0:1:0:0:
199,239,39755,1,0,0:0:0:0:
199,239,39862,2,0,P|162:253|140:258,1,60.0000022888184,0|0,3:0|0:0,0:0:0:0:
362,194,40291,1,10,0:1:0:0:
241,91,40505,1,10,0:1:0:0:
269,183,40719,6,0,P|280:233|296:307,1,120.000004577637,2|8,3:2|0:0,0:0:0:0:
321,383,41362,1,8,0:1:0:0:
321,383,41469,1,0,0:0:0:0:
321,383,41576,1,0,3:0:0:0:
105,169,42005,1,8,0:1:0:0:
36,229,42219,2,8,L|31:248,2,15.0000005722046
36,229,42433,6,0,P|72:260|153:250,1,120.000004577637,2|8,3:2|0:0,0:0:0:0:
245,174,43076,1,8,0:1:0:0:
245,174,43183,1,0,0:0:0:0:
245,174,43291,2,0,L|181:190,1,60.0000022888184,0|0,3:0|0:0,0:0:0:0:
386,49,43719,1,10,0:1:0:0:
226,78,43933,1,10,0:1:0:0:
334,217,44148,6,0,L|311:92,1,120.000004577637,2|8,3:2|0:0,0:0:0:0:
248,184,44683,1,2,0:0:0:0:
248,184,44791,2,0,L|240:144,1,30.0000011444092,10|0,0:1|0:0,0:0:0:0:
352,249,45005,6,0,L|329:124,1,120.000004577637,2|14,3:2|0:0,0:0:0:0:
388,336,45648,1,12,0:3:0:0:
388,336,45755,1,12,0:3:0:0:
388,336,45862,6,0,P|348:296|264:296,1,136.000002593994,2|10,3:2|0:1,0:0:0:0:
180,188,46505,1,8,0:0:0:0:
131,357,46719,2,0,P|164:351|192:332,1,68.0000012969971,8|0,0:1|0:0,0:0:0:0:
180,188,47148,1,8,0:0:0:0:
16,216,47362,1,4,3:0:0:0:
16,216,47469,1,0,0:0:0:0:
16,216,47576,6,0,P|72:212|128:268,1,136.000002593994,2|10,3:2|0:1,0:0:0:0:
272,204,48219,2,0,L|288:132,1,68.0000012969971,8|8,0:0|0:1,0:0:0:0:
308,52,48648,1,0,3:0:0:0:
448,164,48862,1,8,0:0:0:0:
236,284,49076,1,8,0:1:0:0:
236,284,49183,1,8,0:1:0:0:
236,284,49291,6,0,P|280:244|356:244,1,136.000002593994,2|10,3:2|0:1,0:0:0:0:
192,144,49933,2,0,P|204:96|224:72,1,68.0000012969971,8|8,0:0|0:1,0:0:0:0:
286,137,50362,1,0,3:0:0:0:
112,76,50576,1,8,0:0:0:0:
48,232,50791,1,4,3:0:0:0:
48,232,50898,1,0,0:0:0:0:
48,232,51005,6,0,P|76:284|88:360,1,136.000002593994,2|12,3:2|0:1,0:0:0:0:
272,224,51648,1,8,0:0:0:0:
164,280,51862,2,0,P|192:296|228:300,1,68.0000012969971,12|8,3:1|0:0,0:0:0:0:
304,336,52183,1,8,0:1:0:0:
304,336,52291,2,0,L|292:384,2,34.0000006484985,8|8|0,0:0|0:1|3:0,0:0:0:0:
452,216,52719,6,0,L|428:80,1,136.000002593994,2|10,3:2|0:1,0:0:0:0:
232,24,53362,1,8,0:0:0:0:
280,100,53576,2,0,P|308:116|348:120,1,68.0000012969971,8|0,0:1|0:0,0:0:0:0:
232,24,54005,1,8,0:0:0:0:
82,131,54219,1,4,3:0:0:0:
82,131,54326,1,0,3:0:0:0:
82,131,54433,6,0,P|95:65|144:20,1,136.000002593994,2|10,3:2|0:1,0:0:0:0:
136,208,55076,1,8,0:0:0:0:
56,264,55291,2,0,P|44:220|28:192,1,68.0000012969971,8|2,0:1|3:2,0:0:0:0:
88,352,55719,1,8,0:0:0:0:
172,304,55933,1,8,0:1:0:0:
172,304,56041,1,8,0:1:0:0:
172,304,56148,6,0,L|312:276,1,136.000002593994,2|10,3:2|0:1,0:0:0:0:
248,96,56791,1,8,0:0:0:0:
172,152,57005,2,0,P|152:200|152:228,1,68.0000012969971,8|0,0:1|0:0,0:0:0:0:
248,96,57433,1,8,0:0:0:0:
216,8,57648,1,4,3:0:0:0:
344,112,57862,6,0,P|392:148|472:140,1,136.000002593994,2|10,3:2|0:1,0:0:0:0:
420,64,58505,1,8,0:0:0:0:
280,216,58719,1,6,3:0:0:0:
464,264,58933,1,6,3:0:0:0:
360,288,59148,2,0,L|348:336,2,34.0000006484985,10|8|0,0:0|0:1|3:0,0:0:0:0:
106,370,59576,6,0,L|85:235,1,136.000002593994,6|8,3:2|0:0,0:0:0:0:
24,90,60219,2,0,P|61:142|139:145,1,136.000002593994,10|0,3:1|0:0,0:0:0:0:
255,69,60862,1,10,0:0:0:0:
298,254,61076,1,2,3:2:0:0:
214,190,61291,6,0,L|361:157,1,136.000002593994,2|8,3:2|0:0,0:0:0:0:
456,100,61933,2,0,L|309:133,1,136.000002593994,10|8,3:1|0:1,0:0:0:0:
488,191,62576,2,0,L|417:208,1,68.0000012969971,10|0,0:0|0:0,0:0:0:0:
383,279,62898,1,2,0:0:0:0:
383,279,63005,6,0,P|368:321|367:349,1,68.0000012969971,2|8,3:2|0:1,0:0:0:0:
488,191,63433,1,8,0:0:0:0:
375,372,63648,2,0,P|318:335|251:341,1,136.000002593994,10|0,3:1|3:0,0:0:0:0:
161,197,64291,1,10,0:0:0:0:
254,240,64505,1,2,3:2:0:0:
254,240,64612,1,0,0:0:0:0:
254,240,64719,5,2,3:2:0:0:
161,364,64933,1,8,0:1:0:0:
161,364,65041,1,0,0:0:0:0:
161,364,65148,2,0,L|82:344,1,68.0000012969971,8|10,0:0|3:1,0:0:0:0:
242,138,65576,1,10,3:0:0:0:
334,178,65791,1,10,3:0:0:0:
270,42,66005,1,10,0:0:0:0:
470,130,66219,1,8,0:1:0:0:
470,130,66326,1,8,0:1:0:0:
470,130,66433,6,0,P|420:84|345:93,1,136.000002593994,2|8,3:2|0:0,0:0:0:0:
242,138,67076,2,0,P|193:183|127:180,1,136.000002593994,10|0,3:1|0:0,0:0:0:0:
96,17,67719,1,10,0:0:0:0:
163,99,67933,1,2,3:2:0:0:
24,235,68148,6,0,L|58:102,1,136.000002593994,2|8,3:2|0:0,0:0:0:0:
63,314,68791,1,8,0:0:0:0:
150,274,69005,1,0,3:0:0:0:
150,274,69112,1,0,0:0:0:0:
150,274,69219,1,2,0:0:0:0:
259,377,69433,1,10,3:1:0:0:
298,235,69648,1,2,0:0:0:0:
298,235,69755,1,0,3:0:0:0:
298,235,69862,6,0,L|280:306,1,68.0000012969971,2|8,3:2|0:1,0:0:0:0:
405,218,70291,1,8,0:0:0:0:
300,64,70505,1,8,0:0:0:0:
300,64,70612,1,0,3:0:0:0:
300,64,70719,6,0,L|282:135,1,68.0000012969971,2|0,0:0|0:0,0:0:0:0:
392,112,71148,1,10,0:1:0:0:
183,245,71362,1,4,3:0:0:0:
183,245,71469,1,8,0:1:0:0:
183,245,71576,6,0,L|203:172,1,68.0000012969971,2|0,3:2|0:0,0:0:0:0:
76,254,72005,1,10,0:0:0:0:
95,326,72112,1,2,0:0:0:0:
160,366,72219,1,2,0:0:0:0:
234,355,72326,1,2,0:0:0:0:
283,297,72433,5,4,3:1:0:0:
283,297,72862,5,4,0:1:0:0:
36,147,73076,5,6,3:0:0:0:
36,147,73183,1,6,3:0:0:0:
36,147,73291,1,6,3:2:0:0:
169,33,73505,1,10,0:1:0:0:
184,212,73719,1,10,0:0:0:0:
137,126,73933,1,8,0:1:0:0:
137,126,74040,1,0,0:0:0:0:
137,126,74148,5,2,0:0:0:0:
364,100,74362,2,0,L|352:152,2,40,2|0|10,3:0|0:0|0:2,0:0:0:0:
188,372,74791,1,0,3:0:0:0:
188,372,74898,1,0,3:0:0:0:
188,372,75005,6,0,L|168:264,1,80,2|0,3:2|3:0,0:0:0:0:
183,212,75326,1,0,3:0:0:0:
276,320,75433,6,0,L|256:212,1,80,8|8,3:2|0:1,0:0:0:0:
267,159,75755,2,0,L|259:111,1,40,0|4,0:0|3:0,0:0:0:0:
435,241,76076,1,10,0:1:0:0:
423,299,76183,1,0,3:0:0:0:
412,358,76290,1,12,0:1:0:0:
261,241,76505,1,8,0:3:0:0:
497,88,76719,5,2,3:2:0:0:
339,14,76933,1,10,0:1:0:0:
345,190,77148,1,10,0:0:0:0:
394,100,77362,1,8,0:1:0:0:
394,100,77469,1,0,0:0:0:0:
394,100,77576,5,2,0:0:0:0:
168,204,77791,2,0,L|154:263,2,40,2|0|10,3:2|0:0|0:0,0:0:0:0:
251,39,78219,1,0,3:0:0:0:
251,39,78326,1,0,3:0:0:0:
251,39,78433,6,0,P|216:65|166:69,1,80,2|0,3:2|0:0,0:0:0:0:
111,18,78755,1,0,3:0:0:0:
115,126,78862,6,0,P|80:152|30:156,1,80,8|8,3:2|0:1,0:0:0:0:
1,89,79183,2,0,L|15:28,1,40,0|4,0:0|0:3,0:0:0:0:
158,242,79505,1,10,0:1:0:0:
170,300,79612,1,0,3:0:0:0:
181,359,79719,1,8,0:0:0:0:
425,308,79933,2,0,L|368:294,1,40,8|0,0:1|0:0,0:0:0:0:
234,151,80148,5,6,3:2:0:0:
291,37,80362,1,0,3:2:0:0:
405,94,80576,1,8,0:0:0:0:
348,208,80791,1,0,0:0:0:0:
318,121,81005,5,2,0:0:0:0:
158,242,81219,2,0,L|106:230,2,40,2|2|10,3:2|0:0|0:0,0:0:0:0:
339,345,81648,1,0,3:0:0:0:
339,345,81755,1,0,3:0:0:0:
339,345,81862,6,0,L|435:325,1,80,2|0,3:2|0:0,0:0:0:0:
478,271,82183,1,0,3:0:0:0:
398,241,82291,2,0,L|302:261,1,80,8|8,0:0|0:1,0:0:0:0:
177,143,82719,1,10,3:1:0:0:
326,74,82933,1,0,0:0:0:0:
326,74,83041,1,8,3:1:0:0:
326,74,83148,1,8,0:0:0:0:
276,167,83362,1,0,3:2:0:0:
201,7,83576,5,2,3:2:0:0:
426,114,83791,2,0,L|413:172,2,40,0|0|8,3:0|3:0|0:0,0:0:0:0:
401,246,84219,1,8,0:1:0:0:
113,59,84433,2,0,L|100:1,2,40,4|0|0,0:1|3:0|3:0,0:0:0:0:
196,237,84862,2,0,L|172:336,1,80,10|8,0:0|0:1,0:0:0:0:
251,368,85183,1,0,0:0:0:0:
251,368,85291,6,0,L|266:314,1,40,2|0,3:2|0:0,0:0:0:0:
371,189,85505,2,0,L|356:243,1,40,0|0,3:0|0:0,0:0:0:0:
92,291,85719,6,0,L|107:237,1,40,10|0,0:1|0:0,0:0:0:0:
291,51,85933,2,0,L|276:105,1,40,0|8,3:0|0:0,0:0:0:0:
13,180,86148,5,12,0:1:0:0:
72,140,86255,1,10,0:1:0:0:
144,140,86362,1,2,3:2:0:0:
205,180,86469,1,10,0:1:0:0:
233,245,86576,1,10,3:2:0:0:
260,310,86684,1,10,0:1:0:0:
322,349,86791,1,6,3:0:0:0:
394,349,86898,1,6,3:0:0:0:
453,310,87005,5,6,3:2:0:0:
374,151,87219,1,10,0:1:0:0:
233,245,87433,1,10,0:0:0:0:
357,249,87648,1,8,0:1:0:0:
357,249,87755,1,0,0:0:0:0:
357,249,87862,5,2,0:0:0:0:
229,74,88076,2,0,L|241:13,2,40,0|0|10,3:0|0:0|0:0,0:0:0:0:
28,271,88505,1,0,3:0:0:0:
28,271,88612,1,0,3:0:0:0:
28,271,88719,6,0,P|61:251|116:252,1,80,2|0,3:2|3:0,0:0:0:0:
142,175,89041,1,0,3:0:0:0:
152,312,89148,6,0,P|191:309|225:289,1,80,8|8,3:2|0:1,0:0:0:0:
298,332,89469,2,0,L|287:388,1,40,0|4,0:0|0:3,0:0:0:0:
142,175,89791,1,10,0:1:0:0:
154,117,89898,1,0,3:0:0:0:
165,58,90005,1,12,0:1:0:0:
379,283,90219,2,0,L|368:235,1,40
325,32,90433,5,2,3:2:0:0:
273,196,90648,1,10,0:1:0:0:
437,160,90862,1,10,0:0:0:0:
345,125,91076,1,8,0:1:0:0:
345,125,91183,1,0,0:0:0:0:
345,125,91291,5,2,0:0:0:0:
128,236,91505,2,0,L|72:223,2,40,0|0|10,3:0|0:0|0:0,0:0:0:0:
335,358,91933,1,0,3:0:0:0:
335,358,92041,1,0,3:0:0:0:
335,358,92148,6,0,L|359:255,1,80,6|0,3:1|3:0,0:0:0:0:
438,257,92469,1,10,3:0:0:0:
355,147,92576,6,0,L|329:266,1,95.9999970703126,6|8,0:1|0:1,0:0:0:0:
245,271,92898,1,8,0:0:0:0:
127,364,93005,6,0,L|151:254,1,111.999996582031,6|0,0:1|3:0,0:0:0:0:
245,271,93326,1,0,3:0:0:0:
189,97,93433,6,0,L|170:172,1,64,10|8,3:2|0:0,0:0:0:0:
55,237,93648,2,0,L|70:174,1,64,10|8,0:0|0:0,0:0:0:0:
278,53,93862,6,0,P|396:44|481:123,1,240.000009155274,6|10,3:0|0:0,0:0:0:0:
186,109,95362,1,0,3:0:0:0:
186,109,95469,1,0,3:0:0:0:
186,109,95576,6,0,P|170:71|171:28,1,80,6|0,3:1|3:0,0:0:0:0:
353,140,96005,1,8,0:0:0:0:
157,266,96219,1,8,0:1:0:0:
157,266,96326,1,0,0:0:0:0:
157,266,96433,6,0,P|119:282|76:280,1,80,6|0,0:1|3:0,0:0:0:0:
13,334,96755,2,0,L|-1:396,1,40,0|8,3:0|0:0,0:0:0:0:
376,257,97076,5,10,0:1:0:0:
365,198,97183,1,0,3:0:0:0:
353,140,97290,1,6,3:0:0:0:
157,266,97505,1,0,3:0:0:0:
149,63,97719,5,8,0:0:0:0:
274,318,97933,1,10,0:1:0:0:
9,202,98148,5,10,0:0:0:0:
120,168,98362,1,8,0:1:0:0:
235,133,98576,1,10,0:1:0:0:
363,102,98791,2,0,L|350:158,1,40,8|0,0:0|0:0,0:0:0:0:
391,381,99005,5,6,3:1:0:0:
199,239,99219,2,0,L|186:295,2,40,0|0|10,0:0|3:0|0:0,0:0:0:0:
457,53,99648,1,8,0:1:0:0:
457,53,99755,1,8,0:1:0:0:
457,53,99862,5,6,3:0:0:0:
455,127,99969,1,2,3:2:0:0:
405,181,100076,1,2,0:0:0:0:
331,189,100183,1,2,3:2:0:0:
271,146,100291,1,10,3:2:0:0:
211,103,100398,1,2,0:0:0:0:
137,111,100505,1,6,3:0:0:0:
87,165,100612,1,6,3:0:0:0:
85,239,100719,5,6,3:2:0:0:
71,52,112719,5,2,3:2:0:0:
213,110,112933,1,0,0:0:0:0:
209,126,113040,1,2,0:0:0:0:
206,143,113147,1,8,0:0:0:0:
62,207,113362,2,0,L|53:248,1,40,2|8,0:0|0:0,0:0:0:0:
113,367,113576,5,10,0:0:0:0:
270,246,113791,2,0,L|261:287,1,40,2|0,3:2|0:0,0:0:0:0:
161,276,114005,1,8,0:0:0:0:
299,374,114219,1,8,0:1:0:0:
299,374,114326,1,0,0:0:0:0:
299,374,114433,6,0,L|410:347,1,102.000001945496,2|0,3:2|3:0,0:0:0:0:
406,363,114862,1,8,0:1:0:0:
447,144,115076,1,8,0:0:0:0:
476,300,115291,2,0,P|487:264|485:231,1,68.0000012969971,0|0,3:0|0:0,0:0:0:0:
496,64,115719,1,8,0:0:0:0:
351,133,115933,1,4,3:0:0:0:
351,133,116041,1,0,0:0:0:0:
351,133,116148,6,0,P|306:162|245:163,1,102.000001945496,2|0,3:2|3:0,0:0:0:0:
247,155,116576,1,8,0:1:0:0:
196,347,116791,1,8,0:0:0:0:
14,302,117005,1,0,3:0:0:0:
105,323,117219,1,10,0:1:0:0:
58,117,117433,1,8,0:0:0:0:
155,232,117648,1,2,0:0:0:0:
155,232,117755,1,8,0:1:0:0:
155,232,117862,6,0,L|47:211,1,102.000001945496,2|0,3:2|3:0,0:0:0:0:
39,209,118291,1,8,0:1:0:0:
80,25,118505,1,8,0:0:0:0:
124,130,118719,2,0,L|43:113,1,68.0000012969971,0|0,3:0|3:0,0:0:0:0:
282,75,119148,1,8,0:0:0:0:
244,200,119362,1,4,3:0:0:0:
244,200,119469,1,0,0:0:0:0:
244,200,119576,6,0,P|310:207|373:162,1,136.000002593994,2|10,3:2|0:0,0:0:0:0:
400,148,120112,1,2,0:0:0:0:
391,180,120219,1,10,0:0:0:0:
383,213,120326,1,2,0:0:0:0:
374,246,120433,5,6,3:0:0:0:
503,200,120648,1,4,3:0:0:0:
338,346,120862,5,12,0:1:0:0:
462,305,121076,1,0,3:0:0:0:
462,305,121183,1,0,3:0:0:0:
462,305,121291,6,0,L|491:181,1,102.000001945496,2|0,3:2|3:0,0:0:0:0:
503,200,121719,1,8,0:1:0:0:
383,24,121933,1,8,0:0:0:0:
501,64,122148,2,0,P|469:93|437:99,1,68.0000012969971,0|0,3:0|0:0,0:0:0:0:
288,42,122576,1,8,0:0:0:0:
214,93,122791,1,4,3:0:0:0:
214,93,122898,1,8,0:1:0:0:
214,93,123005,6,0,P|185:143|182:200,1,102.000001945496,2|0,3:2|3:0,0:0:0:0:
187,202,123433,1,8,0:1:0:0:
124,355,123648,1,8,0:0:0:0:
15,289,123862,2,0,L|93:272,1,68.0000012969971,0|2,3:0|3:2,0:0:0:0:
223,332,124291,1,8,0:0:0:0:
415,212,124505,1,0,3:0:0:0:
415,212,124612,1,0,3:0:0:0:
415,212,124719,6,0,L|307:232,1,102.000001945496,2|0,3:2|3:0,0:0:0:0:
301,233,125147,1,8,0:1:0:0:
284,23,125362,1,8,0:0:0:0:
238,165,125576,2,0,P|228:127|234:93,1,68.0000012969971,0|0,3:0|3:0,0:0:0:0:
316,110,125898,1,0,3:0:0:0:
311,124,126005,1,8,0:0:0:0:
124,355,126219,1,4,3:0:0:0:
119,341,126326,1,0,0:0:0:0:
113,325,126433,6,0,P|166:281|247:292,1,136.000002593994,2|8,3:2|0:0,0:0:0:0:
300,327,126969,2,0,L|289:371,1,34.0000006484985,8|8,0:1|0:0,0:0:0:0:
238,165,127291,1,6,3:0:0:0:
440,224,127505,1,6,3:0:0:0:
360,39,127719,2,0,L|349:83,1,34.0000006484985,10|8,0:0|0:1,0:0:0:0:
363,142,127933,2,0,L|374:98,1,34.0000006484985,10|0,0:1|0:1,0:0:0:0:
164,9,128148,6,0,L|127:149,1,136.000002593994,6|8,3:2|0:0,0:0:0:0:
49,289,128791,2,0,P|95:238|173:238,1,136.000002593994,10|0,3:1|0:0,0:0:0:0:
269,383,129433,1,10,0:0:0:0:
309,195,129648,1,2,3:2:0:0:
251,297,129862,6,0,L|387:270,1,136.000002593994,2|8,3:2|0:0,0:0:0:0:
309,195,130505,2,0,L|442:168,1,136.000002593994,10|0,3:1|3:0,0:0:0:0:
280,7,131148,1,10,0:0:0:0:
201,57,131362,1,2,0:0:0:0:
201,57,131469,1,0,3:0:0:0:
201,57,131576,6,0,P|179:95|177:125,1,68.0000012969971,2|8,3:2|0:1,0:0:0:0:
262,125,131898,1,0,0:0:0:0:
256,112,132005,1,8,0:0:0:0:
87,251,132219,2,0,P|141:212|218:214,1,136.000002593994,2|0,3:2|3:0,0:0:0:0:
280,384,132862,1,10,0:0:0:0:
169,293,133076,1,2,3:2:0:0:
356,148,133291,6,0,L|335:239,1,68.0000012969971,2|0,3:2|3:0,0:0:0:0:
426,199,133612,1,8,0:1:0:0:
423,213,133719,2,0,L|408:282,1,68.0000012969971,10|8,0:0|0:1,0:0:0:0:
104,369,134148,1,6,3:0:0:0:
144,213,134362,1,6,3:0:0:0:
275,307,134576,1,10,0:0:0:0:
46,274,134791,1,6,3:0:0:0:
46,274,134898,1,0,3:0:0:0:
46,274,135005,6,0,L|29:127,1,136.000002593994,2|8,3:2|0:0,0:0:0:0:
103,35,135648,2,0,P|137:88|224:88,1,136.000002593994,10|0,3:1|0:0,0:0:0:0:
414,16,136291,1,10,0:0:0:0:
240,192,136505,1,2,3:2:0:0:
319,49,136719,6,0,L|348:191,1,136.000002593994,2|10,3:2|0:0,0:0:0:0:
469,166,137362,2,0,L|455:241,1,68.0000012969971,8|2,0:0|3:2,0:0:0:0:
346,182,137791,1,0,3:0:0:0:
346,182,137898,1,0,0:0:0:0:
346,182,138005,1,10,0:1:0:0:
276,277,138219,1,0,3:0:0:0:
276,277,138326,1,0,3:0:0:0:
276,277,138433,6,0,L|288:343,1,68.0000012969971,2|0,3:2|3:0,0:0:0:0:
201,314,138755,2,0,L|207:349,1,34.0000006484985,0|8,0:0|0:1,0:0:0:0:
171,127,139076,1,8,0:0:0:0:
56,292,139291,6,0,L|43:225,1,68.0000012969971,2|0,3:2|3:0,0:0:0:0:
131,255,139613,2,0,L|125:220,1,34.0000006484985,0|8,0:0|0:1,0:0:0:0:
19,95,139933,1,2,3:2:0:0:
21,110,140040,1,0,0:0:0:0:
22,127,140148,6,0,L|57:115,5,22.666667098999,2|0|0|0|0|0,3:2|0:0|0:0|0:0|0:0|0:0,0:0:0:0:
154,36,140576,6,0,L|186:43,5,27.9999991455078,4|0|0|0|0|0,0:1|0:0|0:0|3:0|0:0|0:0,0:0:0:0:
238,180,141005,6,0,L|279:171,5,33.3333333333333,10|0|0|0|0|0,3:2|0:0|0:0|0:0|0:0|0:0,0:0:0:0:
366,52,141433,6,0,L|408:63,5,38.6666678466797,12|0|0|4|0|0,0:1|0:0|0:0|0:3|0:0|0:0,0:0:0:0:
430,37,141862,6,0,L|401:162,1,120,6|0,3:2|3:0,0:0:0:0:
452,219,142291,2,0,L|490:209,2,40,8|0|8,0:0|0:0|0:1,0:0:0:0:
338,349,142719,2,0,L|258:333,1,80,2|0,0:0|3:0,0:0:0:0:
183,361,143041,1,0,3:0:0:0:
179,377,143148,1,8,0:0:0:0:
41,208,143362,1,8,0:1:0:0:
41,208,143469,1,0,0:0:0:0:
41,208,143576,6,0,P|96:215|147:180,1,120,2|0,3:2|3:0,0:0:0:0:
217,221,144005,2,0,L|207:269,2,40,8|0|8,0:0|0:0|0:1,0:0:0:0:
80,123,144433,1,8,0:1:0:0:
83,105,144540,1,2,0:0:0:0:
87,87,144647,1,0,3:0:0:0:
256,22,144862,1,10,0:0:0:0:
277,54,144969,1,0,3:0:0:0:
313,72,145076,1,0,3:0:0:0:
352,68,145183,1,0,3:0:0:0:
384,46,145291,6,0,L|474:25,1,80,2|0,3:2|0:0,0:0:0:0:
420,125,145612,1,0,3:0:0:0:
439,120,145719,2,0,L|479:110,1,40,8|0,0:0|0:0,0:0:0:0:
429,217,145933,2,0,L|469:207,1,40,2|0,0:0|0:0,0:0:0:0:
343,176,146148,5,2,0:0:0:0:
194,296,146362,1,0,3:0:0:0:
194,296,146469,1,0,3:0:0:0:
194,296,146576,2,0,L|172:392,1,80,8|8,0:0|0:1,0:0:0:0:
102,328,146898,1,0,0:0:0:0:
107,312,147005,5,2,3:2:0:0:
41,61,147219,2,0,L|28:105,1,40,2|0,3:2|0:0,0:0:0:0:
100,152,147433,2,0,L|88:196,2,40,8|2|8,0:0|0:0|0:1,0:0:0:0:
178,108,147755,1,8,0:0:0:0:
178,108,147862,6,0,L|166:61,1,40,2|0,0:0|0:0,0:0:0:0:
263,88,148076,2,0,L|251:41,1,40,0|0,3:0|0:0,0:0:0:0:
371,161,148291,6,0,L|383:114,1,40,10|0,0:0|0:0,0:0:0:0:
480,189,148505,2,0,L|492:142,1,40,2|0,0:0|0:0,0:0:0:0:
402,259,148719,5,2,3:2:0:0:
392,297,148826,1,0,0:0:0:0:
382,336,148933,2,0,L|342:322,1,40,8|0,0:1|0:0,0:0:0:0:
171,223,149148,5,10,0:0:0:0:
181,261,149255,1,0,0:0:0:0:
191,300,149362,2,0,L|231:286,1,40,8|0,0:1|0:0,0:0:0:0:
391,84,149576,5,2,0:0:0:0:
381,122,149683,1,0,0:0:0:0:
371,161,149790,2,0,L|331:147,1,40,0|0,3:0|0:0,0:0:0:0:
117,18,150005,5,10,0:0:0:0:
127,56,150112,1,0,0:0:0:0:
137,95,150219,2,0,L|177:81,1,40,0|2,3:0|0:0,0:0:0:0:
14,48,150433,6,0,L|39:138,1,80,2|0,3:2|0:0,0:0:0:0:
100,182,150755,1,2,0:0:0:0:
89,196,150862,6,0,L|51:212,1,40,10|0,0:0|0:0,0:0:0:0:
80,287,151076,2,0,L|118:271,1,40,8|0,0:1|0:0,0:0:0:0:
284,199,151291,6,0,L|268:161,1,40,2|0,0:0|3:0,0:0:0:0:
193,190,151505,2,0,L|209:228,1,40,0|0,3:0|0:0,0:0:0:0:
391,95,151719,6,0,L|353:111,1,40,10|0,0:0|3:0,0:0:0:0:
382,186,151933,2,0,L|420:170,1,40,8|0,0:1|0:0,0:0:0:0:
270,70,152148,6,0,L|187:100,1,80,2|0,3:2|3:0,0:0:0:0:
138,20,152469,1,0,0:0:0:0:
130,36,152576,2,0,P|96:60|51:67,1,80,8|8,0:0|0:1,0:0:0:0:
22,147,152898,1,0,0:0:0:0:
18,165,153005,2,0,L|26:208,1,40,2|0,0:0|0:0,0:0:0:0:
139,201,153219,2,0,L|147:244,1,40,2|0,3:2|0:0,0:0:0:0:
255,240,153433,2,0,L|268:325,1,80,10|2,0:0|0:0,0:0:0:0:
342,362,153755,1,0,0:0:0:0:
348,346,153862,5,2,3:2:0:0:
220,149,154076,1,8,0:0:0:0:
422,21,154291,1,4,0:0:0:0:
408,237,154505,5,8,0:1:0:0:
408,237,154612,1,0,3:0:0:0:
408,237,154719,2,0,L|358:223,1,40,8|0,0:0|0:0,0:0:0:0:
318,165,154933,2,0,L|368:179,1,40,10|0,0:1|0:0,0:0:0:0:
181,58,155148,1,6,0:1:0:0:
146,76,155255,1,0,3:0:0:0:
122,108,155362,1,0,3:0:0:0:
113,147,155469,1,0,0:0:0:0:
122,186,155576,6,0,P|75:150|6:157,1,120,6|2,3:2|0:0,0:0:0:0:
15,162,156005,2,0,L|30:104,1,40,8|0,0:0|0:0,0:0:0:0:
89,307,156219,6,0,L|167:289,1,80,2|0,0:2|3:0,0:0:0:0:
248,309,156541,1,0,0:0:0:0:
244,327,156648,2,0,L|234:370,1,40,0|0,3:0|0:0,0:0:0:0:
354,236,156862,2,0,L|373:146,1,80,10|8,0:0|0:1,0:0:0:0:
350,41,157183,1,0,0:0:0:0:
358,58,157291,6,0,P|315:87|238:78,1,120,2|2,3:2|0:0,0:0:0:0:
247,73,157719,2,0,L|235:119,1,40,8|0,0:0|0:0,0:0:0:0:
84,16,157933,6,0,L|61:105,1,80,2|8,0:0|0:1,0:0:0:0:
147,136,158255,1,0,0:0:0:0:
144,153,158362,2,0,L|132:209,1,40,0|0,3:0|0:0,0:0:0:0:
96,330,158576,1,10,0:0:0:0:
96,330,158683,1,0,3:0:0:0:
96,330,158791,1,10,0:1:0:0:
96,330,158898,1,0,0:0:0:0:
96,330,159005,6,0,P|141:293|207:294,1,120,2|2,3:2|0:0,0:0:0:0:
210,289,159433,2,0,L|199:340,1,40,8|0,0:0|0:0,0:0:0:0:
365,384,159648,6,0,L|384:297,1,80,2|8,0:0|0:1,0:0:0:0:
447,242,159969,1,0,0:0:0:0:
457,258,160076,2,0,L|505:245,1,40,0|0,3:0|0:0,0:0:0:0:
372,203,160291,2,0,L|391:116,1,80,10|8,0:0|0:1,0:0:0:0:
410,43,160612,1,0,0:0:0:0:
415,26,160719,5,2,3:2:0:0:
255,136,160933,1,0,3:0:0:0:
255,136,161041,1,0,3:0:0:0:
255,136,161148,2,0,L|209:124,1,40,8|0,0:0|0:0,0:0:0:0:
138,84,161362,2,0,L|127:122,1,40,0|2,0:0|0:0,0:0:0:0:
8,222,161576,2,0,P|47:219|81:199,1,80,2|0,0:0|3:0,0:0:0:0:
176,211,161898,1,0,0:0:0:0:
172,230,162005,2,0,L|163:276,1,40,6|0,0:1|0:0,0:0:0:0:
20,120,162219,2,0,L|29:74,1,40,8|2,0:1|0:0,0:0:0:0:
209,7,162433,5,2,3:2:0:0:
213,26,162540,1,0,0:0:0:0:
217,46,162648,2,0,L|278:28,1,40,0|0,0:0|0:0,0:0:0:0:
348,70,162862,2,0,L|409:52,1,40,10|0,0:0|0:0,0:0:0:0:
266,129,163076,5,6,0:1:0:0:
272,168,163183,1,0,0:0:0:0:
279,207,163291,2,0,L|335:191,1,40,0|0,3:0|0:0,0:0:0:0:
429,220,163505,2,0,L|485:204,1,40,2|0,3:2|0:0,0:0:0:0:
278,319,163719,2,0,L|364:296,1,80,8|0,0:1|0:0,0:0:0:0:
439,307,164041,1,0,0:0:0:0:
436,328,164148,6,0,L|430:367,1,40,2|0,3:2|0:0,0:0:0:0:
317,196,164362,2,0,L|335:105,1,80,2|8,0:0|0:0,0:0:0:0:
397,55,164683,1,2,0:0:0:0:
408,69,164791,2,0,L|453:57,1,40,8|0,0:1|0:0,0:0:0:0:
290,32,165005,2,0,L|335:20,1,40,0|0,3:0|0:0,0:0:0:0:
293,127,165219,2,0,L|338:115,1,40,0|0,3:0|0:0,0:0:0:0:
133,103,165433,2,0,L|223:81,1,80,10|8,0:0|0:1,0:0:0:0:
88,10,165755,1,2,0:0:0:0:
73,22,165862,6,0,P|36:62|31:107,1,88.000002685547,2|8,3:2|0:1,0:0:0:0:
173,176,166183,2,0,P|156:123|120:97,1,88.000002685547,2|8,0:0|0:1,0:0:0:0:
28,196,166505,2,0,L|87:176,1,44.0000013427735,2|0,0:0|0:0,0:0:0:0:
135,292,166719,2,0,L|194:272,1,44.0000013427735,8|0,0:1|0:0,0:0:0:0:
427,120,166933,6,0,P|387:83|342:78,1,88.000002685547,2|8,0:0|0:1,0:0:0:0:
269,224,167254,2,0,P|321:207|347:171,1,88.000002685547,2|8,0:0|0:1,0:0:0:0:
240,69,167576,2,0,L|260:128,1,44.0000013427735,2|0,3:2|0:0,0:0:0:0:
356,284,167791,5,10,0:0:0:0:
173,176,168005,1,8,0:0:0:0:
359,80,168219,1,10,0:1:0:0:
359,80,168326,1,0,0:0:0:0:
359,80,168433,5,10,0:0:0:0:
232,293,168648,1,2,3:2:0:0:
64,98,168862,2,0,L|50:147,1,44.0000013427735,10|0,0:0|3:0,0:0:0:0:
88,221,169076,2,0,L|73:270,1,44.0000013427735,8|0,0:1|3:0,0:0:0:0:
142,39,169291,5,6,3:2:0:0:
173,176,169505,1,10,0:1:0:0:
253,60,169719,5,10,0:0:0:0:
274,142,169933,1,10,0:1:0:0:
336,82,170148,1,10,0:1:0:0:
253,60,170362,5,2,0:0:0:0:
388,205,170576,1,10,0:0:0:0:
383,6,170791,1,0,3:0:0:0:
336,82,171005,5,2,3:2:0:0:
334,91,171219,1,0,3:0:0:0:
469,227,171433,5,8,0:0:0:0:
467,236,171647,1,2,3:2:0:0:
232,293,171862,5,10,0:1:0:0:
388,205,172076,1,10,0:1:0:0:
256,381,172291,1,10,0:0:0:0:
207,201,172505,1,10,0:1:0:0:
207,201,172612,1,0,3:0:0:0:
207,201,172719,6,0,P|167:169|99:177,1,102.000001945496,2|0,3:2|3:0,0:0:0:0:
109,177,173148,1,8,0:0:0:0:
89,19,173362,2,0,L|64:90,1,68.0000012969971,2|0,3:1|0:0,0:0:0:0:
86,241,173791,2,0,L|111:170,1,68.0000012969971,0|8,3:0|0:0,0:0:0:0:
257,28,174219,1,4,3:0:0:0:
257,28,174326,1,0,0:0:0:0:
257,28,174433,6,0,P|296:52|335:51,1,68.0000012969971,2|8,3:2|0:1,0:0:0:0:
404,28,174755,1,0,0:0:0:0:
409,42,174862,2,0,L|399:84,2,34.0000006484985,8|0|0,0:0|0:0|3:0,0:0:0:0:
256,144,175291,1,6,3:0:0:0:
308,232,175505,1,6,3:0:0:0:
160,368,175719,1,10,0:0:0:0:
212,280,175933,1,2,3:2:0:0:
212,280,176041,1,8,0:1:0:0:
212,280,176148,6,0,L|364:248,1,136.000002593994,2|8,3:2|0:1,0:0:0:0:
512,212,176791,1,10,0:0:0:0:
376,352,177005,1,10,0:1:0:0:
440,280,177219,1,10,0:1:0:0:
340,112,177433,1,10,0:0:0:0:
416,168,177648,1,10,0:1:0:0:
241,133,177862,6,0,L|105:101,1,136.000002593994,2|8,3:2|0:1,0:0:0:0:
25,143,178505,1,8,0:0:0:0:
215,220,178719,2,0,P|275:220|331:148,1,136.000002593994,10|8,0:1|0:1,0:0:0:0:
112,216,179362,1,0,3:0:0:0:
112,216,179469,1,0,3:0:0:0:
112,216,179576,6,0,L|44:236,1,68.0000012969971,2|0,3:2|3:0,0:0:0:0:
200,376,180005,1,8,0:0:0:0:
284,248,180219,1,8,0:0:0:0:
284,248,180326,1,0,0:0:0:0:
284,248,180433,6,0,L|216:268,1,68.0000012969971,4|0,0:1|0:0,0:0:0:0:
392,160,180862,1,8,0:0:0:0:
444,292,181076,1,0,3:0:0:0:
192,144,181291,6,0,L|260:124,1,68.0000012969971,4|0,3:1|0:0,0:0:0:0:
172,32,181719,1,10,0:0:0:0:
100,51,181826,1,2,0:0:0:0:
60,116,181933,1,2,3:2:0:0:
71,190,182040,1,2,0:0:0:0:
129,239,182147,5,6,3:0:0:0:
129,239,182791,1,4,3:0:0:0:
119,289,182898,1,4,3:0:0:0:
109,339,183005,5,6,3:2:0:0:
216,304,183862,1,2,0:0:0:0:
129,239,184719,5,2,3:2:0:0:
312,372,185576,2,0,L|324:320,1,40,2|0,0:0|0:0,0:0:0:0:
464,344,186005,2,0,L|452:292,1,40,6|0,0:1|0:0,0:0:0:0:
288,252,186433,6,0,L|324:96,1,160,6|0,3:1|0:0,0:0:0:0:
323,96,187719,1,2,0:0:0:0:
84,52,188148,6,0,L|176:28,1,80,2|0,3:2|0:0,0:0:0:0:
244,56,188791,1,0,0:0:0:0:
104,136,189005,2,0,L|196:112,1,80,2|6,0:0|0:1,0:0:0:0:
244,56,189648,1,0,0:0:0:0:
120,156,189862,6,0,L|88:280,1,120,2|0,3:2|0:0,0:0:0:0:
72,348,190719,2,0,L|24:336,2,40,2|0|0,0:0|0:0|0:0,0:0:0:0:
312,220,191576,6,0,P|348:200|400:200,1,80,2|0,3:2|0:0,0:0:0:0:
468,220,192219,1,0,0:0:0:0:
412,284,192433,2,0,P|376:304|324:304,1,80,2|0,0:0|0:0,0:0:0:0:
256,288,193076,1,0,0:0:0:0:
192,340,193291,6,8,L|188:364,11,13.3333333333333,10|8|8|8|8|8|8|8|8|8|8|8,3:1|0:1|0:1|0:1|0:1|0:1|0:1|0:1|0:1|0:1|0:1|0:1,0:1:0:0:
112,324,194148,2,8,L|108:348,11,13.3333333333333,14|8|8|8|8|8|8|8|8|8|8|8,0:1|0:1|0:1|0:1|0:1|0:1|0:1|0:1|0:1|0:1|0:1|0:1,0:1:0:0:
32,308,195005,6,0,L|28:332,5,13.3333333333333,2|2|2|2|2|2,3:2|0:0|0:0|0:0|0:0|0:0,0:0:0:0:
92,232,195433,6,0,L|88:256,5,13.3333333333333,4|2|2|2|2|2,0:1|0:0|0:0|0:0|0:0|0:0,0:0:0:0:
156,160,195862,6,0,L|152:184,5,13.3333333333333,2|2|2|2|2|2,3:2|0:0|0:0|0:0|0:0|0:0,0:0:0:0:
212,88,196291,5,6,0:1:0:0:
212,88,196719,6,0,L|356:60,1,136.000002593994,6|8,3:2|0:0,0:0:0:0:
272,168,197362,2,0,L|416:140,1,136.000002593994,10|0,3:1|3:0,0:0:0:0:
336,246,198005,2,0,L|404:234,1,68.0000012969971,8|8,0:0|0:1,0:0:0:0:
475,192,198326,1,8,0:1:0:0:
480,205,198433,5,2,3:2:0:0:
265,139,198648,1,0,3:0:0:0:
268,153,198755,1,0,3:0:0:0:
272,168,198862,1,8,0:0:0:0:
367,61,199076,1,10,0:1:0:0:
243,21,199291,5,2,3:2:0:0:
195,82,199505,1,0,3:0:0:0:
121,108,199719,1,12,0:1:0:0:
45,90,199933,1,0,0:0:0:0:
45,90,200041,1,0,0:0:0:0:
45,90,200148,6,0,L|13:233,1,136.000002593994,2|8,3:2|0:0,0:0:0:0:
38,350,200791,1,8,0:1:0:0:
109,203,201005,2,0,L|93:276,1,68.0000012969971,8|0,0:1|3:0,0:0:0:0:
185,245,201326,1,0,3:0:0:0:
182,260,201433,2,0,L|168:326,1,68.0000012969971,8|8,0:0|0:1,0:0:0:0:
260,298,201755,1,0,3:0:0:0:
258,314,201862,5,2,3:2:0:0:
372,277,202076,2,0,L|332:267,1,34.0000006484985,8|0,0:1|3:0,0:0:0:0:
182,260,202291,5,6,0:1:0:0:
317,187,202505,2,0,L|277:177,1,34.0000006484985,8|0,0:1|0:0,0:0:0:0:
109,203,202719,5,6,0:1:0:0:
263,90,202933,2,0,L|223:80,1,34.0000006484985,0|0,3:0|3:0,0:0:0:0:
28,152,203148,5,6,3:0:0:0:
173,11,203362,2,0,L|133:1,1,34.0000006484985,8|0,0:1|3:0,0:0:0:0:
263,90,203576,6,0,L|340:74,1,68.0000012969971,2|0,3:2|0:0,0:0:0:0:
396,124,203898,2,0,P|411:82|409:49,1,68.0000012969971,2|0,3:2|3:0,0:0:0:0:
319,157,204219,2,0,L|328:212,1,34.0000006484985,2|0,0:0|3:0,0:0:0:0:
477,212,204433,6,0,L|460:289,1,68.0000012969971,6|0,0:1|0:0,0:0:0:0:
403,345,204755,2,0,P|370:366|334:364,1,68.0000012969971,2|0,3:2|0:0,0:0:0:0:
306,276,205076,2,0,L|354:284,1,34.0000006484985,2|0,0:0|0:0,0:0:0:0:
210,370,205291,6,0,L|101:349,1,75.9999979705811,2|0,3:2|0:0,0:0:0:0:
176,265,205612,2,0,L|67:244,1,75.9999979705811,2|0,3:2|0:0,0:0:0:0:
129,157,205933,2,0,L|81:149,1,37.9999989852906,2|0,0:0|0:0,0:0:0:0:
176,265,206148,6,0,P|215:232|226:186,1,75.9999979705811,6|0,0:1|3:0,0:0:0:0:
190,4,206469,2,0,P|199:54|233:86,1,75.9999979705811,2|0,3:2|0:0,0:0:0:0:
388,147,206791,2,0,L|330:134,1,37.9999989852906,2|0,0:0|0:0,0:0:0:0:
264,133,207005,5,2,3:2:0:0:
358,59,207326,5,4,3:0:0:0:
477,68,207648,5,0,3:0:0:0:
354,220,207862,5,6,0:1:0:0:
260,146,208183,5,4,3:0:0:0:
141,155,208505,5,0,3:0:0:0:
265,308,208719,5,6,3:1:0:0:
359,234,209040,5,4,3:0:0:0:
478,243,209362,5,0,3:0:0:0:
169,361,209576,5,2,3:2:0:0:
164,336,209683,1,8,0:1:0:0:
160,308,209791,2,0,L|152:256,1,37.9999989852906,8|0,0:1|3:0,0:0:0:0:
37,354,210005,5,12,0:1:0:0:
50,278,210112,1,10,0:0:0:0:
62,204,210219,1,6,3:0:0:0:
77,132,210326,1,6,3:0:0:0:
92,60,210433,5,6,3:2:0:0:
252,188,210648,1,10,0:1:0:0:
272,1,210862,1,10,0:0:0:0:
205,89,211076,1,8,0:1:0:0:
205,89,211183,1,0,0:0:0:0:
205,89,211291,5,2,0:0:0:0:
414,233,211505,2,0,L|461:220,2,43.2000010546875,2|0|8,3:2|0:0|0:0,0:0:0:0:
86,368,211933,1,8,0:1:0:0:
86,368,212041,1,0,3:0:0:0:
86,368,212148,6,0,L|105:277,1,86.4000021093751,6|0,3:1|3:0,0:0:0:0:
138,194,212469,1,0,3:0:0:0:
192,338,212576,6,0,L|211:247,1,86.4000021093751,10|8,3:2|0:1,0:0:0:0:
232,154,212898,2,0,L|242:106,1,43.2000010546875,0|4,0:0|3:0,0:0:0:0:
414,233,213219,1,10,0:1:0:0:
427,297,213326,1,0,3:0:0:0:
441,360,213433,1,10,0:1:0:0:
209,253,213648,1,6,3:0:0:0:
469,41,213862,5,6,3:2:0:0:
324,196,214076,1,10,0:1:0:0:
315,0,214291,1,10,0:0:0:0:
364,101,214505,1,2,0:0:0:0:
364,101,214612,1,0,0:0:0:0:
364,101,214719,5,2,0:0:0:0:
103,283,214933,2,0,L|92:328,2,43.2000010546875,2|0|8,3:2|0:0|0:0,0:0:0:0:
26,45,215362,1,0,3:0:0:0:
26,45,215469,1,2,0:0:0:0:
26,45,215576,6,0,P|64:74|107:77,1,86.4000021093751,6|0,3:1|3:0,0:0:0:0:
180,21,215898,1,0,3:0:0:0:
129,164,216005,6,0,P|167:193|210:196,1,86.4000021093751,10|8,3:2|0:1,0:0:0:0:
280,131,216326,2,0,L|268:70,1,43.2000010546875,0|4,0:0|3:0,0:0:0:0:
37,182,216648,1,10,0:1:0:0:
22,245,216755,1,0,3:0:0:0:
8,308,216862,1,6,0:1:0:0:
308,382,217076,2,0,L|297:332,1,43.2000010546875,0|0,3:0|0:0,0:0:0:0:
204,196,217291,5,6,3:2:0:0:
393,287,217505,1,4,3:0:0:0:
185,327,217719,1,10,0:0:0:0:
301,162,217933,1,0,3:0:0:0:
271,255,218148,5,2,0:0:0:0:
437,88,218362,2,0,L|490:71,2,43.2000010546875,0|2|8,3:0|0:0|0:0,0:0:0:0:
96,8,218791,1,8,0:1:0:0:
96,8,218898,1,0,3:0:0:0:
96,8,219005,6,0,L|69:102,1,86.4000021093751,6|0,3:1|3:0,0:0:0:0:
135,159,219326,1,0,3:0:0:0:
82,242,219433,2,0,P|47:263|-14:260,1,86.4000021093751,8|8,0:0|0:1,0:0:0:0:
236,157,219862,1,10,0:1:0:0:
241,362,220076,1,0,3:0:0:0:
241,362,220183,1,0,3:0:0:0:
241,362,220291,1,10,0:0:0:0:
189,261,220505,1,10,0:1:0:0:
398,17,220719,5,6,3:2:0:0:
333,184,220933,1,10,0:1:0:0:
326,141,221040,1,0,3:0:0:0:
318,98,221147,1,10,0:0:0:0:
430,275,221362,1,10,0:1:0:0:
218,157,221577,5,6,0:1:0:0:
175,165,221684,1,0,0:0:0:0:
132,172,221791,1,2,3:2:0:0:
431,123,222005,1,10,0:0:0:0:
258,286,222219,1,0,3:0:0:0:
258,286,222326,1,0,3:0:0:0:
258,286,222433,6,0,L|243:347,1,43.2000010546875,2|0,3:2|0:0,0:0:0:0:
33,192,222648,2,0,L|48:131,1,43.2000010546875,0|0,3:0|0:0,0:0:0:0:
397,148,222862,6,0,L|382:209,1,43.2000010546875,6|0,0:1|0:0,0:0:0:0:
129,72,223077,2,0,L|144:11,1,43.2000010546875,8|8,0:1|0:0,0:0:0:0:
492,56,223291,5,6,0:1:0:0:
431,15,223398,1,10,0:0:0:0:
356,15,223505,1,2,3:2:0:0:
292,56,223612,1,10,0:1:0:0:
263,124,223719,1,10,3:2:0:0:
234,192,223827,1,2,0:0:0:0:
170,233,223934,1,6,3:0:0:0:
94,233,224041,1,6,3:0:0:0:
33,192,224148,5,6,3:2:0:0:
195,339,224362,1,10,0:1:0:0:
263,124,224576,1,10,0:0:0:0:
170,233,224791,1,8,0:1:0:0:
170,233,224898,1,0,0:0:0:0:
170,233,225005,5,2,0:2:0:0:
364,370,225219,2,0,L|423:357,2,43.2000010546875,2|0|10,3:2|0:0|0:0,0:0:0:0:
388,38,225648,1,8,0:3:0:0:
388,38,225755,1,2,0:0:0:0:
388,38,225862,6,0,P|366:78|363:126,1,86.4000021093751,6|0,3:1|3:0,0:0:0:0:
506,154,226183,1,0,3:0:0:0:
420,189,226291,6,0,P|415:231|393:268,1,86.4000021093751,10|8,3:2|0:1,0:0:0:0:
324,198,226612,2,0,L|273:187,1,43.2000010546875,0|4,0:0|3:0,0:0:0:0:
51,247,226933,1,10,0:1:0:0:
37,310,227040,1,0,3:0:0:0:
24,373,227147,1,10,0:1:0:0:
185,279,227362,1,6,3:0:0:0:
56,100,227576,5,6,3:2:0:0:
281,188,227791,1,4,3:0:0:0:
51,247,228006,1,10,0:0:0:0:
205,59,228219,1,10,0:3:0:0:
205,59,228326,1,0,0:0:0:0:
205,59,228433,5,2,0:2:0:0:
351,361,228648,1,4,3:0:0:0:
51,247,228861,1,10,0:0:0:0:
383,129,229076,1,8,0:3:0:0:
383,129,229183,1,0,0:0:0:0:
383,129,229291,6,0,L|475:109,1,86.4000021093751,6|2,3:1|3:2,0:0:0:0:
489,24,229612,1,0,0:0:0:0:
345,222,229719,6,0,L|459:200,1,102.4,6|8,0:1|0:1,0:0:0:0:
467,110,230041,1,8,0:0:0:0:
305,322,230148,6,0,L|430:295,1,118.400002890625,6|0,0:1|3:0,0:0:0:0:
445,202,230469,1,8,0:1:0:0:
193,331,230576,6,0,L|211:256,1,67.1999979492188,10|8,3:2|0:0,0:0:0:0:
183,15,230791,2,0,L|198:80,1,67.1999979492188,10|8,0:0|0:0,0:0:0:0:
345,222,231005,6,0,P|256:140|135:152,1,240,6|8,3:2|0:0,0:0:0:0:
331,330,232505,1,0,3:0:0:0:
331,330,232612,1,0,3:0:0:0:
331,330,232719,6,0,P|370:329|418:301,1,86.4000021093751,6|8,3:1|0:1,0:0:0:0:
512,295,233041,2,0,L|496:367,1,43.2000010546875,0|8,3:0|0:0,0:0:0:0:
238,150,233362,1,8,0:1:0:0:
238,150,233469,1,0,0:0:0:0:
238,150,233576,6,0,P|277:149|325:121,1,86.4000021093751,6|0,0:1|3:0,0:0:0:0:
450,82,233898,2,0,L|434:154,1,43.2000010546875,0|8,3:0|0:0,0:0:0:0:
72,353,234219,5,10,0:1:0:0:
62,288,234326,1,0,3:0:0:0:
53,224,234433,1,6,3:2:0:0:
296,317,234648,1,6,3:0:0:0:
199,45,234862,5,10,0:0:0:0:
72,353,235076,1,10,0:1:0:0:
472,228,235291,5,10,3:2:0:0:
314,186,235505,1,10,3:1:0:0:
157,145,235719,1,10,0:1:0:0:
0,103,235933,2,0,L|8:150,1,43.2000010546875,8|0,0:0|3:0,0:0:0:0:
287,362,236148,5,2,3:2:0:0:
169,234,236362,2,0,L|179:283,2,43.2000010546875,0|0|8,0:0|3:0|0:0,0:0:0:0:
448,7,236791,1,10,0:1:0:0:
448,7,236898,1,8,0:0:0:0:
448,7,237005,5,6,0:1:0:0:
434,79,237112,1,2,0:0:0:0:
383,133,237219,1,2,3:2:0:0:
310,152,237326,1,2,0:0:0:0:
241,127,237433,1,10,3:2:0:0:
171,102,237541,1,10,0:0:0:0:
98,121,237648,1,10,0:0:0:0:
47,178,237755,1,10,0:0:0:0:
34,249,237862,6,0,L|16:102,1,120.000004577637,6|0,3:2|3:0,0:0:0:0:
49,364,238505,1,14,0:1:0:0:
254,267,238719,2,0,P|205:300|147:297,1,120.000004577637,6|8,3:0|0:1,0:0:0:0:
375,264,239362,1,2,3:2:0:0:
375,264,239469,1,0,3:0:0:0:
375,264,239576,6,0,L|359:333,1,60.0000022888184,6|0,3:1|0:0,0:0:0:0:
480,312,240005,1,0,3:0:0:0:
317,131,240219,1,8,0:1:0:0:
317,131,240326,1,0,0:0:0:0:
317,131,240433,6,0,L|301:200,1,60.0000022888184,2|8,3:2|0:1,0:0:0:0:
423,181,240862,1,10,0:1:0:0:
261,0,241076,1,10,0:1:0:0:
261,0,241183,1,0,0:0:0:0:
261,0,241290,6,0,L|245:69,1,60.0000022888184,6|0,3:1|0:0,0:0:0:0:
367,50,241719,1,0,3:0:0:0:
143,107,241933,1,6,0:1:0:0:
310,294,242148,5,10,3:1:0:0:
247,58,242362,1,10,0:1:0:0:
69,232,242576,1,10,0:0:0:0:
278,177,242791,1,8,0:0:0:0:
278,177,242898,1,0,0:0:0:0:
278,177,243005,5,6,3:1:0:0:
143,107,243219,1,8,0:0:0:0:
0,329,243433,5,8,0:0:0:0:
174,193,243647,1,10,0:1:0:0:
355,375,243862,5,6,0:0:0:0:
69,232,244076,1,8,0:1:0:0:
69,232,244183,1,8,0:0:0:0:
69,232,244291,2,0,L|58:273,1,30.0000011444092,8|8,0:0|0:0,0:0:0:0:
150,375,244505,2,0,L|157:346,1,30.0000011444092,6|6,3:0|3:0,0:0:0:0:
255,26,244719,5,6,3:2:0:0:
