osu file format v14

[General]
AudioFilename: audio.mp3
AudioLeadIn: 0
PreviewTime: 72755
Countdown: 0
SampleSet: Soft
StackLeniency: 0.2
Mode: 2
LetterboxInBreaks: 0
WidescreenStoryboard: 1

[Editor]
Bookmarks: 18433,32148,45862,59576,73291,87005,100719,112719,114433,128148,140148,141862,152791,155576,165862,169291,181719,183005,196719,203576,210433,224148,237862,244719
DistanceSpacing: 1
BeatDivisor: 4
GridSize: 4
TimelineZoom: 2.2

[Metadata]
Title:Hyakka Ryouran
TitleUnicode:百火繚乱
Artist:Ito Kashitaro
ArtistUnicode:伊東歌詞太郎
Creator:F D Flourite
Version:Platter
Source:
Tags:itou kashitarou うつくしまYOSAKOIまつり おもてなし温楽彩 appleeaterx cwc2019 osu!catch world cup 2019 cwc group stage GS NM2 NoMod Japanese J-Pop jpop pop
BeatmapID:1828158
BeatmapSetID:867277

[Difficulty]
HPDrainRate:5
CircleSize:3.5
OverallDifficulty:8
ApproachRate:8
SliderMultiplier:2
SliderTickRate:2

[Events]
//Background and Video events
0,0,"hyakka.jpg",0,0
Video,-1775,"video.avi"
//Break Periods
2,100919,113469
2,183205,192541
//Storyboard Layer 0 (Background)
//Storyboard Layer 1 (Fail)
//Storyboard Layer 2 (Pass)
//Storyboard Layer 3 (Foreground)
//Storyboard Layer 4 (Overlay)
//Storyboard Sound Samples

[TimingPoints]
862,428.571428571429,4,2,19,50,1,0
862,-133.333333333333,4,2,19,50,0,0
1291,428.571428571429,4,2,20,40,1,0
1291,-133.333333333333,4,2,20,40,0,0
1398,-133.333333333333,4,2,19,40,0,0
2148,-133.333333333333,4,2,19,30,0,0
2791,-133.333333333333,4,2,20,20,0,0
3005,-133.333333333333,4,2,20,40,0,0
3433,-133.333333333333,4,2,20,20,0,0
3862,-133.333333333333,4,2,20,45,0,0
3969,-133.333333333333,4,2,20,40,0,0
4719,-133.333333333333,4,2,19,40,0,0
5576,-133.333333333333,4,2,19,30,0,0
6219,-133.333333333333,4,2,20,20,0,0
6433,-133.333333333333,4,2,20,40,0,0
6862,-133.333333333333,4,2,20,20,0,0
7291,-133.333333333333,4,2,19,30,0,0
7719,-133.333333333333,4,2,19,40,0,0
8148,-133.333333333333,4,2,20,40,0,0
9005,-133.333333333333,4,2,19,30,0,0
9648,-133.333333333333,4,2,20,10,0,0
9862,-133.333333333333,4,2,19,30,0,0
10291,-133.333333333333,4,2,20,20,0,0
10719,-133.333333333333,4,2,19,30,0,0
11576,-133.333333333333,4,2,19,40,0,0
12433,-133.333333333333,4,2,19,30,0,0
13076,-133.333333333333,4,2,20,20,0,0
13291,-133.333333333333,4,2,19,30,0,0
13719,-133.333333333333,4,2,20,20,0,0
14148,-133.333333333333,4,2,19,30,0,0
14791,-133.333333333333,4,2,19,10,0,0
14898,-133.333333333333,4,2,19,30,0,0
15005,-133.333333333333,4,2,22,40,0,0
16719,-133.333333333333,4,2,19,45,0,0
18005,-133.333333333333,4,2,19,55,0,0
18219,-133.333333333333,4,2,19,40,0,0
18433,-100,4,2,19,55,0,0
21433,-100,4,2,19,47,0,0
21862,-100,4,2,19,55,0,0
24433,-100,4,2,19,47,0,0
24862,-100,4,2,19,55,0,0
28291,-100,4,2,19,47,0,0
28505,-100,4,2,19,55,0,0
32148,-100,4,2,19,45,0,0
35362,-100,4,2,19,20,0,0
35576,-100,4,2,19,45,0,0
42219,-100,4,2,19,20,0,0
42433,-100,4,2,19,45,0,0
45433,-100,4,2,19,20,0,0
45541,-100,4,2,19,45,0,0
45862,-100,4,2,19,50,0,0
51433,-100,4,2,19,25,0,0
51541,-100,4,2,19,50,0,0
51862,-100,4,2,19,25,0,0
51969,-100,4,2,19,50,0,0
59576,-100,4,2,19,45,0,0
59683,-100,4,2,19,50,0,0
65576,-100,4,2,19,45,0,0
66433,-100,4,2,19,50,0,0
72005,-100,4,2,19,40,0,0
72112,-100,4,2,19,45,0,0
72219,-100,4,2,19,50,0,0
72326,-100,4,2,19,55,0,0
72433,-100,4,2,19,30,0,0
72862,-100,4,2,19,20,0,0
73076,-100,4,2,19,50,0,0
73291,-100,4,2,19,70,0,1
73933,-100,4,2,19,50,0,1
74041,-100,4,2,19,70,0,1
76291,-100,4,2,19,50,0,1
76398,-100,4,2,19,70,0,1
77362,-100,4,2,19,50,0,1
77469,-100,4,2,19,70,0,1
84433,-100,4,2,19,50,0,1
84541,-100,4,2,19,70,0,1
85291,-100,4,2,19,65,0,1
85505,-100,4,2,19,70,0,1
86148,-100,4,2,19,50,0,1
86255,-100,4,2,19,60,0,1
86576,-100,4,2,19,70,0,1
86791,-100,4,2,19,65,0,0
87005,-100,4,2,19,70,0,1
87648,-100,4,2,19,50,0,1
87755,-100,4,2,19,70,0,1
90005,-100,4,2,19,50,0,1
90112,-100,4,2,19,70,0,1
91076,-100,4,2,19,50,0,1
91183,-100,4,2,19,70,0,1
92148,-100,4,2,19,50,0,1
92576,-100,4,2,19,55,0,1
93005,-100,4,2,19,60,0,1
93433,-100,4,2,19,65,0,1
93862,-100,4,2,19,70,0,1
95362,-100,4,2,19,70,0,1
95576,-100,4,2,19,50,0,1
95630,-100,4,2,19,70,0,1
96433,-100,4,2,19,50,0,1
96487,-100,4,2,19,70,0,1
99862,-100,4,2,19,65,0,1
100076,-100,4,2,19,60,0,1
100291,-100,4,2,19,63,0,1
100505,-100,4,2,19,57,0,1
100719,-100,4,2,19,70,0,0
112719,-100,4,2,19,55,0,0
114433,-100,4,2,19,50,0,0
120005,-100,4,2,19,40,0,0
120219,-100,4,2,19,45,0,0
120433,-100,4,2,19,50,0,0
120862,-100,4,2,19,25,0,0
120916,-100,4,2,19,50,0,0
140576,-100,4,2,19,40,0,0
141005,-100,4,2,19,55,0,0
141433,-100,4,2,19,45,0,0
141862,-100,4,2,19,55,0,0
147862,-100,4,2,19,45,0,0
148291,-100,4,2,19,50,0,0
148719,-100,4,2,19,40,0,0
149148,-100,4,2,19,45,0,0
149576,-100,4,2,19,50,0,0
150005,-100,4,2,19,55,0,0
155148,-100,4,2,19,40,0,0
155201,-100,4,2,19,60,0,0
162005,-100,4,2,19,40,0,0
162058,-100,4,2,19,60,0,0
163076,-100,4,2,19,40,0,0
163130,-100,4,2,19,62,0,0
165862,-100,4,2,19,65,0,0
169291,-100,4,2,19,52,0,0
169719,-100,4,2,19,45,0,0
170362,-100,4,2,19,52,0,0
171862,-100,4,2,19,52,0,0
172291,-100,4,2,19,45,0,0
172719,-100,4,2,19,52,0,0
177433,-100,4,2,19,45,0,0
177862,-100,4,2,19,52,0,0
180433,-100,4,2,19,40,0,0
180487,-100,4,2,19,52,0,0
181291,-100,4,2,19,40,0,0
181344,-100,4,2,19,52,0,0
181719,-100,4,2,19,40,0,0
181826,-100,4,2,19,45,0,0
181933,-100,4,2,19,50,0,0
182041,-100,4,2,19,55,0,0
182148,-100,4,2,19,50,0,0
183005,-100,4,2,19,65,0,0
183058,-100,4,2,19,40,0,0
185576,-100,4,2,19,40,0,0
186005,-100,4,2,19,25,0,0
186058,-100,4,2,19,40,0,0
189433,-100,4,2,19,25,0,0
189541,-100,4,2,19,40,0,0
193362,-100,4,2,19,15,0,0
194148,-100,4,2,19,40,0,0
194219,-100,4,2,19,20,0,0
195005,-100,4,2,19,40,0,0
195076,-100,4,2,19,15,0,0
195433,-100,4,2,19,35,0,0
195505,-100,4,2,19,13,0,0
195862,-100,4,2,19,30,0,0
195933,-100,4,2,19,11,0,0
196291,-100,4,2,19,35,0,0
196719,-100,4,2,19,45,0,0
199719,-100,4,2,19,30,0,0
199773,-100,4,2,19,45,0,0
200148,-100,4,2,19,50,0,0
201862,-100,4,2,19,35,0,0
202291,-100,4,2,19,40,0,0
202719,-100,4,2,19,45,0,0
203148,-100,4,2,19,50,0,0
203576,-100,4,2,19,55,0,0
204433,-100,4,2,19,40,0,0
204541,-100,4,2,19,55,0,0
205291,-100,4,2,19,70,0,0
206148,-100,4,2,19,50,0,0
206255,-100,4,2,19,70,0,0
206362,-100,4,2,19,50,0,0
209576,-100,4,2,19,60,0,0
210005,-100,4,2,19,50,0,0
210112,-100,4,2,19,65,0,0
210433,-100,4,2,19,83,0,1
211076,-100,4,2,19,60,0,1
211183,-100,4,2,19,83,0,1
212148,-100,4,2,19,60,0,1
212255,-100,4,2,19,83,0,1
214505,-100,4,2,19,60,0,1
214612,-100,4,2,19,83,0,1
215576,-100,4,2,19,60,0,1
215683,-100,4,2,19,83,0,1
216862,-100,4,2,19,60,0,1
216969,-100,4,2,19,83,0,1
219005,-100,4,2,19,60,0,1
219112,-100,4,2,19,83,0,1
221576,-100,4,2,19,60,0,1
221683,-100,4,2,19,83,0,1
222433,-100,4,2,19,70,0,1
222862,-100,4,2,19,75,0,1
223291,-100,4,2,19,60,0,1
223398,-100,4,2,19,70,0,1
223719,-100,4,2,19,75,0,1
223933,-100,4,2,19,80,0,0
224148,-100,4,2,19,83,0,1
224791,-100,4,2,19,60,0,1
224898,-100,4,2,19,83,0,1
225862,-100,4,2,19,60,0,1
225969,-100,4,2,19,83,0,1
228219,-100,4,2,19,60,0,1
228326,-100,4,2,19,83,0,1
229076,-100,4,2,19,60,0,1
229183,-100,4,2,19,83,0,1
229291,-100,4,2,19,60,0,1
229719,-100,4,2,19,65,0,1
230148,-100,4,2,19,70,0,1
230576,-100,4,2,19,75,0,1
231005,-100,4,2,19,83,0,1
232505,-100,4,2,19,83,0,1
232719,-100,4,2,19,60,0,1
232826,-100,4,2,19,83,0,1
233576,-100,4,2,19,60,0,1
233683,-100,4,2,19,83,0,1
237005,-100,4,2,19,75,0,1
237219,-100,4,2,19,70,0,1
237433,-100,4,2,19,73,0,1
237648,-100,4,2,19,65,0,0
237862,-100,4,2,19,60,0,1
238505,-100,4,2,19,40,0,1
238719,-100,4,2,19,60,0,1
243005,-100,4,2,19,55,0,1
243433,-100,4,2,19,57,0,1
243862,-100,4,2,19,60,0,1
244719,-100,4,2,19,85,0,0

[Colours]
Combo1 : 1,166,254
Combo2 : 255,128,64
Combo3 : 201,255,128
Combo4 : 242,24,57

[HitObjects]
256,248,862,5,12,2:3:0:0:
360,192,1076,1,8,2:3:0:0:
152,192,1291,2,0,P|56:120|184:48,1,300.000011444092,12|2,3:2|0:0,0:0:0:0:
416,316,3005,2,0,L|428:144,1,150.000005722046,2|2,1:2|1:2,0:0:0:0:
268,84,3862,1,2,0:0:0:0:
112,200,4719,6,0,L|392:332,1,300.000011444092,14|2,3:0|0:0,0:0:0:0:
96,316,6433,2,0,L|84:144,1,150.000005722046,8|8,1:2|1:2,0:0:0:0:
244,84,7290,1,6,0:1:0:0:
416,120,8148,6,0,P|468:208|320:312,1,300.000011444092,12|2,3:2|0:0,0:0:0:0:
148,172,9862,2,0,L|320:168,1,150.000005722046,6|10,0:1|1:2,0:0:0:0:
120,80,10719,1,6,0:1:0:0:
384,128,11576,6,0,P|448:256|324:284,1,300.000011444092,14|6,3:0|0:1,0:0:0:0:
84,216,13291,2,0,L|256:200,1,150.000005722046,6|10,0:1|1:2,0:0:0:0:
412,140,14148,2,0,L|244:124,1,150.000005722046,6|0,0:1|0:0,0:0:0:0:
64,92,15005,1,4,0:0:0:0:
256,192,15219,12,0,16719,0:0:0:0:
120,240,18005,6,0,L|52:240,2,37.5000014305115,8|0|4,0:0|3:0|3:0,0:0:0:0:
408,248,18433,6,0,L|432:144,1,100,2|0,3:2|3:0,0:0:0:0:
232,176,18862,2,0,L|208:72,1,100,8|8,0:0|3:1,0:0:0:0:
364,152,19291,1,2,0:0:0:0:
399,182,19398,1,0,0:0:0:0:
408,228,19505,1,8,0:1:0:0:
387,270,19612,1,0,0:0:0:0:
340,296,19719,2,0,L|228:296,1,100,8|8,0:0|0:1,0:0:0:0:
436,200,20148,6,0,L|444:96,1,100,2|0,3:2|0:0,0:0:0:0:
260,96,20576,2,0,L|156:96,1,100,8|0,0:0|3:0,0:0:0:0:
344,200,21005,1,10,0:1:0:0:
236,240,21219,1,10,3:1:0:0:
420,296,21433,2,0,L|488:296,2,50,10|0|2,0:0|0:0|3:2,0:0:0:0:
140,300,21862,6,0,L|24:300,1,100,2|0,3:2|3:0,0:0:0:0:
232,180,22291,2,0,L|336:180,1,100,8|0,0:0|3:0,0:0:0:0:
124,52,22719,1,2,0:0:0:0:
32,132,22933,1,8,0:1:0:0:
20,176,23040,1,0,0:0:0:0:
32,221,23147,1,8,0:0:0:0:
128,292,23362,1,0,3:0:0:0:
188,284,23469,1,8,0:1:0:0:
248,276,23576,6,0,L|360:276,1,100,2|0,3:2|3:0,0:0:0:0:
140,164,24005,2,0,L|12:164,1,100,8|8,0:0|0:1,0:0:0:0:
248,124,24433,2,0,L|312:124,2,50,10|2|0,0:1|0:0|3:0,0:0:0:0:
64,56,24862,2,0,L|172:56,1,100,8|0,0:0|0:0,0:0:0:0:
444,160,25291,6,0,L|436:264,1,100,2|8,3:2|0:1,0:0:0:0:
248,232,25719,2,0,L|140:232,1,100,8|8,0:0|0:1,0:0:0:0:
296,148,26148,1,2,0:0:0:0:
332,178,26255,1,0,0:0:0:0:
348,223,26362,1,8,3:1:0:0:
343,270,26469,1,0,0:0:0:0:
312,316,26576,2,0,L|232:224,1,100,8|8,0:0|0:1,0:0:0:0:
456,280,27005,6,0,L|460:176,1,100,2|2,3:2|0:0,0:0:0:0:
256,80,27433,2,0,L|356:80,1,100,8|8,0:0|0:1,0:0:0:0:
232,164,27862,2,0,L|224:268,1,100,10|2,0:1|3:2,0:0:0:0:
392,304,28291,2,0,L|496:304,1,100,10|0,0:0|3:0,0:0:0:0:
180,160,28719,6,0,L|172:280,1,100,2|8,3:2|0:1,0:0:0:0:
376,116,29148,2,0,L|268:116,1,100,8|8,0:0|0:1,0:0:0:0:
92,64,29576,2,0,L|40:64,2,50,10|0|2,0:1|0:0|3:2,0:0:0:0:
196,64,30005,1,8,0:0:0:0:
336,144,30219,2,0,L|344:200,1,50,8|0,0:1|3:0,0:0:0:0:
260,240,30433,6,0,L|96:248,1,150,2|0,3:2|0:0,0:0:0:0:
44,180,30862,2,0,L|160:172,1,100,8|10,0:0|0:1,0:0:0:0:
336,120,31291,1,8,0:0:0:0:
374,146,31398,1,0,0:0:0:0:
390,191,31505,1,0,3:0:0:0:
378,236,31612,1,8,0:0:0:0:
341,266,31719,1,8,0:0:0:0:
216,304,31933,1,0,3:0:0:0:
412,320,32148,6,0,P|444:216|396:144,1,200,2|8,3:2|0:0,0:0:0:0:
296,80,32791,1,8,0:1:0:0:
128,80,33005,2,0,L|328:68,1,200,0|10,3:0|0:1,0:0:0:0:
176,152,33648,1,10,0:1:0:0:
344,184,33862,6,0,P|392:244|328:344,1,200,2|8,3:2|0:0,0:0:0:0:
224,336,34505,1,8,0:1:0:0:
344,340,34719,1,0,3:0:0:0:
160,252,35148,1,10,0:1:0:0:
436,224,35576,6,0,P|464:156|384:60,1,200,2|8,3:2|0:0,0:0:0:0:
76,224,36433,2,0,P|48:156|128:60,1,200,0|10,3:0|0:1,0:0:0:0:
220,48,37076,1,8,0:1:0:0:
400,152,37291,6,0,L|196:140,1,200,2|8,3:2|0:0,0:0:0:0:
300,104,37933,1,8,0:1:0:0:
396,72,38148,1,0,3:0:0:0:
196,224,38576,2,0,L|168:336,1,100,8|8,0:0|0:1,0:0:0:0:
356,324,39005,6,0,P|380:256|300:172,1,200,2|8,3:2|0:0,0:0:0:0:
192,144,39648,1,8,0:1:0:0:
368,208,39862,2,0,L|380:4,1,200,0|10,3:0|0:1,0:0:0:0:
216,40,40505,1,10,0:1:0:0:
52,120,40719,6,0,L|280:124,1,200,2|8,3:2|0:0,0:0:0:0:
364,128,41362,1,8,0:1:0:0:
252,124,41576,1,0,3:0:0:0:
88,196,42005,2,0,L|96:296,1,100,8|8,0:1|0:0,0:0:0:0:
276,288,42433,6,0,L|496:296,1,200,2|8,3:2|0:0,0:0:0:0:
292,188,43076,1,8,0:1:0:0:
244,184,43183,1,0,0:0:0:0:
196,180,43291,2,0,P|156:120|244:32,1,200,0|10,3:0|0:1,0:0:0:0:
344,32,43933,1,10,0:1:0:0:
148,120,44148,6,0,L|40:120,1,100,2|0,3:2|0:0,0:0:0:0:
196,196,44576,1,8,0:0:0:0:
227,233,44683,1,2,0:0:0:0:
229,282,44790,1,10,0:1:0:0:
199,322,44897,1,0,0:0:0:0:
132,320,45005,1,2,3:2:0:0:
432,324,45433,1,14,0:0:0:0:
296,212,45648,2,0,L|304:156,1,50,12|12,0:3|0:3,0:0:0:0:
400,168,45862,6,0,P|444:88|368:16,1,200,2|10,3:2|0:1,0:0:0:0:
248,32,46505,1,8,0:0:0:0:
116,88,46719,2,0,L|108:196,1,100,8|0,0:1|0:0,0:0:0:0:
224,256,47148,1,8,0:0:0:0:
92,308,47362,1,4,3:0:0:0:
368,328,47576,6,0,L|476:328,1,100,2|0,3:2|0:0,0:0:0:0:
272,212,48005,2,0,L|164:212,1,100,10|8,0:1|0:0,0:0:0:0:
360,104,48433,2,0,L|476:104,1,100,8|0,0:1|3:0,0:0:0:0:
300,188,48862,1,8,0:0:0:0:
269,226,48969,1,0,0:0:0:0:
265,275,49076,1,8,0:1:0:0:
288,319,49183,1,8,0:1:0:0:
336,344,49291,6,0,L|432:284,1,100,2|0,3:2|0:0,0:0:0:0:
280,140,49719,1,10,0:1:0:0:
392,144,49933,1,8,0:0:0:0:
208,220,50148,2,0,L|216:116,1,100,0|0,0:0|3:0,0:0:0:0:
396,96,50576,2,0,L|404:200,1,100,8|4,0:0|3:0,0:0:0:0:
208,280,51005,6,0,P|181:189|250:123,1,200,2|12,3:2|0:1,0:0:0:0:
360,108,51648,1,8,0:0:0:0:
256,80,51862,2,0,L|360:80,1,100,12|8,3:1|0:0,0:0:0:0:
160,168,52291,2,0,L|128:228,2,50,8|8|0,0:0|0:1|3:0,0:0:0:0:
436,304,52719,6,0,P|480:244|408:144,1,200,2|10,3:2|0:1,0:0:0:0:
296,124,53362,1,8,0:0:0:0:
168,148,53576,2,0,L|68:152,2,100,8|0|0,0:1|0:0|0:0,0:0:0:0:
304,148,54219,1,0,0:0:0:0:
91,223,54433,6,0,P|68:131|143:75,1,200,2|10,3:2|0:1,0:0:0:0:
268,72,55076,1,8,0:0:0:0:
128,88,55291,2,0,L|100:200,1,100,8|2,0:1|3:2,0:0:0:0:
288,136,55719,2,0,L|316:248,1,100,8|8,0:0|0:1,0:0:0:0:
220,256,56041,1,8,0:1:0:0:
128,296,56148,6,0,L|332:308,1,200,2|10,3:2|0:1,0:0:0:0:
196,184,56791,1,8,0:0:0:0:
68,76,57005,2,0,L|168:76,1,100,8|0,0:1|0:0,0:0:0:0:
352,76,57433,2,0,L|252:76,1,100,8|4,0:0|3:0,0:0:0:0:
52,132,57862,6,0,P|28:208|64:340,1,200,2|10,3:2|0:1,0:0:0:0:
160,364,58505,1,8,0:0:0:0:
340,280,58719,6,0,L|324:160,1,100,6|6,3:0|3:0,0:0:0:0:
148,212,59148,2,0,L|44:208,1,100,10|0,0:0|3:0,0:0:0:0:
408,288,59576,6,0,P|424:176|332:156,1,200,6|8,3:2|0:0,0:0:0:0:
176,216,60219,2,0,P|120:160|184:76,1,200,10|0,3:1|0:0,0:0:0:0:
320,76,60862,2,0,L|420:76,1,100,10|2,0:0|3:2,0:0:0:0:
228,184,61291,6,0,L|24:184,1,200,2|8,3:2|0:0,0:0:0:0:
216,224,61933,2,0,P|284:276|208:360,1,200,10|8,3:1|0:1,0:0:0:0:
40,316,62576,2,0,L|72:220,1,100,10|0,0:0|0:0,0:0:0:0:
360,172,63005,6,0,L|480:172,2,100,2|8|8,3:2|0:1|0:0,0:0:0:0:
172,112,63648,2,0,P|172:196|228:304,1,200,10|0,3:1|3:0,0:0:0:0:
376,328,64291,2,0,L|260:320,1,100,10|2,0:0|3:2,0:0:0:0:
472,252,64719,6,0,L|480:128,1,100,2|8,3:2|0:1,0:0:0:0:
288,112,65148,2,0,L|424:100,1,100,8|10,0:0|3:1,0:0:0:0:
172,220,65576,2,0,L|160:108,1,100,10|10,3:0|3:0,0:0:0:0:
360,288,66005,2,0,L|372:168,1,100,10|8,0:0|0:1,0:0:0:0:
84,304,66433,6,0,P|48:228|132:168,1,200,2|8,3:2|0:0,0:0:0:0:
316,112,67076,2,0,L|104:120,1,200,10|0,3:1|0:0,0:0:0:0:
300,208,67719,2,0,L|320:312,1,100,10|2,0:0|3:2,0:0:0:0:
124,272,68148,6,0,L|20:272,2,100,2|0|8,3:2|0:0|0:0,0:0:0:0:
312,272,68791,2,0,L|416:272,2,100,8|0|2,0:0|3:0|0:0,0:0:0:0:
112,168,69433,2,0,L|124:56,1,100,10|2,3:1|0:0,0:0:0:0:
312,72,69862,6,0,L|432:72,2,100,2|8|8,3:2|0:1|0:0,0:0:0:0:
180,72,70505,1,8,0:0:0:0:
380,184,70719,2,0,P|436:252|352:336,1,200,2|10,0:0|0:1,0:0:0:0:
256,344,71362,1,4,3:0:0:0:
128,276,71576,6,0,L|136:168,1,100,2|0,3:2|0:0,0:0:0:0:
320,188,72005,1,10,0:0:0:0:
350,148,72112,1,2,0:0:0:0:
349,99,72219,1,2,0:0:0:0:
317,62,72326,1,2,0:0:0:0:
233,31,72433,1,4,3:1:0:0:
421,75,72862,1,4,0:1:0:0:
401,187,73076,1,6,3:0:0:0:
108,204,73291,6,0,L|212:204,1,100,6|10,3:2|0:1,0:0:0:0:
308,116,73719,2,0,L|188:116,1,100,10|8,0:0|0:1,0:0:0:0:
392,48,74148,2,0,L|504:48,1,100,2|2,0:0|3:0,0:0:0:0:
364,160,74576,2,0,L|260:160,1,100,10|0,0:2|3:0,0:0:0:0:
72,240,75005,6,0,L|84:124,1,100,2|0,3:2|3:0,0:0:0:0:
268,164,75433,2,0,L|252:280,1,100,8|8,3:2|0:1,0:0:0:0:
144,272,75862,2,0,L|24:272,1,100,4|10,3:0|0:1,0:0:0:0:
256,180,76291,2,0,L|372:180,1,100,12|8,0:1|0:3,0:0:0:0:
80,216,76719,5,2,3:2:0:0:
49,125,76933,1,10,0:1:0:0:
116,58,77147,1,10,0:0:0:0:
228,44,77362,1,8,0:1:0:0:
416,128,77576,2,0,L|304:136,1,100,2|2,0:0|3:2,0:0:0:0:
136,168,78005,2,0,L|28:176,1,100,10|0,0:0|3:0,0:0:0:0:
220,252,78433,6,0,L|348:252,3,100,2|0|8|8,3:2|0:0|3:2|0:1,0:0:0:0:
128,140,79291,2,0,L|0:140,1,100,4|10,0:3|0:1,0:0:0:0:
192,36,79719,2,0,L|72:36,1,100,8|8,0:0|0:1,0:0:0:0:
368,284,80148,5,6,3:2:0:0:
460,260,80362,2,0,P|488:200|372:140,1,200,0|0,3:2|0:0,0:0:0:0:
280,160,81005,1,2,0:0:0:0:
52,140,81433,1,10,0:0:0:0:
168,168,81648,1,0,3:0:0:0:
352,244,81862,6,0,P|372:148|272:100,1,200,2|8,3:2|0:0,0:0:0:0:
180,80,82505,1,8,0:1:0:0:
368,64,82719,2,0,L|404:180,1,100,10|8,3:1|3:1,0:0:0:0:
356,232,83041,1,8,3:1:0:0:
312,268,83148,1,8,0:0:0:0:
164,288,83362,1,0,3:2:0:0:
364,320,83576,6,0,P|424:288|348:208,1,200,2|8,3:2|0:0,0:0:0:0:
256,180,84219,1,8,0:1:0:0:
68,176,84433,2,0,L|32:120,2,50,4|0|0,0:1|3:0|3:0,0:0:0:0:
192,88,84862,2,0,L|292:88,1,100,10|8,0:0|0:1,0:0:0:0:
100,184,85291,6,0,L|108:292,1,100,2|0,3:2|3:0,0:0:0:0:
256,232,85719,2,0,L|264:336,1,100,10|0,0:1|3:0,0:0:0:0:
448,240,86148,2,0,L|460:104,1,100,12|2,0:1|3:2,0:0:0:0:
176,192,86576,2,0,L|60:192,1,100,10|6,3:2|3:0,0:0:0:0:
360,260,87005,6,0,L|472:260,2,100,6|10|10,3:2|0:1|0:0,0:0:0:0:
256,260,87648,1,8,0:1:0:0:
72,156,87862,2,0,L|76:48,1,100,2|0,0:0|3:0,0:0:0:0:
252,104,88291,2,0,L|140:72,1,100,10|0,0:0|3:0,0:0:0:0:
344,136,88719,6,0,L|456:136,1,100,2|0,3:2|3:0,0:0:0:0:
240,224,89148,2,0,L|128:224,1,100,8|8,3:2|0:1,0:0:0:0:
324,288,89576,2,0,L|336:172,1,100,4|0,0:3|0:0,0:0:0:0:
160,192,90005,2,0,L|152:84,1,100,12|0,0:1|0:0,0:0:0:0:
432,280,90433,5,2,3:2:0:0:
463,205,90647,1,10,0:1:0:0:
428,133,90861,1,10,0:0:0:0:
350,113,91075,1,8,0:1:0:0:
160,124,91291,2,0,L|272:120,1,100,2|0,0:0|3:0,0:0:0:0:
108,244,91719,2,0,L|232:240,1,100,10|0,0:0|3:0,0:0:0:0:
412,252,92148,6,0,P|436:192|368:124,1,150,6|0,3:1|0:0,0:0:0:0:
316,104,92576,2,0,L|204:100,1,100,6|8,0:1|0:1,0:0:0:0:
156,96,92898,1,8,0:0:0:0:
216,88,93005,2,0,L|356:80,1,100,6|0,0:1|3:0,0:0:0:0:
132,168,93433,1,10,3:2:0:0:
120,216,93540,1,8,0:0:0:0:
109,265,93647,1,10,0:0:0:0:
404,304,93862,6,0,P|444:196|348:160,1,200,6|8,3:0|0:0,0:0:0:0:
200,136,94505,2,0,L|404:128,1,200,0|0,0:0|0:0,0:0:0:0:
284,104,95148,1,10,0:0:0:0:
416,76,95362,1,0,3:0:0:0:
128,264,95576,6,0,P|104:184|216:124,1,200,6|8,3:1|0:0,0:0:0:0:
312,124,96219,1,8,0:1:0:0:
104,292,96433,2,0,L|88:72,1,200,6|8,0:1|0:0,0:0:0:0:
200,72,97076,1,10,0:1:0:0:
480,136,97291,6,0,L|256:120,1,200,6|8,3:0|0:0,0:0:0:0:
180,116,97933,1,10,0:1:0:0:
380,300,98148,2,0,L|396:244,2,50,10|0|8,0:0|0:0|0:1,0:0:0:0:
256,304,98576,2,0,L|372:304,1,100,10|8,0:1|0:0,0:0:0:0:
80,312,99005,6,0,P|56:236|128:176,1,150,6|0,3:1|3:0,0:0:0:0:
176,148,99433,1,10,0:0:0:0:
360,208,99648,2,0,L|424:196,2,50,8|8|6,0:1|0:1|3:0,0:0:0:0:
180,264,100076,1,2,0:0:0:0:
208,216,100183,1,2,3:2:0:0:
256,200,100290,1,10,3:2:0:0:
312,196,100397,1,2,0:0:0:0:
344,148,100504,1,6,3:0:0:0:
64,112,100719,5,6,3:2:0:0:
144,240,114219,5,8,0:1:0:0:
244,236,114433,2,0,L|452:232,1,200,2|8,3:2|0:1,0:0:0:0:
328,136,115076,1,8,0:0:0:0:
212,64,115291,1,0,3:0:0:0:
464,88,115719,2,0,L|456:204,1,100,8|4,0:0|3:0,0:0:0:0:
180,284,116148,6,0,P|120:208|212:160,1,200,2|8,3:2|0:1,0:0:0:0:
292,156,116791,1,8,0:0:0:0:
108,168,117005,2,0,L|116:268,1,100,0|10,3:0|0:1,0:0:0:0:
256,188,117433,2,0,L|248:288,1,100,8|2,0:0|0:0,0:0:0:0:
156,312,117755,1,8,0:1:0:0:
64,332,117862,6,0,P|16:276|100:192,1,200,2|8,3:2|0:1,0:0:0:0:
200,180,118505,1,8,0:0:0:0:
316,168,118719,2,0,L|216:164,1,100,0|0,3:0|3:0,0:0:0:0:
36,80,119148,2,0,L|64:184,1,100,8|4,0:0|3:0,0:0:0:0:
164,120,119469,1,0,0:0:0:0:
264,152,119576,6,0,P|316:240|260:312,1,200,2|10,3:2|0:0,0:0:0:0:
76,268,120219,1,10,0:0:0:0:
84,220,120326,1,2,0:0:0:0:
92,172,120433,1,6,3:0:0:0:
228,140,120648,1,4,3:0:0:0:
48,84,120862,1,12,0:1:0:0:
184,52,121077,1,0,3:0:0:0:
460,224,121291,6,0,P|476:132|376:92,1,200,2|8,3:2|0:1,0:0:0:0:
272,88,121933,1,8,0:0:0:0:
412,136,122148,2,0,L|420:256,1,100,0|0,3:0|0:0,0:0:0:0:
228,236,122576,2,0,L|128:236,1,100,8|4,0:0|3:0,0:0:0:0:
424,312,123005,6,0,P|472:264|384:176,1,200,2|8,3:2|0:1,0:0:0:0:
276,180,123648,1,8,0:0:0:0:
148,200,123862,2,0,L|160:84,1,100,0|2,3:0|3:2,0:0:0:0:
332,112,124291,2,0,L|436:108,1,100,8|0,0:0|3:0,0:0:0:0:
128,80,124719,6,0,P|96:156|172:248,1,200,2|8,3:2|0:1,0:0:0:0:
280,272,125362,1,8,0:0:0:0:
168,272,125576,2,0,L|56:272,1,100,0|0,3:0|3:0,0:0:0:0:
248,144,126005,2,0,L|136:144,1,100,8|4,0:0|3:0,0:0:0:0:
244,104,126326,1,0,0:0:0:0:
340,128,126433,6,0,P|396:180|336:272,1,200,2|8,3:2|0:0,0:0:0:0:
220,272,127076,1,8,0:0:0:0:
404,192,127291,1,6,3:0:0:0:
248,136,127505,1,6,3:0:0:0:
432,68,127719,2,0,L|484:56,2,50,10|8|10,0:0|0:1|0:1,0:0:0:0:
80,220,128148,6,0,P|60:120|144:72,1,200,6|8,3:2|0:0,0:0:0:0:
320,176,128791,2,0,L|492:288,1,200,10|0,3:1|0:0,0:0:0:0:
336,92,129433,2,0,L|456:80,1,100,10|2,0:0|3:2,0:0:0:0:
248,264,129862,6,0,P|200:208|240:100,1,200,2|8,3:2|0:0,0:0:0:0:
440,264,130505,2,0,P|488:208|448:100,1,200,10|0,3:1|3:0,0:0:0:0:
296,60,131148,2,0,L|408:48,1,100,10|2,0:0|0:0,0:0:0:0:
120,184,131576,6,0,L|0:176,2,100,2|8|8,3:2|0:1|0:0,0:0:0:0:
316,68,132219,2,0,L|116:72,1,200,2|0,3:2|3:0,0:0:0:0:
236,172,132862,1,10,0:0:0:0:
84,220,133076,1,2,3:2:0:0:
268,264,133291,6,0,L|380:264,1,100,2|0,3:2|3:0,0:0:0:0:
172,152,133719,2,0,L|60:152,1,100,10|8,0:0|0:1,0:0:0:0:
280,160,134148,2,0,L|288:56,1,100,6|6,3:0|3:0,0:0:0:0:
84,296,134576,2,0,L|76:188,1,100,10|6,0:0|3:0,0:0:0:0:
388,260,135005,6,0,P|400:168|312:108,1,200,2|8,3:2|0:0,0:0:0:0:
128,260,135648,2,0,P|116:168|204:108,1,200,10|0,3:1|0:0,0:0:0:0:
372,92,136291,2,0,L|256:88,1,100,10|2,0:0|3:2,0:0:0:0:
84,300,136719,6,0,L|68:84,1,200,2|10,3:2|0:0,0:0:0:0:
260,264,137362,2,0,P|292:200|196:104,1,200,8|0,0:0|3:0,0:0:0:0:
40,72,138005,1,10,0:1:0:0:
144,52,138219,1,0,3:0:0:0:
420,112,138433,5,2,3:2:0:0:
466,179,138647,1,0,3:0:0:0:
466,261,138861,1,8,0:1:0:0:
419,328,139075,1,8,0:0:0:0:
340,344,139291,2,0,L|116:336,1,200,2|8,3:2|0:1,0:0:0:0:
264,236,139933,1,2,3:2:0:0:
388,128,140148,5,2,3:2:0:0:
136,88,140576,1,4,0:1:0:0:
440,48,141005,1,10,3:2:0:0:
84,176,141433,2,0,L|124:280,1,100,12|4,0:1|0:3,0:0:0:0:
404,288,141862,6,0,P|431:204|348:124,1,200,6|8,3:2|0:0,0:0:0:0:
224,116,142505,1,8,0:1:0:0:
196,164,142612,1,0,0:0:0:0:
224,212,142719,2,0,L|318:280,1,100,2|0,0:0|3:0,0:0:0:0:
112,248,143148,2,0,L|18:316,1,100,8|8,0:0|0:1,0:0:0:0:
308,316,143576,6,0,P|348:240|276:156,1,200,2|8,3:2|0:0,0:0:0:0:
220,136,144112,1,0,0:0:0:0:
152,128,144219,1,8,0:1:0:0:
336,80,144433,2,0,L|352:144,1,50,8|2,0:1|0:0,0:0:0:0:
268,172,144648,2,0,L|280:228,1,50,0|0,3:0|0:0,0:0:0:0:
376,256,144862,2,0,L|496:256,1,100,10|0,0:0|3:0,0:0:0:0:
200,288,145291,6,0,L|76:288,1,100,2|0,3:2|0:0,0:0:0:0:
296,192,145719,2,0,L|360:192,3,50,8|0|2|0,0:0|0:0|0:0|0:0,0:0:0:0:
296,80,146148,2,0,L|188:80,1,100,2|0,0:0|3:0,0:0:0:0:
20,116,146576,2,0,L|68:212,1,100,8|8,0:0|0:1,0:0:0:0:
356,208,147005,6,0,L|464:208,1,100,2|2,3:2|3:2,0:0:0:0:
280,136,147433,1,8,0:0:0:0:
270,86,147540,1,2,0:0:0:0:
261,37,147647,1,8,0:1:0:0:
464,280,147862,1,2,0:0:0:0:
486,235,147969,1,0,0:0:0:0:
484,186,148076,1,0,3:0:0:0:
460,143,148183,1,0,0:0:0:0:
404,112,148291,2,0,L|284:112,1,100,10|2,0:0|0:0,0:0:0:0:
28,156,148719,6,0,L|20:106,2,50,2|0|8,3:2|0:0|0:1,0:0:0:0:
168,196,149148,2,0,L|168:136,2,50,10|0|8,0:0|0:0|0:1,0:0:0:0:
344,196,149576,2,0,L|344:136,2,50,2|0|0,0:0|0:0|3:0,0:0:0:0:
484,156,150005,2,0,L|491:106,2,50,10|0|0,0:0|0:0|3:0,0:0:0:0:
196,268,150433,6,0,L|76:266,1,100,2|0,3:2|0:0,0:0:0:0:
292,156,150862,2,0,P|327:138|289:136,1,100,8|10,0:0|0:1,0:0:0:0:
240,160,151183,2,0,L|188:160,2,50,0|2|0,0:0|0:0|3:0,0:0:0:0:
292,156,151505,1,0,0:0:0:0:
128,204,151719,2,0,L|148:76,1,100,10|8,0:0|0:1,0:0:0:0:
344,276,152148,5,2,3:2:0:0:
373,236,152255,1,0,0:0:0:0:
377,187,152362,1,0,3:0:0:0:
355,144,152469,1,0,0:0:0:0:
311,119,152576,1,8,0:0:0:0:
144,96,152791,1,10,0:1:0:0:
284,172,153005,2,0,L|348:172,2,50,2|0|2,0:0|0:0|3:2,0:0:0:0:
236,172,153326,1,0,0:0:0:0:
136,172,153433,2,0,L|254:172,1,100,10|2,0:0|0:0,0:0:0:0:
420,160,153862,6,0,L|440:272,1,100,2|8,3:2|0:0,0:0:0:0:
144,168,154291,2,0,L|124:280,1,100,4|8,0:0|0:1,0:0:0:0:
404,120,154719,1,8,0:0:0:0:
433,177,154826,1,0,0:0:0:0:
401,233,154933,1,10,0:1:0:0:
338,238,155040,1,0,0:0:0:0:
236,236,155148,2,0,L|352:236,1,100,6|0,0:1|3:0,0:0:0:0:
44,304,155576,6,0,L|32:184,1,100,6|0,3:2|0:0,0:0:0:0:
116,144,155898,1,2,0:0:0:0:
196,88,156005,2,0,L|92:96,1,100,8|2,0:0|0:2,0:0:0:0:
224,204,156433,1,0,3:0:0:0:
108,220,156648,1,0,3:0:0:0:
300,300,156862,2,0,L|420:300,1,100,10|8,0:0|0:1,0:0:0:0:
116,200,157291,6,0,L|120:88,1,100,2|0,3:2|0:0,0:0:0:0:
212,72,157612,1,2,0:0:0:0:
304,88,157719,2,0,L|300:192,1,100,8|2,0:0|0:0,0:0:0:0:
128,232,158148,2,0,L|240:232,1,100,8|0,0:1|3:0,0:0:0:0:
416,240,158576,2,0,L|472:240,2,50,10|0|10,0:0|3:0|0:1,0:0:0:0:
132,100,159005,6,0,L|208:188,1,100,2|0,3:2|0:0,0:0:0:0:
284,244,159326,1,2,0:0:0:0:
372,252,159433,2,0,L|306:327,1,100,8|2,0:0|0:0,0:0:0:0:
140,252,159862,2,0,L|206:327,1,100,8|0,0:1|3:0,0:0:0:0:
384,252,160291,2,0,L|450:327,1,100,10|8,0:0|0:1,0:0:0:0:
168,296,160719,5,2,3:2:0:0:
134,259,160826,1,0,0:0:0:0:
129,210,160933,1,0,3:0:0:0:
154,168,161040,1,0,3:0:0:0:
208,124,161148,2,0,L|333:123,1,100,8|0,0:0|0:0,0:0:0:0:
168,112,161576,2,0,L|64:112,1,100,2|0,0:0|3:0,0:0:0:0:
344,112,162005,2,0,L|448:112,1,100,6|8,0:1|0:1,0:0:0:0:
168,152,162433,6,0,P|108:232|200:236,1,200,2|10,3:2|0:0,0:0:0:0:
364,284,163076,2,0,P|408:200|336:124,1,200,6|2,0:1|3:2,0:0:0:0:
168,200,163719,2,0,P|100:172|152:52,1,200,8|2,3:2|3:2,3:2:0:0:
404,256,164362,6,0,P|452:160|380:100,1,200,2|0,0:1|3:0,0:0:0:0:
276,144,165005,2,0,L|168:144,1,100,2|0,0:0|3:0,0:0:0:0:
280,88,165433,2,0,L|396:88,1,100,10|8,0:0|0:1,0:0:0:0:
92,276,165862,6,0,P|56:176|116:140,1,150,2|2,3:2|0:0,0:0:0:0:
144,124,166291,1,8,0:0:0:0:
296,240,166505,2,0,L|352:240,1,50,2|0,0:0|0:0,0:0:0:0:
296,240,166719,2,0,L|232:240,2,50,8|0|2,0:1|0:0|0:0,0:0:0:0:
484,112,167148,2,0,L|488:232,1,100,8|0,0:0|0:0,0:0:0:0:
176,188,167576,6,0,L|112:280,1,100,2|10,3:2|0:0,0:0:0:0:
336,188,168005,2,0,L|400:280,1,100,8|10,0:0|0:1,0:0:0:0:
184,268,168433,1,10,0:0:0:0:
131,205,168647,1,2,3:2:0:0:
131,123,168861,1,10,0:0:0:0:
184,61,169075,1,8,0:1:0:0:
464,120,169291,6,0,L|460:228,1,100,6|10,3:2|0:1,0:0:0:0:
340,288,169719,2,0,L|232:284,2,100,10|10|10,0:0|0:1|0:1,0:0:0:0:
156,172,170576,6,0,L|32:176,1,100,10|0,0:0|3:0,0:0:0:0:
252,84,171005,2,0,P|296:168|240:268,1,200,2|8,3:2|0:0,0:0:0:0:
140,320,171648,1,2,3:2:0:0:
296,324,171862,2,0,L|400:320,3,100,10|10|10|10,0:1|0:1|0:0|0:1,0:0:0:0:
120,264,172719,6,0,P|60:180|144:132,1,200,2|8,3:2|0:0,0:0:0:0:
260,172,173362,2,0,L|252:272,1,100,2|0,3:1|0:0,0:0:0:0:
120,276,173791,2,0,L|128:160,1,100,0|8,3:0|0:0,0:0:0:0:
256,132,174219,1,4,3:0:0:0:
448,72,174433,6,0,L|236:64,1,200,2|8,3:2|0:0,0:0:0:0:
136,56,175076,1,0,3:0:0:0:
308,180,175291,2,0,L|416:176,1,100,6|6,3:0|3:0,0:0:0:0:
232,280,175719,2,0,L|120:276,1,100,10|2,0:0|3:2,0:0:0:0:
320,356,176148,6,0,P|352:288|280:180,1,200,2|8,3:2|0:1,0:0:0:0:
184,140,176791,1,10,0:0:0:0:
372,220,177005,1,10,0:1:0:0:
404,145,177219,1,10,0:1:0:0:
376,69,177433,1,10,0:0:0:0:
302,35,177647,1,10,0:1:0:0:
164,120,177862,6,0,L|36:112,3,100,2|0|8|0,3:2|0:0|0:1|0:0,0:0:0:0:
340,152,178719,2,0,L|348:48,1,100,10|10,0:1|0:1,0:0:0:0:
216,176,179148,2,0,L|108:168,1,100,8|0,0:1|3:0,0:0:0:0:
392,296,179576,6,0,P|436:228|360:148,1,200,2|8,3:2|0:0,0:0:0:0:
248,148,180219,1,8,0:0:0:0:
60,256,180433,2,0,L|76:40,1,200,4|8,0:1|0:0,0:0:0:0:
188,56,181076,1,0,3:0:0:0:
300,48,181291,5,4,3:1:0:0:
100,164,181719,1,10,0:0:0:0:
73,205,181826,1,2,0:0:0:0:
73,254,181933,1,2,3:2:0:0:
101,295,182040,1,2,0:0:0:0:
176,332,182148,1,6,3:0:0:0:
400,288,182791,2,0,L|396:224,1,50,4|4,3:0|3:0,0:0:0:0:
300,188,183005,5,6,3:2:0:0:
188,216,193291,6,0,P|104:184|200:52,1,300,8|8,3:1|0:1,0:0:0:0:
324,216,194148,2,0,P|408:184|312:52,1,300,14|8,0:1|0:1,0:0:0:0:
256,192,195005,12,6,196291,0:1:0:0:
400,240,196719,6,0,L|288:236,3,100,6|0|8|10,3:2|0:0|0:0|3:1,0:0:0:0:
168,140,197576,2,0,L|280:136,3,100,0|0|8|8,0:0|3:0|0:0|0:1,0:0:0:0:
72,84,198433,6,0,L|60:192,1,100,2|0,3:2|3:0,0:0:0:0:
248,176,198862,2,0,L|264:288,1,100,8|10,0:0|0:1,0:0:0:0:
76,268,199291,2,0,L|184:268,1,100,2|0,3:2|3:0,0:0:0:0:
300,168,199719,2,0,L|180:168,1,100,12|0,0:1|0:0,0:0:0:0:
384,312,200148,6,0,L|388:196,1,100,2|0,3:2|0:0,0:0:0:0:
236,220,200576,2,0,L|240:96,1,100,8|8,0:0|0:1,0:0:0:0:
48,312,201005,2,0,L|44:196,1,100,8|0,0:1|3:0,0:0:0:0:
196,220,201433,2,0,L|300:220,1,100,8|8,0:0|0:1,0:0:0:0:
100,220,201862,5,2,3:2:0:0:
78,175,201969,1,0,0:0:0:0:
78,125,202076,1,8,0:1:0:0:
100,81,202183,1,0,3:0:0:0:
139,51,202291,2,0,L|260:44,1,100,6|8,0:1|0:1,0:0:0:0:
384,152,202719,2,0,L|272:156,1,100,6|0,0:1|3:0,0:0:0:0:
108,156,203148,2,0,L|96:268,1,100,6|8,3:0|0:1,0:0:0:0:
380,332,203576,6,0,P|452:264|452:200,2,150,2|2|2,3:2|3:2|0:0,0:0:0:0:
184,320,204433,2,0,L|4:304,2,150,6|2|2,0:1|3:2|0:0,0:0:0:0:
464,124,205291,6,0,L|292:132,1,150,2|2,3:2|3:2,0:0:0:0:
164,140,205933,1,2,0:0:0:0:
344,256,206148,2,0,L|360:72,1,150,6|2,0:1|3:2,0:0:0:0:
196,44,206791,1,2,0:0:0:0:
472,232,207005,6,0,L|336:304,2,150,2|4|0,3:2|3:0|3:0,0:0:0:0:
288,208,207862,1,6,0:1:0:0:
249,177,207969,1,0,0:0:0:0:
235,130,208076,1,0,0:0:0:0:
250,83,208183,1,4,3:0:0:0:
289,53,208291,2,0,L|404:40,1,100,0|0,0:0|3:0,0:0:0:0:
196,308,208719,6,0,P|100:260|96:192,2,150,6|4|0,3:1|3:0|3:0,0:0:0:0:
384,240,209576,1,2,3:2:0:0:
396,192,209683,1,8,0:1:0:0:
381,145,209790,1,8,0:1:0:0:
343,114,209897,1,0,3:0:0:0:
292,104,210005,2,0,L|176:104,1,100,12|6,0:1|3:0,0:0:0:0:
468,228,210433,6,0,L|472:104,1,100,6|10,3:2|0:1,0:0:0:0:
320,56,210862,2,0,L|420:56,1,100,10|8,0:0|0:1,0:0:0:0:
228,204,211291,2,0,L|96:200,1,100,2|2,0:0|3:2,0:0:0:0:
316,140,211719,2,0,L|436:140,1,100,8|8,0:0|0:1,0:0:0:0:
216,328,212148,6,0,L|204:212,1,100,6|0,3:1|3:0,0:0:0:0:
396,264,212576,2,0,L|268:256,1,100,10|8,3:2|0:1,0:0:0:0:
116,240,213005,1,4,3:0:0:0:
80,166,213219,1,10,0:1:0:0:
106,90,213433,1,10,0:1:0:0:
180,55,213647,1,6,3:0:0:0:
456,264,213862,6,0,L|464:156,1,100,6|10,3:2|0:1,0:0:0:0:
336,196,214291,2,0,L|220:196,1,100,10|2,0:0|0:0,0:0:0:0:
44,284,214719,2,0,L|152:284,1,100,2|2,0:0|3:2,0:0:0:0:
268,160,215148,2,0,L|160:160,1,100,8|0,0:0|3:0,0:0:0:0:
364,328,215576,6,0,P|448:240|396:160,1,200,6|10,3:1|3:2,0:0:0:0:
324,100,216219,1,8,0:1:0:0:
184,184,216433,2,0,L|296:184,1,100,4|10,3:0|0:1,0:0:0:0:
428,268,216862,2,0,L|304:268,1,100,6|0,0:1|3:0,0:0:0:0:
52,296,217291,5,6,3:2:0:0:
152,248,217505,2,0,P|204:188|108:96,1,200,4|0,3:0|3:0,0:0:0:0:
48,72,218148,2,0,L|260:72,1,200,2|8,0:0|0:0,0:0:0:0:
148,164,218791,1,8,0:1:0:0:
340,248,219005,6,0,P|356:164|256:104,1,200,6|8,3:1|0:0,0:0:0:0:
172,100,219648,1,8,0:1:0:0:
360,168,219862,2,0,P|416:232|432:352,1,200,10|10,0:1|0:0,0:0:0:0:
336,372,220505,1,10,0:1:0:0:
52,244,220719,6,0,P|40:160|160:96,1,200,6|10,3:2|0:0,0:0:0:0:
224,116,221362,1,10,0:1:0:0:
104,204,221576,2,0,L|64:244,2,50,6|0|2,0:1|0:0|3:2,0:0:0:0:
288,236,222005,2,0,L|332:144,1,100,10|0,0:0|3:0,0:0:0:0:
56,296,222433,6,0,L|48:188,1,100,2|0,3:2|3:0,0:0:0:0:
232,236,222862,2,0,L|236:132,1,100,6|8,0:1|0:1,0:0:0:0:
416,292,223291,2,0,L|424:176,1,100,6|2,0:1|3:2,0:0:0:0:
148,208,223719,2,0,L|57:165,1,100,10|6,3:2|3:0,0:0:0:0:
348,136,224148,6,0,L|460:132,2,100,6|10|10,3:2|0:1|0:0,0:0:0:0:
447,132,224791,1,8,0:1:0:0:
276,172,225005,2,0,L|172:176,1,100,2|2,0:2|3:2,0:0:0:0:
368,264,225433,2,0,L|476:264,1,100,10|8,0:0|0:3,0:0:0:0:
264,336,225862,5,6,3:1:0:0:
200,268,226076,1,0,3:0:0:0:
208,184,226290,1,10,3:2:0:0:
286,134,226504,1,8,0:1:0:0:
440,188,226719,2,0,P|440:100|436:72,1,100,4|8,3:0|3:1,0:0:0:0:
392,64,227041,1,0,3:0:0:0:
324,96,227148,2,0,L|436:88,1,100,10|6,0:1|3:0,0:0:0:0:
148,224,227576,6,0,L|136:116,1,100,6|4,3:2|3:0,0:0:0:0:
332,260,228005,2,0,L|344:148,1,100,10|10,0:0|0:3,0:0:0:0:
156,168,228433,2,0,L|48:160,1,100,2|4,0:2|3:0,0:0:0:0:
244,124,228862,2,0,L|260:244,1,100,10|8,0:0|0:3,0:0:0:0:
60,336,229291,6,0,P|36:248|148:180,1,200,6|6,3:1|0:1,0:0:0:0:
232,184,229933,2,0,L|296:192,2,50,8|8|6,0:1|0:0|0:1,0:0:0:0:
120,80,230362,1,0,3:0:0:0:
252,104,230576,1,10,3:2:0:0:
120,80,230791,1,10,0:0:0:0:
404,300,231005,6,0,P|444:180|376:136,1,200,6|8,3:2|0:0,0:0:0:0:
208,308,231648,2,0,P|168:188|236:144,1,200,0|0,0:0|0:0,0:0:0:0:
320,136,232291,2,0,L|432:136,1,100,8|0,0:0|3:0,0:0:0:0:
132,320,232719,6,0,P|68:260|116:132,1,200,6|8,3:1|0:0,0:0:0:0:
256,160,233362,1,8,0:1:0:0:
427,157,233576,2,0,P|447:251|380:320,1,200,6|8,0:1|0:0,0:0:0:0:
256,324,234219,1,10,0:1:0:0:
64,324,234433,5,6,3:2:0:0:
40,246,234648,1,6,3:0:0:0:
75,172,234862,1,10,0:0:0:0:
150,142,235076,1,10,0:1:0:0:
340,220,235291,2,0,L|444:220,1,100,10|10,3:2|3:1,0:0:0:0:
260,152,235719,2,0,L|160:152,1,100,10|8,0:1|0:0,0:0:0:0:
440,312,236148,6,0,P|476:240|404:128,1,200,2|8,3:2|0:0,0:0:0:0:
308,124,236791,1,10,0:1:0:0:
216,151,237005,1,6,0:1:0:0:
193,195,237112,1,2,0:0:0:0:
195,244,237219,1,2,3:2:0:0:
221,286,237326,1,2,0:0:0:0:
272,320,237433,2,0,L|392:320,1,100,10|10,3:2|0:0,0:0:0:0:
88,344,237862,6,0,P|48:252|136:184,1,200,6|0,3:2|3:0,0:0:0:0:
216,212,238505,2,0,L|448:204,1,200,14|0,0:1|0:0,0:0:0:0:
432,104,239148,1,8,0:1:0:0:
312,116,239362,1,2,3:2:0:0:
152,284,239576,6,0,P|104:224|176:120,1,200,6|0,3:1|3:0,0:0:0:0:
264,104,240219,1,8,0:1:0:0:
416,184,240433,2,0,L|204:196,1,200,2|10,3:2|0:1,0:0:0:0:
328,288,241076,1,10,0:1:0:0:
168,280,241291,6,0,P|104:188|172:120,1,200,6|0,3:1|3:0,0:0:0:0:
296,280,241933,2,0,P|360:188|292:120,1,200,6|10,0:1|0:1,0:0:0:0:
216,124,242576,2,0,L|116:116,1,100,10|8,0:0|0:0,0:0:0:0:
280,240,243005,6,0,L|400:236,3,100,6|8|8|10,3:1|0:0|0:0|0:1,0:0:0:0:
208,312,243862,1,6,0:0:0:0:
176,273,243969,1,0,0:0:0:0:
169,224,244076,1,8,0:1:0:0:
188,179,244183,1,8,0:0:0:0:
227,149,244291,2,0,L|336:144,1,100,8|6,0:0|3:0,0:0:0:0:
52,128,244719,5,6,3:2:0:0:
