osu file format v14

[General]
AudioFilename: audio.mp3
AudioLeadIn: 0
PreviewTime: 60576
Countdown: 0
SampleSet: Soft
StackLeniency: 0.6
Mode: 0
LetterboxInBreaks: 0
WidescreenStoryboard: 0

[Editor]
Bookmarks: 65348,79326,88530,131485
DistanceSpacing: 1.5
BeatDivisor: 4
GridSize: 4
TimelineZoom: 1

[Metadata]
Title:Bokura no Let-It-Be
TitleUnicode:ぼくらのレットイットビー
Artist:ITO KASHITARO
ArtistUnicode:ITO KASHITARO
Creator:Chibi Maruko
Version:Hard
Source:
Tags:itou kashitarou ぼくらのレットイットビー hatsune miku HOS HootOwlStar
BeatmapID:1123165
BeatmapSetID:529727

[Difficulty]
HPDrainRate:5
CircleSize:4
OverallDifficulty:7
ApproachRate:7.5
SliderMultiplier:1.8
SliderTickRate:1

[Events]
//Background and Video events
0,0,"bg.jpg",0,0
//Break Periods
//Storyboard Layer 0 (Background)
//Storyboard Layer 1 (Fail)
//Storyboard Layer 2 (Pass)
//Storyboard Layer 3 (Foreground)
//Storyboard Sound Samples

[TimingPoints]
1258,681.818181818182,4,2,1,60,1,0
12167,-100,4,2,1,70,0,0
23076,-100,4,2,1,60,0,0
60576,-100,4,2,1,5,0,0
61258,-83.3333333333333,4,2,1,70,0,1
83076,-100,4,2,1,70,0,0
93985,-100,4,2,1,60,0,0
114439,-90.9090909090909,4,2,1,65,0,0
114951,-100,4,2,1,60,0,0
115121,-90.9090909090909,4,2,1,65,0,0
115803,-100,4,2,1,60,0,0
132167,-83.3333333333333,4,2,1,70,0,1
153985,-100,4,2,1,70,0,0
175803,681.818181818182,3,2,1,60,1,0
175803,-100,4,2,1,60,0,0
192166,-83.3333333333333,4,2,1,70,0,1
206484,681.818181818182,4,2,1,70,1,1
206484,-83.3333333333333,5,2,1,70,0,1
207847,-83.3333333333333,5,2,1,60,0,0
209211,-100,5,2,1,60,0,0
220120,-83.3333333333333,5,2,1,70,0,1
231029,-100,5,2,1,60,0,0
236484,-83.3333333333333,5,2,1,70,0,1
252847,-83.3333333333333,5,2,1,60,0,0
267165,-83.3333333333333,5,2,1,50,0,0
267336,-83.3333333333333,5,2,1,40,0,0
267506,-83.3333333333333,5,2,1,30,0,0
267677,-83.3333333333333,5,2,1,20,0,0
269211,-83.3333333333333,5,2,1,10,0,0

[Colours]
Combo1 : 255,255,128
Combo2 : 255,255,255
Combo3 : 192,192,192
Combo4 : 0,128,192
Combo5 : 0,128,0
Combo6 : 255,0,128

[HitObjects]
184,88,1258,6,0,L|80:80,2,90,4|0|0,0:0|0:0|0:0,0:0:0:0:
120,196,2280,1,0,0:0:0:0:
244,176,2621,2,0,L|348:168,2,90,2|0|0,0:0|0:0|0:0,0:0:0:0:
196,292,3644,1,0,0:0:0:0:
316,252,3985,6,0,P|400:296|464:248,1,180,2|0,0:0|0:0,0:0:0:0:
480,120,5008,1,0,0:0:0:0:
480,120,5348,2,0,P|436:92|392:88,1,90,2|0,0:0|0:0,0:0:0:0:
292,4,6030,1,0,0:0:0:0:
292,4,6371,2,0,L|288:56,1,45
220,56,6712,6,0,L|212:152,1,90,2|0,0:0|0:0,0:0:0:0:
148,264,7394,1,0,0:0:0:0:
284,196,7735,1,0,0:0:0:0:
332,284,8076,2,0,L|232:280,1,90,2|0,0:0|0:0,0:0:0:0:
184,168,8758,2,0,L|284:164,1,90
332,44,9439,6,0,L|242:40,1,90,2|0,0:0|0:0,0:0:0:0:
264,152,10121,1,0,0:0:0:0:
264,152,10462,1,0,0:0:0:0:
164,200,10803,2,0,P|88:192|56:164,2,90,2|0|0,0:0|0:0|0:0,0:0:0:0:
248,96,11826,1,0,0:0:0:0:
164,200,12167,6,0,B|256:172|244:232|348:196,1,180,6|8,0:0|0:0,0:0:0:0:
248,96,13189,1,0,0:0:0:0:
372,40,13530,1,2,0:0:0:0:
372,40,13701,1,0,0:0:0:0:
372,40,13871,1,0,0:0:0:0:
492,100,14212,1,8,0:0:0:0:
492,100,14553,1,0,0:0:0:0:
384,144,14894,6,0,P|368:196|384:248,1,90,2|0,0:0|0:0,0:0:0:0:
276,200,15576,2,0,P|281:244|266:285,1,90,8|0,0:0|0:0,0:0:0:0:
184,188,16258,2,0,P|178:143|192:104,2,45,2|0|0,0:0|0:0|0:0,0:0:0:0:
72,244,16939,1,8,0:0:0:0:
72,244,17280,2,0,L|52:188,1,45
116,180,17621,6,0,P|168:196|232:184,1,90,2|0,0:0|0:0,0:0:0:0:
296,260,18303,1,8,0:0:0:0:
412,216,18644,1,0,0:0:0:0:
296,260,18985,2,0,L|304:172,1,45,2|0,0:0|0:0,0:0:0:0:
308,148,19326,1,0,0:0:0:0:
200,96,19667,2,0,L|208:196,1,90,8|0,0:0|0:0,0:0:0:0:
232,320,20348,6,0,L|132:328,2,90,2|0|8,0:0|0:0|0:0,0:0:0:0:
340,280,21371,1,0,0:0:0:0:
404,204,21712,2,0,B|388:160|388:160|384:104,1,90,2|0,0:0|0:0,0:0:0:0:
284,40,22394,2,0,B|280:83|280:83|264:127,1,90,8|0,0:0|0:0,0:0:0:0:
200,152,22905,1,0,0:0:0:0:
200,152,23076,6,0,B|152:168|104:156|104:156|120:200|100:248,1,180,6|8,0:0|0:0,0:0:0:0:
188,344,24098,1,0,0:0:0:0:
228,216,24439,1,2,0:0:0:0:
228,216,24610,1,0,0:0:0:0:
228,216,24780,1,0,0:0:0:0:
320,296,25121,2,0,L|416:300,1,90,8|0,0:0|0:0,0:0:0:0:
452,244,25633,1,0,0:0:0:0:
452,244,25803,6,0,P|440:188|444:140,2,90,2|0|8,0:0|0:0|0:0,0:0:0:0:
332,192,26826,1,0,0:0:0:0:
412,84,27167,1,2,0:0:0:0:
408,76,27337,1,0,0:0:0:0:
404,68,27508,1,0,0:0:0:0:
276,48,27848,2,0,P|240:88|228:128,1,90,8|0,0:0|0:0,0:0:0:0:
96,92,28530,6,0,P|104:148|128:184,1,90,2|0,0:0|0:0,0:0:0:0:
136,312,29212,1,8,0:0:0:0:
24,244,29553,1,0,0:0:0:0:
24,244,29894,2,0,P|88:276|140:272,1,90,2|0,0:0|0:0,0:0:0:0:
240,256,30576,2,0,P|283:264|321:289,1,90,8|0,0:0|0:0,0:0:0:0:
444,344,31258,6,0,L|448:224,2,90,2|0|8,0:0|0:0|0:0,0:0:0:0:
368,232,32280,1,0,0:0:0:0:
496,276,32621,2,0,L|500:220,2,45,2|0|0,0:0|0:0|0:0,0:0:0:0:
440,140,33303,2,0,L|336:144,1,90,8|0,0:0|0:0,0:0:0:0:
304,92,33814,1,0,0:0:0:0:
304,92,33985,6,0,L|200:96,1,90,4|0,0:0|0:0,0:0:0:0:
104,172,34667,2,0,L|107:261,1,90,8|0,0:0|0:0,0:0:0:0:
236,224,35348,2,0,L|232:136,2,45,2|0|0,0:0|0:0|0:0,0:0:0:0:
220,360,36030,1,8,0:0:0:0:
344,308,36371,2,0,L|356:252,1,45
416,244,36712,6,0,P|404:192|416:148,1,90,2|0,0:0|0:0,0:0:0:0:
308,68,37394,2,0,P|320:120|308:164,1,90,8|0,0:0|0:0,0:0:0:0:
196,68,38076,2,0,P|184:120|192:152,2,45,2|0|0,0:0|0:0|0:0,0:0:0:0:
84,128,38758,1,8,0:0:0:0:
84,128,39098,2,0,P|96:180|88:212,1,45,2|0,0:0|0:0,0:0:0:0:
140,220,39439,6,0,L|244:224,1,90
144,120,40121,2,0,L|204:124,1,45,8|0,0:0|0:0,0:0:0:0:
224,64,40462,1,0,0:0:0:0:
336,140,40803,2,0,P|328:192|340:236,1,90,2|0,0:0|0:0,0:0:0:0:
460,288,41485,2,0,P|468:236|456:192,1,90,8|0,0:0|0:0,0:0:0:0:
448,72,42167,6,0,L|336:60,2,90,2|0|8,0:0|0:0|0:0,0:0:0:0:
364,176,43189,1,0,0:0:0:0:
236,136,43530,2,0,L|146:145,1,90,2|0,0:0|0:0,0:0:0:0:
28,212,44212,2,0,L|40:268,1,45,8|0,0:0|0:0,0:0:0:0:
52,324,44553,1,8,0:0:0:0:
188,280,44894,6,0,B|280:244|280:320|388:272,1,180,4|8,0:0|0:0,0:0:0:0:
488,232,45917,1,0,0:0:0:0:
408,124,46258,2,0,P|384:168|388:200,2,45,2|0|0,0:0|0:0|0:0,0:0:0:0:
296,108,46939,2,0,P|320:64|316:20,1,90,8|0,0:0|0:0,0:0:0:0:
196,88,47621,6,0,P|172:132|176:176,1,90,2|0,0:0|0:0,0:0:0:0:
152,296,48303,1,8,0:0:0:0:
64,184,48644,1,0,0:0:0:0:
152,296,48985,2,0,L|240:292,1,45,2|0,0:0|0:0,0:0:0:0:
264,304,49326,1,0,0:0:0:0:
352,212,49667,2,0,L|256:208,1,90,8|0,0:0|0:0,0:0:0:0:
352,108,50348,6,0,L|448:104,1,90,2|0,0:0|0:0,0:0:0:0:
396,232,51030,1,8,0:0:0:0:
268,188,51371,1,0,0:0:0:0:
192,300,51712,2,0,P|132:288|112:296,2,45,2|0|0,0:0|0:0|0:0,0:0:0:0:
132,180,52394,1,8,0:0:0:0:
132,180,52735,1,0,0:0:0:0:
180,280,53076,5,2,0:0:0:0:
180,280,53246,1,0,0:0:0:0:
180,280,53417,2,0,P|232:304|276:296,1,90,0|8,0:0|0:0,0:0:0:0:
380,236,54098,2,0,P|328:212|284:220,1,90,0|2,0:0|0:0,0:0:0:0:
184,140,54780,2,0,L|180:184,2,45,0|0|8,0:0|0:0|0:0,0:0:0:0:
180,4,55462,1,0,0:0:0:0:
304,56,55803,6,0,L|416:60,2,90,0|0|2,0:0|0:0|0:0,0:0:0:0:
388,164,56826,1,0,0:0:0:0:
304,252,57167,2,0,P|296:192|304:152,1,90,2|0,0:0|0:0,0:0:0:0:
476,164,57848,1,2,0:0:0:0:
396,344,58189,2,0,P|400:299|392:255,1,90,0|2,0:0|0:0,0:0:0:0:
256,192,58701,12,0,60576,0:0:0:0:
332,112,61258,6,0,L|260:116,2,53.9999983520508,6|0|0,0:0|0:0|0:0,0:0:0:0:
412,88,61769,1,0,0:0:0:0:
480,136,61939,2,0,P|488:204|460:264,1,107.999996704102,8|0,0:0|0:0,0:0:0:0:
344,332,62621,1,2,0:0:0:0:
248,204,62962,1,0,0:0:0:0:
372,308,63303,2,0,L|352:200,1,107.999996704102,8|0,0:0|0:0,0:0:0:0:
300,140,63814,1,0,0:0:0:0:
248,204,63985,6,0,L|164:212,2,53.9999983520508,2|0|0,0:0|0:0|0:0,0:0:0:0:
212,132,64496,1,0,0:0:0:0:
212,132,64667,2,0,P|184:80|180:20,1,107.999996704102,8|0,0:0|0:0,0:0:0:0:
300,132,65348,2,0,P|328:80|332:20,2,107.999996704102,2|0|8,0:0|0:0|0:0,0:0:0:0:
192,252,66371,1,0,0:0:0:0:
36,204,66712,6,0,L|144:192,1,107.999996704102,2|0,0:0|0:0,0:0:0:0:
180,32,67394,2,0,L|288:44,1,107.999996704102,8|0,0:0|0:0,0:0:0:0:
336,108,67905,1,0,0:0:0:0:
336,108,68076,2,0,P|356:164|352:208,1,53.9999983520508,2|0,0:0|0:0,0:0:0:0:
319,236,68417,1,0,0:0:0:0:
508,192,68758,2,0,P|488:248|496:308,1,107.999996704102,8|0,0:0|0:0,0:0:0:0:
412,280,69269,1,0,0:0:0:0:
412,280,69439,6,0,P|372:244|320:236,1,107.999996704102,2|0,0:0|0:0,0:0:0:0:
264,296,69951,1,0,0:0:0:0:
264,296,70121,2,0,L|184:296,1,53.9999983520508,8|0,0:0|0:0,0:0:0:0:
152,352,70462,1,0,0:0:0:0:
64,216,70803,2,0,L|64:156,1,53.9999983520508,2|0,0:0|0:0,0:0:0:0:
40,84,71144,1,0,0:0:0:0:
204,52,71485,2,0,L|204:160,1,107.999996704102,8|0,0:0|0:0,0:0:0:0:
360,160,72167,6,0,L|360:104,1,53.9999983520508,4|0,0:0|0:0,0:0:0:0:
284,76,72508,2,0,L|284:136,1,53.9999983520508
288,212,72848,1,8,0:0:0:0:
288,212,73019,1,0,0:0:0:0:
348,268,73189,1,0,0:0:0:0:
496,336,73530,2,0,L|488:228,1,107.999996704102,2|0,0:0|0:0,0:0:0:0:
300,252,74212,2,0,L|296:188,1,53.9999983520508,8|0,0:0|0:0,0:0:0:0:
292,116,74553,1,0,0:0:0:0:
160,200,74894,6,0,L|156:253,1,53.9999983520508,2|0,0:0|0:0,0:0:0:0:
76,252,75235,2,0,L|79:305,1,53.9999983520508
156,332,75576,2,0,P|232:320|292:336,1,107.999996704102,8|0,0:0|0:0,0:0:0:0:
320,268,76087,1,0,0:0:0:0:
260,216,76258,2,0,P|248:140|264:80,2,107.999996704102,2|0|8,0:0|0:0|0:0,0:0:0:0:
340,76,77280,1,0,0:0:0:0:
184,28,77621,6,0,L|168:144,1,107.999996704102,2|0,0:0|0:0,0:0:0:0:
252,140,78133,1,0,0:0:0:0:
300,208,78303,2,0,P|336:148|328:84,1,107.999996704102,8|0,0:0|0:0,0:0:0:0:
376,40,78814,1,0,0:0:0:0:
416,112,78985,2,0,P|421:165|452:208,1,107.999996704102,2|0,0:0|0:0,0:0:0:0:
340,316,79667,2,0,L|196:324,1,107.999996704102,8|0,0:0|0:0,0:0:0:0:
292,172,80348,6,0,L|228:176,1,53.9999983520508,2|0,0:0|0:0,0:0:0:0:
224,256,80689,2,0,L|160:260,1,53.9999983520508
124,192,81030,2,0,P|72:216|8:196,1,107.999996704102,8|0,0:0|0:0,0:0:0:0:
64,136,81542,1,0,0:0:0:0:
140,108,81712,2,0,P|192:84|256:104,1,107.999996704102,2|0,0:0|0:0,0:0:0:0:
312,132,82223,1,0,0:0:0:0:
243,178,82394,2,0,L|247:231,1,53.9999983520508,8|0,0:0|0:0,0:0:0:0:
312,132,82735,2,0,L|316:78,1,53.9999983520508,8|0,0:0|0:0,0:0:0:0:
424,84,83076,6,0,B|440:148|440:148|424:196|424:196|440:260,1,180,6|8,0:0|0:0,0:0:0:0:
312,220,84098,1,0,0:0:0:0:
208,304,84439,2,0,P|196:248|200:224,1,45,2|0,0:0|0:0,0:0:0:0:
208,192,84780,1,0,0:0:0:0:
100,112,85121,1,8,0:0:0:0:
112,208,85462,1,0,0:0:0:0:
4,124,85803,6,0,L|8:224,1,90,2|0,0:0|0:0,0:0:0:0:
108,118,86485,2,0,L|112:218,1,90,8|0,0:0|0:0,0:0:0:0:
172,236,86996,1,0,0:0:0:0:
172,236,87167,2,0,P|220:220|252:224,1,45,2|0,0:0|0:0,0:0:0:0:
280,236,87508,1,0,0:0:0:0:
224,112,87848,1,8,0:0:0:0:
352,64,88189,1,0,0:0:0:0:
380,196,88530,6,0,P|388:248|356:300,1,90,2|0,0:0|0:0,0:0:0:0:
476,192,89212,2,0,P|468:140|500:88,1,90,8|0,0:0|0:0,0:0:0:0:
392,167,89894,2,0,L|396:212,2,45,2|0|0,0:0|0:0|0:0,0:0:0:0:
316,56,90576,2,0,L|320:160,1,90,8|0,0:0|0:0,0:0:0:0:
276,200,91087,1,0,0:0:0:0:
236,256,91258,6,0,L|240:360,1,90,2|0,0:0|0:0,0:0:0:0:
140,256,91939,2,0,L|136:152,1,90,8|0,0:0|0:0,0:0:0:0:
216,56,92621,1,2,0:0:0:0:
348,84,92962,1,0,0:0:0:0:
224,140,93303,2,0,L|232:208,1,45,8|0,0:0|0:0,0:0:0:0:
284,224,93644,1,0,0:0:0:0:
377,117,93985,6,0,P|295:90|224:140,1,180,6|8,0:0|0:0,0:0:0:0:
120,52,95008,1,0,0:0:0:0:
96,184,95348,1,2,0:0:0:0:
96,184,95689,1,0,0:0:0:0:
216,244,96030,2,0,P|164:256|100:248,1,90,8|0,0:0|0:0,0:0:0:0:
248,320,96712,6,0,P|300:308|364:316,1,90,2|0,0:0|0:0,0:0:0:0:
376,256,97223,1,0,0:0:0:0:
376,256,97394,2,0,P|364:204|372:140,1,90,8|0,0:0|0:0,0:0:0:0:
236,208,98076,2,0,L|172:200,2,45,2|0|0,0:0|0:0|0:0,0:0:0:0:
220,72,98758,1,8,0:0:0:0:
348,20,99098,1,0,0:0:0:0:
204,44,99439,6,0,L|108:48,1,90,4|0,0:0|0:0,0:0:0:0:
16,140,100121,2,0,L|20:236,1,90,8|0,0:0|0:0,0:0:0:0:
128,152,100803,2,0,B|176:148|176:148|240:164,1,90,2|0,0:0|0:0,0:0:0:0:
296,228,101485,2,0,B|336:238|336:238|384:234,1,90,8|0,0:0|0:0,0:0:0:0:
424,180,101996,1,0,0:0:0:0:
388,124,102167,6,0,P|376:64|388:28,2,90,2|0|8,0:0|0:0|0:0,0:0:0:0:
268,64,103189,1,0,0:0:0:0:
176,164,103530,2,0,L|184:272,1,90,2|0,0:0|0:0,0:0:0:0:
84,160,104212,1,8,0:0:0:0:
188,76,104553,1,0,0:0:0:0:
128,236,104894,6,0,P|216:272|280:224,1,180,4|8,0:0|0:0,0:0:0:0:
372,324,105917,1,0,0:0:0:0:
432,204,106258,2,0,P|360:220|336:240,2,90,2|0|8,0:0|0:0|0:0,0:0:0:0:
444,68,107280,1,0,0:0:0:0:
312,104,107621,5,2,0:0:0:0:
412,196,107962,1,0,0:0:0:0:
284,96,108303,1,8,0:0:0:0:
412,52,108644,1,0,0:0:0:0:
336,164,108985,2,0,P|312:220|320:264,1,90,2|0,0:0|0:0,0:0:0:0:
288,312,109496,1,0,0:0:0:0:
232,272,109667,2,0,P|187:271|148:250,1,90,8|0,0:0|0:0,0:0:0:0:
64,144,110348,6,0,L|40:244,2,90,2|0|8,0:0|0:0|0:0,0:0:0:0:
132,132,111201,1,0,0:0:0:0:
132,132,111371,2,0,P|168:140|200:136,1,45
236,112,111712,2,0,P|296:104|360:112,1,90,2|0,0:0|0:0,0:0:0:0:
432,188,112394,2,0,P|372:196|308:188,1,90,8|0,0:0|0:0,0:0:0:0:
296,244,112905,1,0,0:0:0:0:
240,284,113076,6,0,P|239:328|246:373,1,90,2|0,0:0|0:0,0:0:0:0:
136,292,113758,2,0,P|136:247|129:202,1,90,8|0,0:0|0:0,0:0:0:0:
112,136,114269,1,0,0:0:0:0:
164,84,114439,6,0,B|216:88|216:88|268:84,1,99.0000030212403,4|0,0:0|0:0,0:0:0:0:
448,168,115121,2,0,B|396:164|396:164|349:167,1,99.0000030212403,4|0,0:0|0:0,0:0:0:0:
312,340,115803,6,0,L|312:240,1,90,4|0,0:0|0:0,0:0:0:0:
196,256,116485,2,0,P|144:264|84:252,1,90,8|0,0:0|0:0,0:0:0:0:
68,204,116996,1,0,0:0:0:0:
100,144,117167,2,0,P|152:136|212:148,1,90,2|0,0:0|0:0,0:0:0:0:
244,100,117678,1,0,0:0:0:0:
244,100,117848,2,0,L|308:96,2,45,8|0|0,0:0|0:0|0:0,0:0:0:0:
368,48,118530,6,0,P|388:108|372:160,1,90,2|0,0:0|0:0,0:0:0:0:
332,176,119042,1,0,0:0:0:0:
288,228,119212,2,0,P|286:272|304:313,1,90,8|0,0:0|0:0,0:0:0:0:
176,264,119894,2,0,P|177:219|159:178,2,90,2|0|8,0:0|0:0|0:0,0:0:0:0:
64,192,120917,1,0,0:0:0:0:
60,184,121087,1,0,0:0:0:0:
56,176,121258,6,0,B|108:180|108:180|164:144,1,90,2|0,0:0|0:0,0:0:0:0:
240,72,121939,2,0,B|260:103|260:103|256:155,1,90,8|0,0:0|0:0,0:0:0:0:
308,200,122451,1,0,0:0:0:0:
308,200,122621,2,0,P|364:192|412:208,1,90,2|0,0:0|0:0,0:0:0:0:
472,312,123303,2,0,P|416:320|368:304,1,90,8|0,0:0|0:0,0:0:0:0:
324,344,123814,1,0,0:0:0:0:
324,348,123985,6,0,P|296:340|264:348,1,45,2|0,0:0|0:0,0:0:0:0:
232,296,124326,2,0,P|248:248|232:200,1,90,0|8,0:0|0:0,0:0:0:0:
112,256,125008,1,0,0:0:0:0:
36,144,125348,2,0,L|140:160,1,90,2|0,0:0|0:0,0:0:0:0:
184,128,125860,1,0,0:0:0:0:
184,128,126030,2,0,L|208:168,1,45,8|0,0:0|0:0,0:0:0:0:
224,232,126371,1,0,0:0:0:0:
228,240,126542,1,0,0:0:0:0:
232,248,126712,6,0,P|272:280|336:268,2,90,2|0|2,0:0|0:0|0:0,0:0:0:0:
364,220,127735,1,0,0:0:0:0:
444,112,128076,2,0,L|464:208,1,90,2|0,0:0|0:0,0:0:0:0:
348,128,128758,2,0,L|328:32,1,90,2|0,0:0|0:0,0:0:0:0:
208,100,129439,6,0,P|220:156|160:112,1,180,2|2,0:0|0:0,0:0:0:0:
52,196,130462,2,0,L|56:272,1,45
108,284,130803,2,0,P|156:272|208:280,1,90,2|0,0:0|0:0,0:0:0:0:
324,320,131485,2,0,L|328:256,1,45,2|0,0:0|0:0,0:0:0:0:
388,248,131826,1,2,0:0:0:0:
420,96,132167,6,0,P|432:128|436:176,1,53.9999983520508,6|0,0:0|0:0,0:0:0:0:
356,164,132508,2,0,P|344:132|340:84,1,53.9999983520508
268,72,132848,2,0,B|212:84|212:84|156:128,1,107.999996704102,8|0,0:0|0:0,0:0:0:0:
212,188,133360,1,0,0:0:0:0:
152,240,133530,2,0,L|144:308,1,53.9999983520508,2|0,0:0|0:0,0:0:0:0:
196,360,133871,1,0,0:0:0:0:
124,216,134212,2,0,L|70:209,1,53.9999983520508,8|0,0:0|0:0,0:0:0:0:
36,136,134553,1,0,0:0:0:0:
36,136,134723,1,0,0:0:0:0:
92,80,134894,6,0,L|145:86,1,53.9999983520508,2|0,0:0|0:0,0:0:0:0:
216,48,135235,2,0,L|269:54,1,53.9999983520508
320,120,135576,2,0,P|300:192|320:248,1,107.999996704102,8|0,0:0|0:0,0:0:0:0:
376,184,136087,1,0,0:0:0:0:
376,184,136258,2,0,L|429:180,1,53.9999983520508,2|0,0:0|0:0,0:0:0:0:
468,252,136598,2,0,L|414:255,1,53.9999983520508
444,332,136939,2,0,L|324:340,1,107.999996704102,8|0,0:0|0:0,0:0:0:0:
224,188,137621,6,0,L|224:244,2,53.9999983520508,2|0|0,0:0|0:0|0:0,0:0:0:0:
152,148,138133,1,0,0:0:0:0:
152,148,138303,2,0,P|124:156|96:148,1,53.9999983520508,8|0,0:0|0:0,0:0:0:0:
44,92,138644,1,0,0:0:0:0:
100,32,138814,2,0,P|128:24|156:32,1,53.9999983520508,0|2,0:0|0:0,0:0:0:0:
308,76,139326,2,0,L|244:92,1,53.9999983520508
272,168,139667,2,0,L|400:136,1,107.999996704102,8|0,0:0|0:0,0:0:0:0:
444,184,140178,1,0,0:0:0:0:
400,252,140348,6,0,L|272:284,1,107.999996704102,2|0,0:0|0:0,0:0:0:0:
232,228,140860,1,0,0:0:0:0:
156,204,141030,2,0,L|148:144,1,53.9999983520508,8|0,0:0|0:0,0:0:0:0:
68,144,141371,2,0,L|76:84,1,53.9999983520508
148,52,141712,2,0,P|208:72|264:56,1,107.999996704102,2|0,0:0|0:0,0:0:0:0:
360,184,142394,2,0,L|368:248,1,53.9999983520508,8|0,0:0|0:0,0:0:0:0:
320,304,142735,1,8,0:0:0:0:
320,304,142905,1,0,0:0:0:0:
244,288,143076,6,0,B|240:232|240:232|192:272,1,107.999996704102,4|0,0:0|0:0,0:0:0:0:
128,228,143587,1,0,0:0:0:0:
128,228,143758,2,0,L|68:232,1,53.9999983520508,8|0,0:0|0:0,0:0:0:0:
68,152,144098,2,0,L|128:148,1,53.9999983520508
204,144,144439,2,0,P|208:88|276:64,1,107.999996704102,2|0,0:0|0:0,0:0:0:0:
404,56,145121,2,0,L|412:112,1,53.9999983520508,8|0,0:0|0:0,0:0:0:0:
492,128,145462,2,0,L|484:184,1,53.9999983520508
416,224,145803,6,0,P|380:232|340:224,1,53.9999983520508,2|0,0:0|0:0,0:0:0:0:
336,308,146144,2,0,P|309:307|283:314,1,53.9999983520508
208,344,146485,1,8,0:0:0:0:
188,197,146826,1,0,0:0:0:0:
188,197,147167,2,0,B|152:240|152:240|96:260,1,107.999996704102,2|0,0:0|0:0,0:0:0:0:
36,124,147848,1,8,0:0:0:0:
36,124,148189,2,0,L|100:108,1,53.9999983520508
140,48,148530,6,0,L|268:16,1,107.999996704102,2|0,0:0|0:0,0:0:0:0:
316,60,149042,1,0,0:0:0:0:
272,128,149212,2,0,L|144:160,1,107.999996704102,8|0,0:0|0:0,0:0:0:0:
128,224,149723,1,0,0:0:0:0:
128,224,149894,2,0,P|124:252|128:280,1,53.9999983520508,2|0,0:0|0:0,0:0:0:0:
208,276,150235,2,0,P|212:248|208:220,1,53.9999983520508
280,188,150576,2,0,B|316:208|316:208|432:188,1,107.999996704102,8|0,0:0|0:0,0:0:0:0:
432,132,151087,1,0,0:0:0:0:
384,68,151258,6,0,B|318:56|318:56|282:76,1,107.999996704102,2|0,0:0|0:0,0:0:0:0:
204,56,151769,1,0,0:0:0:0:
176,132,151939,2,0,L|168:192,1,53.9999983520508,8|0,0:0|0:0,0:0:0:0:
88,180,152280,2,0,L|96:240,1,53.9999983520508
156,288,152621,2,0,P|216:272|264:276,1,107.999996704102,2|0,0:0|0:0,0:0:0:0:
328,228,153133,1,0,0:0:0:0:
380,168,153303,2,0,L|376:108,1,53.9999983520508,8|0,0:0|0:0,0:0:0:0:
428,52,153644,1,8,0:0:0:0:
348,36,153814,1,0,0:0:0:0:
264,96,153985,6,0,P|216:116|156:112,1,90,6|0,0:0|0:0,0:0:0:0:
44,136,154667,2,0,P|48:160|44:188,2,45,8|0|0,0:0|0:0|0:0,0:0:0:0:
140,236,155348,2,0,P|138:258|142:280,2,45,2|0|0,0:0|0:0|0:0,0:0:0:0:
192,192,155860,1,0,0:0:0:0:
192,192,156030,2,0,P|244:212|308:200,1,90,8|0,0:0|0:0,0:0:0:0:
360,104,156712,6,0,P|404:104|445:122,1,90,2|0,0:0|0:0,0:0:0:0:
492,248,157394,2,0,L|444:248,1,45,8|0,0:0|0:0,0:0:0:0:
388,280,157735,2,0,L|328:280,1,45
284,248,158076,2,0,P|276:224|280:196,2,45,2|0|0,0:0|0:0|0:0,0:0:0:0:
192,148,158758,1,8,0:0:0:0:
188,156,158928,1,0,0:0:0:0:
184,164,159098,2,0,L|176:236,1,45
228,256,159439,6,0,L|300:244,1,45,2|0,0:0|0:0,0:0:0:0:
312,192,159780,1,0,0:0:0:0:
348,60,160121,1,8,0:0:0:0:
348,60,160292,2,0,L|400:64,1,45
420,128,160633,1,0,0:0:0:0:
420,128,160804,2,0,L|416:180,1,45,2|0,0:0|0:0,0:0:0:0:
364,216,161144,1,0,0:0:0:0:
512,212,161485,2,0,P|480:268|476:312,1,90,8|0,0:0|0:0,0:0:0:0:
408,276,161996,1,0,0:0:0:0:
408,276,162167,6,0,L|336:268,1,45,2|0,0:0|0:0,0:0:0:0:
324,216,162508,2,0,L|320:184,4,22.5,0|0|0|0|8,0:0|0:0|0:0|0:0|0:0,0:0:0:0:
272,260,163019,1,0,0:0:0:0:
272,260,163189,2,0,L|196:268,1,45
172,224,163530,2,0,P|184:168|168:128,2,90,2|0|8,0:0|0:0|0:0,0:0:0:0:
52,160,164553,1,0,0:0:0:0:
52,160,164723,1,0,0:0:0:0:
120,100,164894,6,0,L|188:96,1,45,4|0,0:0|0:0,0:0:0:0:
212,144,165235,2,0,L|280:140,1,45
308,184,165576,2,0,P|304:212|308:240,2,45,8|0|0,0:0|0:0|0:0,0:0:0:0:
356,136,166087,1,0,0:0:0:0:
312,84,166258,2,0,P|316:56|312:28,2,45,2|0|0,0:0|0:0|0:0,0:0:0:0:
356,136,166769,1,0,0:0:0:0:
424,128,166939,2,0,L|432:180,1,45,8|0,0:0|0:0,0:0:0:0:
496,184,167280,2,0,L|488:236,1,45
432,268,167621,5,2,0:0:0:0:
432,268,167792,2,0,L|380:264,1,45
336,220,168133,2,0,L|284:216,1,45,0|8,0:0|0:0,0:0:0:0:
252,160,168473,1,0,0:0:0:0:
212,104,168644,2,0,L|216:52,1,45
148,44,168985,2,0,P|100:52|56:40,1,90,2|0,0:0|0:0,0:0:0:0:
24,100,169496,1,0,0:0:0:0:
24,100,169667,1,8,0:0:0:0:
76,224,170008,1,0,0:0:0:0:
172,128,170348,6,0,P|228:144|284:132,2,90,2|0|8,0:0|0:0|0:0,0:0:0:0:
164,60,171201,1,0,0:0:0:0:
224,28,171371,2,0,L|296:20,1,45
332,40,171712,2,0,L|436:28,1,90,2|0,0:0|0:0,0:0:0:0:
476,72,172223,1,0,0:0:0:0:
432,124,172394,2,0,L|444:228,1,90,8|0,0:0|0:0,0:0:0:0:
308,188,173076,6,0,P|304:160|312:128,2,45,2|0|0,0:0|0:0|0:0,0:0:0:0:
268,240,173587,2,0,P|272:268|264:300,2,45,2|8|0,0:0|0:0|0:0,0:0:0:0:
204,216,174098,1,0,0:0:0:0:
144,244,174269,1,0,0:0:0:0:
152,176,174439,2,0,L|144:112,1,45,2|0,0:0|0:0,0:0:0:0:
100,80,174780,1,0,0:0:0:0:
272,20,175121,6,0,L|272:100,1,45,8|0,0:0|0:0,0:0:0:0:
224,140,175462,1,8,0:0:0:0:
224,140,175633,1,0,0:0:0:0:
292,208,175803,6,0,P|360:196|412:208,2,90,4|0|0,0:0|0:0|0:0,0:0:0:0:
152,192,176826,1,0,0:0:0:0:
188,324,177167,2,0,P|120:336|68:324,1,90,2|0,0:0|0:0,0:0:0:0:
48,208,177848,6,0,L|36:96,2,90,2|0|0,0:0|0:0|0:0,0:0:0:0:
172,152,178871,1,0,0:0:0:0:
172,152,179212,2,0,P|220:164|272:152,1,90,2|0,0:0|0:0,0:0:0:0:
328,40,179893,6,0,P|372:33|415:45,2,90,2|0|0,0:0|0:0|0:0,0:0:0:0:
424,136,180916,1,0,0:0:0:0:
424,136,181257,2,0,P|412:179|418:223,1,90,2|0,0:0|0:0,0:0:0:0:
316,136,181939,6,0,P|322:180|264:304,1,180,2|2,0:0|0:0,0:0:0:0:
164,192,182962,1,0,0:0:0:0:
164,192,183303,2,0,L|72:184,1,90,2|0,0:0|0:0,0:0:0:0:
188,108,183984,6,0,L|280:116,2,90,2|0|0,0:0|0:0|0:0,0:0:0:0:
288,16,185007,1,0,0:0:0:0:
416,60,185348,2,0,B|400:88|400:88|392:152,1,90,2|0,0:0|0:0,0:0:0:0:
428,204,185859,1,0,0:0:0:0:
480,248,186030,6,0,B|472:305|472:305|456:333,2,90,2|0|0,0:0|0:0|0:0,0:0:0:0:
352,292,187053,1,0,0:0:0:0:
224,252,187393,2,0,L|228:344,1,90,2|0,0:0|0:0,0:0:0:0:
160,348,187905,1,0,0:0:0:0:
92,352,188075,6,0,L|88:260,1,90,2|0,0:0|0:0,0:0:0:0:
156,144,188757,2,0,P|204:160|268:156,2,90,0|0|2,0:0|0:0|0:0,0:0:0:0:
176,12,189780,1,0,0:0:0:0:
156,144,190121,6,0,B|244:108|244:168|332:144,1,180,2|2,0:0|0:0,0:0:0:0:
444,68,191143,1,0,0:0:0:0:
444,68,191484,2,0,P|456:120|440:172,1,90,2|0,0:0|0:0,0:0:0:0:
364,292,192166,6,0,L|368:232,1,53.9999983520508,6|0,0:0|0:0,0:0:0:0:
288,220,192507,2,0,L|284:160,1,53.9999983520508
208,136,192848,2,0,P|148:152|100:136,1,107.999996704102,8|0,0:0|0:0,0:0:0:0:
152,72,193359,1,0,0:0:0:0:
105,139,193530,2,0,L|97:195,1,53.9999983520508,0|2,0:0|0:0,0:0:0:0:
148,256,193871,1,2,0:0:0:0:
148,256,194041,1,0,0:0:0:0:
224,228,194212,6,0,P|284:212|332:228,1,107.999996704102,8|0,0:0|0:0,0:0:0:0:
276,288,194723,1,0,0:0:0:0:
326,224,194893,2,0,L|330:164,1,53.9999983520508,8|0,0:0|0:0,0:0:0:0:
260,128,195234,2,0,L|256:68,1,53.9999983520508
320,24,195575,1,0,0:0:0:0:
320,24,195746,1,2,0:0:0:0:
396,56,195916,2,0,L|460:56,1,53.9999983520508,2|0,0:0|0:0,0:0:0:0:
488,128,196257,6,0,B|480:168|480:168|488:248,1,107.999996704102,8|0,0:0|0:0,0:0:0:0:
408,224,196768,1,0,0:0:0:0:
436,300,196939,2,0,L|376:312,1,53.9999983520508,8|0,0:0|0:0,0:0:0:0:
308,280,197280,2,0,L|248:292,1,53.9999983520508
192,240,197621,1,0,0:0:0:0:
192,240,197791,2,0,P|200:208|192:172,1,53.9999983520508,2|2,0:0|0:0,0:0:0:0:
140,128,198132,1,0,0:0:0:0:
208,84,198303,6,0,P|264:72|320:88,2,107.999996704102,8|0|8,0:0|0:0|0:0,0:0:0:0:
140,128,199155,1,0,0:0:0:0:
140,48,199325,1,0,0:0:0:0:
68,88,199496,1,0,0:0:0:0:
72,168,199666,2,0,L|76:232,1,53.9999983520508,0|2,0:0|0:0,0:0:0:0:
140,272,200007,2,0,P|172:256|216:264,1,53.9999983520508,2|0,0:0|0:0,0:0:0:0:
256,208,200348,6,0,B|284:224|284:224|368:208,2,107.999996704102,8|0|8,0:0|0:0|0:0,0:0:0:0:
300,140,201200,1,0,0:0:0:0:
300,140,201371,2,0,L|300:80,1,53.9999983520508
376,60,201712,1,0,0:0:0:0:
376,60,201882,2,0,L|376:120,1,53.9999983520508,2|2,0:0|0:0,0:0:0:0:
444,156,202223,1,0,0:0:0:0:
412,228,202393,6,0,P|392:276|412:328,2,107.999996704102,8|0|8,0:0|0:0|0:0,0:0:0:0:
332,204,203246,1,0,0:0:0:0:
332,204,203416,2,0,L|272:212,1,53.9999983520508
224,152,203757,1,0,0:0:0:0:
224,152,203928,2,0,L|170:144,1,53.9999983520508,2|2,0:0|0:0,0:0:0:0:
116,84,204268,1,0,0:0:0:0:
52,136,204439,6,0,P|64:192|52:248,1,107.999996704102,8|0,0:0|0:0,0:0:0:0:
116,296,204950,1,0,0:0:0:0:
184,340,205121,2,0,P|240:328|296:340,1,107.999996704102,8|0,0:0|0:0,0:0:0:0:
384,204,205803,1,0,0:0:0:0:
384,204,205973,2,0,L|320:208,1,53.9999983520508,2|2,0:0|0:0,0:0:0:0:
264,160,206314,1,0,0:0:0:0:
196,116,206484,6,0,L|192:52,1,53.9999983520508,8|0,0:0|0:0,0:0:0:0:
264,24,206825,2,0,L|328:20,1,53.9999983520508
380,72,207166,2,0,P|368:128|380:176,1,107.999996704102,8|0,0:0|0:0,0:0:0:0:
276,300,207848,5,2,0:0:0:0:
204,156,208189,1,0,0:0:0:0:
80,260,208529,1,0,0:0:0:0:
204,156,208870,1,0,0:0:0:0:
132,64,209211,6,0,P|84:80|28:56,1,90,2|0,0:0|0:0,0:0:0:0:
204,116,209893,2,0,P|252:100|308:124,1,90,2|0,0:0|0:0,0:0:0:0:
412,56,210574,2,0,L|420:160,2,90,2|0|2,0:0|0:0|0:0,0:0:0:0:
512,148,211597,1,0,0:0:0:0:
428,252,211938,6,0,L|420:356,1,90,2|0,0:0|0:0,0:0:0:0:
304,272,212620,2,0,L|312:168,2,90,2|0|2,0:0|0:0|0:0,0:0:0:0:
180,220,213643,1,0,0:0:0:0:
180,220,213984,2,0,P|196:172|192:120,1,90,2|0,0:0|0:0,0:0:0:0:
208,68,214495,1,0,0:0:0:0:
268,36,214665,6,0,L|372:48,2,90,2|0|2,0:0|0:0|0:0,0:0:0:0:
340,160,215688,1,0,0:0:0:0:
432,248,216029,2,0,P|440:200|432:160,1,90,2|0,0:0|0:0,0:0:0:0:
340,252,216711,2,0,P|332:300|340:340,1,90,2|0,0:0|0:0,0:0:0:0:
224,260,217393,6,0,B|212:216|212:216|232:72,1,180,2|2,0:0|0:0,0:0:0:0:
100,44,218415,1,0,0:0:0:0:
100,44,218756,2,0,L|92:108,1,45,2|0,0:0|0:0,0:0:0:0:
136,140,219097,2,0,P|196:132|236:152,1,90,2|2,0:0|0:0,0:0:0:0:
344,92,219779,1,0,0:0:0:0:
344,92,220120,6,0,L|460:100,1,107.999996704102,6|0,0:0|0:0,0:0:0:0:
496,168,220631,1,0,0:0:0:0:
452,236,220802,2,0,P|436:292|448:344,1,107.999996704102,8|0,0:0|0:0,0:0:0:0:
364,332,221313,1,0,0:0:0:0:
364,332,221484,1,2,0:0:0:0:
296,288,221654,2,0,L|288:224,1,53.9999983520508
216,196,221995,1,0,0:0:0:0:
216,196,222165,2,0,P|156:208|92:192,1,107.999996704102,8|0,0:0|0:0,0:0:0:0:
60,136,222677,1,0,0:0:0:0:
108,72,222847,6,0,P|168:60|232:76,1,107.999996704102,2|0,0:0|0:0,0:0:0:0:
284,112,223359,1,0,0:0:0:0:
364,104,223529,2,0,P|356:157|367:209,1,107.999996704102,8|0,0:0|0:0,0:0:0:0:
448,348,224211,1,2,0:0:0:0:
420,320,224552,2,0,L|352:312,1,53.9999983520508
292,280,224893,2,0,P|236:296|184:276,1,107.999996704102,8|0,0:0|0:0,0:0:0:0:
240,216,225404,1,0,0:0:0:0:
292,152,225574,6,0,P|241:136|190:152,2,107.999996704102,2|0|8,0:0|0:0|0:0,0:0:0:0:
336,84,226427,1,0,0:0:0:0:
336,84,226597,2,0,L|316:32,1,53.9999983520508
240,8,226938,1,2,0:0:0:0:
84,48,227279,1,0,0:0:0:0:
84,48,227449,1,0,0:0:0:0:
128,116,227620,2,0,B|112:152|112:152|124:236,1,107.999996704102,8|0,0:0|0:0,0:0:0:0:
284,232,228302,6,0,B|300:268|300:268|288:352,2,107.999996704102,2|0|8,0:0|0:0|0:0,0:0:0:0:
344,176,229154,1,0,0:0:0:0:
344,176,229324,2,0,L|336:120,1,53.9999983520508
404,80,229665,2,0,L|412:136,1,53.9999983520508,2|0,0:0|0:0,0:0:0:0:
420,216,230006,2,0,P|384:260|312:252,1,107.999996704102,0|8,0:0|0:0,0:0:0:0:
228,144,230688,2,0,L|224:208,1,53.9999983520508
144,236,231029,6,0,L|148:180,2,45,2|0|0,0:0|0:0|0:0,0:0:0:0:
88,272,231540,1,0,0:0:0:0:
40,224,231711,2,0,P|28:164|48:108,1,90,2|0,0:0|0:0,0:0:0:0:
140,52,232393,2,0,B|180:84|180:84|248:72,1,90,2|0,0:0|0:0,0:0:0:0:
348,36,233074,1,2,0:0:0:0:
348,36,233415,1,0,0:0:0:0:
400,160,233756,6,0,L|404:216,1,45,2|0,0:0|0:0,0:0:0:0:
356,252,234097,2,0,L|360:308,1,45
316,352,234438,1,2,0:0:0:0:
184,320,234779,1,0,0:0:0:0:
244,200,235120,2,0,L|136:208,1,90,2|0,0:0|0:0,0:0:0:0:
252,112,235802,2,0,L|360:104,1,90,2|0,0:0|0:0,0:0:0:0:
396,68,236313,1,0,0:0:0:0:
428,168,236484,6,0,P|416:232|384:280,1,107.999996704102,6|0,0:0|0:0,0:0:0:0:
316,240,236995,1,0,0:0:0:0:
316,240,237165,1,8,0:0:0:0:
160,192,237506,1,0,0:0:0:0:
136,268,237677,1,0,0:0:0:0:
80,208,237847,2,0,L|64:136,1,53.9999983520508,2|0,0:0|0:0,0:0:0:0:
148,139,238188,2,0,L|160:192,1,53.9999983520508
212,88,238529,2,0,P|268:100|320:88,1,107.999996704102,8|0,0:0|0:0,0:0:0:0:
372,148,239040,1,0,0:0:0:0:
320,208,239211,6,0,P|264:196|212:208,2,107.999996704102,2|0|8,0:0|0:0|0:0,0:0:0:0:
372,268,240063,1,0,0:0:0:0:
372,268,240234,2,0,L|368:336,1,53.9999983520508
288,316,240574,2,0,L|292:248,1,53.9999983520508,2|0,0:0|0:0,0:0:0:0:
264,184,240915,1,0,0:0:0:0:
132,92,241256,2,0,B|124:136|124:136|136:200,1,107.999996704102,8|0,0:0|0:0,0:0:0:0:
100,272,241768,1,0,0:0:0:0:
40,184,241938,6,0,L|32:120,1,53.9999983520508,4|0,0:0|0:0,0:0:0:0:
108,104,242279,2,0,L|116:40,1,53.9999983520508
192,28,242620,1,8,0:0:0:0:
192,28,242790,1,0,0:0:0:0:
260,72,242961,2,0,P|292:64|328:72,1,53.9999983520508
360,132,243302,2,0,P|348:188|364:236,1,107.999996704102,2|0,0:0|0:0,0:0:0:0:
248,244,243984,2,0,L|240:184,2,53.9999983520508,8|0|0,0:0|0:0|0:0,0:0:0:0:
168,228,244495,1,0,0:0:0:0:
88,208,244665,6,0,L|96:148,2,53.9999983520508,2|0|0,0:0|0:0|0:0,0:0:0:0:
112,288,245177,1,0,0:0:0:0:
168,228,245347,2,0,L|176:168,1,53.9999983520508,8|0,0:0|0:0,0:0:0:0:
248,136,245688,2,0,P|304:152|372:136,1,107.999996704102,0|2,0:0|0:0,0:0:0:0:
240,28,246370,1,0,0:0:0:0:
240,28,246540,1,0,0:0:0:0:
316,52,246711,2,0,L|376:56,1,53.9999983520508,8|0,0:0|0:0,0:0:0:0:
436,100,247052,1,0,0:0:0:0:
400,256,247393,6,0,B|376:216|376:216|364:144,1,107.999996704102,2|0,0:0|0:0,0:0:0:0:
284,144,247904,1,0,0:0:0:0:
240,212,248074,2,0,P|204:160|216:104,1,107.999996704102,8|0,0:0|0:0,0:0:0:0:
136,84,248586,1,0,0:0:0:0:
56,84,248756,2,0,L|52:144,1,53.9999983520508,2|0,0:0|0:0,0:0:0:0:
124,180,249097,2,0,L|128:240,1,53.9999983520508
172,304,249438,2,0,P|200:260|200:204,1,107.999996704102,8|0,0:0|0:0,0:0:0:0:
272,168,249949,1,0,0:0:0:0:
272,168,250120,6,0,B|324:192|324:192|392:172,2,107.999996704102,2|0|8,0:0|0:0|0:0,0:0:0:0:
300,92,250972,1,0,0:0:0:0:
300,92,251143,2,0,L|300:32,1,53.9999983520508
380,16,251484,1,2,0:0:0:0:
476,148,251824,2,0,L|472:208,1,53.9999983520508
400,240,252165,1,8,0:0:0:0:
320,272,252336,1,0,0:0:0:0:
328,192,252506,2,0,P|312:168|304:128,1,53.9999983520508,8|0,0:0|0:0,0:0:0:0:
400,160,252847,5,6,0:0:0:0:
256,192,253018,12,0,257961,0:0:0:0:
208,240,258302,6,0,L|200:116,1,107.999996704102,2|0,0:0|0:0,0:0:0:0:
60,48,258984,2,0,L|68:172,1,107.999996704102,8|0,0:0|0:0,0:0:0:0:
36,232,259495,1,0,0:0:0:0:
36,232,259665,2,0,P|44:264|40:296,1,53.9999983520508,2|0,0:0|0:0,0:0:0:0:
120,308,260006,2,0,P|119:334|126:360,1,53.9999983520508
204,336,260347,2,0,P|216:300|212:228,1,107.999996704102,8|0,0:0|0:0,0:0:0:0:
280,188,260859,1,0,0:0:0:0:
356,216,261029,6,0,L|432:208,1,53.9999983520508,2|0,0:0|0:0,0:0:0:0:
480,168,261370,1,0,0:0:0:0:
436,12,261711,2,0,P|382:6|333:26,1,107.999996704102,8|0,0:0|0:0,0:0:0:0:
292,112,262222,1,0,0:0:0:0:
228,164,262393,2,0,P|233:217|213:266,1,107.999996704102,2|0,0:0|0:0,0:0:0:0:
156,208,262904,1,0,0:0:0:0:
88,252,263074,2,0,P|82:198|102:149,1,107.999996704102,8|0,0:0|0:0,0:0:0:0:
172,108,263586,1,0,0:0:0:0:
100,68,263756,6,0,L|92:12,2,53.9999983520508,4|0|0,0:0|0:0|0:0,0:0:0:0:
264,60,264438,2,0,B|280:104|280:104|284:176,1,107.999996704102,8|0,0:0|0:0,0:0:0:0:
364,148,264949,1,0,0:0:0:0:
424,204,265120,2,0,B|408:248|408:248|404:320,1,107.999996704102,2|0,0:0|0:0,0:0:0:0:
324,288,265631,1,0,0:0:0:0:
324,288,265802,2,0,L|264:284,1,53.9999983520508,8|0,0:0|0:0,0:0:0:0:
212,224,266143,2,0,L|152:220,1,53.9999983520508
160,140,266484,6,0,L|278:148,1,107.999996704102,2|0,0:0|0:0,0:0:0:0:
336,104,266995,1,0,0:0:0:0:
384,168,267165,2,0,P|388:200|384:236,1,53.9999983520508,8|0,0:0|0:0,0:0:0:0:
312,256,267506,2,0,P|310:282|314:309,1,53.9999983520508
256,192,267847,12,0,269211,0:0:0:0:
