osu file format v14

[General]
AudioFilename: moosic.mp3
AudioLeadIn: 1000
PreviewTime: 62280
Countdown: 0
SampleSet: Soft
StackLeniency: 0.7
Mode: 0
LetterboxInBreaks: 0
WidescreenStoryboard: 1

[Editor]
Bookmarks: 126280,174280,238680
DistanceSpacing: 0.5
BeatDivisor: 4
GridSize: 4
TimelineZoom: 1

[Metadata]
Title:Boku no Hosomichi
TitleUnicode:ぼくのほそ道
Artist:ITO KASHITARO
ArtistUnicode:伊東歌詞太郎
Creator:Raose
Version:Normal
Source:
Tags:mikitop みきとP utaite my narrow thin road itou kashitarou 二律背反 niritsu haihan
BeatmapID:860897
BeatmapSetID:394691

[Difficulty]
HPDrainRate:4
CircleSize:3
OverallDifficulty:4
ApproachRate:4.5
SliderMultiplier:1.4
SliderTickRate:1

[Events]
//Background and Video events
0,0,"bg.jpg",0,0
Video,0,"My+Narrow+Road+-+Niconico+Video-GINZA_x264_001.avi"
//Break Periods
2,84850,85790
//Storyboard Layer 0 (Background)
//Storyboard Layer 1 (Fail)
//Storyboard Layer 2 (Pass)
//Storyboard Layer 3 (Foreground)
//Storyboard Sound Samples

[TimingPoints]
1450,400,4,2,0,50,1,0
27050,-100,4,2,0,50,0,0
33450,-100,4,2,0,40,0,0
36650,-100,4,2,0,50,0,0
49450,-100,4,2,0,50,0,0
55850,-100,4,2,0,40,0,0
57450,-100,4,2,0,50,0,0
59050,-100,4,2,0,60,0,0
62250,-100,4,2,0,70,0,1
84650,-100,4,2,0,40,0,0
87850,-100,4,2,0,50,0,0
103850,-100,4,2,0,40,0,0
113050,-100,4,2,0,50,0,0
113450,-100,4,2,0,50,0,0
126250,-100,4,2,0,40,0,0
135850,-100,4,2,0,50,0,0
139050,-100,4,2,0,70,0,1
161450,-100,4,2,1,50,0,0
171050,-100,4,2,1,55,0,0
174250,-100,4,2,0,65,0,0
199850,-100,4,2,0,70,0,1
225450,-100,4,2,0,60,0,0
237450,422.535211267606,4,2,0,60,1,0
237661,447.761194029851,4,2,0,60,1,0
237884,535.714285714286,4,2,0,60,1,0
238151,923.076923076923,4,2,0,60,1,0
238612,975.609756097561,4,2,0,60,1,0
238733,-125,4,2,0,40,0,0
240197,-125,4,2,0,30,0,0
241538,-125,4,2,0,20,0,0
243246,-125,4,2,0,10,0,0
243489,-125,4,2,0,30,0,0

[Colours]
Combo1 : 98,182,48
Combo2 : 228,102,27
Combo3 : 228,252,65
Combo4 : 74,255,237

[HitObjects]
181,115,1450,6,0,P|156:191|201:249,1,140,2|0,0:0|0:0,0:0:0:0:
327,238,2250,2,0,P|357:177|331:115,1,140,2|0,0:0|0:0,0:0:0:0:
181,115,3050,2,0,L|21:122,1,140,2|0,0:0|0:0,0:0:0:0:
57,260,3850,2,0,L|196:253,1,140,2|0,0:0|0:0,0:0:0:0:
330,211,4650,6,0,P|392:252|418:324,2,140,2|0|2,0:0|0:0|0:0,0:0:0:0:
196,253,5850,1,0,0:0:0:0:
72,186,6250,2,0,P|53:110|73:42,1,140,2|0,0:0|0:0,0:0:0:0:
198,115,7050,1,8,0:3:0:0:
316,39,7450,1,0,1:0:0:0:
438,106,7850,6,0,P|397:159|312:173,1,140,4|0,0:0|0:0,0:0:0:0:
272,134,8450,1,0,1:0:0:0:
204,153,8650,2,0,P|185:243|183:304,1,140,2|0,0:0|1:0,0:0:0:0:
64,213,9450,6,0,P|80:126|114:64,1,140,2|0,0:0|0:0,0:0:0:0:
169,59,10050,1,0,0:0:0:0:
227,97,10250,2,0,L|227:169,2,70,0|8|8,1:0|0:3|0:3,0:0:0:0:
285,58,10850,5,4,0:0:0:0:
256,192,11050,12,2,12650,0:0:0:0:
113,270,13450,6,0,L|30:285,2,70,0|0|0,1:0|1:0|1:0,0:0:0:0:
250,242,14250,6,0,P|339:249|385:284,1,140,4|0,0:0|1:0,0:0:0:0:
460,163,15050,2,0,P|434:72|443:22,1,140,0|0,0:0|1:0,0:0:0:0:
301,42,15850,2,0,P|267:111|198:145,1,140,0|0,0:0|1:0,0:0:0:0:
76,117,16650,2,0,P|58:81|48:41,2,70,0|0|0,0:0|0:0|1:0,0:0:0:0:
119,172,17250,1,0,0:0:0:0:
179,207,17450,6,0,P|211:281|206:345,1,140,0|0,0:0|1:0,0:0:0:0:
348,339,18250,2,0,P|346:269|376:207,1,140,0|0,0:0|1:0,0:0:0:0:
408,145,18850,1,0,0:0:0:0:
340,126,19050,2,0,L|189:111,2,140,0|0|0,0:0|1:0|0:0,0:0:0:0:
277,0,20250,1,0,1:0:0:0:
412,36,20650,6,0,P|455:105|449:167,1,140,0|0,0:0|1:0,0:0:0:0:
354,263,21450,2,0,P|314:206|315:138,1,140,0|0,0:0|1:0,0:0:0:0:
249,261,22250,2,0,P|174:287|112:251,1,140,0|0,0:0|1:0,0:0:0:0:
167,127,23050,2,0,L|188:212,1,70,0|0,0:0|0:0,0:0:0:0:
243,157,23450,2,0,L|248:68,1,70,0|0,1:0|0:0,0:0:0:0:
308,53,23850,6,0,P|347:122|341:180,1,140,0|0,0:0|1:0,0:0:0:0:
389,311,24650,2,0,P|312:324|252:290,1,140,0|0,0:0|1:0,0:0:0:0:
342,180,25450,2,0,L|494:162,1,140,0|0,0:0|1:0,0:0:0:0:
400,52,26250,1,0,0:0:0:0:
274,116,26650,2,0,L|196:126,1,70,0|4,1:0|0:3,0:0:0:0:
132,130,27050,6,0,P|97:215|116:267,1,140,4|0,0:0|0:0,0:0:0:0:
171,291,27650,1,0,1:0:0:0:
230,253,27850,2,0,L|236:100,1,140,0|0,0:0|1:0,0:0:0:0:
333,212,28650,6,0,P|383:240|485:241,1,140
506,189,29250,1,0,1:0:0:0:
506,119,29450,2,0,L|491:50,2,70,0|0|0,0:0|0:0|1:0,0:0:0:0:
385,49,30250,6,0,P|308:78|250:71,1,140,0|0,0:0|0:0,0:0:0:0:
181,71,30850,1,0,1:0:0:0:
147,132,31050,2,0,P|214:193|287:192,1,140,0|0,0:0|1:0,0:0:0:0:
395,160,31850,2,0,P|386:258|338:298,1,140,0|0,0:0|0:0,0:0:0:0:
291,299,32450,1,0,1:0:0:0:
221,299,32650,2,0,L|145:304,2,70,0|0|0,0:0|1:0|1:0,0:0:0:0:
254,237,33250,2,0,L|255:158,1,70,0|2,1:0|0:0,0:0:0:0:
68,69,34050,6,0,L|153:83,1,70,0|2,0:0|0:0,0:0:0:0:
49,271,34850,2,0,L|47:360,1,70,0|2,0:0|0:0,0:0:0:0:
247,290,35650,1,0,0:0:0:0:
247,290,35850,2,0,B|274:234|226:206|256:146,1,140,8|0,0:3|1:0,0:0:0:0:
359,62,36650,6,0,P|407:99|399:172,2,140,4|0|0,0:0|1:0|0:0,0:0:0:0:
252,153,37850,1,0,1:0:0:0:
346,256,38250,2,0,P|429:269|480:225,1,140,2|0,0:0|1:0,0:0:0:0:
426,106,39050,2,0,L|396:178,1,70,0|0,0:0|0:0,0:0:0:0:
337,138,39450,2,0,L|266:93,1,70,0|0,1:0|0:0,0:0:0:0:
260,169,39850,6,0,P|210:230|127:223,1,140,2|0,0:0|1:0,0:0:0:0:
36,155,40650,2,0,P|86:94|169:101,1,140,0|0,0:0|1:0,0:0:0:0:
153,234,41450,2,0,B|157:278|157:278|140:318|140:318|145:376,1,140,2|0,0:0|0:0,0:0:0:0:
213,359,42050,1,2,0:0:0:0:
280,342,42250,2,0,P|363:334|428:343,1,140,2|0,0:0|1:0,0:0:0:0:
480,214,43050,6,0,P|399:188|328:191,1,140,0|0,0:0|1:0,0:0:0:0:
214,239,43850,2,0,P|136:254|61:233,1,140,0|0,0:0|1:0,0:0:0:0:
85,101,44650,2,0,L|234:98,2,140,2|0|0,0:0|1:0|0:0,0:0:0:0:
23,226,45850,2,0,P|24:267|37:298,1,70,0|0,1:0|0:0,0:0:0:0:
95,332,46250,6,0,P|142:258|134:178,1,140,2|0,0:0|1:0,0:0:0:0:
221,91,47050,2,0,P|276:144|357:163,1,140,0|0,0:0|1:0,0:0:0:0:
439,256,47850,2,0,L|297:301,1,140,2|0,0:0|1:0,0:0:0:0:
203,201,48650,1,2,0:0:0:0:
183,340,49050,2,0,L|103:347,1,70,4|4,0:3|0:3,0:0:0:0:
49,316,49450,6,0,P|21:229|45:174,1,140,4|0,0:0|0:0,0:0:0:0:
83,134,50050,1,0,1:0:0:0:
152,143,50250,2,0,P|180:230|156:285,1,140,0|0,0:0|1:0,0:0:0:0:
261,170,51050,2,0,P|356:172|416:138,1,140,2|0,0:0|0:0,0:0:0:0:
438,98,51650,1,0,1:0:0:0:
408,34,51850,2,0,L|262:35,1,140,0|0,0:0|1:0,0:0:0:0:
128,50,52650,6,0,B|118:94|118:94|150:130|127:201,1,140,6|0,0:0|0:0,0:0:0:0:
84,235,53250,1,0,1:0:0:0:
108,300,53450,2,0,P|152:342|250:342,1,140
336,261,54250,2,0,L|314:119,1,140
284,59,54850,1,0,1:0:0:0:
234,108,55050,2,0,L|220:187,2,70,0|0|0,0:0|1:0|1:0,0:0:0:0:
173,73,55650,2,0,L|94:71,1,70,0|4,1:0|0:0,0:0:0:0:
423,314,57450,5,0,1:0:0:0:
319,219,57850,1,0,1:0:0:0:
444,156,58250,1,0,1:0:0:0:
341,60,58650,1,4,0:0:0:0:
218,127,59050,6,0,P|184:180|206:272,2,140,4|0|0,0:0|1:0|1:0,0:0:0:0:
329,211,60250,1,0,1:0:0:0:
267,336,60650,2,0,P|232:355|175:356,2,70,0|0|0,1:0|1:0|1:0,0:0:0:0:
310,280,61250,1,0,1:0:0:0:
329,211,61450,2,0,L|320:55,1,140,0|0,0:0|1:0,0:0:0:0:
443,133,62250,6,0,L|451:274,1,140,4|0,0:0|1:0,0:0:0:0:
331,345,63050,1,0,0:0:0:0:
279,214,63450,1,0,1:0:0:0:
182,315,63850,2,0,P|95:338|33:324,2,140,0|0|0,0:0|1:0|0:0,0:0:0:0:
321,326,65050,2,0,L|310:246,1,70,0|0,1:0|0:0,0:0:0:0:
250,224,65450,6,0,L|225:65,1,140,0|0,0:0|1:0,0:0:0:0:
94,45,66250,2,0,P|39:100|38:185,1,140,0|0,0:0|1:0,0:0:0:0:
59,223,66850,1,0,0:0:0:0:
123,250,67050,2,0,B|168:255|208:231|208:231|267:260,2,140,0|0|0,0:0|1:0|0:0,0:0:0:0:
208,138,68250,1,0,1:0:0:0:
336,194,68650,6,0,P|356:238|352:269,1,70,4|0,1:2|0:0,0:0:0:0:
332,324,69050,2,0,P|301:349|264:350,2,70,0|0|0,1:0|0:0|0:0,0:0:0:0:
197,282,69850,1,0,1:0:0:0:
197,282,70050,2,0,P|114:235|97:173,1,140,0|0,0:0|0:0,0:0:0:0:
94,127,70650,2,0,L|17:135,2,70,0|0|0,1:0|0:0|0:0,0:0:0:0:
221,68,71450,5,0,1:0:0:0:
221,68,71650,2,0,L|376:76,1,140,0|0,0:0|0:0,0:0:0:0:
430,80,72250,1,0,1:0:0:0:
430,220,72650,2,0,L|281:211,1,140,0|0,0:0|1:0,0:0:0:0:
155,172,73450,1,4,0:0:0:0:
113,305,73850,1,4,0:0:0:0:
246,345,74250,1,0,1:0:0:0:
290,211,74650,1,0,1:0:0:0:
155,172,75050,6,0,P|152:251|201:307,1,140,4|0,0:0|1:0,0:0:0:0:
323,327,75850,2,0,P|388:290|413:224,1,140,0|0,0:0|1:0,0:0:0:0:
416,92,76650,1,0,0:0:0:0:
295,164,77050,2,0,P|214:158|157:124,1,140,0|0,1:0|0:0,0:0:0:0:
80,17,77850,2,0,L|46:98,1,70,0|0,1:0|0:0,0:0:0:0:
29,145,78250,6,0,P|26:220|60:278,1,140,0|0,0:0|1:0,0:0:0:0:
172,354,79050,2,0,P|201:282|185:208,1,140,0|0,0:0|1:0,0:0:0:0:
156,161,79650,1,0,0:0:0:0:
212,119,79850,2,0,L|354:120,1,140,0|0,0:0|1:0,0:0:0:0:
487,154,80650,1,0,0:0:0:0:
389,254,81050,1,0,1:0:0:0:
351,119,81450,6,0,L|361:38,2,70,4|0|0,0:0|0:0|1:0,0:0:0:0:
334,187,82050,1,0,0:0:0:0:
281,233,82250,2,0,P|190:239|135:214,1,140,0|0,0:0|1:0,0:0:0:0:
80,97,83050,1,0,1:0:0:0:
197,21,83450,2,0,L|228:180,1,140,4|0,0:0|1:0,0:0:0:0:
288,184,84050,2,0,L|312:110,2,70,0|0|0,0:0|1:0|0:0,0:0:0:0:
253,244,84650,5,0,0:0:0:0:
44,181,87050,5,8,0:3:0:0:
72,317,87450,1,0,1:0:0:0:
211,343,87850,6,0,L|231:191,1,140,4|0,0:0|0:0,0:0:0:0:
240,134,88450,1,2,1:2:0:0:
306,154,88650,2,0,P|378:204|399:260,1,140,0|0,0:0|1:0,0:0:0:0:
276,319,89450,2,0,L|124:327,1,140,2|0,0:0|0:0,0:0:0:0:
79,285,90050,1,0,1:0:0:0:
86,215,90250,2,0,L|177:211,2,70,0|0|0,1:0|0:0|1:0,0:0:0:0:
195,126,91050,6,0,P|245:189|233:260,1,140,4|0,0:0|1:0,0:0:0:0:
106,285,91850,2,0,P|56:222|68:151,1,140,0|0,0:0|1:0,0:0:0:0:
195,126,92650,2,0,P|282:124|352:85,1,140,2|0,0:0|1:0,0:0:0:0:
434,10,93450,1,2,0:0:0:0:
503,131,93850,2,0,L|432:111,1,70,0|0,1:0|0:0,0:0:0:0:
373,145,94250,6,0,L|291:259,1,140,0|0,0:0|1:0,0:0:0:0:
380,366,95050,2,0,L|467:237,1,140,0|0,0:0|1:0,0:0:0:0:
454,180,95650,1,0,0:0:0:0:
393,145,95850,2,0,P|321:105|290:45,1,140,2|0,0:0|1:0,0:0:0:0:
223,47,96450,1,2,0:0:0:0:
173,96,96650,2,0,L|26:118,1,140,2|0,0:2|1:0,0:0:0:0:
87,246,97450,6,0,L|233:223,2,140,0|0|0,0:0|1:0|0:0,0:0:0:0:
182,346,98650,1,0,1:0:0:0:
306,281,99050,2,0,P|326:208|276:136,1,140,2|0,0:0|1:0,0:0:0:0:
190,66,99850,2,0,L|155:133,1,70,0|0,0:0|0:0,0:0:0:0:
141,196,100250,2,0,L|156:277,1,70,2|0,1:2|0:0,0:0:0:0:
199,317,100650,6,0,P|271:336|356:315,1,140,0|0,0:0|1:0,0:0:0:0:
430,223,101450,2,0,L|443:73,1,140,0|0,0:0|1:0,0:0:0:0:
314,25,102250,2,0,L|324:175,1,140,2|0,0:0|1:0,0:0:0:0:
240,277,103050,1,2,0:0:0:0:
204,141,103450,2,0,L|132:161,1,70,4|4,0:3|0:3,0:0:0:0:
80,198,103850,6,0,P|25:240|13:307,1,140,4|0,0:0|0:0,0:0:0:0:
71,345,104450,1,0,1:0:0:0:
140,340,104650,2,0,L|288:329,1,140,0|0,0:0|1:0,0:0:0:0:
390,244,105450,2,0,L|233:227,1,140,0|0,0:0|0:0,0:0:0:0:
212,170,106050,1,0,1:0:0:0:
194,102,106250,2,0,P|200:55|210:33,2,70,0|0|0,0:0|0:0|1:0,0:0:0:0:
333,98,107050,6,0,L|354:247,1,140,2|0,0:0|0:0,0:0:0:0:
377,301,107650,1,0,1:0:0:0:
446,302,107850,2,0,P|483:232|483:162,1,140,0|0,0:0|1:0,0:0:0:0:
401,60,108650,2,0,L|243:73,1,140,0|0,0:0|0:0,0:0:0:0:
197,100,109250,1,0,1:0:0:0:
147,149,109450,2,0,L|67:151,2,70,0|0|0,1:0|0:0|1:0,0:0:0:0:
182,209,110050,2,0,L|272:213,1,70,0|4,0:0|0:0,0:0:0:0:
452,32,111050,5,0,1:0:0:0:
429,311,111850,1,0,1:0:0:0:
452,32,112650,2,0,L|441:175,1,140,0|0,1:0|0:0,0:0:0:0:
429,311,113450,6,0,P|334:272|312:218,1,140,4|0,0:0|1:0,0:0:0:0:
210,152,114250,2,0,L|55:172,1,140,2|2,0:0|1:2,0:0:0:0:
77,310,115050,2,0,L|215:292,1,140,2|0,0:0|1:0,0:0:0:0:
270,247,115650,1,0,0:0:0:0:
301,184,115850,2,0,B|325:129|282:82|282:82|299:51,1,140,2|0,0:0|1:0,0:0:0:0:
422,117,116650,6,0,P|421:195|396:251,1,140,2|2,0:0|1:2,0:0:0:0:
256,258,117450,2,0,P|178:243|102:264,1,140,2|2,0:0|1:2,0:0:0:0:
46,140,118250,2,0,P|129:138|177:109,1,140,2|2,0:0|1:2,0:0:0:0:
225,59,118850,1,0,0:0:0:0:
278,103,119050,2,0,L|308:251,1,140,2|0,0:0|1:0,0:0:0:0:
206,339,119850,5,2,0:0:0:0:
173,202,120250,1,2,1:2:0:0:
305,240,120650,2,0,P|367:270|435:257,1,140,2|0,0:0|1:0,0:0:0:0:
495,221,121250,2,0,L|483:74,1,140,2|0,0:0|0:0,0:0:0:0:
428,38,121850,2,0,L|383:180,1,140,0|2,1:0|0:0,0:0:0:0:
277,82,122650,1,2,1:2:0:0:
139,43,123050,6,0,P|92:103|97:175,2,140,2|0|0,0:0|1:0|0:0,0:0:0:0:
227,151,124250,1,0,1:0:0:0:
180,282,124650,2,0,L|31:297,1,140,2|2,0:0|1:2,0:0:0:0:
66,158,125450,1,0,0:0:0:0:
161,52,125850,2,0,L|175:137,1,70,4|4,0:3|0:3,0:0:0:0:
228,163,126250,6,0,P|313:177|362:151,1,140,4|0,0:0|0:0,0:0:0:0:
418,117,126850,1,0,1:0:0:0:
430,185,127050,2,0,P|432:257|464:329,1,140,0|0,0:0|1:0,0:0:0:0:
320,287,127850,2,0,P|244:277|181:286,1,140,2|0,0:0|0:0,0:0:0:0:
115,310,128450,1,0,1:0:0:0:
82,247,128650,2,0,L|64:103,1,140,0|0,0:0|1:0,0:0:0:0:
169,16,129450,6,0,P|207:73|200:142,1,140,6|0,0:0|0:0,0:0:0:0:
154,194,130050,1,0,1:0:0:0:
91,162,130250,2,0,L|12:170,2,70,0|0|0,0:0|0:0|1:0,0:0:0:0:
161,282,131050,2,0,L|324:296,1,140,0|0,0:0|0:0,0:0:0:0:
370,296,131650,1,0,1:0:0:0:
406,236,131850,2,0,L|414:158,2,70,0|0|0,0:0|1:0|1:0,0:0:0:0:
460,279,132450,2,0,L|497:212,1,70,8|4,0:3|0:0,0:0:0:0:
429,57,134250,5,0,1:0:0:0:
352,174,134650,1,0,1:0:0:0:
273,58,135050,1,0,1:0:0:0:
195,174,135450,1,4,0:0:0:0:
92,78,135850,6,0,P|51:163|63:224,2,140,4|0|0,0:0|1:0|1:0,0:0:0:0:
228,46,137050,1,0,1:0:0:0:
343,124,137450,2,0,L|354:206,2,70,0|0|0,1:0|1:0|1:0,0:0:0:0:
402,86,138050,1,0,1:0:0:0:
457,128,138250,2,0,P|479:211|459:272,1,140,0|0,1:0|1:0,0:0:0:0:
334,313,139050,6,0,L|188:319,1,140,4|0,0:0|1:0,0:0:0:0:
70,253,139850,1,0,0:0:0:0:
125,124,140250,1,0,1:0:0:0:
257,168,140650,2,0,P|234:224|149:253,2,140,0|0|0,0:0|1:0|0:0,0:0:0:0:
171,57,141850,2,0,L|99:53,1,70,0|0,1:0|0:0,0:0:0:0:
57,108,142250,6,0,L|70:253,1,140,0|0,0:0|1:0,0:0:0:0:
86,319,142850,1,0,0:0:0:0:
149,288,143050,2,0,P|234:286|305:318,1,140,0|0,0:0|1:0,0:0:0:0:
424,292,143850,2,0,P|474:230|463:152,2,140,0|0|0,0:0|1:0|0:0,0:0:0:0:
322,194,145050,1,0,1:0:0:0:
327,54,145450,6,0,P|385:67|405:85,2,70,4|0|0,0:0|0:0|1:0,0:0:0:0:
258,69,146050,2,0,L|188:75,1,70,0|0,0:0|0:0,0:0:0:0:
77,160,146650,1,0,1:0:0:0:
77,160,146850,2,0,P|135:180|175:246,1,140,0|0,0:0|0:0,0:0:0:0:
168,314,147450,2,0,L|83:333,2,70,0|0|0,1:0|0:0|0:0,0:0:0:0:
307,320,148250,5,0,1:0:0:0:
307,320,148450,2,0,P|383:268|390:213,1,140,0|0,0:0|0:0,0:0:0:0:
436,171,149050,2,0,L|514:295,2,140,0|0|0,1:0|0:0|1:0,0:0:0:0:
323,87,150250,2,0,B|280:94|280:94|219:74|219:74|178:80,2,140,4|4|0,0:0|0:0|1:0,0:0:0:0:
453,43,151450,1,0,1:0:0:0:
386,166,151850,6,0,L|243:188,1,140,4|0,0:0|1:0,0:0:0:0:
112,224,152650,1,0,0:0:0:0:
210,323,153050,1,0,1:0:0:0:
247,187,153450,2,0,P|209:120|142:91,1,140,0|0,0:0|1:0,0:0:0:0:
112,224,154250,1,0,0:0:0:0:
176,348,154650,2,0,L|254:343,1,70,0|0,1:0|0:0,0:0:0:0:
317,343,155050,6,0,P|398:337|455:295,1,140,0|0,0:0|1:0,0:0:0:0:
488,249,155650,1,0,0:0:0:0:
483,179,155850,2,0,L|422:48,1,140,0|0,0:0|1:0,0:0:0:0:
301,119,156650,2,0,P|247:180|187:192,2,140,0|0|0,0:0|1:0|0:0,0:0:0:0:
176,54,157850,1,0,1:0:0:0:
111,178,158250,6,0,L|117:281,2,70,4|0|0,0:0|0:0|1:0,0:0:0:0:
36,65,159050,2,0,L|188:52,1,140,0|0,0:0|1:0,0:0:0:0:
311,84,159850,1,0,1:0:0:0:
370,212,160250,2,0,P|319:273|253:277,1,140,4|0,0:0|1:0,0:0:0:0:
205,238,160850,2,0,L|185:157,2,70,4|4|4,0:3|0:3|0:3,0:0:0:0:
146,277,161450,6,0,L|46:142,2,140,4|8|8,0:0|0:0|0:0,0:0:0:0:
278,323,162650,1,8,0:0:0:0:
243,187,163050,2,0,L|155:64,1,140,0|8,0:0|0:0,0:0:0:0:
25,38,163850,1,8,0:0:0:0:
58,174,164250,1,4,0:3:0:0:
161,73,164650,6,0,P|244:38|304:47,1,140,4|8,0:0|0:0,0:0:0:0:
408,120,165450,1,8,0:0:0:0:
449,254,165850,2,0,L|427:328,1,70,8|0,0:0|0:0,0:0:0:0:
358,318,166250,2,0,P|281:313|216:344,2,140,8|8|8,0:0|0:0|0:0,0:0:0:0:
262,215,167450,1,4,0:3:0:0:
137,279,167850,6,0,P|97:206|115:144,1,140,4|8,0:0|0:0,0:0:0:0:
208,54,168650,1,8,0:0:0:0:
273,177,169050,1,8,0:0:0:0:
407,138,169450,2,0,P|455:110|496:26,2,140,8|8|0,0:0|0:0|0:0,0:0:0:0:
293,55,170650,1,0,1:0:0:0:
251,188,171050,6,0,L|228:329,1,140,4|0,1:2|1:0,0:0:0:0:
367,348,171850,2,0,L|382:261,2,70,0|0|0,1:0|0:0|1:0,0:0:0:0:
474,258,172650,2,0,P|469:166|418:115,1,140,0|0,1:0|1:0,0:0:0:0:
377,105,173250,2,0,L|225:104,1,140,0|0,1:0|1:0,0:0:0:0:
178,142,173850,2,0,L|180:228,1,70,0|0,1:0|1:0,0:0:0:0:
212,273,174250,5,4,0:0:0:0:
256,192,174450,12,2,177450,0:1:0:0:
103,234,178250,6,0,P|69:183|61:98,1,140,2|0,0:1|1:0,0:0:0:0:
188,49,179050,2,0,L|331:64,1,140,2|0,0:1|1:0,0:0:0:0:
394,84,179650,2,0,B|414:131|347:177|393:239,1,140,2|0,0:1|0:0,0:0:0:0:
410,284,180250,1,0,1:0:0:0:
275,319,180650,6,0,L|190:316,2,70,4|0|2,0:0|0:0|1:0,0:0:0:0:
324,268,181250,1,0,0:0:0:0:
297,203,181450,2,0,B|273:160|207:166|207:166|169:190,1,140,2|2,0:1|1:1,0:0:0:0:
54,253,182250,2,0,P|38:182|61:107,1,140,2|0,0:1|1:0,0:0:0:0:
120,92,182850,2,0,B|170:89|170:89|210:62|210:62|253:58,1,140,2|0,0:1|0:0,0:0:0:0:
321,70,183450,1,0,1:0:0:0:
367,202,183850,6,0,P|278:208|220:160,1,140,4|2,0:0|1:0,0:0:0:0:
138,82,184650,1,2,0:1:0:0:
58,196,185050,2,0,L|73:273,1,70,2|0,1:0|0:0,0:0:0:0:
126,309,185450,2,0,B|155:331|198:330|198:330|238:288|282:303,2,140,0|4|0,1:0|1:2|1:0,0:0:0:0:
196,187,186650,1,0,1:0:0:0:
336,195,187050,6,0,P|372:234|387:322,1,140,4|2,0:0|1:0,0:0:0:0:
253,299,187850,1,0,0:0:0:0:
190,174,188250,1,2,1:0:0:0:
295,81,188650,2,0,P|334:73|432:109,1,140,2|2,0:1|1:0,0:0:0:0:
431,247,189450,2,0,P|388:288|291:290,1,140,0|0,0:0|1:0,0:0:0:0:
208,201,190250,6,0,P|138:181|71:238,1,140,0|0,0:0|1:0,0:0:0:0:
157,333,191050,2,0,L|150:241,2,70,2|0|0,0:1|0:0|1:0,0:0:0:0:
227,344,191650,2,0,B|275:327|275:327|381:336,1,140,2|0,0:1|0:0,0:0:0:0:
434,346,192250,1,2,1:0:0:0:
464,209,192650,2,0,B|471:169|471:169|468:133,2,70,2|0|2,0:1|0:0|1:0,0:0:0:0:
398,233,193250,1,0,0:0:0:0:
336,202,193450,6,0,L|323:47,1,140,4|2,0:0|1:0,0:0:0:0:
186,42,194250,2,0,L|198:181,1,140,2|0,0:1|1:0,0:0:0:0:
220,248,194850,2,0,P|250:277|346:289,1,140,2|0,0:1|0:0,0:0:0:0:
403,250,195450,2,0,B|415:195|415:195|403:164|403:164|416:98,2,140,0|2|2,1:0|0:1|1:0,0:0:0:0:
298,158,196650,6,0,P|219:145|155:185,1,140,4|0,0:0|1:0,0:0:0:0:
249,285,197450,1,0,0:0:0:0:
389,269,197850,1,0,1:0:0:0:
298,158,198250,1,2,0:1:0:0:
170,216,198650,2,0,P|142:285|172:367,2,140,0|0|0,0:0|1:0|1:0,0:0:0:0:
298,158,199850,6,0,L|299:8,1,140,4|0,0:0|1:0,0:0:0:0:
433,57,200650,1,0,0:0:0:0:
465,193,201050,1,0,1:0:0:0:
346,262,201450,2,0,P|269:286|201:275,2,140,0|0|0,0:0|1:0|0:0,0:0:0:0:
449,356,202650,2,0,L|457:270,1,70,0|0,1:0|0:0,0:0:0:0:
451,218,203050,6,0,L|462:65,1,140,0|0,0:0|1:0,0:0:0:0:
404,36,203650,1,0,0:0:0:0:
356,87,203850,2,0,P|281:116|205:104,1,140,0|0,0:0|1:0,0:0:0:0:
89,85,204650,2,0,P|72:152|92:219,1,140,0|0,0:0|1:0,0:0:0:0:
201,307,205450,1,0,0:0:0:0:
227,169,205850,1,0,1:0:0:0:
92,219,206250,6,0,L|15:229,2,70,4|0|0,0:0|0:0|1:0,0:0:0:0:
144,265,206850,2,0,L|219:254,1,70,0|0,0:0|0:0,0:0:0:0:
320,163,207450,1,0,1:0:0:0:
320,163,207650,2,0,P|399:177|435:237,1,140,0|0,0:0|0:0,0:0:0:0:
425,292,208250,2,0,L|422:367,2,70,0|0|0,1:0|0:0|0:0,0:0:0:0:
290,252,209050,5,0,1:0:0:0:
290,252,209250,2,0,P|202:262|165:298,1,140,0|0,0:0|0:0,0:0:0:0:
117,344,209850,2,0,L|89:178,2,140,0|0|0,1:0|0:0|1:0,0:0:0:0:
256,340,211050,1,4,0:0:0:0:
331,222,211450,1,4,0:0:0:0:
195,186,211850,1,0,1:0:0:0:
294,92,212250,1,0,1:0:0:0:
171,24,212650,6,0,P|104:58|85:129,1,140,4|0,0:0|1:0,0:0:0:0:
99,255,213450,2,0,P|172:286|244:267,1,140,0|0,0:0|1:0,0:0:0:0:
288,147,214250,1,0,0:0:0:0:
423,109,214650,2,0,P|469:170|453:239,1,140,0|0,1:0|0:0,0:0:0:0:
457,368,215450,2,0,L|387:331,1,70,0|0,1:0|0:0,0:0:0:0:
327,328,215850,6,0,L|167:334,1,140,0|0,0:0|1:0,0:0:0:0:
137,283,216450,1,0,0:0:0:0:
167,219,216650,2,0,L|306:213,1,140,0|0,0:0|1:0,0:0:0:0:
329,74,217450,2,0,P|262:31|204:32,2,140,0|0|0,0:0|1:0|0:0,0:0:0:0:
233,176,218650,1,0,1:0:0:0:
107,119,219050,6,0,L|97:44,2,70,4|0|0,0:0|0:0|1:0,0:0:0:0:
119,187,219650,1,0,0:0:0:0:
134,255,219850,2,0,P|170:312|259:339,1,140,0|0,0:0|1:0,0:0:0:0:
372,316,220650,1,0,0:0:0:0:
445,197,221050,2,0,B|457:144|457:144|451:48,2,140,0|0|0,1:0|0:0|1:0,0:0:0:0:
331,279,222250,6,0,L|321:126,1,140,4|0,0:0|1:0,0:0:0:0:
196,76,223050,2,0,P|132:118|130:202,1,140,0|0,0:0|1:0,0:0:0:0:
140,315,223850,1,0,1:0:0:0:
276,344,224250,2,0,P|277:267|227:208,1,140,4|4,0:0|0:3,0:0:0:0:
101,221,225050,1,4,0:3:0:0:
204,130,225450,6,0,L|354:115,1,140,4|0,0:0|0:0,0:0:0:0:
429,226,226250,2,0,L|350:236,2,70,0|0|0,1:0|0:0|0:0,0:0:0:0:
324,319,227050,1,2,0:0:0:0:
184,327,227450,2,0,P|126:277|115:209,2,140,0|0|4,0:0|1:0|0:3,0:0:0:0:
255,206,228650,6,0,L|254:63,1,140,4|0,0:0|0:0,0:0:0:0:
117,33,229450,2,0,L|66:80,2,70,0|0|0,1:0|1:0|0:0,0:0:0:0:
133,172,230250,2,0,P|118:248|146:324,1,140,2|0,0:0|0:0,0:0:0:0:
275,320,231050,1,0,1:0:0:0:
357,207,231450,1,4,0:0:0:0:
217,201,231850,6,0,L|68:204,1,140,0|0,0:0|1:0,0:0:0:0:
148,83,232650,2,0,L|163:7,2,70,0|0|0,1:0|1:0|1:0,0:0:0:0:
217,201,233450,2,0,L|201:296,2,70,0|0|0,1:0|1:0|1:0,0:0:0:0:
322,108,234250,2,0,P|356:52|446:35,1,140,0|0,1:0|1:0,0:0:0:0:
450,171,235050,6,0,P|457:256|420:315,1,140,4|0,0:0|1:0,0:0:0:0:
292,315,235850,2,0,L|218:318,2,70,0|0|0,1:0|1:0|1:0,0:0:0:0:
194,214,236650,2,0,L|113:215,2,70,0|0|0,1:0|1:0|1:0,0:0:0:0:
274,99,237450,2,0,L|197:99,1,70,0|0,1:0|1:0,0:0:0:0:
136,76,237884,2,0,L|44:88,1,70,0|0,1:0|1:0,0:0:0:0:
116,280,238612,5,4,0:0:0:0:
256,192,238855,12,4,243490,0:3:0:0:
