osu file format v14

[General]
AudioFilename: moosic.mp3
AudioLeadIn: 1000
PreviewTime: 62280
Countdown: 0
SampleSet: Soft
StackLeniency: 0.7
Mode: 0
LetterboxInBreaks: 0
WidescreenStoryboard: 0

[Editor]
Bookmarks: 126280,174280,238680
DistanceSpacing: 0.5
BeatDivisor: 8
GridSize: 4
TimelineZoom: 1.7

[Metadata]
Title:Boku no Hosomichi
TitleUnicode:ぼくのほそ道
Artist:ITO KASHITARO
ArtistUnicode:伊東歌詞太郎
Creator:Raose
Version:Journey
Source:
Tags:mikitop みきとP utaite my narrow thin road itou kashitarou 二律背反 niritsu haihan
BeatmapID:859034
BeatmapSetID:394691

[Difficulty]
HPDrainRate:7
CircleSize:4
OverallDifficulty:7
ApproachRate:8
SliderMultiplier:1.8
SliderTickRate:1

[Events]
//Background and Video events
0,0,"bg.jpg",0,0
Video,0,"My+Narrow+Road+-+Niconico+Video-GINZA_x264_001.avi"
//Break Periods
2,84850,86300
//Storyboard Layer 0 (Background)
//Storyboard Layer 1 (Fail)
//Storyboard Layer 2 (Pass)
//Storyboard Layer 3 (Foreground)
//Storyboard Sound Samples

[TimingPoints]
1450,400,4,2,0,50,1,0
1450,-125,4,2,0,50,0,0
14250,-117.647058823529,4,2,0,50,0,0
27050,-125,4,2,0,50,0,0
33450,-125,4,2,0,40,0,0
36650,-117.647058823529,4,2,0,50,0,0
49450,-125,4,2,0,50,0,0
55850,-125,4,2,0,40,0,0
57450,-125,4,2,0,50,0,0
59050,-117.647058823529,4,2,0,60,0,0
62250,-100,4,2,0,70,0,1
84650,-133.333333333333,4,2,0,40,0,0
87850,-117.647058823529,4,2,0,50,0,0
103850,-125,4,2,0,40,0,0
113050,-100,4,2,0,50,0,0
113450,-117.647058823529,4,2,0,50,0,0
126250,-125,4,2,0,40,0,0
135850,-117.647058823529,4,2,0,50,0,0
139050,-100,4,2,0,70,0,1
161450,-117.647058823529,4,2,1,50,0,0
171050,-117.647058823529,4,2,1,55,0,0
174250,-100,4,2,0,65,0,0
199850,-100,4,2,0,70,0,1
225450,-125,4,2,0,60,0,0
237450,422.535211267606,4,2,0,60,1,0
237661,447.761194029851,4,2,0,60,1,0
237884,535.714285714286,4,2,0,60,1,0
238151,923.076923076923,4,2,0,60,1,0
238612,975.609756097561,4,2,0,60,1,0
238733,-125,4,2,0,40,0,0
240197,-125,4,2,0,30,0,0
241538,-125,4,2,0,20,0,0
243246,-125,4,2,0,10,0,0
243489,-125,4,2,0,30,0,0

[Colours]
Combo1 : 98,182,48
Combo2 : 228,102,27
Combo3 : 228,252,65
Combo4 : 74,255,237

[HitObjects]
72,198,1050,5,0,0:0:0:0:
72,198,1250,1,0,0:0:0:0:
114,294,1450,2,0,L|274:303,1,144,2|0,0:0|0:0,0:0:0:0:
324,224,2050,1,0,0:0:0:0:
324,224,2250,2,0,L|180:215,1,144,2|0,0:0|0:0,0:0:0:0:
132,135,2850,1,0,0:0:0:0:
132,135,3050,6,0,P|145:66|199:20,1,144,2|0,0:0|0:0,0:0:0:0:
313,21,3650,1,0,0:0:0:0:
313,20,3850,2,0,P|366:65|380:135,1,144,2|0,0:0|0:0,0:0:0:0:
315,215,4450,1,0,0:0:0:0:
217,193,4650,6,0,L|214:40,1,144,2|0,0:0|0:0,0:0:0:0:
113,84,5250,1,0,0:0:0:0:
113,84,5450,2,0,L|115:227,1,144,2|0,0:0|0:0,0:0:0:0:
125,327,6050,1,0,0:0:0:0:
125,327,6250,6,0,P|212:297|291:294,1,144,2|0,0:0|0:0,0:0:0:0:
361,314,6850,1,0,0:0:0:0:
421,227,7050,2,0,L|432:146,1,72,8|0,0:3|0:0,0:0:0:0:
301,108,7450,2,0,L|308:184,1,72,0|0,1:0|0:0,0:0:0:0:
185,248,7850,6,0,B|176:195|176:195|196:157|196:157|185:103,1,144,4|0,0:0|0:0,0:0:0:0:
74,182,8450,1,0,1:0:0:0:
30,274,8650,2,0,L|117:278,1,72,2|0,0:0|0:0,0:0:0:0:
145,188,9050,2,0,L|73:181,1,72,0|0,1:0|0:0,0:0:0:0:
84,358,9450,6,0,P|171:327|183:258,1,144,2|0,0:0|0:0,0:0:0:0:
221,145,10050,1,0,0:0:0:0:
221,145,10150,1,0,1:0:0:0:
221,145,10250,1,0,1:0:0:0:
267,286,10450,1,8,0:3:0:0:
151,216,10650,1,8,0:3:0:0:
312,159,10850,5,4,0:0:0:0:
256,192,11050,12,2,12650,0:0:0:0:
339,97,13316,6,0,P|342:66|345:53,2,24,0|0|0,0:0|0:0|1:0,0:0:0:0:
429,225,13650,1,0,1:0:0:0:
275,246,13850,1,0,1:0:0:0:
275,246,14250,6,0,L|170:228,1,76.5000014591217,4|0,0:0|0:0,0:0:0:0:
110,253,14650,1,0,1:0:0:0:
76,167,14850,1,0,0:0:0:0:
76,167,14950,1,0,0:0:0:0:
76,167,15050,2,0,P|85:122|88:88,1,76.5000014591217
18,242,15450,2,0,P|24:289|46:343,1,76.5000014591217,0|0,1:0|0:0,0:0:0:0:
135,353,15850,5,0,0:0:0:0:
195,258,16050,1,0,0:0:0:0:
321,336,16250,2,0,P|265:335|232:319,1,76.5000014591217,0|0,1:0|0:0,0:0:0:0:
230,316,16550,1,0,0:0:0:0:
220,299,16650,2,0,L|228:211,1,76.5000014591217
405,289,17050,2,0,L|398:365,1,76.5000014591217,0|0,1:0|0:0,0:0:0:0:
336,231,17450,6,0,P|378:204|406:200,1,76.5000014591217
291,145,17850,2,0,P|253:84|256:29,1,114.750002188683,0|0,1:0|1:0,0:0:0:0:
266,30,18250,2,0,L|353:39,1,76.5000014591217
400,118,18650,1,0,1:0:0:0:
191,162,18850,1,0,0:0:0:0:
191,162,19050,6,0,P|162:69|169:4,1,153.000002918243,0|0,0:0|1:0,0:0:0:0:
294,163,19650,1,0,0:0:0:0:
294,163,19750,1,0,1:0:0:0:
294,163,19850,2,0,P|288:193|274:249,1,76.5000014591217
119,274,20250,2,0,P|152:246|198:247,1,76.5000014591217,0|0,1:0|0:0,0:0:0:0:
277,359,20650,5,0,0:0:0:0:
187,328,20850,1,0,0:0:0:0:
326,247,21050,2,0,P|359:287|372:353,1,114.750002188683,0|0,1:0|0:0,0:0:0:0:
388,336,21450,2,0,P|414:286|432:268,1,76.5000014591217
317,170,21850,2,0,L|211:177,1,76.5000014591217,0|0,1:0|0:0,0:0:0:0:
106,162,22250,5,0,0:0:0:0:
195,91,22450,1,0,0:0:0:0:
167,225,22650,2,0,L|148:349,1,114.750002188683,0|0,1:0|1:0,0:0:0:0:
130,342,23050,1,0,0:0:0:0:
70,203,23250,1,0,0:0:0:0:
167,225,23450,1,0,1:0:0:0:
42,305,23650,1,0,0:0:0:0:
241,291,23850,6,0,P|309:288|399:344,1,153.000002918243,0|0,0:0|1:0,0:0:0:0:
300,201,24450,1,0,0:0:0:0:
300,201,24550,1,0,0:0:0:0:
300,201,24650,2,0,P|297:148|301:110,1,76.5000014591217
478,217,25050,2,0,P|432:206|389:185,1,76.5000014591217,0|0,1:0|0:0,0:0:0:0:
428,43,25450,5,0,0:0:0:0:
482,122,25650,1,0,0:0:0:0:
335,117,25850,2,0,P|319:44|325:-4,1,114.750002188683,0|0,1:0|1:0,0:0:0:0:
303,3,26250,2,0,L|208:17,1,76.5000014591217
134,165,26650,1,0,1:0:0:0:
201,104,26850,1,4,0:3:0:0:
53,135,27050,6,0,P|63:218|112:250,1,144,4|0,0:0|0:0,0:0:0:0:
200,214,27650,1,0,1:0:0:0:
280,260,27850,2,0,P|287:311|283:335,1,72
200,214,28250,2,0,P|199:165|212:130,1,72,0|0,1:0|0:0,0:0:0:0:
420,166,28650,6,0,B|375:197|323:148|282:178,1,144
415,258,29250,1,0,1:0:0:0:
415,258,29450,2,0,P|465:243|492:211,1,72
424,82,29850,2,0,P|374:97|347:129,1,72,0|0,1:0|0:0,0:0:0:0:
320,271,30250,5,0,0:0:0:0:
271,175,30450,1,0,0:0:0:0:
320,271,30650,2,0,L|318:354,1,72,0|0,0:0|1:0,0:0:0:0:
209,262,31050,1,0,0:0:0:0:
271,175,31250,1,0,0:0:0:0:
320,271,31450,1,0,1:0:0:0:
143,338,31650,1,0,0:0:0:0:
143,338,31750,1,0,0:0:0:0:
143,338,31850,6,0,B|119:291|119:291|123:189,1,144
159,82,32450,1,0,1:0:0:0:
45,37,32650,1,0,0:0:0:0:
159,82,32850,1,0,1:0:0:0:
52,155,33050,1,0,1:0:0:0:
159,82,33250,1,0,1:0:0:0:
257,202,33450,6,0,L|328:181,1,72,2|0,0:0|0:0,0:0:0:0:
420,154,33850,1,0,0:0:0:0:
302,293,34050,1,0,0:0:0:0:
302,293,34250,2,0,P|211:278|163:231,1,144,2|0,0:0|0:0,0:0:0:0:
203,49,34850,1,0,0:0:0:0:
292,75,35050,6,0,B|298:191|298:191|254:171,1,144,2|0,0:0|0:0,0:0:0:0:
187,140,35650,1,0,0:0:0:0:
377,118,35850,2,0,L|457:106,1,72,8|0,0:3|0:0,0:0:0:0:
461,119,36150,1,0,0:0:0:0:
474,130,36250,1,0,1:0:0:0:
340,200,36450,1,4,0:3:0:0:
307,44,36650,6,0,L|406:28,1,76.5000014591217,4|0,0:0|0:0,0:0:0:0:
258,122,37050,2,0,P|187:114|139:86,1,114.750002188683,0|0,1:0|0:0,0:0:0:0:
130,97,37450,2,0,P|107:129|99:186,1,76.5000014591217
141,295,37850,1,0,1:0:0:0:
120,174,38050,1,0,0:0:0:0:
67,313,38250,6,0,L|224:309,1,153.000002918243,2|0,0:0|1:0,0:0:0:0:
98,164,38850,1,0,0:0:0:0:
98,164,38950,1,0,1:0:0:0:
98,164,39050,2,0,L|8:168,1,76.5000014591217
106,18,39450,2,0,L|151:91,1,76.5000014591217,0|0,1:0|0:0,0:0:0:0:
51,88,39850,5,2,0:0:0:0:
200,20,40050,1,0,0:0:0:0:
47,196,40250,2,0,P|32:141|51:88,1,114.750002188683,0|0,1:0|0:0,0:0:0:0:
70,87,40650,2,0,L|157:95,1,76.5000014591217
79,282,41050,2,0,L|2:274,1,76.5000014591217,0|0,1:0|0:0,0:0:0:0:
190,180,41450,6,0,L|219:345,1,153.000002918243,2|0,0:0|1:0,0:0:0:0:
296,189,42050,1,2,0:0:0:0:
296,189,42150,1,2,0:0:0:0:
296,189,42250,2,0,P|289:135|254:98,1,76.5000014591217,2|0,0:0|0:0,0:0:0:0:
127,248,42650,1,0,1:0:0:0:
127,248,43050,6,0,L|223:271,1,76.5000014591217
349,206,43450,2,0,P|337:119|303:81,1,114.750002188683,0|0,1:0|0:0,0:0:0:0:
303,95,43850,2,0,L|274:180,1,76.5000014591217
175,86,44250,2,0,L|167:-1,1,76.5000014591217,0|0,1:0|0:0,0:0:0:0:
398,35,44650,6,0,P|428:113|419:191,1,153.000002918243,2|0,0:0|1:0,0:0:0:0:
242,212,45250,1,0,0:0:0:0:
242,212,45350,1,0,1:0:0:0:
242,212,45450,2,0,P|294:204|344:199,1,76.5000014591217
266,352,45850,1,0,1:0:0:0:
184,292,46050,1,0,0:0:0:0:
317,201,46250,6,0,P|341:245|346:284,1,76.5000014591217,2|0,0:0|0:0,0:0:0:0:
184,292,46650,2,0,L|37:298,1,114.750002188683,0|0,1:0|0:0,0:0:0:0:
60,313,47050,2,0,L|137:335,1,76.5000014591217
138,167,47450,2,0,L|58:194,1,76.5000014591217,0|0,1:0|0:0,0:0:0:0:
217,213,47850,6,0,B|244:164|244:164|202:120|233:61,1,153.000002918243,2|0,0:0|1:0,0:0:0:0:
425,86,48450,1,2,0:0:0:0:
425,86,48550,1,2,0:0:0:0:
425,86,48650,1,2,0:0:0:0:
377,205,48850,1,0,0:0:0:0:
292,107,49050,1,4,0:3:0:0:
425,86,49250,1,4,0:3:0:0:
286,192,49450,6,0,L|136:208,1,144,4|0,0:0|0:0,0:0:0:0:
90,47,50050,1,0,1:0:0:0:
60,133,50250,2,0,L|145:124,1,72
317,57,50650,1,0,1:0:0:0:
317,57,51050,6,0,P|372:109|372:196,1,144,2|0,0:0|0:0,0:0:0:0:
439,58,51650,1,0,1:0:0:0:
439,58,51850,2,0,L|424:143,1,72
281,220,52250,2,0,L|299:140,1,72,0|0,1:0|0:0,0:0:0:0:
384,294,52650,5,2,0:0:0:0:
272,231,52850,1,2,0:0:0:0:
365,207,53050,1,0,0:0:0:0:
290,317,53250,1,0,1:0:0:0:
442,342,53450,2,0,P|459:300|444:252,1,72
378,114,53850,1,0,1:0:0:0:
254,150,54050,1,0,0:0:0:0:
254,150,54150,1,0,0:0:0:0:
254,150,54250,6,0,B|251:201|251:201|267:236|267:236|263:309,1,144
185,263,54850,1,0,1:0:0:0:
339,184,55050,1,0,0:0:0:0:
184,111,55250,1,0,1:0:0:0:
291,262,55450,1,0,1:0:0:0:
277,96,55650,1,0,1:0:0:0:
174,228,55850,5,4,0:0:0:0:
174,228,56250,2,0,B|136:224|136:224|94:189,1,72,2|0,0:0|0:0,0:0:0:0:
126,85,56650,1,2,0:0:0:0:
201,126,56850,1,2,0:0:0:0:
274,172,57050,1,2,0:0:0:0:
274,172,57450,6,0,L|263:254,1,72,0|0,1:0|0:0,0:0:0:0:
369,350,57850,2,0,L|378:278,1,72,0|0,1:0|0:0,0:0:0:0:
409,110,58250,2,0,L|322:91,1,72,0|0,1:0|0:0,0:0:0:0:
203,156,58650,2,0,L|273:171,1,72,4|0,0:0|0:0,0:0:0:0:
146,73,59050,6,0,P|112:89|81:124,1,76.5000014591217,4|0,0:0|0:0,0:0:0:0:
265,97,59450,1,0,1:0:0:0:
226,10,59650,1,0,0:0:0:0:
168,160,59850,2,0,P|152:208|163:268,1,76.5000014591217,0|0,1:0|1:0,0:0:0:0:
280,324,60250,1,0,1:0:0:0:
247,217,60450,1,0,1:0:0:0:
178,343,60650,5,0,1:0:0:0:
247,217,60850,1,0,1:0:0:0:
79,243,61050,1,0,1:0:0:0:
178,343,61250,1,0,1:0:0:0:
150,157,61450,2,0,L|139:68,1,76.5000014591217
79,243,61850,1,0,1:0:0:0:
247,218,62050,1,0,1:0:0:0:
247,218,62150,1,0,1:0:0:0:
247,218,62250,6,0,L|352:200,1,90,4|0,0:0|0:0,0:0:0:0:
486,79,62650,2,0,P|433:77|392:100,1,90,0|0,1:0|0:0,0:0:0:0:
378,107,62950,1,0,0:0:0:0:
360,126,63050,1,0,0:0:0:0:
364,278,63250,1,0,0:0:0:0:
453,256,63450,2,0,P|460:192|453:166,1,90,0|0,1:0|0:0,0:0:0:0:
277,241,63850,6,0,P|275:311|300:351,1,90
297,150,64250,2,0,P|247:105|178:106,1,135,0|0,1:0|0:0,0:0:0:0:
154,115,64650,1,0,0:0:0:0:
126,277,64850,1,0,0:0:0:0:
215,191,65050,1,0,1:0:0:0:
65,167,65250,1,0,0:0:0:0:
71,333,65450,6,0,P|120:355|175:333,1,90
235,158,65850,2,0,L|215:252,1,90,0|0,1:0|0:0,0:0:0:0:
211,272,66150,1,0,0:0:0:0:
225,294,66250,2,0,P|287:304|333:272,1,90
463,198,66650,1,0,1:0:0:0:
463,198,66850,1,0,0:0:0:0:
356,101,67050,6,0,L|336:195,1,90
440,361,67450,2,0,P|458:287|416:225,1,135,0|0,1:0|0:0,0:0:0:0:
405,234,67850,2,0,P|464:249|519:249,1,90
455,101,68250,1,0,1:0:0:0:
256,131,68450,1,0,1:0:0:0:
256,131,68550,1,0,1:0:0:0:
256,131,68650,5,4,1:2:0:0:
288,235,68850,1,0,0:0:0:0:
363,155,69050,2,0,L|352:63,1,90,0|0,1:0|0:0,0:0:0:0:
340,47,69350,1,0,0:0:0:0:
316,34,69450,2,0,P|274:17|205:36,1,90
95,146,69850,2,0,P|151:142|194:118,1,90,0|0,1:0|0:0,0:0:0:0:
114,39,70250,5,0,0:0:0:0:
210,116,70450,1,0,0:0:0:0:
28,53,70650,2,0,L|16:148,1,90,0|0,1:0|0:0,0:0:0:0:
36,153,70950,1,0,0:0:0:0:
57,157,71050,2,0,P|101:189|120:237,1,90
35,243,71450,1,0,1:0:0:0:
224,177,71650,1,0,0:0:0:0:
224,177,71750,1,0,0:0:0:0:
224,177,71850,6,0,L|321:163,1,90,4|0,0:0|0:0,0:0:0:0:
439,334,72250,2,0,L|349:346,1,90,0|0,1:0|0:0,0:0:0:0:
327,345,72550,1,0,0:0:0:0:
306,334,72650,2,0,L|283:246,1,90
386,102,73050,2,0,L|409:190,1,90,0|0,1:0|0:0,0:0:0:0:
260,95,73450,6,0,B|281:41|281:41|313:10,1,90,4|0,0:0|0:0,0:0:0:0:
494,189,73850,2,0,B|473:243|473:243|441:274,1,90,4|0,0:0|0:0,0:0:0:0:
183,309,74250,1,0,1:0:0:0:
148,299,74350,1,0,0:0:0:0:
120,275,74450,1,0,0:0:0:0:
103,243,74550,1,0,1:0:0:0:
98,207,74650,5,0,1:0:0:0:
103,166,74750,1,0,1:0:0:0:
124,131,74850,1,0,1:0:0:0:
158,109,74950,1,0,1:0:0:0:
197,98,75050,6,0,P|225:130|245:179,1,90,4|0,0:0|0:0,0:0:0:0:
78,350,75450,2,0,P|91:302|134:268,1,90,0|0,1:0|0:0,0:0:0:0:
141,273,75750,1,0,0:0:0:0:
163,273,75850,2,0,P|210:273|272:276,1,90
404,321,76250,2,0,P|368:346|315:345,1,90,0|0,1:0|0:0,0:0:0:0:
396,171,76650,5,0,0:0:0:0:
466,244,76850,1,0,0:0:0:0:
312,236,77050,2,0,P|278:135|290:98,1,135,0|0,1:0|0:0,0:0:0:0:
294,91,77450,1,0,0:0:0:0:
378,189,77650,1,0,0:0:0:0:
197,167,77850,1,0,1:0:0:0:
290,226,78050,1,0,0:0:0:0:
290,226,78150,1,0,0:0:0:0:
290,226,78250,6,0,P|289:278|280:334,1,90
75,203,78650,2,0,P|117:174|180:180,1,90,0|0,1:0|0:0,0:0:0:0:
176,176,78950,1,0,1:0:0:0:
185,196,79050,2,0,P|184:248|175:304,1,90
48,119,79450,2,0,P|98:93|150:89,1,90,0|0,1:0|0:0,0:0:0:0:
287,126,79850,5,0,0:0:0:0:
123,178,80050,1,0,0:0:0:0:
336,57,80250,2,0,P|375:117|345:188,1,135,0|0,1:0|1:0,0:0:0:0:
366,196,80650,2,0,P|411:168|472:149,1,90
451,283,81050,1,0,1:0:0:0:
294,284,81250,1,0,1:0:0:0:
294,284,81350,1,0,1:0:0:0:
294,284,81450,5,4,0:0:0:0:
278,155,81650,1,0,0:0:0:0:
188,230,81850,2,0,P|145:231|97:216,1,90,0|0,1:0|0:0,0:0:0:0:
78,223,82150,1,0,0:0:0:0:
78,223,82250,2,0,L|70:126,1,90
225,49,82650,2,0,L|232:138,1,90,0|0,1:0|0:0,0:0:0:0:
394,222,83050,5,0,1:0:0:0:
394,222,83450,2,0,L|298:240,1,90,4|0,0:0|0:0,0:0:0:0:
185,93,83850,1,0,1:0:0:0:
323,138,84050,1,0,0:0:0:0:
185,233,84250,1,0,1:0:0:0:
185,93,84450,1,0,0:0:0:0:
305,238,84650,5,0,0:0:0:0:
372,209,87050,5,8,0:3:0:0:
257,236,87250,1,8,0:3:0:0:
372,209,87450,2,0,L|375:115,1,67.5000025749208,0|0,1:0|0:0,0:0:0:0:
257,236,87850,6,0,P|244:275|255:328,1,76.5000014591217,4|0,0:0|0:0,0:0:0:0:
331,358,88250,1,0,0:0:0:0:
372,209,88450,1,2,1:2:0:0:
257,236,88650,2,0,L|157:243,1,76.5000014591217
140,99,89050,1,0,1:0:0:0:
78,166,89250,1,0,0:0:0:0:
225,142,89450,6,0,L|333:131,1,76.5000014591217,2|0,0:0|0:0,0:0:0:0:
405,165,89850,1,0,0:0:0:0:
295,244,90050,1,0,1:0:0:0:
412,304,90250,1,0,1:0:0:0:
384,174,90450,1,0,0:0:0:0:
274,255,90650,1,0,1:0:0:0:
406,338,90850,1,0,0:0:0:0:
406,338,90950,1,0,0:0:0:0:
406,338,91050,6,0,P|457:337|503:308,1,76.5000014591217,4|0,0:0|0:0,0:0:0:0:
472,163,91450,2,0,P|419:159|348:195,1,114.750002188683,0|0,1:0|0:0,0:0:0:0:
346,191,91850,2,0,L|329:99,1,76.5000014591217
421,241,92250,2,0,L|417:333,1,76.5000014591217,0|0,1:0|0:0,0:0:0:0:
254,187,92650,6,0,P|237:92|263:31,1,153.000002918243,2|0,0:0|1:0,0:0:0:0:
338,219,93250,1,0,0:0:0:0:
335,237,93350,1,0,1:0:0:0:
326,255,93450,2,0,P|276:273|236:277,1,76.5000014591217
90,306,93850,2,0,L|179:320,1,76.5000014591217,2|0,1:2|0:0,0:0:0:0:
115,216,94250,5,0,0:0:0:0:
23,233,94450,1,0,0:0:0:0:
165,317,94650,2,0,P|216:255|218:199,1,114.750002188683,0|0,1:0|0:0,0:0:0:0:
209,207,95050,2,0,P|168:211|123:211,1,76.5000014591217
40,79,95450,2,0,P|91:101|111:137,1,76.5000014591217,0|0,1:0|0:0,0:0:0:0:
26,316,95850,6,0,P|3:225|36:173,1,153.000002918243,2|0,0:0|1:0,0:0:0:0:
173,85,96450,1,2,0:0:0:0:
173,85,96550,1,2,0:0:0:0:
173,85,96650,2,0,L|264:86,1,76.5000014591217,2|0,0:2|0:0,0:0:0:0:
336,218,97050,1,0,1:0:0:0:
336,218,97450,5,0,0:0:0:0:
241,167,97650,1,0,0:0:0:0:
410,141,97850,2,0,L|420:255,1,114.750002188683,0|0,1:0|0:0,0:0:0:0:
410,271,98250,2,0,P|366:301|327:305,1,76.5000014591217
241,167,98650,2,0,P|204:155|154:162,1,76.5000014591217,0|0,1:0|0:0,0:0:0:0:
43,287,99050,6,0,P|117:313|204:273,1,153.000002918243,2|0,0:0|1:0,0:0:0:0:
55,122,99650,1,0,0:0:0:0:
55,122,99750,1,0,1:0:0:0:
55,122,99850,2,0,L|45:204,1,76.5000014591217
200,149,100250,1,2,1:2:0:0:
141,64,100450,1,0,0:0:0:0:
135,212,100650,6,0,P|173:237|227:228,1,76.5000014591217
424,174,101050,2,0,L|301:194,1,114.750002188683,0|0,1:0|0:0,0:0:0:0:
292,187,101450,1,0,0:0:0:0:
351,101,101650,1,0,0:0:0:0:
354,266,101850,2,0,L|274:280,1,76.5000014591217,0|0,1:0|0:0,0:0:0:0:
433,109,102250,6,0,B|469:121|490:158|490:158|494:201|470:246,1,153.000002918243,2|0,0:0|1:0,0:0:0:0:
381,191,102850,1,2,0:0:0:0:
381,191,102950,1,2,0:0:0:0:
381,191,103050,1,2,0:0:0:0:
353,60,103250,1,0,0:0:0:0:
296,133,103450,1,4,0:3:0:0:
433,109,103650,1,4,0:3:0:0:
213,64,103850,6,0,P|196:151|191:226,1,144,4|0,0:0|0:0,0:0:0:0:
169,303,104450,1,0,1:0:0:0:
96,173,104650,2,0,L|17:157,1,72
191,206,105050,2,0,L|261:191,1,72,0|0,1:0|0:0,0:0:0:0:
114,254,105450,6,0,B|96:310|121:353|121:353|161:368,1,144
191,206,106050,1,0,1:0:0:0:
60,179,106250,2,0,P|34:217|24:255,1,72
147,127,106650,2,0,P|173:89|183:51,1,72,0|0,1:0|0:0,0:0:0:0:
28,21,107050,5,2,0:0:0:0:
41,128,107250,1,0,0:0:0:0:
147,127,107450,2,0,P|205:123|225:117,1,72,0|0,0:0|1:0,0:0:0:0:
369,62,107850,1,0,0:0:0:0:
286,183,108050,1,0,0:0:0:0:
266,38,108250,1,0,1:0:0:0:
383,163,108450,1,0,0:0:0:0:
383,163,108550,1,0,0:0:0:0:
383,163,108650,6,0,P|391:240|369:312,1,144
280,355,109250,1,0,1:0:0:0:
253,202,109450,1,0,1:0:0:0:
280,355,109650,1,0,0:0:0:0:
170,274,109850,1,0,1:0:0:0:
356,247,110050,1,0,0:0:0:0:
170,274,110250,5,4,0:0:0:0:
385,151,111050,5,0,1:0:0:0:
105,85,111850,5,0,1:0:0:0:
392,39,112650,5,0,1:0:0:0:
395,56,112750,1,0,1:0:0:0:
399,73,112850,1,0,1:0:0:0:
400,90,112950,1,0,1:0:0:0:
403,107,113050,2,0,L|501:118,1,90
361,178,113450,6,0,P|321:179|272:167,1,76.5000014591217,4|0,0:0|0:0,0:0:0:0:
210,75,113850,1,0,1:0:0:0:
92,93,114050,1,0,0:0:0:0:
92,93,114150,1,0,0:0:0:0:
92,93,114250,2,0,P|48:166|101:234,1,153.000002918243,2|2,0:0|1:2,0:0:0:0:
265,235,114850,1,0,0:0:0:0:
172,196,115050,6,0,L|170:273,1,76.5000014591217,2|0,0:0|0:0,0:0:0:0:
306,143,115450,1,0,1:0:0:0:
137,111,115650,1,0,0:0:0:0:
137,111,115750,1,0,0:0:0:0:
137,111,115850,2,0,L|42:90,1,76.5000014591217,2|0,0:0|0:0,0:0:0:0:
134,201,116250,1,0,1:0:0:0:
175,24,116450,1,0,0:0:0:0:
134,201,116650,6,0,B|192:224|192:224|312:212,1,153.000002918243,2|2,0:0|1:2,0:0:0:0:
414,107,117250,1,0,0:0:0:0:
414,107,117350,1,0,0:0:0:0:
414,107,117450,2,0,L|404:183,1,76.5000014591217,2|0,0:0|0:0,0:0:0:0:
407,327,117850,1,2,1:2:0:0:
488,214,118050,1,0,0:0:0:0:
310,237,118250,6,0,L|323:327,1,76.5000014591217,2|0,0:0|0:0,0:0:0:0:
419,288,118650,1,2,1:2:0:0:
205,244,118850,1,0,0:0:0:0:
205,244,118950,1,0,0:0:0:0:
205,244,119050,2,0,P|133:247|70:309,1,153.000002918243,2|0,0:0|1:0,0:0:0:0:
234,343,119650,1,0,0:0:0:0:
289,185,119850,5,2,0:0:0:0:
205,244,120050,1,0,0:0:0:0:
331,291,120250,1,2,1:2:0:0:
199,153,120450,1,0,0:0:0:0:
199,153,120550,1,0,0:0:0:0:
199,153,120650,2,0,B|132:131|68:160|68:160|90:184,1,153.000002918243,2|0,0:0|1:0,0:0:0:0:
156,251,121250,1,2,0:0:0:0:
245,88,121450,6,0,P|201:73|154:75,1,76.5000014591217
79,85,121850,1,0,1:0:0:0:
275,175,122050,1,0,0:0:0:0:
275,175,122150,1,0,0:0:0:0:
275,175,122250,2,0,P|328:164|373:139,1,76.5000014591217,2|0,0:0|0:0,0:0:0:0:
130,176,122650,1,2,1:2:0:0:
132,194,122750,1,2,0:0:0:0:
136,212,122850,1,2,0:0:0:0:
282,340,123050,6,0,L|268:235,1,76.5000014591217,2|0,0:0|0:0,0:0:0:0:
178,316,123450,1,0,1:0:0:0:
361,301,123650,1,0,0:0:0:0:
361,301,123750,1,0,0:0:0:0:
361,301,123850,2,0,L|350:220,1,76.5000014591217
324,75,124250,1,0,1:0:0:0:
267,160,124450,1,0,0:0:0:0:
408,146,124650,6,0,P|453:143|488:126,1,76.5000014591217,2|0,0:0|0:0,0:0:0:0:
324,75,125050,2,0,L|233:59,1,76.5000014591217,2|0,1:2|0:0,0:0:0:0:
229,64,125350,1,0,0:0:0:0:
210,67,125450,1,0,0:0:0:0:
108,197,125650,1,0,0:0:0:0:
190,142,125850,1,4,0:3:0:0:
95,99,126050,1,4,0:3:0:0:
196,233,126250,6,0,P|277:237|356:226,1,144,4|0,0:0|0:0,0:0:0:0:
431,136,126850,1,0,1:0:0:0:
325,158,127050,2,0,L|342:244,1,72
436,231,127450,1,0,1:0:0:0:
240,145,127650,1,0,0:0:0:0:
240,145,127750,1,0,0:0:0:0:
240,145,127850,6,0,L|269:302,1,144,2|0,0:0|0:0,0:0:0:0:
171,345,128450,1,0,1:0:0:0:
93,253,128650,2,0,L|168:217,1,72
59,357,129050,2,0,L|-12:309,1,72,0|0,1:0|0:0,0:0:0:0:
35,163,129450,5,6,0:0:0:0:
93,253,129650,1,0,0:0:0:0:
116,107,129850,2,0,L|129:22,1,72,0|0,0:0|1:0,0:0:0:0:
35,163,130250,1,0,0:0:0:0:
159,195,130450,1,0,0:0:0:0:
116,107,130650,1,0,1:0:0:0:
87,251,130850,1,0,0:0:0:0:
87,251,130950,1,0,0:0:0:0:
87,251,131050,6,0,P|126:318|203:318,1,144
279,283,131650,1,0,1:0:0:0:
200,136,131850,1,0,0:0:0:0:
179,232,132050,1,0,1:0:0:0:
349,196,132250,1,0,1:0:0:0:
292,116,132450,1,8,0:3:0:0:
279,283,132650,5,4,0:0:0:0:
279,283,133050,2,0,L|263:193,1,72,2|0,0:0|0:0,0:0:0:0:
206,155,133450,1,2,0:0:0:0:
172,234,133650,1,2,0:0:0:0:
135,311,133850,1,2,0:0:0:0:
135,311,134250,6,0,P|79:326|52:326,1,72,0|0,1:0|0:0,0:0:0:0:
71,149,134650,2,0,P|127:134|154:134,1,72,0|0,1:0|0:0,0:0:0:0:
285,243,135050,2,0,P|227:236|202:227,1,72,0|0,1:0|0:0,0:0:0:0:
279,64,135450,2,0,P|336:70|361:79,1,72,4|0,0:0|0:0,0:0:0:0:
406,260,135850,6,0,P|333:325|263:323,1,153.000002918243,4|0,0:0|1:0,0:0:0:0:
173,238,136450,1,0,0:0:0:0:
72,280,136650,2,0,L|53:363,1,76.5000014591217,0|0,1:0|0:0,0:0:0:0:
172,214,137050,2,0,L|154:133,1,76.5000014591217,0|0,1:0|0:0,0:0:0:0:
71,45,137450,5,0,1:0:0:0:
155,139,137650,1,0,1:0:0:0:
309,88,137850,1,0,1:0:0:0:
209,43,138050,1,0,1:0:0:0:
288,205,138250,1,0,1:0:0:0:
306,207,138350,1,0,0:0:0:0:
325,206,138450,1,0,0:0:0:0:
343,202,138550,1,0,1:0:0:0:
361,195,138650,5,0,1:0:0:0:
386,178,138750,1,0,1:0:0:0:
410,159,138850,1,0,1:0:0:0:
426,132,138950,1,0,1:0:0:0:
432,96,139050,6,0,L|343:66,1,90,4|0,0:0|0:0,0:0:0:0:
230,264,139450,2,0,L|315:297,1,90,0|0,1:0|0:0,0:0:0:0:
334,287,139750,1,0,0:0:0:0:
353,276,139850,2,0,P|383:231|375:177,1,90
211,87,140250,2,0,L|222:182,1,90,0|0,1:0|0:0,0:0:0:0:
153,314,140650,6,0,P|114:304|61:311,1,90
240,353,141050,1,0,1:0:0:0:
192,222,141250,1,0,0:0:0:0:
192,222,141350,1,0,0:0:0:0:
192,222,141450,1,0,0:0:0:0:
153,314,141650,1,0,0:0:0:0:
287,259,141850,1,0,1:0:0:0:
116,153,142050,1,0,0:0:0:0:
116,153,142150,1,0,0:0:0:0:
116,153,142250,6,0,P|92:199|93:246,1,90
205,101,142650,1,0,1:0:0:0:
118,52,142850,1,0,0:0:0:0:
118,52,142950,1,0,0:0:0:0:
118,52,143050,2,0,P|65:65|32:100,1,90
205,101,143450,1,0,1:0:0:0:
205,6,143650,1,0,0:0:0:0:
116,153,143850,6,0,L|146:251,1,90
376,214,144250,2,0,P|311:197|248:218,1,135,0|0,1:0|1:0,0:0:0:0:
231,232,144650,1,0,0:0:0:0:
201,336,144850,1,0,0:0:0:0:
303,315,145050,1,0,1:0:0:0:
180,136,145250,1,0,1:0:0:0:
180,136,145350,1,0,1:0:0:0:
180,136,145450,5,4,0:0:0:0:
231,232,145650,1,0,0:0:0:0:
126,236,145850,2,0,P|71:240|30:232,1,90,0|0,1:0|0:0,0:0:0:0:
36,234,146150,1,0,0:0:0:0:
36,234,146250,2,0,P|26:180|39:126,1,90
219,115,146650,2,0,P|232:166|219:218,1,90,0|0,1:0|0:0,0:0:0:0:
126,236,147050,5,0,0:0:0:0:
308,165,147250,1,0,0:0:0:0:
126,114,147450,2,0,P|141:58|175:35,1,90,0|0,1:0|0:0,0:0:0:0:
189,41,147750,1,0,0:0:0:0:
211,44,147850,2,0,P|267:37|308:22,1,90
431,34,148250,1,0,1:0:0:0:
303,115,148450,1,0,0:0:0:0:
303,115,148550,1,0,0:0:0:0:
303,115,148650,6,0,P|277:162|276:217,1,90,4|0,0:0|0:0,0:0:0:0:
465,246,149050,2,0,P|460:149|430:114,1,135,0|0,1:0|1:0,0:0:0:0:
417,114,149450,1,0,0:0:0:0:
293,247,149650,1,0,0:0:0:0:
360,312,149850,2,0,B|400:324|400:324|469:308,1,90,0|0,1:0|0:0,0:0:0:0:
271,160,150250,6,0,L|297:261,1,90,4|0,0:0|0:0,0:0:0:0:
395,94,150650,2,0,L|298:58,1,90,4|0,0:0|0:0,0:0:0:0:
116,193,151050,1,0,1:0:0:0:
117,228,151150,1,0,0:0:0:0:
124,263,151250,1,0,0:0:0:0:
146,290,151350,1,0,0:0:0:0:
177,315,151450,5,0,1:0:0:0:
214,330,151550,1,0,1:0:0:0:
254,331,151650,1,0,1:0:0:0:
291,316,151750,1,0,1:0:0:0:
309,280,151850,6,0,L|305:182,1,90,4|0,0:0|0:0,0:0:0:0:
412,14,152250,2,0,L|416:157,1,135,0|0,1:0|1:0,0:0:0:0:
391,173,152650,2,0,P|349:189|305:190,1,90
207,125,153050,2,0,P|162:125|121:141,1,90,0|0,1:0|0:0,0:0:0:0:
87,303,153450,5,0,0:0:0:0:
39,207,153650,1,0,0:0:0:0:
87,303,153850,2,0,L|221:342,1,135,0|0,1:0|1:0,0:0:0:0:
238,337,154250,1,0,0:0:0:0:
213,160,154450,1,0,0:0:0:0:
145,244,154650,1,0,1:0:0:0:
308,229,154850,1,0,0:0:0:0:
308,229,154950,1,0,0:0:0:0:
308,229,155050,6,0,P|331:171|329:134,1,90
250,313,155450,1,0,1:0:0:0:
393,300,155650,1,0,0:0:0:0:
393,300,155750,1,0,0:0:0:0:
393,300,155850,2,0,P|439:290|487:252,1,90
418,109,156250,1,0,1:0:0:0:
384,208,156450,1,0,0:0:0:0:
504,164,156650,6,0,L|512:59,1,90
335,144,157050,2,0,P|299:202|330:268,1,135,0|0,1:0|1:0,0:0:0:0:
340,271,157450,1,0,0:0:0:0:
445,204,157650,1,0,0:0:0:0:
335,144,157850,1,0,1:0:0:0:
282,330,158050,1,0,1:0:0:0:
282,330,158150,1,0,1:0:0:0:
282,330,158250,6,0,P|321:351|371:349,1,90,4|0,0:0|0:0,0:0:0:0:
240,246,158650,2,0,L|97:281,1,135,0|0,1:0|1:0,0:0:0:0:
86,281,159050,2,0,P|68:226|73:182,1,90
240,246,159450,2,0,L|248:353,1,90,0|0,1:0|0:0,0:0:0:0:
381,226,159850,5,0,1:0:0:0:
381,226,160250,2,0,B|415:158|346:107|394:29,1,180,4|0,0:0|1:0,0:0:0:0:
460,91,160850,1,4,0:3:0:0:
299,182,161050,1,4,0:3:0:0:
468,214,161250,1,4,0:3:0:0:
305,99,161450,6,0,L|141:100,2,153.000002918243,4|8|8,0:0|0:0|0:0,0:0:0:0:
393,61,162450,1,8,0:0:0:0:
315,4,162650,1,8,0:0:0:0:
305,99,162850,1,0,0:0:0:0:
452,119,163050,6,0,P|472:95|472:39,1,76.5000014591217
368,175,163450,2,0,P|348:199|348:255,1,76.5000014591217,8|0,0:0|0:0,0:0:0:0:
386,344,163850,1,8,0:0:0:0:
429,231,164050,1,8,0:0:0:0:
261,256,164250,2,0,L|270:348,1,76.5000014591217,4|0,0:3|0:0,0:0:0:0:
211,177,164650,6,0,P|142:143|64:155,1,153.000002918243,4|8,0:0|0:0,0:0:0:0:
39,240,165250,1,0,0:0:0:0:
32,77,165450,1,8,0:0:0:0:
39,240,165650,1,8,0:0:0:0:
173,249,165850,2,0,P|212:254|274:244,1,76.5000014591217,8|0,0:0|0:0,0:0:0:0:
358,121,166250,6,0,P|298:114|257:116,1,76.5000014591217,8|0,0:0|0:0,0:0:0:0:
183,125,166650,1,8,0:0:0:0:
311,197,166850,1,0,0:0:0:0:
163,214,167050,1,8,0:0:0:0:
282,114,167250,1,8,0:0:0:0:
247,248,167450,2,0,L|260:330,1,76.5000014591217,4|0,0:3|0:0,0:0:0:0:
262,342,167750,1,0,0:0:0:0:
262,342,167850,6,0,P|339:286|396:278,1,153.000002918243,4|8,0:0|0:0,0:0:0:0:
486,319,168450,1,0,0:0:0:0:
388,201,168650,1,8,0:0:0:0:
387,361,168850,1,8,0:0:0:0:
299,219,169050,2,0,P|304:163|329:127,1,76.5000014591217,8|0,0:0|0:0,0:0:0:0:
483,130,169450,5,8,0:0:0:0:
388,201,169650,1,0,0:0:0:0:
466,118,169850,1,8,0:0:0:0:
403,209,170050,1,4,0:0:0:0:
377,89,170250,2,0,L|364:1,1,76.5000014591217
260,194,170650,2,0,L|247:118,1,76.5000014591217,0|0,1:0|0:0,0:0:0:0:
488,186,171050,6,0,B|435:191|435:191|394:173|394:173|340:176,1,153.000002918243,4|0,1:2|1:0,0:0:0:0:
184,227,171650,1,0,0:0:0:0:
262,292,171850,2,0,L|356:281,1,76.5000014591217,0|0,1:0|0:0,0:0:0:0:
247,118,172250,2,0,L|160:128,1,76.5000014591217,0|0,1:0|0:0,0:0:0:0:
103,292,172650,5,0,1:0:0:0:
209,206,172850,1,0,1:0:0:0:
76,162,173050,1,0,1:0:0:0:
195,313,173250,1,0,1:0:0:0:
290,190,173450,1,0,1:0:0:0:
163,165,173650,1,0,1:0:0:0:
162,195,173750,1,0,1:0:0:0:
163,225,173850,1,0,1:0:0:0:
174,253,173950,1,0,1:0:0:0:
190,278,174050,1,0,1:0:0:0:
212,299,174150,1,0,1:0:0:0:
247,306,174250,6,0,P|330:269|372:186,1,180,4|0,0:0|1:0,0:0:0:0:
443,70,174850,1,0,0:0:0:0:
443,70,174950,1,0,0:0:0:0:
443,70,175050,2,0,P|484:113|503:157,1,90,2|0,0:1|0:0,0:0:0:0:
426,303,175450,2,0,P|440:252|468:219,1,90,0|0,1:0|0:0,0:0:0:0:
318,312,175850,6,0,L|210:328,1,90,2|0,0:1|0:0,0:0:0:0:
68,266,176250,2,0,P|141:276|200:229,1,135,2|0,1:0|0:0,0:0:0:0:
207,229,176650,1,0,0:0:0:0:
93,34,176850,2,0,B|86:77|86:77|154:124|117:194,1,180,2|0,0:1|0:0,0:0:0:0:
39,154,177450,5,2,0:1:0:0:
203,87,177650,1,0,0:0:0:0:
266,231,177850,2,0,P|175:224|128:194,1,135,0|0,1:0|1:0,0:0:0:0:
117,194,178250,2,0,L|133:302,1,90,2|0,0:1|0:0,0:0:0:0:
323,96,178650,2,0,L|176:81,1,135,0|0,1:0|0:0,0:0:0:0:
166,81,179050,6,0,B|217:83|217:83|255:56,1,90,2|0,0:1|0:0,0:0:0:0:
95,21,179450,1,0,1:0:0:0:
195,179,179650,1,2,0:1:0:0:
195,179,179750,1,0,0:0:0:0:
195,179,179850,2,0,L|296:228,1,90
449,155,180250,2,0,L|352:180,1,90,0|0,1:0|0:0,0:0:0:0:
183,291,180650,5,4,0:0:0:0:
291,342,180850,1,0,0:0:0:0:
275,218,181050,1,2,1:0:0:0:
98,224,181250,1,0,0:0:0:0:
98,224,181350,1,0,0:0:0:0:
98,224,181450,2,0,B|50:297|93:356|93:356|145:373,1,180,2|2,0:1|1:0,0:0:0:0:
197,285,182050,1,0,0:0:0:0:
192,152,182250,6,0,L|95:121,1,90,2|0,0:1|0:0,0:0:0:0:
104,147,182550,1,0,0:0:0:0:
102,169,182650,1,0,1:0:0:0:
262,210,182850,2,0,B|323:192|323:192|326:121|388:104,1,180,2|0,0:1|0:0,0:0:0:0:
413,193,183450,1,0,1:0:0:0:
285,64,183650,1,2,0:1:0:0:
471,31,183850,6,0,B|518:84|498:172|498:172|454:126,1,180,4|2,0:0|1:0,0:0:0:0:
367,75,184450,1,0,0:0:0:0:
324,258,184650,1,2,0:1:0:0:
412,180,184850,1,0,0:0:0:0:
271,143,185050,1,2,1:0:0:0:
412,180,185250,1,0,0:0:0:0:
221,240,185450,6,0,L|236:342,1,90,0|0,1:0|0:0,0:0:0:0:
431,313,185850,2,0,L|409:162,1,135,4|0,1:2|0:0,0:0:0:0:
406,157,186250,1,0,1:0:0:0:
398,135,186350,1,0,0:0:0:0:
388,114,186450,1,0,0:0:0:0:
374,96,186550,1,0,0:0:0:0:
353,87,186650,5,0,1:0:0:0:
317,93,186750,1,0,1:0:0:0:
311,128,186850,1,0,1:0:0:0:
332,156,186950,1,0,1:0:0:0:
365,168,187050,6,0,L|460:142,1,90,4|0,0:0|0:0,0:0:0:0:
315,53,187450,1,2,1:0:0:0:
277,246,187650,1,0,0:0:0:0:
277,246,187750,1,0,0:0:0:0:
277,246,187850,1,0,0:0:0:0:
378,280,188050,1,2,0:1:0:0:
365,168,188250,2,0,L|350:56,1,90,2|0,1:0|0:0,0:0:0:0:
461,232,188650,6,0,P|476:277|461:328,1,90,2|0,0:1|0:0,0:0:0:0:
245,301,189050,2,0,L|398:277,1,135,2|0,1:0|1:0,0:0:0:0:
388,302,189450,1,0,0:0:0:0:
285,221,189650,1,0,0:0:0:0:
285,221,189750,1,0,0:0:0:0:
285,221,189850,2,0,P|294:158|320:117,1,90,0|0,1:0|0:0,0:0:0:0:
450,95,190250,5,0,0:0:0:0:
388,197,190450,1,0,0:0:0:0:
212,181,190650,2,0,P|232:110|277:57,1,135,0|0,1:0|1:0,0:0:0:0:
292,64,191050,2,0,L|183:41,1,90,2|0,0:1|0:0,0:0:0:0:
91,83,191450,1,0,1:0:0:0:
212,181,191650,6,0,B|277:173|277:173|319:142|319:142|392:129,1,180,2|0,0:1|0:0,0:0:0:0:
271,260,192250,2,0,L|126:271,1,135,2|0,1:0|1:0,0:0:0:0:
120,254,192650,1,2,0:1:0:0:
67,160,192850,1,0,0:0:0:0:
200,238,193050,1,2,1:0:0:0:
66,312,193250,1,0,0:0:0:0:
169,141,193450,5,4,0:0:0:0:
220,324,193650,1,0,0:0:0:0:
220,324,193750,1,0,0:0:0:0:
220,324,193850,2,0,L|114:339,1,90,2|0,1:0|0:0,0:0:0:0:
108,332,194150,1,0,0:0:0:0:
88,320,194250,2,0,P|43:262|41:234,1,90,2|0,0:1|0:0,0:0:0:0:
58,135,194650,1,0,1:0:0:0:
218,240,194850,6,0,B|279:207|280:123|280:123|232:96,1,180,2|0,0:1|0:0,0:0:0:0:
147,166,195450,1,0,1:0:0:0:
179,330,195650,1,0,0:0:0:0:
179,330,195750,1,0,0:0:0:0:
179,330,195850,1,2,0:1:0:0:
327,252,196050,1,0,0:0:0:0:
327,252,196150,1,0,0:0:0:0:
327,252,196250,2,0,L|231:240,1,90,2|0,1:0|0:0,0:0:0:0:
374,344,196650,5,4,0:0:0:0:
439,251,196850,1,2,0:1:0:0:
369,162,197050,1,0,1:0:0:0:
351,147,197150,1,0,0:0:0:0:
329,139,197250,1,0,0:0:0:0:
306,135,197350,1,0,0:0:0:0:
283,138,197450,1,0,0:0:0:0:
262,147,197550,1,0,0:0:0:0:
245,161,197650,1,0,0:0:0:0:
233,180,197750,1,0,0:0:0:0:
224,200,197850,2,0,L|203:265,1,45,0|0,1:0|0:0,0:0:0:0:
143,296,198050,2,0,L|136:238,1,45
69,204,198250,6,0,P|34:273|63:354,1,135,2|0,0:1|1:0,0:0:0:0:
62,340,198650,1,0,0:0:0:0:
227,350,198850,1,0,1:0:0:0:
265,220,199050,1,0,1:0:0:0:
137,251,199250,1,0,1:0:0:0:
341,314,199450,1,0,1:0:0:0:
341,314,199550,1,0,1:0:0:0:
341,314,199650,1,0,1:0:0:0:
460,171,199850,6,0,P|471:229|457:273,1,90,4|0,0:0|0:0,0:0:0:0:
336,117,200250,2,0,P|369:68|414:49,1,90,0|0,1:0|0:0,0:0:0:0:
417,52,200550,1,0,1:0:0:0:
439,53,200650,1,0,0:0:0:0:
357,217,200850,1,0,0:0:0:0:
255,290,201050,2,0,P|190:293|159:282,1,90,0|0,1:0|0:0,0:0:0:0:
72,146,201450,5,0,0:0:0:0:
221,208,201650,1,0,0:0:0:0:
81,310,201850,2,0,P|103:218|155:195,1,135,0|0,1:0|1:0,0:0:0:0:
154,192,202250,1,0,0:0:0:0:
287,159,202450,1,0,0:0:0:0:
234,277,202650,1,0,1:0:0:0:
213,115,202850,1,0,0:0:0:0:
213,115,202950,1,0,0:0:0:0:
213,115,203050,6,0,P|210:74|201:22,1,90
103,87,203450,1,0,1:0:0:0:
299,125,203650,1,0,0:0:0:0:
299,125,203750,1,0,0:0:0:0:
299,125,203850,2,0,P|296:84|287:32,1,90
103,87,204250,1,0,1:0:0:0:
171,171,204450,1,0,0:0:0:0:
299,125,204650,6,0,P|349:120|407:123,1,90
478,307,205050,2,0,P|419:322|345:300,1,135,0|0,1:0|1:0,0:0:0:0:
332,287,205450,2,0,P|329:232|337:195,1,90
438,226,205850,1,0,1:0:0:0:
239,246,206050,1,0,1:0:0:0:
239,246,206150,1,0,1:0:0:0:
239,246,206250,5,4,0:0:0:0:
328,307,206450,1,0,0:0:0:0:
230,350,206650,1,0,1:0:0:0:
282,147,206850,1,0,0:0:0:0:
282,147,206950,1,0,1:0:0:0:
282,147,207050,2,0,P|310:165|335:218,1,90
230,350,207450,2,0,L|225:241,1,90,0|0,1:0|0:0,0:0:0:0:
146,166,207850,5,0,0:0:0:0:
123,303,208050,1,0,0:0:0:0:
43,187,208250,2,0,P|45:138|78:93,1,90,0|0,1:0|0:0,0:0:0:0:
87,98,208550,1,0,1:0:0:0:
87,98,208650,2,0,L|196:98,1,90
233,176,209050,1,0,1:0:0:0:
207,16,209250,1,0,0:0:0:0:
207,16,209350,1,0,0:0:0:0:
207,16,209450,6,0,P|270:22|317:57,1,90,4|0,0:0|0:0,0:0:0:0:
350,162,209850,1,0,1:0:0:0:
264,244,210050,1,0,0:0:0:0:
264,244,210150,1,0,1:0:0:0:
264,244,210250,1,0,0:0:0:0:
230,121,210450,1,0,0:0:0:0:
350,162,210650,2,0,L|453:164,1,90,0|0,1:0|0:0,0:0:0:0:
254,323,211050,6,0,P|204:289|180:227,1,90,4|0,0:0|0:0,0:0:0:0:
348,75,211450,2,0,P|359:119|349:162,1,90,4|0,0:0|0:0,0:0:0:0:
48,125,211850,1,0,1:0:0:0:
71,97,211950,1,0,0:0:0:0:
101,77,212050,1,0,0:0:0:0:
136,70,212150,1,0,0:0:0:0:
172,70,212250,5,0,1:0:0:0:
211,78,212350,1,0,1:0:0:0:
247,96,212450,1,0,1:0:0:0:
266,131,212550,1,0,1:0:0:0:
268,171,212650,6,0,P|316:171|369:153,1,90,4|0,0:0|0:0,0:0:0:0:
500,44,213050,2,0,P|452:44|399:62,1,90,0|0,1:0|0:0,0:0:0:0:
411,78,213350,1,0,1:0:0:0:
414,100,213450,2,0,L|428:198,1,90
461,357,213850,2,0,P|476:311|455:257,1,90,0|0,1:0|0:0,0:0:0:0:
298,283,214250,6,0,P|353:312|405:303,1,90
264,191,214650,2,0,L|125:217,1,135,0|0,1:0|1:0,0:0:0:0:
112,228,215050,1,0,0:0:0:0:
196,296,215250,1,0,0:0:0:0:
177,130,215450,1,0,1:0:0:0:
33,184,215650,1,0,0:0:0:0:
33,184,215750,1,0,0:0:0:0:
33,184,215850,6,0,P|23:237|43:289,1,90
177,130,216250,1,0,1:0:0:0:
119,284,216450,1,0,0:0:0:0:
119,284,216550,1,0,1:0:0:0:
119,284,216650,2,0,P|161:320|201:326,1,90
313,245,217050,1,0,1:0:0:0:
196,240,217250,1,0,0:0:0:0:
301,334,217450,6,0,L|314:237,1,90
186,105,217850,2,0,L|196:246,1,135,0|0,1:0|1:0,0:0:0:0:
209,257,218250,1,0,0:0:0:0:
351,184,218450,1,0,0:0:0:0:
186,105,218650,1,0,1:0:0:0:
309,264,218850,1,0,1:0:0:0:
309,264,218950,1,0,1:0:0:0:
309,264,219050,6,0,P|365:271|415:249,1,90,4|0,0:0|0:0,0:0:0:0:
492,118,219450,2,0,L|356:99,1,135,0|0,1:0|1:0,0:0:0:0:
336,104,219850,2,0,P|276:133|243:137,1,90
81,37,220250,2,0,P|139:40|185:71,1,90,0|0,1:0|0:0,0:0:0:0:
176,228,220650,5,0,0:0:0:0:
108,127,220850,1,0,0:0:0:0:
253,136,221050,2,0,L|266:279,1,135,0|0,1:0|1:0,0:0:0:0:
257,291,221450,2,0,P|207:330|165:330,1,90
108,208,221850,1,0,1:0:0:0:
342,135,222050,1,0,1:0:0:0:
342,135,222150,1,0,1:0:0:0:
342,135,222250,6,0,B|346:198|346:198|366:249|366:249|370:321,1,180,4|0,0:0|1:0,0:0:0:0:
245,114,222850,1,0,0:0:0:0:
245,114,222950,1,0,1:0:0:0:
245,114,223050,2,0,P|282:60|319:44,1,90
364,204,223450,2,0,P|314:209|263:186,1,90,0|0,1:0|0:0,0:0:0:0:
417,93,223850,5,0,1:0:0:0:
417,93,224250,2,0,P|487:177|452:250,1,180,4|4,0:0|0:3,0:0:0:0:
358,295,224850,1,4,0:3:0:0:
274,196,225050,1,4,0:3:0:0:
196,302,225250,1,0,0:0:0:0:
196,302,225350,1,0,0:0:0:0:
196,302,225450,6,0,L|33:309,1,144,4|0,0:0|0:0,0:0:0:0:
147,146,226250,1,0,1:0:0:0:
223,206,226450,1,0,0:0:0:0:
147,146,226650,2,0,L|134:66,1,72
223,206,227050,6,0,P|314:222|369:190,1,144,2|0,0:0|0:0,0:0:0:0:
375,195,227850,1,0,1:0:0:0:
384,92,228050,1,8,0:3:0:0:
288,131,228250,1,4,0:3:0:0:
470,155,228450,1,0,0:0:0:0:
470,155,228550,1,0,0:0:0:0:
470,155,228650,6,0,P|479:236|457:324,1,144,4|0,0:0|0:0,0:0:0:0:
372,344,229250,1,0,0:0:0:0:
296,264,229450,2,0,L|383:241,1,72,0|0,1:0|1:0,0:0:0:0:
463,211,229850,1,0,0:0:0:0:
451,311,230050,1,0,0:0:0:0:
296,264,230250,6,0,P|276:175|314:119,1,144,2|0,0:0|0:0,0:0:0:0:
401,90,230850,1,0,1:0:0:0:
401,90,231050,2,0,L|423:169,1,72,0|0,1:0|0:0,0:0:0:0:
299,132,231450,2,0,L|219:130,1,72,4|0,0:0|0:0,0:0:0:0:
213,142,231750,1,0,1:0:0:0:
200,155,231850,6,0,P|118:164|45:140,1,144,0|0,0:0|1:0,0:0:0:0:
140,56,232450,1,0,1:0:0:0:
210,167,232650,2,0,L|226:245,1,72,0|0,1:0|1:0,0:0:0:0:
151,332,233050,2,0,L|136:261,1,72,0|0,1:0|1:0,0:0:0:0:
306,203,233450,6,0,L|402:186,1,72,0|0,1:0|1:0,0:0:0:0:
452,286,233850,2,0,L|381:298,1,72,0|0,1:0|1:0,0:0:0:0:
268,322,234250,1,0,1:0:0:0:
187,229,234450,1,0,1:0:0:0:
306,203,234650,1,0,1:0:0:0:
268,322,234850,1,0,1:0:0:0:
92,325,235050,6,0,B|83:273|83:273|90:231|90:231|82:166,1,144,4|0,0:0|1:0,0:0:0:0:
63,31,235650,1,0,1:0:0:0:
204,93,235850,2,0,L|132:102,1,72,0|0,1:0|1:0,0:0:0:0:
279,28,236250,2,0,L|367:37,1,72,0|0,1:0|1:0,0:0:0:0:
293,232,236650,5,0,1:0:0:0:
203,146,236850,1,0,1:0:0:0:
340,102,237050,1,0,1:0:0:0:
380,260,237250,1,0,1:0:0:0:
217,329,237450,5,0,1:0:0:0:
205,162,237661,1,0,1:0:0:0:
346,239,237884,2,0,L|244:248,1,90,0|0,1:0|1:0,0:0:0:0:
384,87,238612,5,4,0:0:0:0:
256,192,238855,12,4,243490,0:3:0:0:
