osu file format v14

[General]
AudioFilename: audio.mp3
AudioLeadIn: 0
PreviewTime: 581
Countdown: 0
SampleSet: Soft
StackLeniency: 0.3
Mode: 0
LetterboxInBreaks: 0
EpilepsyWarning: 1
WidescreenStoryboard: 1

[Editor]
Bookmarks: 7181,21281,26381,35981,44381,45581,64781,83981,95981,100781,105581,110381,115181,124781,136781,156881,175181,184781,203981,213581,220781,230381,243191,244991,264191,273191,276896,279414,289014,296214,302382
DistanceSpacing: 3.6
BeatDivisor: 8
GridSize: 32
TimelineZoom: 3.799997

[Metadata]
Title:Never Alone (ReeK's "Hitorijanai" Remix)
TitleUnicode:Never Alone (ReeK's "Hitorijanai" Remix)
Artist:IT LIVES & Dr. Ushuu
ArtistUnicode:IT LIVES & Dr. Ushūu
Creator:Tocorn
Version:Absolute Ecstasy
Source:
Tags:railbreakers reek oit id indonesian tourney tournament touhou electronic instrumental edm gf grand finals tb tiebreaker raids venerablenyanta midorijeon
BeatmapID:3534950
BeatmapSetID:1729689

[Difficulty]
HPDrainRate:5
CircleSize:4
OverallDifficulty:9.4
ApproachRate:9.8
SliderMultiplier:2.6
SliderTickRate:0.5

[Events]
//Background and Video events
0,0,"Let's Get This Party Started.jpg",0,0
//Break Periods
//Storyboard Layer 0 (Background)
//Storyboard Layer 1 (Fail)
//Storyboard Layer 2 (Pass)
//Storyboard Layer 3 (Foreground)
//Storyboard Layer 4 (Overlay)
//Storyboard Sound Samples

[TimingPoints]
-2419,300,4,2,1,70,1,0
581,-100,4,2,15,70,0,0
2381,-66.6666666666667,4,2,1,75,0,0
6881,-66.6666666666667,4,2,2,75,0,0
7181,-83.3333333333333,4,2,1,70,0,0
7331,-83.3333333333333,4,2,2,70,0,0
11981,-83.3333333333333,4,2,1,70,0,0
12131,-83.3333333333333,4,2,2,70,0,0
15581,-83.3333333333333,4,2,3,70,0,0
15731,-133.333333333333,4,2,3,70,0,0
16781,-76.9230769230769,4,2,1,70,0,0
18131,-200,4,2,1,70,0,0
18281,-76.9230769230769,4,2,1,70,0,0
18431,-200,4,2,1,70,0,0
18581,-66.6666666666667,4,2,1,70,0,0
19481,-76.9230769230769,4,2,1,70,0,0
21181,-90.9090909090909,4,2,1,70,0,0
21431,-111.111111111111,4,2,1,70,0,0
25481,-111.111111111111,4,2,4,70,0,0
25581,-100,4,2,4,70,0,0
26081,-100,4,2,3,70,0,0
26381,-76.9230769230769,4,2,4,70,0,0
26531,-76.9230769230769,4,2,2,70,0,0
31181,-76.9230769230769,4,2,4,70,0,0
31331,-76.9230769230769,4,2,2,70,0,0
35082,-76.9230769230769,4,2,3,70,0,0
35981,-76.9230769230769,4,2,4,70,0,0
36131,-76.9230769230769,4,2,2,70,0,0
40781,-76.9230769230769,4,2,4,70,0,0
40931,-76.9230769230769,4,2,2,70,0,0
44381,-200,4,2,2,70,0,0
44531,-200,4,2,3,70,0,0
45281,-200,4,2,4,70,0,0
45431,-153.846153846153,4,2,3,70,0,0
45581,-153.846153846153,4,2,5,60,0,0
45731,-153.846153846153,4,2,3,60,0,0
53081,-200,4,2,3,60,0,0
55181,-200,4,2,6,60,0,0
55331,-200,4,2,7,60,0,0
63431,-1000,4,2,7,60,0,0
63581,-1000,4,2,4,60,0,0
63731,-1000,4,2,3,60,0,0
64181,-200,4,2,3,60,0,0
64331,-200,4,2,8,60,0,0
64781,-200,4,2,9,65,0,0
64931,-200,4,2,9,65,0,0
74381,-200,4,2,8,65,0,0
74681,-200,4,2,9,65,0,0
82781,-200,4,2,10,65,0,0
83981,-100,4,2,11,65,0,0
93581,-100,4,2,12,65,0,0
93881,-100,4,2,13,65,0,0
94781,-100,4,2,14,65,0,0
95081,-250,4,2,14,65,0,0
95231,-66.6666666666667,4,2,14,65,0,0
95681,-66.6666666666667,4,2,15,65,0,0
95981,-58.8235294117647,4,2,1,80,0,0
96581,-54.054054054054,4,2,1,80,0,0
96881,-58.8235294117647,4,2,1,80,0,0
98081,-50,4,2,1,80,0,0
98531,-58.8235294117647,4,2,1,80,0,0
98681,-66.6666666666667,4,2,1,80,0,0
99581,-133.333333333333,4,2,1,80,0,0
99731,-66.6666666666667,4,2,1,80,0,0
100181,-50,4,2,1,80,0,0
100331,-133.333333333333,4,2,1,80,0,0
100781,-50,4,2,10,80,0,0
101081,-50,4,2,2,80,0,0
101381,-250,4,2,2,80,0,0
101681,-133.333333333333,4,2,2,80,0,0
101981,-50,4,2,2,80,0,0
102581,-250,4,2,2,80,0,0
103181,-50,4,2,2,80,0,0
103331,-55.5555555555556,4,2,2,80,0,0
103781,-66.6666666666667,4,2,2,80,0,0
103931,-133.333333333333,4,2,2,80,0,0
104231,-66.6666666666667,4,2,2,80,0,0
104381,-66.6666666666667,4,2,16,70,0,0
104681,-100,4,2,17,70,0,0
104981,-333.333333333333,4,2,18,70,0,0
105281,-333.333333333333,4,2,19,70,0,0
105581,-58.8235294117647,4,2,1,80,0,0
108881,-52.6315789473684,4,2,1,80,0,0
110381,-142.857142857143,4,2,1,80,0,0
110531,-47.6190476190476,4,2,1,80,0,0
111281,-142.857142857143,4,2,1,80,0,0
111581,-142.857142857143,4,2,1,80,0,0
111731,-47.6190476190476,4,2,1,80,0,0
112181,-52.6315789473684,4,2,1,80,0,0
112481,-142.857142857143,4,2,1,80,0,0
112781,-142.857142857143,4,2,10,80,0,0
113081,-142.857142857143,4,2,1,80,0,0
113381,-142.857142857143,4,2,10,80,0,0
113681,-142.857142857143,4,2,1,80,0,0
113981,-100,4,2,14,65,0,0
114581,-100,4,2,13,65,0,0
114881,-100,4,2,20,75,0,0
115181,-50,4,2,21,75,0,0
115481,-50,4,2,22,75,0,0
115631,-133.333333333333,4,2,21,75,0,0
115931,-117.647058823529,4,2,21,75,0,0
116081,-117.647058823529,4,2,22,75,0,0
116231,-117.647058823529,4,2,21,75,0,0
116531,-66.6666666666667,4,2,21,75,0,0
116681,-66.6666666666667,4,2,22,75,0,0
116831,-66.6666666666667,4,2,21,75,0,0
117281,-55.5555555555556,4,2,22,75,0,0
117581,-55.5555555555556,4,2,21,75,0,0
117731,-76.9230769230769,4,2,21,75,0,0
117881,-76.9230769230769,4,2,23,75,0,0
118031,-250,4,2,21,75,0,0
118181,-50,4,2,21,75,0,0
118481,-50,4,2,22,75,0,0
118781,-50,4,2,21,75,0,0
119081,-50,4,2,22,75,0,0
119381,-50,4,2,21,75,0,0
119681,-50,4,2,22,75,0,0
119981,-50,4,2,21,75,0,0
120281,-66.6666666666667,4,2,22,75,0,0
120431,-62.5,4,2,21,75,0,0
120581,-57.1428571428571,4,2,21,75,0,0
120731,-100,4,2,21,75,0,0
120881,-66.6666666666667,4,2,22,75,0,0
121031,-100,4,2,21,75,0,0
121331,-58.8235294117647,4,2,10,75,0,0
121481,-58.8235294117647,4,2,24,75,0,0
121631,-58.8235294117647,4,2,25,75,0,0
122081,-133.333333333333,4,2,26,75,0,0
122381,-58.8235294117647,4,2,21,75,0,0
123581,-58.8235294117647,4,2,27,75,0,0
123731,-58.8235294117647,4,2,28,75,0,0
124181,-58.8235294117647,4,2,5,75,0,0
124481,-58.8235294117647,4,2,6,75,0,0
124781,-58.8235294117647,4,2,29,60,0,0
128381,-333.333333333333,4,2,11,60,0,0
128831,-333.333333333333,4,2,29,60,0,0
128981,-333.333333333333,4,2,30,60,0,0
129131,-333.333333333333,4,2,29,60,0,0
129281,-333.333333333333,4,2,30,60,0,0
129431,-333.333333333333,4,2,11,60,0,0
131381,-133.333333333333,4,2,31,60,0,0
131681,-133.333333333333,4,2,19,60,0,0
131981,-133.333333333333,4,2,30,60,0,0
133331,-500,4,2,30,60,0,0
134381,-500,4,2,1,70,0,0
134831,-250,4,2,1,70,0,0
135431,-166.666666666667,4,2,1,70,0,0
135581,-166.666666666667,4,2,32,70,0,0
135731,-166.666666666667,4,2,33,70,0,0
135881,-166.666666666667,4,2,32,70,0,0
136031,-166.666666666667,4,2,33,70,0,0
136181,-166.666666666667,4,2,32,70,0,0
136331,-166.666666666667,4,2,33,70,0,0
136481,-166.666666666667,4,2,34,70,0,0
136781,-285.714285714284,4,2,35,80,0,0
137081,-285.714285714284,4,2,36,80,0,0
139181,-285.714285714284,4,2,35,80,0,0
139556,-285.714285714284,4,2,31,80,0,0
140681,-285.714285714284,4,2,35,80,0,0
140831,-285.714285714284,4,2,31,80,0,0
141281,-285.714285714284,4,2,10,80,0,0
141581,-133.333333333333,4,2,35,80,0,0
141881,-133.333333333333,4,2,36,80,0,0
143081,-333.333333333333,4,2,36,80,0,0
143981,-333.333333333333,4,2,35,80,0,0
144281,-200,4,2,35,80,0,0
144581,-200,4,2,31,80,0,0
145481,-200,4,2,35,80,0,0
145781,-333.333333333333,4,2,36,80,0,0
146381,-133.333333333333,4,2,35,80,0,0
146681,-133.333333333333,4,2,36,80,0,0
148181,-66.6666666666667,4,2,36,80,0,0
148331,-133.333333333333,4,2,36,80,0,0
148481,-66.6666666666667,4,2,1,80,0,0
148781,-66.6666666666667,4,2,25,80,0,0
149381,-66.6666666666667,4,2,37,80,0,0
149501,-66.6666666666667,4,2,32,80,0,0
150581,-100,4,2,31,80,0,0
150881,-100,4,2,26,80,0,0
151031,-100,4,2,6,80,0,0
151181,-66.6666666666667,4,2,35,80,0,0
151631,-100,4,2,35,80,0,0
151781,-100,4,2,36,80,0,0
153581,-100,4,2,35,80,0,0
154031,-333.333333333333,4,2,35,80,0,0
154181,-100,4,2,35,80,0,0
154631,-333.333333333333,4,2,35,80,0,0
154781,-100,4,2,35,80,0,0
155381,-100,4,2,8,80,0,0
155681,-100,4,2,5,80,0,0
155981,-200,4,2,38,70,0,0
156881,-71.4285714285714,4,2,38,70,0,0
159881,-200,4,2,38,70,0,0
160481,-200,4,2,10,70,0,0
160781,-100,4,2,39,70,0,0
161381,-100,4,2,38,70,0,0
161681,-71.4285714285714,4,2,38,70,0,0
164981,-100,4,2,38,70,0,0
165581,-200,4,2,38,70,0,0
166181,-142.857142857143,4,2,9,70,0,0
166481,-71.4285714285714,4,2,38,70,0,0
169631,-250,4,2,38,70,0,0
170081,-133.333333333333,4,2,38,70,0,0
170381,-133.333333333333,4,2,39,70,0,0
170981,-133.333333333333,4,2,8,70,0,0
171131,-133.333333333333,4,2,5,70,0,0
171281,-250,4,2,38,70,0,0
172781,-250,4,2,38,40,0,0
173081,-250,4,2,38,45,0,0
173381,-250,4,2,38,50,0,0
173681,-250,4,2,38,55,0,0
173981,-250,4,2,38,60,0,0
174281,-250,4,2,38,65,0,0
174431,-125,4,2,38,65,0,0
174581,-125,4,2,10,70,0,0
175181,-666.666666666667,4,2,1,60,0,0
175331,-666.666666666667,4,2,40,60,0,0
175481,-666.666666666667,4,2,41,60,0,0
175631,-666.666666666667,4,2,40,60,0,0
175781,-666.666666666667,4,2,42,60,0,0
175931,-666.666666666667,4,2,40,60,0,0
176081,-666.666666666667,4,2,43,60,0,0
176231,-666.666666666667,4,2,40,60,0,0
176381,-666.666666666667,4,2,44,60,0,0
176531,-666.666666666667,4,2,40,60,0,0
176681,-666.666666666667,4,2,41,60,0,0
176831,-666.666666666667,4,2,40,60,0,0
176981,-666.666666666667,4,2,42,60,0,0
177131,-666.666666666667,4,2,40,60,0,0
177281,-666.666666666667,4,2,43,60,0,0
177431,-666.666666666667,4,2,40,60,0,0
177581,-666.666666666667,4,2,44,60,0,0
177731,-666.666666666667,4,2,40,60,0,0
177881,-666.666666666667,4,2,41,60,0,0
178031,-666.666666666667,4,2,40,60,0,0
178181,-666.666666666667,4,2,42,60,0,0
178331,-666.666666666667,4,2,40,60,0,0
178481,-666.666666666667,4,2,43,60,0,0
178631,-666.666666666667,4,2,40,60,0,0
178781,-666.666666666667,4,2,44,60,0,0
178931,-666.666666666667,4,2,40,60,0,0
179081,-666.666666666667,4,2,41,60,0,0
179231,-666.666666666667,4,2,40,60,0,0
179381,-666.666666666667,4,2,42,60,0,0
179531,-666.666666666667,4,2,40,60,0,0
179681,-666.666666666667,4,2,43,60,0,0
179831,-666.666666666667,4,2,40,60,0,0
179981,-333.333333333333,4,2,45,60,0,0
180131,-333.333333333333,4,2,40,60,0,0
180281,-333.333333333333,4,2,46,60,0,0
180431,-333.333333333333,4,2,40,60,0,0
180581,-333.333333333333,4,2,47,60,0,0
180731,-333.333333333333,4,2,40,60,0,0
180881,-333.333333333333,4,2,48,60,0,0
181031,-333.333333333333,4,2,40,60,0,0
181181,-333.333333333333,4,2,49,60,0,0
181331,-333.333333333333,4,2,40,60,0,0
181481,-333.333333333333,4,2,46,60,0,0
181631,-333.333333333333,4,2,40,60,0,0
181781,-333.333333333333,4,2,47,60,0,0
181931,-333.333333333333,4,2,40,60,0,0
182081,-333.333333333333,4,2,48,60,0,0
182231,-333.333333333333,4,2,40,60,0,0
182381,-333.333333333333,4,2,2,60,0,0
182531,-333.333333333333,4,2,40,60,0,0
182681,-333.333333333333,4,2,3,60,0,0
182831,-333.333333333333,4,2,40,60,0,0
182981,-333.333333333333,4,2,4,60,0,0
183131,-333.333333333333,4,2,40,60,0,0
183281,-333.333333333333,4,2,5,60,0,0
183431,-333.333333333333,4,2,40,60,0,0
183581,-333.333333333333,4,2,50,70,0,0
183731,-333.333333333333,4,2,40,70,0,0
183881,-333.333333333333,4,2,51,70,0,0
184031,-333.333333333333,4,2,40,70,0,0
184181,-333.333333333333,4,2,52,70,0,0
184781,-333.333333333333,4,2,6,75,0,0
184856,-333.333333333333,4,2,53,75,0,0
184931,-333.333333333333,4,2,54,75,0,0
185006,-333.333333333333,4,2,55,75,0,0
185081,-333.333333333333,4,2,56,75,0,0
185156,-333.333333333333,4,2,57,75,0,0
185231,-333.333333333333,4,2,58,75,0,0
185306,-333.333333333333,4,2,59,75,0,0
185381,-333.333333333333,4,2,7,75,0,0
185456,-333.333333333333,4,2,59,75,0,0
185531,-333.333333333333,4,2,60,75,0,0
185606,-333.333333333333,4,2,57,75,0,0
185681,-333.333333333333,4,2,61,75,0,0
185756,-333.333333333333,4,2,55,75,0,0
185831,-100,4,2,62,75,0,0
185906,-100,4,2,53,75,0,0
185981,-100,4,2,8,75,0,0
186056,-100,4,2,63,75,0,0
186131,-100,4,2,64,75,0,0
186206,-100,4,2,65,75,0,0
186281,-100,4,2,66,75,0,0
186356,-100,4,2,67,75,0,0
186431,-100,4,2,68,75,0,0
186506,-100,4,2,69,75,0,0
186581,-100,4,2,9,75,0,0
186656,-100,4,2,69,75,0,0
186731,-100,4,2,70,75,0,0
186806,-100,4,2,10,75,0,0
186881,-100,4,2,66,75,0,0
186956,-100,4,2,65,75,0,0
187031,-100,4,2,71,75,0,0
187106,-100,4,2,63,75,0,0
187181,-100,4,2,11,75,0,0
187256,-100,4,2,63,75,0,0
187331,-100,4,2,72,75,0,0
187406,-100,4,2,73,75,0,0
187481,-100,4,2,74,75,0,0
187556,-100,4,2,57,75,0,0
187631,-100,4,2,75,75,0,0
187706,-100,4,2,59,75,0,0
187781,-100,4,2,12,75,0,0
187856,-100,4,2,76,75,0,0
187931,-100,4,2,77,75,0,0
188006,-100,4,2,78,75,0,0
188081,-100,4,2,79,75,0,0
188156,-100,4,2,67,75,0,0
188231,-100,4,2,80,75,0,0
188306,-100,4,2,81,75,0,0
188381,-100,4,2,13,75,0,0
188456,-100,4,2,63,75,0,0
188531,-100,4,2,82,75,0,0
188606,-100,4,2,83,75,0,0
188681,-100,4,2,84,75,0,0
188756,-100,4,2,85,75,0,0
188831,-100,4,2,14,75,0,0
188906,-100,4,2,59,75,0,0
188981,-100,4,2,15,75,0,0
189056,-100,4,2,76,75,0,0
189131,-100,4,2,16,75,0,0
189206,-100,4,2,17,75,0,0
189281,-100,4,2,18,75,0,0
189356,-100,4,2,86,75,0,0
189431,-100,4,2,19,75,0,0
189506,-100,4,2,87,75,0,0
189581,-100,4,2,6,75,0,0
189656,-100,4,2,53,75,0,0
189731,-100,4,2,54,75,0,0
189806,-100,4,2,55,75,0,0
189881,-100,4,2,56,75,0,0
189956,-100,4,2,57,75,0,0
190031,-100,4,2,58,75,0,0
190106,-100,4,2,59,75,0,0
190181,-100,4,2,7,75,0,0
190256,-100,4,2,59,75,0,0
190331,-100,4,2,60,75,0,0
190406,-100,4,2,57,75,0,0
190481,-100,4,2,61,75,0,0
190556,-100,4,2,55,75,0,0
190631,-100,4,2,62,75,0,0
190706,-100,4,2,53,75,0,0
190781,-100,4,2,8,75,0,0
190856,-100,4,2,63,75,0,0
190931,-100,4,2,64,75,0,0
191006,-100,4,2,65,75,0,0
191081,-100,4,2,66,75,0,0
191156,-100,4,2,67,75,0,0
191231,-100,4,2,68,75,0,0
191306,-100,4,2,69,75,0,0
191381,-100,4,2,20,75,0,0
191456,-100,4,2,69,75,0,0
191531,-100,4,2,70,75,0,0
191606,-100,4,2,10,75,0,0
191681,-100,4,2,66,75,0,0
191756,-100,4,2,65,75,0,0
191831,-100,4,2,71,75,0,0
191906,-100,4,2,63,75,0,0
191981,-100,4,2,11,75,0,0
192056,-100,4,2,63,75,0,0
192131,-100,4,2,72,75,0,0
192206,-100,4,2,73,75,0,0
192281,-100,4,2,74,75,0,0
192356,-100,4,2,57,75,0,0
192431,-100,4,2,88,75,0,0
192506,-100,4,2,59,75,0,0
192581,-100,4,2,21,75,0,0
192656,-100,4,2,89,75,0,0
192731,-100,4,2,90,75,0,0
192806,-100,4,2,91,75,0,0
192881,-100,4,2,92,75,0,0
192956,-100,4,2,85,75,0,0
193031,-100,4,2,93,75,0,0
193106,-100,4,2,87,75,0,0
193181,-100,4,2,22,75,0,0
193256,-100,4,2,53,75,0,0
193331,-100,4,2,54,75,0,0
193406,-100,4,2,91,75,0,0
193481,-100,4,2,94,75,0,0
193556,-100,4,2,86,75,0,0
193631,-100,4,2,23,75,0,0
193706,-100,4,2,95,75,0,0
193781,-100,4,2,24,75,0,0
193856,-100,4,2,89,75,0,0
193931,-100,4,2,25,75,0,0
194006,-100,4,2,26,75,0,0
194081,-100,4,2,18,75,0,0
194156,-100,4,2,27,75,0,0
194231,-100,4,2,19,75,0,0
194306,-100,4,2,28,75,0,0
194381,-100,4,2,6,75,0,0
194456,-100,4,2,53,75,0,0
194531,-100,4,2,54,75,0,0
194606,-100,4,2,55,75,0,0
194681,-100,4,2,56,75,0,0
194756,-100,4,2,57,75,0,0
194831,-100,4,2,58,75,0,0
194906,-100,4,2,59,75,0,0
194981,-100,4,2,7,75,0,0
195056,-100,4,2,59,75,0,0
195131,-100,4,2,60,75,0,0
195206,-100,4,2,57,75,0,0
195281,-100,4,2,61,75,0,0
195356,-100,4,2,55,75,0,0
195431,-100,4,2,62,75,0,0
195506,-100,4,2,53,75,0,0
195581,-100,4,2,8,75,0,0
195656,-100,4,2,63,75,0,0
195731,-100,4,2,64,75,0,0
195806,-100,4,2,65,75,0,0
195881,-100,4,2,66,75,0,0
195956,-100,4,2,67,75,0,0
196031,-100,4,2,68,75,0,0
196106,-100,4,2,69,75,0,0
196181,-100,4,2,20,75,0,0
196256,-100,4,2,69,75,0,0
196331,-100,4,2,70,75,0,0
196406,-100,4,2,10,75,0,0
196481,-100,4,2,66,75,0,0
196556,-100,4,2,65,75,0,0
196631,-100,4,2,71,75,0,0
196706,-100,4,2,63,75,0,0
196781,-100,4,2,11,75,0,0
196856,-100,4,2,63,75,0,0
196931,-100,4,2,72,75,0,0
197006,-100,4,2,73,75,0,0
197081,-100,4,2,74,75,0,0
197156,-100,4,2,57,75,0,0
197231,-100,4,2,75,75,0,0
197306,-100,4,2,59,75,0,0
197381,-100,4,2,12,75,0,0
197456,-100,4,2,76,75,0,0
197531,-100,4,2,77,75,0,0
197606,-100,4,2,78,75,0,0
197681,-100,4,2,79,75,0,0
197756,-100,4,2,67,75,0,0
197831,-100,4,2,80,75,0,0
197906,-100,4,2,81,75,0,0
197981,-100,4,2,13,75,0,0
198056,-100,4,2,63,75,0,0
198131,-100,4,2,82,75,0,0
198206,-100,4,2,83,75,0,0
198281,-100,4,2,84,75,0,0
198356,-100,4,2,85,75,0,0
198431,-100,4,2,14,75,0,0
198506,-100,4,2,59,75,0,0
198581,-100,4,2,15,75,0,0
198656,-100,4,2,76,75,0,0
198731,-100,4,2,16,75,0,0
198806,-100,4,2,17,75,0,0
198881,-100,4,2,18,75,0,0
198956,-100,4,2,86,75,0,0
199031,-100,4,2,19,75,0,0
199106,-100,4,2,87,75,0,0
199181,-100,4,2,6,75,0,0
199256,-100,4,2,53,75,0,0
199331,-100,4,2,54,75,0,0
199406,-100,4,2,55,75,0,0
199481,-100,4,2,56,75,0,0
199556,-100,4,2,57,75,0,0
199631,-100,4,2,58,75,0,0
199706,-100,4,2,59,75,0,0
199781,-100,4,2,7,75,0,0
199856,-100,4,2,59,75,0,0
199931,-100,4,2,60,75,0,0
200006,-100,4,2,57,75,0,0
200081,-100,4,2,61,75,0,0
200156,-100,4,2,55,75,0,0
200231,-100,4,2,62,75,0,0
200306,-100,4,2,53,75,0,0
200381,-100,4,2,8,75,0,0
200456,-100,4,2,63,75,0,0
200531,-100,4,2,64,75,0,0
200606,-100,4,2,65,75,0,0
200681,-100,4,2,66,75,0,0
200756,-100,4,2,67,75,0,0
200831,-100,4,2,68,75,0,0
200906,-100,4,2,69,75,0,0
200981,-100,4,2,20,75,0,0
201056,-100,4,2,69,75,0,0
201131,-100,4,2,70,75,0,0
201206,-100,4,2,10,75,0,0
201281,-100,4,2,66,75,0,0
201356,-100,4,2,65,75,0,0
201431,-100,4,2,96,75,0,0
201506,-100,4,2,63,75,0,0
201581,-100,4,2,29,75,0,0
201656,-100,4,2,63,75,0,0
201731,-100,4,2,72,75,0,0
201806,-100,4,2,73,75,0,0
201881,-100,4,2,74,75,0,0
201956,-100,4,2,57,75,0,0
202031,-100,4,2,88,75,0,0
202106,-100,4,2,59,75,0,0
202181,-100,4,2,30,75,0,0
202256,-100,4,2,89,75,0,0
202331,-100,4,2,90,75,0,0
202406,-100,4,2,91,75,0,0
202481,-100,4,2,92,75,0,0
202556,-100,4,2,85,75,0,0
202631,-100,4,2,93,75,0,0
202706,-100,4,2,87,75,0,0
202781,-100,4,2,97,75,0,0
202856,-100,4,2,53,75,0,0
202931,-100,4,2,31,75,0,0
203006,-100,4,2,55,75,0,0
203081,-100,4,2,98,75,0,0
203156,-100,4,2,86,75,0,0
203231,-100,4,2,32,75,0,0
203306,-100,4,2,95,75,0,0
203381,-100,4,2,97,75,0,0
203456,-100,4,2,53,75,0,0
203531,-100,4,2,31,75,0,0
203606,-100,4,2,55,75,0,0
203681,-100,4,2,98,75,0,0
203756,-100,4,2,99,75,0,0
203831,-100,4,2,100,75,0,0
203906,-100,4,2,101,75,0,0
203981,-100,4,2,33,75,0,0
204131,-100,4,2,102,75,0,0
204206,-100,4,2,103,75,0,0
204281,-100,4,2,34,75,0,0
204431,-100,4,2,104,75,0,0
204581,-100,4,2,35,75,0,0
204731,-100,4,2,102,75,0,0
204806,-100,4,2,105,75,0,0
204881,-100,4,2,34,75,0,0
205031,-100,4,2,106,75,0,0
205181,-100,4,2,36,75,0,0
205331,-100,4,2,107,75,0,0
205406,-100,4,2,103,75,0,0
205481,-100,4,2,37,75,0,0
205631,-100,4,2,108,75,0,0
205781,-100,4,2,38,75,0,0
205931,-100,4,2,107,75,0,0
206006,-100,4,2,109,75,0,0
206081,-100,4,2,37,75,0,0
206156,-100,4,2,110,75,0,0
206381,-100,4,2,39,75,0,0
206531,-100,4,2,111,75,0,0
206606,-100,4,2,105,75,0,0
206681,-100,4,2,40,75,0,0
206831,-100,4,2,112,75,0,0
206981,-100,4,2,41,75,0,0
207131,-100,4,2,111,75,0,0
207206,-100,4,2,113,75,0,0
207281,-100,4,2,40,75,0,0
207431,-100,4,2,114,75,0,0
207581,-100,4,2,38,75,0,0
207731,-100,4,2,107,75,0,0
207806,-100,4,2,115,75,0,0
207881,-100,4,2,37,75,0,0
207956,-100,4,2,22,75,0,0
208031,-100,4,2,116,75,0,0
208181,-100,4,2,117,75,0,0
208331,-100,4,2,118,75,0,0
208406,-100,4,2,22,75,0,0
208481,-100,4,2,42,75,0,0
208631,-100,4,2,119,75,0,0
208781,-100,4,2,33,75,0,0
208931,-100,4,2,102,75,0,0
209006,-100,4,2,103,75,0,0
209081,-100,4,2,34,75,0,0
209231,-100,4,2,104,75,0,0
209381,-100,4,2,35,75,0,0
209531,-100,4,2,102,75,0,0
209606,-100,4,2,105,75,0,0
209681,-100,4,2,34,75,0,0
209831,-100,4,2,106,75,0,0
209981,-100,4,2,36,75,0,0
210131,-100,4,2,107,75,0,0
210206,-100,4,2,103,75,0,0
210281,-100,4,2,37,75,0,0
210431,-100,4,2,108,75,0,0
210581,-100,4,2,38,75,0,0
210731,-100,4,2,107,75,0,0
210806,-100,4,2,120,75,0,0
210881,-100,4,2,37,75,0,0
211031,-100,4,2,121,75,0,0
211181,-100,4,2,43,75,0,0
211331,-100,4,2,122,75,0,0
211406,-100,4,2,53,75,0,0
211481,-100,4,2,44,75,0,0
211556,-100,4,2,45,75,0,0
211631,-100,4,2,123,75,0,0
211706,-100,4,2,55,75,0,0
211781,-100,4,2,46,75,0,0
211931,-100,4,2,124,75,0,0
212006,-100,4,2,78,75,0,0
212081,-100,4,2,47,75,0,0
212156,-100,4,2,48,75,0,0
212231,-100,4,2,125,75,0,0
212306,-100,4,2,67,75,0,0
212381,-100,4,2,49,75,0,0
212531,-100,4,2,126,75,0,0
212606,-100,4,2,55,75,0,0
212681,-100,4,2,50,75,0,0
212756,-100,4,2,51,75,0,0
212831,-100,4,2,127,75,0,0
212906,-100,4,2,86,75,0,0
212981,-100,4,2,128,75,0,0
213131,-100,4,2,129,75,0,0
213281,-100,4,2,9,75,0,0
213431,-100,4,2,7,75,0,0
213581,-100,4,2,33,75,0,0
213731,-100,4,2,102,75,0,0
213806,-100,4,2,103,75,0,0
213881,-100,4,2,34,75,0,0
214031,-100,4,2,104,75,0,0
214181,-100,4,2,35,75,0,0
214331,-100,4,2,102,75,0,0
214406,-100,4,2,105,75,0,0
214481,-100,4,2,34,75,0,0
214631,-100,4,2,106,75,0,0
214781,-100,4,2,36,75,0,0
214931,-100,4,2,107,75,0,0
215006,-100,4,2,103,75,0,0
215081,-100,4,2,37,75,0,0
215231,-100,4,2,108,75,0,0
215381,-100,4,2,38,75,0,0
215531,-100,4,2,107,75,0,0
215606,-100,4,2,109,75,0,0
215681,-100,4,2,37,75,0,0
215756,-100,4,2,110,75,0,0
215981,-100,4,2,39,75,0,0
216131,-100,4,2,111,75,0,0
216206,-100,4,2,105,75,0,0
216281,-100,4,2,40,75,0,0
216431,-100,4,2,112,75,0,0
216581,-100,4,2,41,75,0,0
216731,-100,4,2,111,75,0,0
216806,-100,4,2,113,75,0,0
216881,-100,4,2,40,75,0,0
217031,-100,4,2,114,75,0,0
217181,-100,4,2,38,75,0,0
217331,-100,4,2,107,75,0,0
217406,-100,4,2,115,75,0,0
217481,-100,4,2,37,75,0,0
217556,-100,4,2,22,75,0,0
217631,-100,4,2,116,75,0,0
217781,-100,4,2,117,75,0,0
217931,-100,4,2,118,75,0,0
218006,-100,4,2,22,75,0,0
218081,-100,4,2,42,75,0,0
218231,-100,4,2,119,75,0,0
218381,-100,4,2,33,75,0,0
218531,-100,4,2,102,75,0,0
218606,-100,4,2,103,75,0,0
218681,-100,4,2,34,75,0,0
218831,-100,4,2,104,75,0,0
218981,-100,4,2,35,75,0,0
219131,-100,4,2,102,75,0,0
219206,-100,4,2,105,75,0,0
219281,-100,4,2,34,75,0,0
219431,-100,4,2,106,75,0,0
219581,-100,4,2,36,75,0,0
219731,-100,4,2,130,75,0,0
219806,-100,4,2,52,75,0,0
219881,-100,4,2,131,75,0,0
219956,-100,4,2,23,75,0,0
220031,-100,4,2,53,75,0,0
220181,-100,4,2,1,75,0,0
220781,-83.3333333333333,4,2,1,70,0,0
222881,-133.333333333333,4,2,1,70,0,0
223181,-83.3333333333333,4,2,1,70,0,0
225281,-83.3333333333333,4,2,10,70,0,0
225581,-83.3333333333333,4,2,1,70,0,0
227381,-133.333333333333,4,2,10,70,0,0
227981,-100,4,2,1,70,0,0
230231,-66.6666666666667,4,2,1,70,0,0
230381,301.507537688442,4,2,132,65,1,0
230531,-100,4,2,39,65,0,0
230682,306.122448979592,4,2,39,65,1,0
230988,309.278350515464,4,2,39,65,1,0
231297,320.855614973262,4,2,39,65,1,0
231617,326.086956521739,4,2,132,65,1,0
231780,-100,4,2,39,65,0,0
231943,337.078651685393,4,2,39,65,1,0
232280,342.857142857143,4,2,39,65,1,0
232965,-200,4,2,132,65,0,0
233137,-200,4,2,39,65,0,0
233307,357.142857142857,4,2,39,65,1,0
233307,-200,4,2,39,65,0,0
233664,379.746835443038,4,2,39,65,1,0
234423,-200,4,2,132,65,0,0
234613,-200,4,2,39,65,0,0
234802,405.405405405405,4,2,39,65,1,0
235207,394.736842105263,4,2,39,65,1,0
235601,408.163265306122,4,2,39,65,1,0
235601,-200,4,2,39,65,0,0
236009,431.654676258992,4,2,132,65,1,0
236224,-100,4,2,39,65,0,0
236872,451.127819548872,4,2,132,65,1,0
237097,-100,4,2,39,65,0,0
237774,468.75,4,2,132,65,1,0
238008,-100,4,2,39,65,0,0
238242,487.80487804878,4,2,39,65,1,0
238729,504.201680672269,4,2,132,65,1,0
238981,-100,4,2,39,65,0,0
239233,521.739130434783,4,2,39,65,1,0
239754,-100,4,2,132,65,0,0
239885,-100,4,2,26,65,0,0
240276,550.45871559633,4,2,132,65,1,0
240413,-100,4,2,26,65,0,0
240826,571.428571428571,4,2,132,65,1,0
240968,-100,4,2,26,65,0,0
241397,582.52427184466,4,2,132,65,1,0
241542,-100,4,2,26,65,0,0
241979,606.060606060606,4,2,133,65,1,0
242054,-100,4,2,27,65,0,0
242282,-100,4,2,133,65,0,0
242357,-100,4,2,27,65,0,0
242585,-100,4,2,133,65,0,0
242660,-100,4,2,27,65,0,0
242888,-100,4,2,133,65,0,0
242963,-100,4,2,27,65,0,0
243191,588.235294117647,4,2,40,65,1,0
243485,-100,4,2,32,65,0,0
243779,612.244897959184,4,2,32,65,1,0
243932,-100,4,2,3,65,0,0
244391,600,4,2,41,75,1,0
244391,-125,4,2,41,75,0,0
244691,-50,4,2,10,75,0,0
244991,-28.5714285714286,4,2,42,75,0,0
245291,-71.4285714285714,4,2,10,75,0,0
245441,-35.7142857142857,4,2,10,75,0,0
245591,-71.4285714285714,4,2,41,75,0,0
245741,-28.5714285714286,4,2,10,75,0,0
245966,-35.7142857142857,4,2,10,75,0,0
246191,-23.8095238095238,4,2,42,75,0,0
246341,-23.8095238095238,4,2,1,75,0,0
246491,-47.6190476190476,4,2,1,75,0,0
246641,-35.7142857142857,4,2,1,75,0,0
246791,-35.7142857142857,4,2,134,75,0,0
247016,-35.7142857142857,4,2,1,75,0,0
247391,-35.7142857142857,4,2,134,75,0,0
247691,-28.5714285714286,4,2,10,75,0,0
247991,-71.4285714285714,4,2,41,75,0,0
248141,-35.7142857142857,4,2,10,75,0,0
248591,-33.3333333333333,4,2,135,75,0,0
248741,-33.3333333333333,4,2,10,75,0,0
248891,-35.7142857142857,4,2,10,75,0,0
249191,-35.7142857142857,4,2,41,75,0,0
249491,-71.4285714285714,4,2,10,75,0,0
249791,-23.8095238095238,4,2,42,75,0,0
250091,-71.4285714285714,4,2,10,75,0,0
250241,-35.7142857142857,4,2,10,75,0,0
250391,-35.7142857142857,4,2,41,75,0,0
250541,-23.8095238095238,4,2,136,75,0,0
250691,-23.8095238095238,4,2,10,75,0,0
250841,-35.7142857142857,4,2,10,75,0,0
250991,-35.7142857142857,4,2,134,75,0,0
251741,-35.7142857142857,4,2,1,75,0,0
252191,-28.5714285714286,4,2,42,75,0,0
252341,-28.5714285714286,4,2,1,75,0,0
252491,-35.7142857142857,4,2,1,75,0,0
252791,-17.8571428571429,4,2,41,75,0,0
252941,-17.8571428571429,4,2,1,75,0,0
253091,-35.7142857142857,4,2,1,75,0,0
253391,-35.7142857142857,4,2,42,75,0,0
253541,-35.7142857142857,4,2,1,75,0,0
253991,-35.7142857142857,4,2,41,75,0,0
254291,-35.7142857142857,4,2,10,75,0,0
254591,-23.8095238095238,4,2,42,75,0,0
254891,-23.8095238095238,4,2,10,75,0,0
255041,-35.7142857142857,4,2,10,75,0,0
255191,-35.7142857142857,4,2,41,75,0,0
255341,-28.5714285714286,4,2,136,75,0,0
255491,-28.5714285714286,4,2,10,75,0,0
255641,-35.7142857142857,4,2,10,75,0,0
255791,-23.8095238095238,4,2,43,75,0,0
256091,-71.4285714285714,4,2,137,75,0,0
256241,-35.7142857142857,4,2,137,75,0,0
256391,-35.7142857142857,4,2,134,75,0,0
256991,-31.25,4,2,134,75,0,0
257291,-31.25,4,2,10,75,0,0
257441,-35.7142857142857,4,2,10,75,0,0
257591,-35.7142857142857,4,2,41,75,0,0
257741,-35.7142857142857,4,2,10,75,0,0
258191,-23.8095238095238,4,2,135,75,0,0
258341,-23.8095238095238,4,2,10,75,0,0
258491,-35.7142857142857,4,2,10,75,0,0
258791,-35.7142857142857,4,2,134,75,0,0
259691,-35.7142857142857,4,2,10,75,0,0
259991,-35.7142857142857,4,2,41,75,0,0
260141,-41.6666666666667,4,2,41,75,0,0
260291,-41.6666666666667,4,2,10,75,0,0
260441,-35.7142857142857,4,2,10,75,0,0
260591,-35.7142857142857,4,2,42,75,0,0
261041,-35.7142857142857,4,2,10,75,0,0
261191,-35.7142857142857,4,2,134,75,0,0
261291,-35.7142857142857,4,2,138,75,0,0
261491,-35.7142857142857,4,2,1,75,0,0
261791,-83.3333333333333,4,2,135,75,0,0
262391,-83.3333333333333,4,2,134,75,0,0
262491,-83.3333333333333,4,2,138,75,0,0
262691,-83.3333333333333,4,2,1,75,0,0
262991,-83.3333333333333,4,2,135,75,0,0
263066,-83.3333333333333,4,2,1,75,0,0
263291,-83.3333333333333,4,2,10,75,0,0
263441,-83.3333333333333,4,2,11,75,0,0
263591,-125,4,2,137,75,0,0
264191,-17.8571428571429,4,2,134,75,0,0
264457,-100,4,2,136,75,0,0
264791,-17.8571428571429,4,2,134,75,0,0
265057,-100,4,2,136,75,0,0
265391,-17.8571428571429,4,2,134,75,0,0
265657,-100,4,2,136,75,0,0
265991,-100,4,2,43,75,0,0
266141,-100,4,2,3,75,0,0
266591,-50,4,2,138,75,0,0
267341,-50,4,2,10,75,0,0
267641,-50,4,2,135,75,0,0
268091,-50,4,2,136,75,0,0
268391,-50,4,2,135,75,0,0
268991,-17.8571428571429,4,2,134,75,0,0
269257,-100,4,2,136,75,0,0
269591,-17.8571428571429,4,2,134,75,0,0
269857,-100,4,2,136,75,0,0
270191,-17.8571428571429,4,2,134,75,0,0
270457,-100,4,2,136,75,0,0
270791,-35.7142857142857,4,2,134,75,0,0
271091,-35.7142857142857,4,2,139,75,0,0
272591,-35.7142857142857,4,2,34,75,0,0
272741,-35.7142857142857,4,2,3,75,0,0
273191,576.923076923077,4,2,10,60,1,0
273767,545.454545454545,4,2,10,60,1,0
274312,495.867768595041,4,2,10,60,1,0
274807,472.44094488189,4,2,10,60,1,0
275279,437.956204379562,4,2,10,60,1,0
275716,416.666666666667,4,2,10,60,1,0
276132,392.156862745098,4,2,10,60,1,0
276524,372.670807453416,4,2,10,60,1,0
276896,357.142857142857,4,2,10,60,1,0
277253,337.078651685393,4,2,10,60,1,0
277590,320.855614973262,4,2,10,60,1,0
277910,317.460317460317,4,2,10,60,1,0
278227,288.461538461538,4,2,10,60,1,0
279110,304.568527918782,4,2,13,60,1,0
279186,-100,4,2,12,60,0,0
279414,300,4,2,10,80,1,1
279414,-50,4,2,10,80,0,1
279714,-50,4,2,2,80,0,1
287814,-50,4,2,10,80,0,1
288114,-50,4,2,3,80,0,1
288264,-50,4,2,10,80,0,1
288714,-50,4,2,140,80,0,1
289014,-50,4,2,10,80,0,1
289314,-50,4,2,2,80,0,1
293814,-50,4,2,10,80,0,1
294114,-50,4,2,2,80,0,1
295014,-50,4,2,10,80,0,1
295314,-50,4,2,2,80,0,1
296214,-50,4,2,10,80,0,1
296514,-50,4,2,2,80,0,1
297414,-50,4,2,10,70,0,1
301614,-133.333333333333,4,2,3,75,0,0
301764,-200,4,2,3,75,0,0
301914,-400,4,2,3,75,0,0
302214,-400,4,2,141,75,0,0

[Colours]
Combo1 : 130,228,253
Combo2 : 251,172,255
Combo3 : 208,81,251
Combo4 : 249,242,166
Combo5 : 243,252,133
Combo6 : 153,253,193
Combo7 : 85,249,122
Combo8 : 186,222,254

[HitObjects]
256,192,581,12,2,2081,2:2:0:0:
493,30,2381,6,0,B|384:29|364:132|364:132|433:145|444:198,1,292.5,6|0,3:2|0:0,0:0:0:0:
512,252,2681,2,0,L|323:199,1,195,2|0,2:2|0:0,0:0:0:0:
459,121,2981,6,0,B|465:108|492:102|492:102|455:100|441:122,1,97.5,2|0,2:2|0:0,0:0:0:0:
258,92,3131,2,0,B|269:67|258:44|258:44|241:67|256:94,1,97.5,2|0,2:2|0:0,0:0:0:0:
53,121,3281,2,0,B|46:108|19:102|19:102|56:100|70:122,1,97.5,2|0,2:2|0:0,0:0:0:0:
19,30,3581,6,0,B|128:29|148:132|148:132|78:145|67:198,1,292.5,6|0,3:2|0:0,0:0:0:0:
185,292,3881,2,0,P|198:251|164:196,1,97.5,2|0,2:2|0:0,0:0:0:0:
141,50,4031,1,2,2:2:0:0:
61,205,4181,2,0,P|66:251|109:268,1,97.5,2|0,2:2|0:0,0:0:0:0:
259,151,4331,5,2,2:2:0:0:
259,151,4406,1,0,0:0:0:0:
259,151,4481,2,0,L|165:123,1,97.5,2|0,2:2|0:0,0:0:0:0:
32,369,4631,2,0,L|125:341,1,97.5,2|0,2:2|0:0,0:0:0:0:
245,8,4781,6,0,B|181:176|336:125|286:278,1,292.5,6|0,3:2|0:0,0:0:0:0:
218,218,5081,2,0,B|245:100|314:184|340:82,1,195,2|0,2:2|0:0,0:0:0:0:
70,41,5381,6,0,P|85:93|93:135,1,97.5,2|0,2:2|0:0,0:0:0:0:
442,47,5531,2,0,P|427:99|419:141,1,97.5,2|0,2:2|0:0,0:0:0:0:
243,383,5681,6,0,P|212:321|247:384,1,292.5,2|0,2:2|0:0,0:0:0:0:
185,292,5981,5,6,3:2:0:0:
256,192,6056,12,8,7031,2:3:0:0:
488,230,7181,6,0,P|410:233|342:286,1,156,6|2,3:2|2:2,0:0:0:0:
464,379,7481,6,0,L|492:307,1,78,8|0,3:2|0:0,0:0:0:0:
430,151,7631,2,0,L|402:223,1,78,2|0,2:2|0:0,0:0:0:0:
397,346,7781,5,0,3:3:0:0:
293,130,7931,2,0,L|328:201,1,78,2|0,2:2|0:0,0:0:0:0:
397,346,8081,6,0,L|178:261,1,234,8|0,3:2|0:0,0:0:0:0:
173,174,8381,6,0,L|245:202,1,78,0|0,3:3|0:0,0:0:0:0:
299,335,8531,2,0,L|228:366,1,78,2|0,2:2|0:0,0:0:0:0:
80,375,8681,6,0,L|164:156,1,234,8|0,3:2|0:0,0:0:0:0:
163,80,8981,5,0,3:3:0:0:
275,384,9131,2,0,L|246:311,1,78,2|0,2:2|0:0,0:0:0:0:
128,284,9281,5,8,3:2:0:0:
507,141,9431,2,0,L|288:225,1,234,2|0,2:2|0:0,0:0:0:0:
260,151,9731,6,0,L|333:123,1,78,2|0,2:2|0:0,0:0:0:0:
414,302,9881,1,8,3:2:0:0:
507,59,10031,2,0,L|478:131,1,78,2|0,2:2|0:0,0:0:0:0:
507,310,10181,5,0,3:3:0:0:
377,23,10331,2,0,L|409:95,1,78,2|0,2:2|0:0,0:0:0:0:
507,310,10481,2,0,L|288:225,1,234,8|0,3:2|0:0,0:0:0:0:
285,364,10781,6,0,L|357:335,1,78,0|0,3:3|0:0,0:0:0:0:
449,205,10931,1,2,2:2:0:0:
202,363,11081,6,0,L|287:145,1,234,8|0,3:2|0:0,0:0:0:0:
175,40,11381,6,0,L|204:112,1,78,0|0,3:3|0:0,0:0:0:0:
285,364,11531,1,2,2:2:0:0:
75,297,11681,6,0,L|147:268,1,78,8|0,3:2|0:0,0:0:0:0:
367,174,11831,1,2,2:2:0:0:
29,143,11981,6,0,P|107:146|175:199,1,156,2|2,3:2|2:2,0:0:0:0:
103,369,12281,6,0,L|75:297,1,78,8|0,3:2|0:0,0:0:0:0:
131,29,12431,2,0,L|103:101,1,78,2|0,2:2|0:0,0:0:0:0:
49,222,12581,5,0,3:3:0:0:
273,54,12731,2,0,L|199:81,1,78,2|0,2:2|0:0,0:0:0:0:
49,222,12881,6,0,L|268:137,1,234,8|0,3:2|0:0,0:0:0:0:
368,37,13181,6,0,L|340:110,1,78,0|0,3:3|0:0,0:0:0:0:
180,191,13331,2,0,L|253:218,1,78,2|0,2:2|0:0,0:0:0:0:
511,334,13481,6,0,L|327:186,1,234,8|0,3:2|0:0,0:0:0:0:
235,65,13781,6,0,L|267:137,1,78,0|0,3:3|0:0,0:0:0:0:
312,270,13931,1,2,2:2:0:0:
482,117,14081,6,0,L|410:148,1,78,8|0,3:2|0:0,0:0:0:0:
288,295,14231,1,2,2:2:0:0:
488,214,14381,5,0,3:3:0:0:
154,93,14531,2,0,L|226:121,1,78,2|0,2:2|0:0,0:0:0:0:
352,341,14681,6,0,L|328:186,1,156,8|2,3:2|2:2,0:0:0:0:
368,37,14981,5,0,3:3:0:0:
223,368,15131,2,0,L|269:305,1,78,2|0,2:2|0:0,0:0:0:0:
384,128,15281,5,8,3:2:0:0:
96,314,15431,2,0,L|173:302,1,78,2|0,2:2|0:0,0:0:0:0:
418,284,15581,5,2,3:2:0:0:
452,342,15731,2,0,L|426:300,1,48.7500000000001,2|0,2:2|0:0,0:0:0:0:
388,297,15881,6,0,L|410:306,2,24.3750000000001,10|0|0,2:2|0:0|0:0,0:0:0:0:
512,276,16031,5,0,0:0:0:0:
383,384,16181,1,2,2:2:0:0:
360,211,16331,1,2,2:2:0:0:
484,368,16481,6,0,L|505:385,2,24.3750000000001,10|0|0,2:2|0:0|0:0,0:0:0:0:
464,169,16631,6,0,L|448:215,1,48.7500000000001,2|0,2:2|0:0,0:0:0:0:
240,384,16781,6,0,B|228:302|228:302|277:240|277:240|260:134,1,253.5,6|0,3:2|0:0,0:0:0:0:
155,345,17081,6,0,P|96:288|115:210,1,169,10|0,3:2|0:0,0:0:0:0:
327,305,17381,1,2,3:2:0:0:
15,124,17531,6,0,P|134:113|192:218,1,253.5,2|0,2:2|0:0,0:0:0:0:
262,149,17831,2,0,P|299:125|304:76,1,84.4999961318971,2|0,2:2|0:0,0:0:0:0:
382,59,17981,1,0,3:3:0:0:
92,139,18131,2,0,L|123:131,1,32.5
408,325,18281,6,0,L|326:304,1,84.5,10|0,3:2|0:0,0:0:0:0:
274,228,18431,6,0,L|279:243,2,16.25
512,361,18581,6,0,L|407:337,1,97.5,2|0,3:2|0:0,0:0:0:0:
225,295,18731,2,0,P|333:257|352:146,1,195,2|8,2:2|3:2,0:0:0:0:
141,9,19031,6,0,P|150:56|189:83,1,97.5,2|0,2:2|0:0,0:0:0:0:
257,133,19181,5,0,3:3:0:0:
257,133,19331,6,0,L|268:69,2,48.75
256,4,19481,6,0,B|241:94|241:94|290:156|290:156|278:238,1,253.5,10|0,3:2|0:0,0:0:0:0:
409,57,19781,6,0,P|368:65|345:99,1,84.5,2|0,3:2|0:0,0:0:0:0:
40,229,19931,2,0,L|214:189,1,169,2|8,2:2|3:2,0:0:0:0:
37,244,20231,6,0,L|119:225,1,84.5,2|0,2:2|0:0,0:0:0:0:
327,180,20381,6,0,P|367:188|390:222,1,84.5,2|0,3:2|0:0,0:0:0:0:
273,314,20531,2,0,P|260:274|277:237,1,84.5,2|0,2:2|0:0,0:0:0:0:
430,137,20681,5,10,3:2:0:0:
430,137,20756,1,0,0:0:0:0:
430,137,20831,2,0,L|512:118,1,84.5
119,224,20980,5,2,3:2:0:0:
204,191,21081,5,0,0:0:0:0:
276,237,21180,5,0,0:0:0:0:
280,321,21281,5,10,3:2:0:0:
280,321,21356,1,0,0:0:0:0:
280,321,21431,2,0,L|266:378,1,58.5000000000001
242,9,21581,5,2,3:2:0:0:
204,79,21881,6,0,L|30:50,1,175.5,10|0,3:2|0:0,0:0:0:0:
347,17,22181,2,0,P|322:32|308:57,1,58.5000000000001,2|0,3:2|0:0,0:0:0:0:
193,163,22331,2,0,P|139:145|119:92,1,117,2|8,2:2|3:2,0:0:0:0:
308,57,22631,6,0,L|423:37,1,116.999996429443,2|0,2:2|3:3,0:0:0:0:
218,284,23081,6,0,B|237:185|288:236|309:120,1,175.5,10|0,3:2|0:0,0:0:0:0:
251,0,23381,5,2,3:2:0:0:
311,338,23531,2,0,B|300:274,1,58.5000000000001,2|0,2:2|0:0,0:0:0:0:
404,195,23681,6,0,P|373:202|354:238,1,58.5000000000001,8|0,3:2|0:0,0:0:0:0:
166,347,23831,2,0,P|112:327|86:276,2,117,2|0|0,2:2|3:3|0:0,0:0:0:0:
149,50,24281,6,0,B|165:149|217:97|236:196,1,175.5,10|0,3:2|0:0,0:0:0:0:
215,105,24581,5,2,3:2:0:0:
512,0,24731,2,0,L|477:172,1,175.5,2|0,2:2|0:0,0:0:0:0:
408,100,25031,2,0,L|396:42,1,58.5000000000001,2|0,2:2|0:0,0:0:0:0:
48,32,25181,5,4,3:2:0:0:
48,32,25481,5,8,2:2:0:0:
23,247,25581,2,0,L|30:204,1,43.3333333333333,0|8,0:0|2:2,0:0:0:0:
73,136,25706,5,8,2:2:0:0:
80,137,25781,2,0,P|107:129|126:96,1,65,0|8,0:0|2:2,0:0:0:0:
182,53,25931,1,8,2:2:0:0:
208,57,26006,1,8,2:2:0:0:
218,76,26081,5,8,2:2:0:0:
285,376,26231,1,0,0:0:0:0:
421,111,26381,6,0,P|340:142|338:307,1,253.499988395691,6|0,3:2|0:0,0:0:0:0:
384,230,26681,5,8,3:2:0:0:
390,237,26756,1,0,0:0:0:0:
399,237,26831,2,0,P|441:217|442:150,1,84.4999961318971,2|0,2:2|0:0,0:0:0:0:
343,85,26981,5,0,3:3:0:0:
401,319,27131,1,2,2:2:0:0:
511,91,27281,6,0,L|242:34,1,253.5,10|0,3:2|0:0,0:0:0:0:
14,182,27581,2,0,L|283:125,1,253.5,2|0,3:2|0:0,0:0:0:0:
166,23,27881,6,0,L|182:107,1,84.4999961318971,8|0,3:2|0:0,0:0:0:0:
209,288,28031,1,2,2:2:0:0:
426,103,28181,6,0,L|343:85,1,84.5,0|0,3:3|0:0,0:0:0:0:
103,116,28331,6,0,P|104:157|121:196,1,84.5,2|0,2:2|0:0,0:0:0:0:
388,206,28481,2,0,P|408:169|413:127,1,84.5,10|0,3:2|0:0,0:0:0:0:
263,38,28631,5,2,2:2:0:0:
254,382,28781,6,0,L|261:128,1,253.5,2|0,3:2|0:0,0:0:0:0:
335,275,29081,6,0,P|374:288|395:323,1,84.5,8|0,3:2|0:0,0:0:0:0:
172,384,29231,1,2,2:2:0:0:
238,202,29381,1,0,3:3:0:0:
335,374,29531,1,2,2:2:0:0:
53,340,29681,6,0,P|153:275|135:157,1,253.5,10|0,3:2|0:0,0:0:0:0:
61,175,29981,6,0,P|60:217|54:259,1,84.5,2|0,3:2|0:0,0:0:0:0:
250,368,30131,2,0,P|251:319|256:270,1,84.5,2|0,2:2|0:0,0:0:0:0:
435,257,30281,1,8,3:2:0:0:
435,257,30356,1,0,0:0:0:0:
435,257,30431,6,0,P|435:278|438:299,2,42.25,2|0|0,2:2|0:0|0:0,0:0:0:0:
376,182,30581,2,0,P|357:172|338:164,2,42.25,0|0|0,3:3|0:0|0:0,0:0:0:0:
465,171,30731,2,0,P|483:161|499:148,2,42.25,2|0|0,2:2|0:0|0:0,0:0:0:0:
264,279,30881,5,8,3:2:0:0:
264,279,31031,1,2,2:2:0:0:
150,34,31181,6,0,P|270:45|325:154,1,253.5,2|0,3:2|0:0,0:0:0:0:
255,186,31481,6,0,P|215:195|197:231,1,84.5,8|0,3:2|0:0,0:0:0:0:
273,384,31631,1,2,2:2:0:0:
274,375,31706,1,0,0:0:0:0:
275,366,31781,5,0,3:3:0:0:
227,108,31931,1,2,2:2:0:0:
50,352,32081,6,0,L|293:280,1,253.5,10|0,3:2|0:0,0:0:0:0:
498,257,32381,2,0,L|254:185,1,253.5,2|0,3:2|0:0,0:0:0:0:
354,382,32681,6,0,L|377:299,1,84.5,8|0,3:2|0:0,0:0:0:0:
434,61,32831,1,2,2:2:0:0:
115,255,32981,6,0,L|196:230,1,84.5,0|0,3:3|0:0,0:0:0:0:
398,155,33131,6,0,P|414:116|416:74,1,84.5,2|0,2:2|0:0,0:0:0:0:
116,81,33281,2,0,P|121:122|141:159,1,84.5,10|0,3:2|0:0,0:0:0:0:
275,366,33431,5,2,2:2:0:0:
266,22,33581,6,0,L|273:276,1,253.5,2|0,3:2|0:0,0:0:0:0:
199,382,33881,6,0,P|153:365|130:298,1,84.5,8|0,3:2|0:0,0:0:0:0:
243,162,34031,1,2,2:2:0:0:
275,366,34181,1,0,3:3:0:0:
116,256,34331,1,2,2:2:0:0:
454,194,34481,6,0,P|476:273|444:350,1,169,10|0,3:2|0:0,0:0:0:0:
52,330,34781,2,0,P|29:250|61:173,1,169,2|2,3:2|2:2,0:0:0:0:
289,115,35081,6,0,L|293:73,2,42.25,10|0|0,2:2|0:0|0:0,0:0:0:0:
200,133,35231,6,0,L|209:174,2,42.25,2|0|0,2:2|0:0|0:0,0:0:0:0:
363,34,35381,6,0,L|413:22,2,42.25,2|0|0,2:2|0:0|0:0,0:0:0:0:
116,109,35531,6,0,L|66:97,2,42.25,2|0|0,2:2|0:0|0:0,0:0:0:0:
395,109,35681,6,0,L|404:150,2,42.25,10|0|0,2:2|0:0|0:0,0:0:0:0:
174,53,35831,6,0,L|183:11,2,42.2499980659486
197,254,35981,6,0,P|301:194|293:73,1,253.5,6|0,3:2|0:0,0:0:0:0:
235,136,36281,5,8,3:2:0:0:
229,129,36356,1,0,0:0:0:0:
220,128,36431,2,0,P|181:144|165:182,1,84.5,2|0,2:2|0:0,0:0:0:0:
301,246,36581,5,0,3:3:0:0:
255,8,36731,1,2,2:2:0:0:
153,183,36881,6,0,L|184:348,1,169,10|0,3:2|0:0,0:0:0:0:
445,301,37181,2,0,L|196:253,1,253.5,2|0,3:2|0:0,0:0:0:0:
201,337,37481,6,0,L|283:352,1,84.5,8|0,3:2|0:0,0:0:0:0:
237,116,37631,1,2,2:2:0:0:
49,277,37781,6,0,L|131:292,1,84.5,0|0,3:3|0:0,0:0:0:0:
271,225,37931,6,0,L|282:184,2,42.25,2|0|0,2:2|0:0|0:0,0:0:0:0:
278,2,38081,6,0,L|289:42,2,42.25,10|0|0,3:2|0:0|0:0,0:0:0:0:
301,246,38231,2,0,L|289:205,2,42.25,2|0|0,2:2|0:0|0:0,0:0:0:0:
506,28,38381,6,0,P|387:38|353:152,1,253.5,2|0,3:2|0:0,0:0:0:0:
456,214,38681,6,0,P|458:173|427:145,1,84.5,8|0,3:2|0:0,0:0:0:0:
253,109,38831,1,2,2:2:0:0:
260,116,38906,1,0,0:0:0:0:
260,116,38981,6,0,P|219:108|178:98,1,84.5,0|0,3:3|0:0,0:0:0:0:
260,337,39131,2,0,P|301:328|342:318,1,84.5,2|0,2:2|0:0,0:0:0:0:
32,170,39281,6,0,P|150:180|184:294,1,253.5,10|0,3:2|0:0,0:0:0:0:
96,335,39581,6,0,P|87:293|78:252,1,84.5,2|0,3:2|0:0,0:0:0:0:
41,72,39731,1,2,2:2:0:0:
178,311,39881,6,0,P|155:345|114:350,1,84.5,10|0,3:2|0:0,0:0:0:0:
0,257,40031,2,0,P|41:247|82:238,1,84.5
87,1,40181,6,0,P|101:84|117:167,1,169,2|2,3:2|2:2,0:0:0:0:
96,365,40481,6,0,P|55:360|32:325,1,84.5,10|0,3:2|0:0,0:0:0:0:
138,146,40631,2,0,P|147:188|156:229,1,84.5
178,311,40781,6,0,P|296:301|330:187,1,253.5,2|0,3:2|0:0,0:0:0:0:
407,244,41081,2,0,P|436:282|427:319,1,84.5,8|0,3:2|0:0,0:0:0:0:
512,305,41231,5,2,2:2:0:0:
165,220,41381,2,0,L|265:245,1,84.5,0|0,3:3|0:0,0:0:0:0:
512,305,41531,1,2,2:2:0:0:
435,39,41681,6,0,P|312:93|322:202,1,253.5,10|0,3:2|0:0,0:0:0:0:
230,156,41981,2,0,P|186:139|164:105,1,84.5,2|0,3:2|0:0,0:0:0:0:
412,160,42131,5,2,2:2:0:0:
8,58,42281,2,0,L|89:79,1,84.5,8|0,3:2|0:0,0:0:0:0:
412,160,42431,1,2,2:2:0:0:
279,379,42581,6,0,P|167:337|162:218,1,253.499988395691,0|0,3:3|0:0,0:0:0:0:
237,236,42881,2,0,P|269:262|272:304,1,84.5,10|0,3:2|0:0,0:0:0:0:
96,376,43031,1,2,2:2:0:0:
425,352,43181,6,0,L|343:330,1,84.5,2|0,3:2|0:0,0:0:0:0:
39,305,43331,2,0,L|120:283,1,84.5,2|0,2:2|0:0,0:0:0:0:
472,270,43481,6,0,L|390:248,1,84.5,8|0,3:2|0:0,0:0:0:0:
6,224,43631,2,0,L|87:202,1,84.5,2|0,2:2|0:0,0:0:0:0:
480,181,43781,6,0,L|398:159,1,84.5,0|0,3:3|0:0,0:0:0:0:
8,133,43931,2,0,L|89:111,1,84.5,2|0,2:2|0:0,0:0:0:0:
494,4,44081,6,0,L|500:43,12,21.125,10|0|0|0|0|0|0|0|0|0|0|0|0,3:2|0:0|0:0|0:0|0:0|0:0|0:0|0:0|0:0|0:0|0:0|0:0|0:0,0:0:0:0:
455,93,44381,2,0,P|446:81|429:74,1,32.5,0|0,3:3|0:0,0:0:0:0:
345,102,44531,5,2,2:2:0:0:
345,89,44606,1,2,2:2:0:0:
356,96,44681,1,10,2:3:0:0:
273,51,44831,6,0,P|258:40|254:23,1,32.5,6|4,2:3|2:3,0:0:0:0:
190,67,44981,5,10,2:3:0:0:
175,74,45056,1,8,2:3:0:0:
164,86,45131,1,6,2:3:0:0:
95,41,45281,6,0,L|57:30,1,32.5,10|0,2:3|0:0,0:0:0:0:
247,128,45431,2,0,L|252:156,2,21.1250000000001,10|0|8,2:3|0:0|2:3,0:0:0:0:
377,12,45581,5,6,3:2:0:0:
377,12,45731,5,2,2:2:0:0:
184,240,45881,2,0,L|268:226,1,84.5000000000005,2|0,2:2|0:0,0:0:0:0:
292,16,46181,5,2,2:2:0:0:
172,149,46331,1,2,2:2:0:0:
249,319,46481,1,2,2:2:0:0:
458,105,46631,6,0,L|334:127,1,126.750000000001,2|0,2:2|0:0,0:0:0:0:
463,197,46931,5,2,2:2:0:0:
268,226,47081,2,0,L|246:101,1,126.750000000001,2|0,2:2|0:0,0:0:0:0:
130,12,47381,5,2,2:2:0:0:
174,180,47531,1,2,2:2:0:0:
252,21,47681,2,0,L|210:27,1,42.2500000000002,2|0,2:2|0:0,0:0:0:0:
50,201,47831,2,0,L|175:180,1,126.750000000001,2|0,2:2|0:0,0:0:0:0:
0,135,48131,5,2,2:2:0:0:
246,99,48281,2,0,L|271:224,1,126.750000000001,2|0,2:2|0:0,0:0:0:0:
201,314,48581,5,2,2:2:0:0:
155,92,48731,1,2,2:2:0:0:
399,52,48881,1,2,2:2:0:0:
324,338,49031,6,0,L|200:313,1,126.750000000001,2|0,2:2|0:0,0:0:0:0:
344,255,49331,5,2,2:2:0:0:
114,315,49481,2,0,L|137:190,1,126.750000000001,2|0,2:2|0:0,0:0:0:0:
58,66,49781,5,2,2:2:0:0:
244,239,49931,1,2,2:2:0:0:
0,313,50081,1,2,2:2:0:0:
20,144,50231,6,0,L|61:151,1,42.2500000000002,2|0,2:2|0:0,0:0:0:0:
20,144,50531,5,2,2:2:0:0:
295,294,50681,2,0,P|257:277|243:238,1,84.5000000000005,2|0,2:2|0:0,0:0:0:0:
378,179,50981,5,2,2:2:0:0:
228,155,51131,1,2,2:2:0:0:
200,382,51281,1,2,2:2:0:0:
378,349,51431,6,0,L|390:265,1,84.5000000000005,2|0,2:2|0:0,0:0:0:0:
308,122,51731,5,2,2:2:0:0:
491,160,51881,2,0,L|471:285,1,126.750000000001,2|0,2:2|0:0,0:0:0:0:
373,72,52181,5,2,2:2:0:0:
390,0,52331,1,2,2:2:0:0:
462,17,52481,1,2,2:2:0:0:
447,90,52631,1,2,2:2:0:0:
11,28,52931,5,2,2:2:0:0:
20,92,53081,6,0,L|9:19,1,65,2|0,2:2|0:0,0:0:0:0:
103,106,53381,2,0,L|92:33,1,65,2|0,2:2|0:0,0:0:0:0:
178,75,53681,2,0,L|167:2,1,65,2|0,2:2|0:0,0:0:0:0:
272,10,53981,5,2,2:2:0:0:
298,90,54131,1,2,2:2:0:0:
235,142,54281,1,2,2:2:0:0:
218,143,54431,5,0,0:0:0:0:
192,223,54581,1,2,2:2:0:0:
255,275,54731,1,2,2:2:0:0:
250,361,54881,5,2,2:2:0:0:
250,361,55031,1,0,0:0:0:0:
9,295,55181,6,0,L|74:282,1,65,6|2,2:2|2:2,0:0:0:0:
155,304,55481,2,0,L|135:208,1,97.5,10|0,2:2|0:0,0:0:0:0:
148,129,55781,5,2,2:2:0:0:
95,362,55931,1,2,2:2:0:0:
0,310,56081,1,10,2:2:0:0:
0,146,56231,6,0,L|12:209,1,65,2|0,2:2|0:0,0:0:0:0:
73,283,56531,5,2,2:2:0:0:
36,69,56681,2,0,L|131:49,1,97.5,10|0,2:2|0:0,0:0:0:0:
194,1,56981,5,2,2:2:0:0:
234,192,57131,1,2,2:2:0:0:
160,154,57281,1,10,2:2:0:0:
269,31,57431,2,0,L|288:126,1,97.5,2|0,2:2|0:0,0:0:0:0:
160,154,57731,5,2,2:2:0:0:
429,210,57881,2,0,L|333:190,1,97.5,10|0,2:2|0:0,0:0:0:0:
272,245,58181,5,2,2:2:0:0:
461,291,58331,1,2,2:2:0:0:
508,66,58481,1,10,2:2:0:0:
352,272,58631,6,0,L|332:367,1,97.5,2|0,2:2|0:0,0:0:0:0:
472,371,58931,5,2,2:2:0:0:
512,146,59081,2,0,L|416:126,1,97.5,10|0,2:2|0:0,0:0:0:0:
244,34,59381,5,2,2:2:0:0:
176,357,59531,1,2,2:2:0:0:
461,291,59681,1,10,2:2:0:0:
335,110,59831,6,0,L|303:103,1,32.5,2|0,2:2|0:0,0:0:0:0:
416,126,59981,5,0,0:0:0:0:
416,126,60131,5,2,2:2:0:0:
157,185,60281,2,0,L|252:165,1,97.5,10|0,2:2|0:0,0:0:0:0:
288,274,60581,5,2,2:2:0:0:
241,33,60731,1,2,2:2:0:0:
338,14,60881,1,10,2:2:0:0:
383,254,61031,6,0,L|287:273,1,97.5,2|0,2:2|0:0,0:0:0:0:
268,360,61331,5,2,2:2:0:0:
320,91,61481,2,0,L|300:186,1,97.5,10|0,2:2|0:0,0:0:0:0:
190,298,61781,5,2,2:2:0:0:
222,108,61931,1,2,2:2:0:0:
402,147,62081,1,10,2:2:0:0:
227,220,62231,6,0,L|131:200,1,97.5,2|0,2:2|0:0,0:0:0:0:
74,251,62531,5,2,2:2:0:0:
311,298,62681,1,10,2:2:0:0:
367,11,62831,1,0,0:0:0:0:
306,75,62981,5,2,2:2:0:0:
292,160,63131,1,2,2:2:0:0:
502,193,63281,1,10,2:2:0:0:
6,4,63431,6,0,L|7:17,1,13,2|4,2:2|2:3,0:0:0:0:
130,310,63731,5,10,2:3:0:0:
92,45,63881,1,2,2:2:0:0:
26,108,64031,1,6,2:3:0:0:
185,238,64181,6,0,L|173:162,1,65,2|0,2:2|3:3,0:0:0:0:
168,86,64481,5,10,2:2:0:0:
55,255,64631,1,2,3:2:0:0:
257,287,64781,5,2,3:2:0:0:
257,287,64931,1,0,3:3:0:0:
329,44,65081,5,8,2:2:0:0:
328,54,65231,1,0,0:0:0:0:
318,132,65381,5,2,2:2:0:0:
391,108,65531,1,0,0:0:0:0:
404,34,65681,5,8,2:2:0:0:
378,186,65831,1,0,0:0:0:0:
466,85,65981,5,2,2:2:0:0:
328,54,66131,1,0,0:0:0:0:
318,132,66281,5,8,2:2:0:0:
391,108,66431,1,0,0:0:0:0:
257,83,66581,5,2,3:2:0:0:
302,207,66731,1,0,3:3:0:0:
187,332,66881,5,8,2:2:0:0:
243,159,67031,1,0,0:0:0:0:
113,129,67181,1,2,3:2:0:0:
97,209,67331,1,0,0:0:0:0:
171,186,67481,5,8,2:2:0:0:
131,46,67631,1,0,0:0:0:0:
97,209,67781,1,0,0:0:0:0:
185,103,67931,1,0,0:0:0:0:
60,77,68081,1,8,2:2:0:0:
113,129,68231,1,0,0:0:0:0:
131,46,68381,5,2,2:2:0:0:
205,20,68531,1,0,0:0:0:0:
278,238,68681,1,10,2:2:0:0:
316,168,68831,5,0,0:0:0:0:
423,136,68981,1,2,3:2:0:0:
496,354,69131,1,0,3:3:0:0:
240,310,69281,5,10,2:2:0:0:
496,231,69431,1,0,3:3:0:0:
207,383,69581,5,2,3:2:0:0:
200,240,69731,1,0,3:3:0:0:
322,306,69881,1,8,2:2:0:0:
161,312,70031,5,2,2:2:0:0:
278,231,70181,1,0,0:0:0:0:
288,379,70331,1,0,0:0:0:0:
240,310,70481,5,10,2:2:0:0:
240,310,70631,1,0,0:0:0:0:
240,310,70781,5,0,0:0:0:0:
240,310,70931,1,0,0:0:0:0:
200,240,71081,5,10,2:2:0:0:
322,306,71231,1,0,0:0:0:0:
207,383,71381,5,2,3:2:0:0:
278,231,71531,1,0,3:3:0:0:
161,312,71681,5,10,2:2:0:0:
117,101,71831,1,0,3:3:0:0:
100,261,71981,5,2,3:2:0:0:
25,287,72131,1,0,0:0:0:0:
14,363,72281,1,8,2:2:0:0:
176,154,72431,5,2,2:2:0:0:
189,79,72581,1,0,0:0:0:0:
136,27,72731,1,0,0:0:0:0:
229,277,72881,5,10,2:2:0:0:
287,325,73031,1,0,0:0:0:0:
358,305,73181,1,0,0:0:0:0:
100,261,73331,5,2,2:2:0:0:
176,154,73481,1,8,2:2:0:0:
229,277,73631,1,0,0:0:0:0:
52,107,73781,5,2,3:2:0:0:
317,152,73931,1,0,3:3:0:0:
148,384,74081,1,8,2:2:0:0:
97,173,74231,1,0,3:3:0:0:
244,196,74381,5,4,3:2:0:0:
244,196,74531,1,0,0:0:0:0:
275,10,74681,1,8,2:2:0:0:
275,10,74831,1,0,0:0:0:0:
203,44,74981,5,2,3:2:0:0:
411,75,75131,1,0,0:0:0:0:
379,274,75281,1,8,2:2:0:0:
312,236,75431,1,0,0:0:0:0:
468,146,75581,5,2,3:2:0:0:
419,384,75731,1,0,0:0:0:0:
281,314,75881,1,8,2:2:0:0:
317,152,76031,1,0,0:0:0:0:
449,310,76181,5,2,3:2:0:0:
200,365,76331,1,0,3:3:0:0:
270,66,76481,1,8,2:2:0:0:
449,310,76631,1,0,3:3:0:0:
312,236,76781,5,2,3:2:0:0:
312,236,76931,1,0,0:0:0:0:
92,359,77081,5,8,2:2:0:0:
281,314,77231,1,0,0:0:0:0:
221,154,77381,5,0,3:3:0:0:
135,133,77531,1,0,0:0:0:0:
1,324,77681,5,8,2:2:0:0:
163,286,77831,1,0,0:0:0:0:
130,119,77981,5,2,3:2:0:0:
47,96,78131,1,0,0:0:0:0:
173,264,78281,5,10,2:2:0:0:
232,3,78431,1,0,0:0:0:0:
0,168,78581,5,2,3:2:0:0:
249,223,78731,1,0,3:3:0:0:
161,43,78881,5,10,2:2:0:0:
87,356,79031,1,0,3:3:0:0:
247,309,79181,5,2,3:2:0:0:
212,127,79331,1,0,0:0:0:0:
83,146,79481,1,8,2:2:0:0:
96,224,79631,1,2,2:2:0:0:
360,384,79781,5,0,3:3:0:0:
325,202,79931,1,0,0:0:0:0:
249,221,80081,1,10,2:2:0:0:
265,299,80231,1,0,0:0:0:0:
410,260,80381,5,0,3:3:0:0:
410,260,80531,1,0,0:0:0:0:
386,58,80681,5,10,2:2:0:0:
238,77,80831,1,0,0:0:0:0:
203,356,80981,5,2,3:2:0:0:
496,313,81131,1,0,3:3:0:0:
454,13,81281,1,10,2:2:0:0:
165,40,81431,1,0,3:3:0:0:
336,179,81581,5,2,3:2:0:0:
336,179,81731,1,0,0:0:0:0:
387,110,81881,5,8,2:2:0:0:
257,156,82031,1,2,2:2:0:0:
366,264,82181,1,0,3:3:0:0:
304,91,82331,5,0,0:0:0:0:
283,242,82481,1,10,2:2:0:0:
417,189,82631,1,0,0:0:0:0:
36,67,82781,5,2,3:2:0:0:
256,192,82856,12,0,83906,0:0:0:0:
161,266,83981,6,0,L|204:319,1,65,14|0,3:2|0:0,0:0:0:0:
389,212,84131,2,0,L|311:256,1,65,8|0,2:2|0:0,0:0:0:0:
252,374,84281,6,0,L|238:244,1,130,8|2,2:2|2:2,0:0:0:0:
285,303,84581,2,0,L|298:173,1,130,8|0,2:2|0:0,0:0:0:0:
345,369,84881,6,0,L|374:298,1,65,10|0,2:2|0:0,0:0:0:0:
159,237,85031,2,0,L|38:189,1,130,8|0,2:2|0:0,0:0:0:0:
214,168,85331,6,0,L|200:138,2,32.5,8|0|0,2:2|0:0|0:0,0:0:0:0:
198,314,85481,2,0,L|179:340,2,32.5,10|0|0,2:2|0:0|0:0,0:0:0:0:
333,255,85631,2,0,L|365:258,2,32.5,8|0|0,2:2|0:0|0:0,0:0:0:0:
249,244,85781,5,2,2:2:0:0:
438,139,85931,6,0,L|450:75,1,65,10|0,2:2|0:0,0:0:0:0:
256,11,86081,2,0,L|257:83,1,65,10|0,2:2|0:0,0:0:0:0:
52,141,86231,2,0,L|32:79,1,65,8|0,2:2|0:0,0:0:0:0:
350,126,86381,6,0,L|307:179,1,65,10|0,3:2|0:0,0:0:0:0:
129,93,86531,2,0,L|183:132,1,65,8|0,2:2|0:0,0:0:0:0:
249,244,86681,6,0,L|262:114,1,130,8|2,2:2|2:2,0:0:0:0:
223,129,86981,2,0,L|209:0,1,130,8|0,2:2|0:0,0:0:0:0:
197,50,87281,6,0,L|155:-2,1,65,10|0,2:2|0:0,0:0:0:0:
123,82,87431,2,0,L|-26:33,1,130,8|0,2:2|0:0,0:0:0:0:
292,83,87731,6,0,L|305:53,2,32.5,8|0|0,2:2|0:0|0:0,0:0:0:0:
295,163,87881,2,0,L|313:189,2,32.5,10|0|0,2:2|0:0|0:0,0:0:0:0:
223,129,88031,2,0,L|190:132,2,32.5,8|0|0,2:2|0:0|0:0,0:0:0:0:
249,244,88181,5,2,2:2:0:0:
249,244,88331,6,0,L|239:176,1,65,10|0,2:2|0:0,0:0:0:0:
317,135,88481,2,0,L|345:71,1,65,10|0,2:2|0:0,0:0:0:0:
423,104,88631,2,0,L|484:83,1,65,8|0,2:2|0:0,0:0:0:0:
247,0,88781,6,0,P|257:59|145:49,1,195,14|0,3:2|0:0,0:0:0:0:
247,0,89081,2,0,P|230:73|317:170,1,195,10|0,2:2|0:0,0:0:0:0:
262,76,89381,6,0,L|222:273,1,195,10|0,2:2|0:0,0:0:0:0:
202,120,89681,2,0,L|250:334,1,195,10|0,2:2|0:0,0:0:0:0:
196,198,89981,6,0,P|254:195|320:301,1,195,14|0,3:2|0:0,0:0:0:0:
268,228,90281,2,0,P|238:239|222:267,1,65,10|0,2:2|0:0,0:0:0:0:
392,351,90431,6,0,L|423:359,2,32.5,8|0|0,2:2|0:0|0:0,0:0:0:0:
144,261,90581,6,0,P|154:301|156:336,1,65,10|0,2:2|0:0,0:0:0:0:
306,378,90731,2,0,P|312:346|324:315,1,65,8|0,2:2|0:0,0:0:0:0:
62,231,90881,6,0,P|81:312|88:364,1,130,10|8,2:2|2:2,0:0:0:0:
512,220,91181,5,14,3:2:0:0:
447,257,91256,1,8,2:2:0:0:
386,234,91331,1,8,2:2:0:0:
367,202,91406,1,8,2:2:0:0:
368,154,91481,5,10,2:2:0:0:
380,128,91556,1,8,2:2:0:0:
359,105,91631,1,8,2:2:0:0:
328,104,91706,1,8,2:2:0:0:
292,173,91781,5,14,3:2:0:0:
219,175,91856,1,8,2:2:0:0:
183,129,91931,1,8,2:2:0:0:
193,80,92006,1,8,2:2:0:0:
155,44,92081,5,10,2:2:0:0:
107,58,92156,1,8,2:2:0:0:
88,83,92231,1,8,2:2:0:0:
60,79,92306,1,8,2:2:0:0:
1,22,92381,5,14,3:2:0:0:
39,0,92456,1,8,2:2:0:0:
93,9,92531,1,8,2:2:0:0:
107,58,92606,1,8,2:2:0:0:
100,171,92681,5,14,3:2:0:0:
47,167,92756,1,8,2:2:0:0:
23,138,92831,1,8,2:2:0:0:
34,94,92906,1,8,2:2:0:0:
132,27,92981,5,14,3:2:0:0:
179,35,93056,1,8,2:2:0:0:
194,83,93131,1,8,2:2:0:0:
161,119,93206,1,8,2:2:0:0:
24,72,93281,5,14,3:2:0:0:
24,72,93356,1,8,2:2:0:0:
24,72,93431,2,0,L|87:83,1,65,8|8,2:2|2:2,0:0:0:0:
512,144,93581,1,6,3:2:0:0:
256,192,93656,12,0,94556,0:0:0:0:
160,125,94631,6,0,P|206:134|227:176,1,97.5,8|0,2:2|0:0,0:0:0:0:
233,188,94781,6,0,L|228:220,2,32.5,2|0|0,3:2|0:0|0:0,0:0:0:0:
317,218,94931,2,0,L|307:149,1,65,0|0,3:3|0:0,0:0:0:0:
153,202,95081,6,0,B|149:213|149:213|157:224,1,26,10|0,2:2|0:0,0:0:0:0:
481,150,95231,2,0,L|385:171,1,97.5,0|8,3:3|2:2,0:0:0:0:
77,231,95381,6,0,L|53:235,8,24.3750009298325,2|0|0|0|8|0|0|0|0,2:2|0:0|0:0|0:0|2:2|0:0|0:0|0:0|3:3,0:0:0:0:
363,88,95681,5,10,2:2:0:0:
261,375,95981,6,0,B|253:326|292:304|289:316|324:300|333:258|333:258|339:233|339:233|348:236|348:236|343:213|343:213|363:87,1,331.5,6|0,3:2|0:0,0:0:0:0:
329,313,96281,6,0,B|330:335|330:335|356:359|356:359|348:325|348:325|330:310,1,110.5,10|0,3:2|0:0,0:0:0:0:
292,201,96431,6,0,B|264:170|264:170|293:232,1,110.5
430,338,96581,6,0,B|411:282|411:282|115:220,1,360.749998623848,2|0,3:2|0:0,0:0:0:0:
100,119,96881,6,0,B|105:198|148:225|208:182|231:278,1,221,10|0,3:2|0:0,0:0:0:0:
249,53,97181,6,0,B|246:88|223:107|194:84|183:132,1,110.5,2|0,3:2|0:0,0:0:0:0:
107,381,97331,2,0,B|131:365|131:365|153:286,1,110.5,2|0,2:2|0:0,0:0:0:0:
166,30,97481,6,0,B|150:61|161:89|197:84|183:131,1,110.5,10|0,3:2|0:0,0:0:0:0:
103,344,97631,6,0,P|67:304|75:246,1,110.5,2|0,2:2|0:0,0:0:0:0:
257,133,97781,2,0,P|240:184|186:206,1,110.5,0|0,3:3|0:0,0:0:0:0:
2,98,97931,2,0,P|55:87|99:118,1,110.5,2|0,2:2|0:0,0:0:0:0:
422,311,98081,6,0,B|425:254|366:260|365:282|299:288|285:134|392:123|392:123|379:158|379:158|339:173|340:218,1,390,10|0,3:2|0:0,0:0:0:0:
335,344,98381,1,2,3:2:0:0:
333,349,98456,1,0,0:0:0:0:
328,351,98531,2,0,P|327:371|333:351,2,55.25,2|0|2,2:2|0:0|2:2,0:0:0:0:
490,205,98681,6,0,B|273:270|273:270|261:316|222:322,1,292.5,10|0,3:2|0:0,0:0:0:0:
200,249,98981,2,0,B|188:207|188:207|284:172|366:246|324:339,1,292.5,2|0,3:2|0:0,0:0:0:0:
235,328,99281,6,0,L|48:384,1,195,10|0,3:2|0:0,0:0:0:0:
5,35,99581,6,0,L|-1:11,2,24.3750009298325,2|0|0,3:2|0:0|0:0,0:0:0:0:
63,287,99731,6,0,P|114:261|111:207,1,97.5,2|0,2:2|0:0,0:0:0:0:
220,43,99881,2,0,B|228:30|258:32|258:32|231:34|203:79,1,97.5,8|0,3:2|0:0,0:0:0:0:
68,167,100031,6,0,P|19:145|7:45,1,146.25,2|0,2:2|0:0,0:0:0:0:
20,53,100181,6,0,L|144:91,1,130,0|0,3:3|0:0,0:0:0:0:
424,179,100331,2,0,L|447:185,2,24.3750000000001,2|0|0,2:2|0:0|0:0,0:0:0:0:
143,11,100481,5,10,3:2:0:0:
207,324,100631,1,0,0:0:0:0:
429,101,100781,6,0,P|337:111|304:198,1,195,6|0,3:2|0:0,0:0:0:0:
326,270,100931,2,0,P|373:225|342:174,1,130,2|0,2:2|0:0,0:0:0:0:
246,109,101081,2,0,P|238:233|337:309,1,260,10|2,3:2|2:2,0:0:0:0:
460,30,101381,6,0,L|470:6,2,26,0|0|2,3:3|0:0|2:2,0:0:0:0:
261,96,101681,6,0,L|271:48,1,48.7500000000001,10|0,3:2|0:0,0:0:0:0:
245,19,101831,2,0,L|253:67,1,48.7500000000001
134,249,101981,6,0,P|51:219|49:111,1,195,2|0,3:2|0:0,0:0:0:0:
133,83,102131,2,0,P|182:120|171:181,1,130,2|0,2:2|0:0,0:0:0:0:
48,347,102281,2,0,P|146:287|302:264,1,260,10|0,3:2|0:0,0:0:0:0:
62,47,102581,6,0,P|50:41|44:27,1,26,2|0,3:2|0:0,0:0:0:0:
180,327,102731,6,0,L|185:338,2,13,2|0|0,2:2|0:0|0:0,0:0:0:0:
287,276,102881,2,0,L|285:293,2,13,10|0|0,3:2|0:0|0:0,0:0:0:0:
376,342,103031,2,0,L|367:353,2,13
502,104,103181,6,0,P|503:183|456:302,1,195,2|0,3:2|0:0,0:0:0:0:
384,248,103331,2,0,L|369:131,1,117,2|0,2:2|0:0,0:0:0:0:
280,24,103481,6,0,L|261:390,1,351,10|0,3:2|0:0,0:0:0:0:
167,218,103781,6,0,L|182:121,1,97.5,0|0,3:3|0:0,0:0:0:0:
88,110,103931,2,0,P|89:133|97:163,1,48.7500000000001,2|0,2:2|0:0,0:0:0:0:
14,172,104081,5,10,3:2:0:0:
512,54,104231,2,0,L|412:79,1,97.5
14,172,104381,6,0,P|102:187|154:369,1,292.5,6|0,3:2|0:0,0:0:0:0:
81,381,104681,6,0,P|69:317|51:254,1,130,10|0,2:2|0:0,0:0:0:0:
455,309,104981,2,0,P|444:346|437:385,1,78.0000000000001,2|10,2:2|2:2,0:0:0:0:
186,49,105581,6,0,B|178:98|217:120|214:108|249:124|258:166|258:166|264:191|264:191|273:188|273:188|268:211|268:211|288:337,1,331.5,6|0,3:2|0:0,0:0:0:0:
276,30,105881,6,0,B|289:-11|289:-11|255:61,1,110.5,10|0,3:2|0:0,0:0:0:0:
200,230,106031,2,0,P|230:213|226:140,1,110.5
109,49,106181,6,0,P|186:188|345:198,1,331.5,2|0,3:2|0:0,0:0:0:0:
411,1,106481,2,0,B|434:56|363:101|365:77|302:122|324:184,1,221,10|0,3:2|0:0,0:0:0:0:
361,61,106781,6,0,B|357:90|396:103|392:91|429:105|431:138,1,110.5,2|0,3:2|0:0,0:0:0:0:
473,322,106931,2,0,B|488:296|488:296|476:216,1,110.5,2|0,2:2|0:0,0:0:0:0:
507,134,107081,6,0,P|460:158|456:211,1,110.5,10|0,3:2|0:0,0:0:0:0:
429,384,107231,2,0,P|431:331|387:302,1,110.5,2|0,2:2|0:0,0:0:0:0:
251,191,107381,2,0,P|296:220|344:197,1,110.5,0|0,3:3|0:0,0:0:0:0:
488,56,107531,5,2,2:2:0:0:
180,380,107681,6,0,B|177:347|202:324|202:324|172:197|172:197|91:178|91:178|113:209|113:209|159:215|171:255,1,386.75,10|0,3:2|0:0,0:0:0:0:
226,315,107981,1,2,3:2:0:0:
237,318,108056,1,0,0:0:0:0:
246,320,108131,2,0,B|255:328|255:328|270:326|270:326|257:317|257:317|245:318,2,55.25,2|0|2,2:2|0:0|2:2,0:0:0:0:
12,261,108281,6,0,L|241:319,1,221,10|0,3:2|0:0,0:0:0:0:
68,384,108581,2,0,L|13:169,1,221,2|0,3:2|0:0,0:0:0:0:
321,0,108881,6,0,P|312:59|266:98,1,123.5,10|0,3:2|0:0,0:0:0:0:
246,175,109031,2,0,P|193:146|187:87,1,123.5,2|0,2:2|0:0,0:0:0:0:
34,39,109181,6,0,L|-10:26,8,30.875,2|0|0|0|0|0|0|0|0,3:2|0:0|0:0|0:0|0:0|0:0|0:0|0:0|0:0,0:0:0:0:
246,175,109481,6,0,L|233:297,1,123.5,10|0,3:2|0:0,0:0:0:0:
274,384,109631,2,0,L|261:261,1,123.5,2|0,2:2|0:0,0:0:0:0:
483,191,109781,6,0,L|527:178,8,30.875,2|0|0|0|0|0|0|0|0,3:2|0:0|0:0|0:0|0:0|0:0|0:0|0:0|0:0,0:0:0:0:
391,0,110081,5,10,3:2:0:0:
331,308,110231,1,2,2:2:0:0:
242,0,110381,6,0,L|248:45,1,45.5,6|0,3:2|0:0,0:0:0:0:
111,180,110531,6,0,P|159:223|214:190,1,136.5,2|0,2:2|0:0,0:0:0:0:
331,307,110681,2,0,P|344:245|288:213,1,136.5,10|0,3:2|0:0,0:0:0:0:
330,54,110831,2,0,P|269:74|270:138,1,136.5,2|0,2:2|0:0,0:0:0:0:
29,276,110981,6,0,P|96:288|160:314,1,136.5,0|0,3:3|0:0,0:0:0:0:
479,109,111131,2,0,P|415:134|348:146,1,136.5
185,114,111281,6,0,L|180:92,2,22.75,10|0|0,3:2|0:0|0:0,0:0:0:0:
217,363,111431,1,2,2:2:0:0:
262,22,111581,6,0,L|255:67,1,45.5,6|0,3:2|0:0,0:0:0:0:
376,252,111731,6,0,P|328:295|273:262,1,136.5,2|0,2:2|0:0,0:0:0:0:
206,383,111881,2,0,P|193:321|249:289,1,136.5,10|0,3:2|0:0,0:0:0:0:
177,174,112031,2,0,P|238:194|237:258,1,136.5,2|0,2:2|0:0,0:0:0:0:
512,319,112181,6,0,P|451:329|393:351,1,123.5,0|0,3:3|0:0,0:0:0:0:
64,52,112331,2,0,P|121:75|181:88,1,123.5
340,45,112481,6,0,L|345:23,2,22.75,10|0|0,3:2|0:0|0:0,0:0:0:0:
293,384,112631,1,2,2:2:0:0:
181,0,112781,5,6,3:2:0:0:
181,0,113081,2,0,L|185:19,12,11.375,2|0|0|0|0|0|0|0|0|0|0|0|0,2:2|0:0|0:0|0:0|0:0|0:0|0:0|0:0|0:0|0:0|0:0|0:0|0:0,0:0:0:0:
351,179,113381,5,6,3:2:0:0:
351,179,113681,2,0,L|356:151,6,22.7499993057251,2|0|0|0|0|0|0,2:2|0:0|0:0|0:0|0:0|0:0|0:0,0:0:0:0:
299,107,113981,6,0,P|211:132|203:223,1,195,6|0,3:2|0:0,0:0:0:0:
295,291,114281,2,0,L|288:227,1,65,8|0,2:2|0:0,0:0:0:0:
269,1,114431,1,0,3:3:0:0:
207,237,114581,6,0,L|468:299,1,260,2|10,2:2|2:2,0:0:0:0:
39,127,115181,6,0,B|73:58|196:63|196:63|107:118|120:214|120:214|144:167|213:156,1,455,6|0,3:2|0:0,0:0:0:0:
207,237,115481,6,0,B|237:254|238:289|238:289|224:261|185:250,1,130,2|0,2:2|0:0,0:0:0:0:
75,55,115631,2,0,B|63:45|64:31|64:31|71:46|76:48,1,48.7500000000001,2|0,2:2|0:0,0:0:0:0:
11,280,115781,5,8,2:2:0:0:
11,280,115931,6,0,P|38:272|62:258,1,55.2500000000002,2|0,2:2|0:0,0:0:0:0:
54,378,116081,2,0,P|73:358|87:334,1,55.2500000000002,2|0,2:2|0:0,0:0:0:0:
160,384,116231,2,0,P|166:357|166:329,1,55.2500000000002,2|0,2:2|0:0,0:0:0:0:
327,45,116381,5,0,3:3:0:0:
326,45,116531,6,0,P|346:87|324:129,1,97.5,2|0,2:2|0:0,0:0:0:0:
266,282,116681,2,0,P|224:259|218:212,1,97.5,2|0,2:2|0:0,0:0:0:0:
177,55,116831,2,0,P|223:48|256:82,1,97.5,2|0,2:2|0:0,0:0:0:0:
379,184,116981,2,0,P|344:216|298:208,1,97.5,10|0,2:2|0:0,0:0:0:0:
140,197,117131,2,0,P|148:150|190:130,1,97.5,2|0,2:2|0:0,0:0:0:0:
441,71,117281,6,0,P|426:181|408:315,1,234,2|0,2:2|0:0,0:0:0:0:
92,6,117581,6,0,P|100:60|108:128,1,117,2|0,3:2|0:0,0:0:0:0:
175,375,117731,2,0,B|169:304|89:307|80:335|-12:310|8:222,1,253.5,2|0,3:2|0:0,0:0:0:0:
0,146,118031,6,0,L|24:153,1,26,2|0,3:2|0:0,0:0:0:0:
338,235,118181,6,0,B|346:253|363:253|363:253|394:250|425:243|471:250|494:314|496:395|391:443|355:426|251:350|316:257|353:238|377:249|377:249|423:146|361:86|213:126|237:208|290:207|307:275|219:294|165:293|141:235|149:174|215:171,1,910,10|0,2:2|0:0,0:0:0:0:
91,239,118781,6,0,L|475:175,1,390,2|0,3:2|0:0,0:0:0:0:
512,32,119081,6,0,B|503:45|486:38|486:38|433:8|390:31|346:93|360:154|459:234|561:144|522:67|496:42,1,390,2|0,2:2|0:0,0:0:0:0:
392,24,119381,6,0,L|374:102,1,65,10|0,2:2|0:0,0:0:0:0:
386,23,119456,2,0,L|367:100,1,65
379,20,119531,2,0,L|360:97,1,65
314,169,119681,6,0,B|273:173|242:165|169:92|228:14|292:27|311:39|291:102|254:117,1,260,2|0,3:2|0:0,0:0:0:0:
348,296,119981,6,0,P|304:126|110:41,1,390,6|0,3:2|0:0,0:0:0:0:
112,31,120281,6,0,P|112:64|117:34,1,97.5,2|0,2:2|0:0,0:0:0:0:
170,115,120431,6,0,P|197:71|195:20,1,104,2|0,2:2|0:0,0:0:0:0:
317,45,120581,2,0,P|266:112|249:195,1,170.625001627207,8|0,2:2|0:0,0:0:0:0:
250,196,120731,6,0,P|272:174|278:142,1,65,2|0,2:2|0:0,0:0:0:0:
194,19,120881,6,0,P|222:40|204:11,1,97.5,2|0,2:2|0:0,0:0:0:0:
23,113,121031,6,0,L|92:104,1,65,2|0,2:2|0:0,0:0:0:0:
418,56,121181,1,0,3:3:0:0:
237,380,121331,6,0,P|283:354|290:302,1,110.5,2|0,2:2|0:0,0:0:0:0:
170,115,121481,2,0,P|147:162|172:209,1,110.5,2|0,2:2|0:0,0:0:0:0:
377,283,121631,2,0,P|368:230|320:208,1,110.5,2|0,2:2|0:0,0:0:0:0:
110,270,121781,2,0,P|149:305|201:296,1,110.5,10|0,2:2|0:0,0:0:0:0:
336,125,121931,2,0,P|283:117|247:155,1,110.5,2|0,2:2|0:0,0:0:0:0:
32,184,122081,6,0,P|36:214|36:234,2,48.7500000000001,2|0|0,2:2|0:0|0:0,0:0:0:0:
512,234,122381,6,0,P|424:178|449:78,1,221,6|0,3:2|0:0,0:0:0:0:
507,127,122606,1,0,0:0:0:0:
512,132,122681,2,0,P|510:184|460:201,1,110.5,8|0,2:2|0:0,0:0:0:0:
428,365,122831,6,0,P|384:259|268:229,1,221,6|0,3:2|0:0,0:0:0:0:
31,227,123056,1,0,0:0:0:0:
36,232,123131,2,0,L|143:258,1,110.5,8|0,2:2|0:0,0:0:0:0:
294,302,123281,6,0,P|324:160|224:264,1,386.75,6|0,3:2|0:0,0:0:0:0:
229,269,123581,5,6,3:2:0:0:
250,319,123656,1,0,0:0:0:0:
224,365,123731,1,2,3:2:0:0:
172,374,123806,1,0,0:0:0:0:
132,338,123881,1,10,2:2:0:0:
141,286,123956,1,0,0:0:0:0:
110,242,124031,1,0,3:3:0:0:
52,249,124106,1,0,0:0:0:0:
28,290,124181,5,6,2:3:0:0:
29,296,124256,1,4,2:3:0:0:
30,303,124331,1,4,2:3:0:0:
32,310,124406,1,4,2:3:0:0:
52,284,124481,6,0,L|39:341,4,55.2500010538101,10|0|8|0|8,2:3|0:0|2:3|0:0|2:3,0:0:0:0:
256,77,124781,5,6,3:2:0:0:
256,77,125081,1,0,3:3:0:0:
256,77,125381,1,0,3:3:0:0:
256,77,125681,1,2,3:2:0:0:
256,77,125981,1,0,3:3:0:0:
256,77,126281,1,0,3:3:0:0:
191,124,126431,5,2,2:2:0:0:
336,77,126581,1,2,3:2:0:0:
191,29,126731,1,2,2:2:0:0:
280,153,126881,1,2,3:2:0:0:
280,0,127031,1,0,0:0:0:0:
256,230,127181,5,2,3:2:0:0:
256,230,127481,1,0,3:3:0:0:
256,230,127781,1,0,3:3:0:0:
256,230,128081,1,2,3:2:0:0:
349,200,128381,6,0,L|338:237,1,39,8|0,3:2|0:0,0:0:0:0:
165,175,128606,5,8,2:2:0:0:
174,178,128681,2,0,L|180:199,1,19.5,0|0,3:3|0:0,0:0:0:0:
287,302,128831,5,10,2:2:0:0:
252,373,128981,1,10,3:2:0:0:
204,311,129131,5,10,2:2:0:0:
204,311,129206,1,0,0:0:0:0:
204,311,129281,1,10,3:2:0:0:
204,311,129356,1,0,0:0:0:0:
204,311,129431,2,0,L|202:291,1,19.5,8|8,2:2|2:2,0:0:0:0:
365,340,129581,5,14,3:2:0:0:
106,284,129731,1,8,2:2:0:0:
288,384,129881,5,10,3:2:0:0:
334,91,130031,1,8,2:2:0:0:
84,260,130181,5,14,3:2:0:0:
396,201,130331,1,8,2:2:0:0:
145,42,130481,5,10,3:2:0:0:
191,347,130631,1,8,2:2:0:0:
418,179,130781,5,14,3:2:0:0:
58,111,130931,1,8,2:2:0:0:
346,310,131081,5,10,3:2:0:0:
391,0,131231,1,8,2:2:0:0:
22,209,131381,6,0,L|220:168,1,195,2|0,3:2|3:3,0:0:0:0:
508,85,131981,5,2,3:2:0:0:
472,32,132056,1,0,3:3:0:0:
410,20,132131,1,2,3:2:0:0:
358,56,132206,1,0,3:3:0:0:
347,118,132281,1,2,3:2:0:0:
372,176,132356,1,0,3:3:0:0:
431,194,132431,1,2,3:2:0:0:
453,251,132506,1,0,3:3:0:0:
429,311,132581,1,2,3:2:0:0:
374,341,132656,1,0,3:3:0:0:
315,311,132731,1,2,3:2:0:0:
295,251,132806,1,0,3:3:0:0:
231,244,132881,1,2,3:2:0:0:
188,290,132956,1,0,3:3:0:0:
197,352,133031,1,2,3:2:0:0:
143,378,133106,1,0,3:3:0:0:
67,350,133181,5,0,3:3:0:0:
67,350,133331,6,0,L|69:335,1,13
57,338,133481,6,0,L|59:323,1,13
95,307,133631,6,0,L|97:292,1,13
63,257,133781,6,0,L|65:242,1,13
122,187,133931,6,0,L|124:172,1,13
121,2,134081,6,0,L|115:41,1,39
67,350,134381,5,6,3:2:0:0:
482,114,134831,6,0,L|469:115,2,13,2|0|0,2:2|0:0|0:0,0:0:0:0:
266,141,134981,2,0,L|253:142,2,13,2|0|0,2:2|0:0|0:0,0:0:0:0:
47,166,135131,2,0,L|34:167,2,13,2|0|0,2:2|0:0|0:0,0:0:0:0:
283,22,135431,6,0,L|277:65,1,38.9999999999999,2|0,2:2|0:0,0:0:0:0:
353,232,135581,2,0,L|318:205,1,38.9999999999999,10|0,2:2|0:0,0:0:0:0:
149,194,135731,2,0,L|189:177,1,38.9999999999999,2|0,3:2|0:0,0:0:0:0:
283,22,135881,6,0,L|277:65,1,38.9999999999999,10|0,2:2|0:0,0:0:0:0:
235,313,136031,5,2,3:2:0:0:
288,364,136106,1,0,0:0:0:0:
352,340,136181,1,10,2:2:0:0:
407,361,136256,1,0,0:0:0:0:
450,342,136331,1,2,3:2:0:0:
471,352,136406,1,0,0:0:0:0:
480,349,136481,5,2,2:2:0:0:
102,301,136781,6,0,L|127:288,1,22.7500000000001,6|0,3:2|0:0,0:0:0:0:
486,27,136931,5,0,0:0:0:0:
477,69,137006,1,0,0:0:0:0:
434,90,137081,1,2,2:2:0:0:
443,134,137156,1,0,0:0:0:0:
394,158,137231,1,0,0:0:0:0:
360,126,137306,1,0,0:0:0:0:
286,99,137381,5,10,2:2:0:0:
303,71,137456,1,0,0:0:0:0:
257,57,137531,1,0,0:0:0:0:
226,87,137606,1,0,0:0:0:0:
188,95,137681,1,2,2:2:0:0:
207,130,137756,1,0,0:0:0:0:
164,166,137831,1,0,0:0:0:0:
123,137,137906,1,0,0:0:0:0:
94,60,137981,5,2,3:2:0:0:
81,26,138056,1,0,0:0:0:0:
98,56,138131,1,0,0:0:0:0:
76,28,138206,1,0,0:0:0:0:
102,51,138281,1,2,2:2:0:0:
71,33,138356,1,0,0:0:0:0:
104,45,138431,1,0,0:0:0:0:
70,39,138506,1,0,0:0:0:0:
43,116,138581,5,10,2:2:0:0:
20,142,138656,1,0,0:0:0:0:
34,111,138731,1,0,0:0:0:0:
28,146,138806,1,0,0:0:0:0:
92,190,138881,5,2,3:2:0:0:
118,213,138956,1,0,0:0:0:0:
106,218,139031,1,0,0:0:0:0:
103,184,139106,1,0,0:0:0:0:
41,264,139181,6,0,L|29:321,1,56.8750000000003,2|0,3:2|0:0,0:0:0:0:
109,317,139481,5,2,3:2:0:0:
129,310,139556,1,2,2:2:0:0:
146,317,139631,1,2,2:2:0:0:
156,337,139706,1,2,2:2:0:0:
240,295,139781,6,0,L|242:340,1,45.5000000000003,10|2,2:2|2:2,0:0:0:0:
253,305,140081,2,0,L|250:338,1,22.7500000000001,2|0,2:2|0:0,0:0:0:0:
326,334,140206,5,0,0:0:0:0:
360,346,140306,1,0,0:0:0:0:
386,320,140406,2,0,L|392:306,1,15.1666662038167
434,382,140531,5,2,2:2:0:0:
510,293,140681,6,0,L|512:302,4,11.3750000000001,2|0|0|0|2,3:2|0:0|0:0|0:0|2:2,0:0:0:0:
56,372,140981,2,0,L|45:374,4,11.3750000000001,10|0|0|0|0,2:2|0:0|0:0|0:0|0:0,0:0:0:0:
435,255,141281,5,2,2:2:0:0:
411,222,141356,1,0,0:0:0:0:
416,186,141431,1,0,0:0:0:0:
456,168,141506,1,0,0:0:0:0:
503,98,141581,6,0,L|455:87,1,48.7500000000001,6|0,3:2|0:0,0:0:0:0:
434,382,141731,2,0,L|444:334,1,48.7500000000001,0|0,3:3|0:0,0:0:0:0:
26,26,141881,5,2,3:2:0:0:
48,33,141956,1,0,0:0:0:0:
64,70,142031,1,0,0:0:0:0:
96,67,142106,1,0,0:0:0:0:
174,50,142181,5,10,2:2:0:0:
181,109,142256,1,0,0:0:0:0:
229,117,142331,1,0,0:0:0:0:
240,170,142406,1,0,0:0:0:0:
298,166,142481,1,2,2:2:0:0:
323,124,142556,1,0,0:0:0:0:
299,76,142631,1,0,0:0:0:0:
311,37,142706,1,0,0:0:0:0:
365,43,142781,1,2,2:2:0:0:
389,89,142856,1,0,0:0:0:0:
419,98,142931,1,0,0:0:0:0:
445,53,143006,1,0,0:0:0:0:
499,122,143081,6,0,L|497:133,1,9.75000000000001,2|0,3:2|0:0,0:0:0:0:
494,110,143156,2,0,L|515:105,2,19.5,0|0|0,3:3|0:0|3:3,0:0:0:0:
512,312,143381,5,10,3:2:0:0:
470,280,143456,1,0,0:0:0:0:
447,328,143531,1,0,0:0:0:0:
416,301,143606,1,0,0:0:0:0:
392,304,143681,5,2,3:2:0:0:
388,295,143756,1,0,0:0:0:0:
381,302,143831,1,0,0:0:0:0:
375,296,143906,1,0,0:0:0:0:
313,232,143981,6,0,L|314:242,6,9.75000000000001,2|0|0|0|0|0|0,3:2|0:0|0:0|0:0|0:0|0:0|0:0,0:0:0:0:
258,384,144281,6,0,B|261:349|261:349|251:333|251:333|254:289,1,97.5,2|0,3:2|0:0,0:0:0:0:
183,226,144581,6,0,L|177:290,1,65,10|0,2:2|0:0,0:0:0:0:
105,181,144806,6,0,L|99:245,1,65,2|0,2:2|0:0,0:0:0:0:
205,157,145031,6,0,L|199:221,1,65,2|0,2:2|0:0,0:0:0:0:
99,96,145256,6,0,L|93:160,1,65,2|0,2:2|0:0,0:0:0:0:
185,34,145481,6,0,L|175:133,1,97.5,2|0,3:2|0:0,0:0:0:0:
370,196,145781,6,0,L|374:197,8,4.87500000000001,10|0|0|0|0|0|0|0|0,3:2|0:0|0:0|0:0|0:0|0:0|0:0|0:0|0:0,0:0:0:0:
317,132,146006,6,0,L|316:127,8,4.87500000000001,2|0|0|0|0|0|0|0|0,3:2|0:0|0:0|0:0|0:0|0:0|0:0|0:0|0:0,0:0:0:0:
288,207,146231,6,0,L|284:210,4,4.87500000000001,2|0|0|0|0,3:2|0:0|0:0|0:0|0:0,0:0:0:0:
320,12,146381,6,0,L|336:8,12,12.1875,6|0|0|0|0|0|0|0|0|0|0|0|0,3:2|0:0|0:0|0:0|0:0|0:0|0:0|0:0|0:0|0:0|0:0|0:0|0:0,0:0:0:0:
309,18,146681,5,2,2:2:0:0:
283,55,146756,1,0,0:0:0:0:
294,92,146831,1,0,0:0:0:0:
328,117,146906,1,0,0:0:0:0:
408,111,146981,5,10,2:2:0:0:
408,150,147066,1,0,0:0:0:0:
441,132,147152,1,0,0:0:0:0:
452,210,147238,5,0,0:0:0:0:
407,254,147323,1,2,2:2:0:0:
355,243,147409,1,0,0:0:0:0:
338,196,147495,1,0,0:0:0:0:
273,239,147581,5,2,3:2:0:0:
263,164,147666,5,0,0:0:0:0:
220,148,147752,1,0,0:0:0:0:
192,184,147838,1,0,0:0:0:0:
117,181,147923,5,0,0:0:0:0:
91,187,148009,1,0,0:0:0:0:
74,172,148095,1,0,0:0:0:0:
126,330,148181,6,0,B|118:282|118:282|152:246,1,97.5,10|0,2:2|0:0,0:0:0:0:
487,359,148331,6,0,L|511:363,2,24.3750009298325,2|0|0,2:2|0:0|0:0,0:0:0:0:
487,359,148481,2,0,L|199:306,1,292.5,2|0,2:2|0:0,0:0:0:0:
369,380,148781,6,0,B|358:353|358:353|395:191,1,195,2|0,3:2|0:0,0:0:0:0:
488,360,149081,2,0,P|448:315|411:317,1,97.5,0|0,3:3|0:0,0:0:0:0:
201,384,149231,2,0,P|249:373|275:334,1,97.5,0|0,3:3|0:0,0:0:0:0:
170,142,149381,5,10,3:2:0:0:
74,67,149501,1,2,2:2:0:0:
181,19,149621,1,2,2:2:0:0:
113,283,149741,5,2,2:2:0:0:
104,191,149861,1,2,2:2:0:0:
184,226,149981,1,2,2:2:0:0:
65,357,150101,5,2,2:2:0:0:
34,139,150221,1,2,2:2:0:0:
249,172,150341,1,2,3:2:0:0:
222,341,150461,1,2,3:2:0:0:
38,247,150581,6,0,L|7:236,6,32.5,10|0|0|0|0|0|0,2:2|0:0|0:0|0:0|0:0|0:0|0:0,0:0:0:0:
275,250,150881,5,10,3:3:0:0:
302,251,150956,1,8,2:3:0:0:
328,270,151031,1,4,2:3:0:0:
332,303,151106,1,4,2:3:0:0:
337,378,151181,6,0,P|387:388|470:208,1,292.5,6|0,3:2|0:0,0:0:0:0:
110,203,151481,6,0,L|123:300,1,97.5,2|0,3:2|0:0,0:0:0:0:
193,261,151631,2,0,L|205:198,1,65
232,0,151781,5,10,2:2:0:0:
232,0,151866,1,0,0:0:0:0:
212,27,151952,5,0,0:0:0:0:
239,27,152038,1,0,0:0:0:0:
247,54,152123,5,0,0:0:0:0:
279,40,152209,1,0,0:0:0:0:
273,82,152295,1,0,0:0:0:0:
335,133,152381,5,2,3:2:0:0:
346,147,152466,1,0,0:0:0:0:
268,164,152552,5,0,0:0:0:0:
242,203,152638,1,0,0:0:0:0:
196,194,152723,1,0,0:0:0:0:
118,227,152809,5,0,0:0:0:0:
110,245,152895,1,0,0:0:0:0:
130,361,152981,5,10,2:2:0:0:
398,300,153131,1,2,2:2:0:0:
351,283,153206,1,2,2:2:0:0:
317,321,153281,6,0,L|329:257,1,65,2|0,2:2|0:0,0:0:0:0:
179,295,153431,2,0,L|242:282,1,65,2|0,2:2|0:0,0:0:0:0:
452,368,153581,6,0,L|433:267,1,97.5,2|0,3:2|0:0,0:0:0:0:
110,245,153806,2,0,L|91:144,1,97.5,2|0,3:2|0:0,0:0:0:0:
277,153,154031,6,0,L|273:172,1,19.5,2|0,3:2|0:0,0:0:0:0:
22,373,154181,6,0,L|41:272,1,97.5,10|0,3:2|0:0,0:0:0:0:
391,210,154406,2,0,L|410:109,1,97.5,2|0,3:2|0:0,0:0:0:0:
224,69,154631,6,0,L|228:89,1,19.5,2|0,3:2|0:0,0:0:0:0:
503,268,154781,6,0,L|484:167,1,97.5,10|0,3:2|0:0,0:0:0:0:
27,104,155006,2,0,L|8:3,1,97.5,10|0,3:2|0:0,0:0:0:0:
302,9,155381,5,10,2:3:0:0:
300,19,155456,1,8,2:3:0:0:
299,30,155531,1,8,2:3:0:0:
298,41,155606,1,8,2:3:0:0:
325,121,155681,5,6,2:3:0:0:
315,120,155756,1,4,2:3:0:0:
304,119,155831,1,4,2:3:0:0:
293,118,155906,1,4,2:3:0:0:
218,159,155981,6,0,L|205:30,1,130,2|2,3:2|2:2,0:0:0:0:
256,384,156581,5,8,2:2:0:0:
325,121,156881,6,0,P|362:93|404:78,1,91,6|0,3:2|0:0,0:0:0:0:
185,262,157031,2,0,P|148:289|106:304,1,91,2|0,2:2|0:0,0:0:0:0:
350,216,157181,6,0,P|392:234|427:263,1,91,2|0,2:2|0:0,0:0:0:0:
159,165,157331,2,0,P|118:147|83:118,1,91,2|0,2:2|0:0,0:0:0:0:
282,288,157481,6,0,P|287:333|279:377,1,91,2|0,2:2|0:0,0:0:0:0:
230,96,157631,2,0,P|225:51|232:6,1,91,2|0,2:2|0:0,0:0:0:0:
106,304,157781,6,0,P|142:276|184:261,1,91,10|0,2:2|0:0,0:0:0:0:
406,80,157931,2,0,P|369:107|327:122,1,91,2|0,2:2|0:0,0:0:0:0:
159,165,158081,6,0,P|118:147|83:118,1,91,2|0,3:2|0:0,0:0:0:0:
350,216,158231,2,0,P|392:234|427:263,1,91,2|0,2:2|0:0,0:0:0:0:
232,6,158381,6,0,P|236:51|230:96,1,91,2|0,3:2|0:0,0:0:0:0:
279,377,158531,2,0,P|273:332|282:288,1,91,2|0,2:2|0:0,0:0:0:0:
159,165,158681,6,0,P|124:136|82:118,1,91,2|0,2:2|0:0,0:0:0:0:
350,216,158831,2,0,P|384:244|426:262,1,91,2|0,2:2|0:0,0:0:0:0:
106,304,158981,6,0,P|148:288|184:261,1,91,10|0,2:2|0:0,0:0:0:0:
406,80,159131,2,0,P|363:95|327:122,1,91,2|0,2:2|0:0,0:0:0:0:
279,377,159281,6,0,P|287:333|282:288,1,91,2|0,3:2|0:0,0:0:0:0:
232,6,159431,2,0,P|225:51|230:96,1,91,2|0,2:2|0:0,0:0:0:0:
349,215,159581,6,0,P|391:233|426:262,1,91,2|0,2:2|0:0,0:0:0:0:
158,164,159731,2,0,P|117:147|82:118,1,91,2|0,2:2|0:0,0:0:0:0:
199,347,159881,6,0,L|192:373,4,16.25,2|0|0|0|0,3:2|0:0|0:0|0:0|0:0,0:0:0:0:
281,270,160181,6,0,L|247:291,1,32.5,8|0,2:2|0:0,0:0:0:0:
159,244,160331,6,0,L|179:273,1,32.5,0|0,3:3|0:0,0:0:0:0:
277,360,160481,5,2,2:2:0:0:
229,209,160631,1,0,0:0:0:0:
124,325,160781,6,0,L|90:336,14,32.5,2|0|0|0|0|0|0|0|0|0|0|0|0|0|0,3:2|0:0|0:0|0:0|0:0|0:0|0:0|0:0|0:0|0:0|0:0|0:0|0:0|0:0|0:0,0:0:0:0:
461,220,161381,1,8,2:2:0:0:
107,78,161681,6,0,P|149:93|186:121,1,91,6|0,3:2|0:0,0:0:0:0:
405,304,161831,2,0,P|363:289|327:262,1,91,2|0,2:2|0:0,0:0:0:0:
161,216,161981,6,0,P|119:234|84:263,1,91,2|0,2:2|0:0,0:0:0:0:
352,165,162131,2,0,P|393:147|428:118,1,91,2|0,2:2|0:0,0:0:0:0:
230,288,162281,6,0,P|224:333|232:377,1,91,2|0,2:2|0:0,0:0:0:0:
281,96,162431,2,0,P|286:51|279:6,1,91,2|0,2:2|0:0,0:0:0:0:
406,304,162581,6,0,P|369:276|327:261,1,91,10|0,2:2|0:0,0:0:0:0:
106,80,162731,2,0,P|142:107|184:122,1,91,2|0,2:2|0:0,0:0:0:0:
84,263,162881,6,0,P|119:234|161:216,1,91,2|0,3:2|0:0,0:0:0:0:
428,118,163031,2,0,P|393:147|352:165,1,91,2|0,2:2|0:0,0:0:0:0:
232,377,163181,6,0,P|238:332|230:288,1,91,2|0,3:2|0:0,0:0:0:0:
279,6,163331,2,0,P|274:51|281:95,1,91,2|0,2:2|0:0,0:0:0:0:
161,216,163481,6,0,P|126:244|84:262,1,91,2|0,2:2|0:0,0:0:0:0:
351,165,163631,2,0,P|385:136|427:118,1,91,2|0,2:2|0:0,0:0:0:0:
106,79,163781,6,0,P|148:95|184:122,1,91,10|0,2:2|0:0,0:0:0:0:
405,304,163931,2,0,P|363:288|327:261,1,91,2|0,2:2|0:0,0:0:0:0:
279,6,164081,6,0,P|286:51|281:96,1,91,2|0,3:2|0:0,0:0:0:0:
232,377,164231,2,0,P|224:332|229:287,1,91,2|0,2:2|0:0,0:0:0:0:
351,166,164381,6,0,P|393:148|428:119,1,91,2|0,2:2|0:0,0:0:0:0:
160,216,164531,2,0,P|118:234|83:263,1,91,2|0,2:2|0:0,0:0:0:0:
405,304,164681,6,0,P|363:288|327:261,1,91,2|0,3:2|0:0,0:0:0:0:
106,79,164831,2,0,P|148:95|184:122,1,91,2|0,2:2|0:0,0:0:0:0:
474,39,164981,6,0,L|489:-10,12,32.5,10|0|0|0|0|0|0|0|0|0|0|0|0,2:2|0:0|0:0|0:0|0:0|0:0|0:0|0:0|0:0|0:0|0:0|0:0|0:0,0:0:0:0:
28,25,165581,6,0,L|5:17,3,16.25
31,38,165731,6,0,L|48:21,3,16.25
25,43,165881,5,0,0:0:0:0:
252,30,166031,5,0,3:3:0:0:
248,43,166106,1,0,3:3:0:0:
329,0,166181,6,0,L|338:51,1,45.5,8|0,2:2|0:0,0:0:0:0:
125,56,166331,2,0,L|178:49,1,45.5,0|0,3:3|0:0,0:0:0:0:
404,78,166481,6,0,P|362:93|325:121,1,91,6|0,3:2|0:0,0:0:0:0:
106,304,166631,2,0,P|148:289|185:262,1,91,2|0,2:2|0:0,0:0:0:0:
427,263,166781,6,0,P|392:234|350:216,1,91,2|0,2:2|0:0,0:0:0:0:
83,118,166931,2,0,P|118:147|159:165,1,91,2|0,2:2|0:0,0:0:0:0:
279,377,167081,6,0,P|287:333|282:288,1,91,2|0,2:2|0:0,0:0:0:0:
232,6,167231,2,0,P|225:51|230:96,1,91,2|0,2:2|0:0,0:0:0:0:
184,261,167381,6,0,P|142:276|106:304,1,91,10|0,2:2|0:0,0:0:0:0:
325,120,167531,2,0,P|367:105|404:78,1,91,2|0,2:2|0:0,0:0:0:0:
159,165,167681,6,0,P|118:147|83:118,1,91,2|0,3:2|0:0,0:0:0:0:
350,216,167831,2,0,P|392:234|427:263,1,91,2|0,2:2|0:0,0:0:0:0:
232,6,167981,6,0,P|225:51|230:96,1,91,2|0,3:2|0:0,0:0:0:0:
279,377,168131,2,0,P|287:333|282:288,1,91,2|0,2:2|0:0,0:0:0:0:
404,77,168281,6,0,P|361:93|325:120,1,91,2|0,2:2|0:0,0:0:0:0:
106,304,168431,2,0,P|148:288|184:261,1,91,2|0,2:2|0:0,0:0:0:0:
83,118,168581,6,0,P|124:135|159:164,1,91,10|0,2:2|0:0,0:0:0:0:
427,263,168731,2,0,P|385:245|350:216,1,91,2|0,2:2|0:0,0:0:0:0:
404,77,168881,6,0,P|367:105|325:120,1,91,2|0,3:2|0:0,0:0:0:0:
105,303,169031,2,0,P|141:276|184:261,1,91,2|0,2:2|0:0,0:0:0:0:
232,6,169181,6,0,P|224:50|230:96,1,91,2|0,2:2|0:0,0:0:0:0:
279,377,169331,2,0,P|287:333|282:288,1,91,2|0,2:2|0:0,0:0:0:0:
125,39,169481,5,2,3:2:0:0:
125,39,169631,2,0,L|91:28,1,26
505,370,169781,5,8,2:2:0:0:
499,369,169856,1,0,0:0:0:0:
492,367,169931,5,0,3:3:0:0:
420,351,170006,1,0,0:0:0:0:
346,335,170081,2,0,L|358:276,3,48.7500000000001
364,43,170381,6,0,P|434:56|474:115,1,146.25,2|0,3:2|0:0,0:0:0:0:
495,191,170681,2,0,L|398:203,1,97.5000000000002
324,217,170906,5,0,0:0:0:0:
297,204,170981,1,8,2:3:0:0:
265,228,171056,1,8,2:3:0:0:
204,195,171131,1,4,2:3:0:0:
145,243,171206,1,4,2:3:0:0:
49,192,171281,6,0,P|57:167|63:142,1,52,6|0,3:2|0:0,0:0:0:0:
107,302,171506,6,0,P|115:277|121:252,1,52,2|0,2:2|0:0,0:0:0:0:
204,195,171731,6,0,P|212:170|218:145,1,52,2|0,2:2|0:0,0:0:0:0:
250,278,171956,6,0,P|258:253|264:228,1,52,2|0,2:2|0:0,0:0:0:0:
308,207,172181,6,0,P|316:182|322:157,1,52,2|0,2:2|0:0,0:0:0:0:
335,244,172406,6,0,P|343:219|349:194,1,52,2|0,2:2|0:0,0:0:0:0:
353,222,172631,6,0,P|361:197|367:172,1,52,2|0,2:2|3:3,0:0:0:0:
494,329,172856,6,0,P|468:335|444:343,1,52,2|0,3:2|3:3,0:0:0:0:
437,346,173081,5,2,3:2:0:0:
430,349,173156,1,0,3:3:0:0:
416,343,173231,1,0,3:3:0:0:
401,323,173306,1,2,3:2:0:0:
403,296,173381,1,0,3:3:0:0:
376,266,173456,1,0,3:3:0:0:
332,284,173531,1,2,3:2:0:0:
313,321,173606,1,0,3:3:0:0:
265,323,173681,1,0,3:3:0:0:
224,274,173756,1,2,3:2:0:0:
244,223,173831,1,0,3:3:0:0:
302,195,173906,1,0,3:3:0:0:
328,136,173981,1,2,3:2:0:0:
304,80,174056,1,0,3:3:0:0:
256,52,174131,1,0,3:3:0:0:
205,78,174206,1,2,3:2:0:0:
185,133,174281,1,0,3:3:0:0:
131,168,174356,1,0,3:3:0:0:
77,150,174431,2,0,P|52:143|38:122,1,52,2|0,3:2|3:3,0:0:0:0:
70,0,174581,5,2,3:2:0:0:
512,145,175181,6,0,L|509:167,1,19.5,14|2,2:1|2:2,0:0:0:0:
477,237,175481,5,2,2:2:0:0:
512,314,175631,1,2,2:2:0:0:
457,384,175781,5,2,2:2:0:0:
457,384,176081,1,2,2:2:0:0:
341,104,176381,6,0,L|341:124,1,19.5,2|2,2:2|2:2,0:0:0:0:
376,201,176681,5,2,2:2:0:0:
303,255,176831,1,2,2:2:0:0:
330,339,176981,5,2,2:2:0:0:
330,339,177281,1,2,2:2:0:0:
189,104,177581,6,0,L|192:126,1,19.5,2|2,2:2|2:2,0:0:0:0:
174,201,177881,5,2,2:2:0:0:
218,275,178031,1,2,2:2:0:0:
155,360,178181,5,2,2:2:0:0:
155,360,178481,1,2,2:2:0:0:
51,84,178781,6,0,L|56:103,1,19.5,2|2,2:2|2:2,0:0:0:0:
94,174,179081,5,2,2:2:0:0:
13,265,179231,1,2,2:2:0:0:
59,384,179381,5,2,2:2:0:0:
59,384,179681,1,2,2:2:0:0:
193,77,179981,6,0,L|188:122,1,39,2|2,2:2|2:2,0:0:0:0:
250,179,180281,5,2,2:2:0:0:
105,113,180431,1,2,2:2:0:0:
221,0,180581,5,2,2:2:0:0:
221,0,180881,1,2,2:2:0:0:
358,181,181181,6,0,L|363:226,1,39,2|2,2:2|2:2,0:0:0:0:
301,283,181481,5,2,2:2:0:0:
446,217,181631,1,2,2:2:0:0:
330,104,181781,5,2,2:2:0:0:
330,104,182081,1,2,2:2:0:0:
214,367,182381,6,0,L|219:329,1,39,10|2,2:1|2:2,0:0:0:0:
301,283,182681,6,0,L|306:328,1,39,10|2,2:1|2:2,0:0:0:0:
98,347,182981,6,0,L|143:342,1,39,10|2,2:1|2:2,0:0:0:0:
425,314,183281,6,0,L|380:309,1,39,10|2,2:1|2:2,0:0:0:0:
73,126,183581,5,10,2:2:0:0:
49,93,183656,1,8,2:2:0:0:
72,59,183731,1,10,2:2:0:0:
89,24,183806,1,8,2:2:0:0:
123,43,183881,1,10,2:2:0:0:
165,51,183956,1,8,2:2:0:0:
153,92,184031,1,10,2:2:0:0:
151,131,184106,1,8,2:2:0:0:
109,140,184181,1,10,2:2:0:0:
474,51,184781,5,14,2:1:0:0:
476,83,184856,1,2,2:2:0:0:
479,115,184931,1,2,2:2:0:0:
481,148,185006,1,2,2:2:0:0:
484,180,185081,5,10,2:2:0:0:
451,182,185156,1,2,2:2:0:0:
419,185,185231,1,2,2:2:0:0:
386,187,185306,1,2,2:2:0:0:
354,190,185381,1,10,2:1:0:0:
356,222,185456,1,2,2:2:0:0:
359,254,185531,1,2,2:2:0:0:
361,287,185606,1,2,2:2:0:0:
364,319,185681,5,10,2:2:0:0:
331,321,185756,1,2,2:2:0:0:
299,324,185831,6,0,L|234:329,1,65,2|2,2:2|2:2,0:0:0:0:
217,251,185981,1,10,2:1:0:0:
214,219,186056,1,2,2:2:0:0:
212,186,186131,2,0,L|276:180,1,65,2|2,2:2|2:2,0:0:0:0:
234,329,186281,6,0,L|169:334,1,65,10|2,2:2|2:2,0:0:0:0:
96,366,186431,2,0,L|90:301,1,65,2|2,2:2|2:2,0:0:0:0:
7,234,186581,5,10,2:1:0:0:
40,232,186656,1,2,2:2:0:0:
72,229,186731,2,0,L|136:223,1,65,10|10,2:2|2:1,0:0:0:0:
186,24,186881,5,10,2:2:0:0:
170,25,186956,1,2,2:2:0:0:
154,27,187031,1,10,2:2:0:0:
137,27,187106,1,10,2:2:0:0:
121,29,187181,5,10,2:1:0:0:
123,61,187256,1,2,2:2:0:0:
126,93,187331,1,2,2:2:0:0:
128,126,187406,1,2,2:2:0:0:
131,158,187481,2,0,L|136:222,1,65,10|2,2:2|2:2,0:0:0:0:
403,87,187631,5,2,2:2:0:0:
371,89,187706,1,2,2:2:0:0:
339,92,187781,1,10,2:1:0:0:
306,94,187856,1,2,2:2:0:0:
274,97,187931,2,0,L|209:102,1,65,2|2,2:2|2:2,0:0:0:0:
285,302,188081,5,10,2:2:0:0:
284,286,188156,1,2,2:2:0:0:
282,270,188231,1,2,2:2:0:0:
282,253,188306,1,2,2:2:0:0:
280,237,188381,6,0,L|274:172,1,65,10|2,2:1|2:2,0:0:0:0:
136,222,188531,2,0,L|200:216,1,65,2|2,2:2|2:2,0:0:0:0:
418,312,188681,5,10,2:2:0:0:
385,314,188756,1,2,2:2:0:0:
353,317,188831,2,0,L|288:322,1,65,10|2,2:1|2:2,0:0:0:0:
209,367,188981,2,0,L|203:302,1,65,10|2,2:1|2:2,0:0:0:0:
269,107,189131,5,10,2:1:0:0:
271,140,189206,1,10,2:1:0:0:
274,172,189281,2,0,L|280:236,1,65,10|2,2:1|2:2,0:0:0:0:
136,222,189431,2,0,L|201:216,1,65,10|2,2:1|2:2,0:0:0:0:
494,365,189581,5,14,2:1:0:0:
496,332,189656,1,2,2:2:0:0:
499,300,189731,1,2,2:2:0:0:
501,267,189806,1,2,2:2:0:0:
504,235,189881,1,10,2:2:0:0:
471,234,189956,1,2,2:2:0:0:
439,231,190031,6,0,L|444:166,1,65,2|2,2:2|2:2,0:0:0:0:
370,120,190181,2,0,L|364:184,1,65,10|2,2:1|2:2,0:0:0:0:
280,237,190331,2,0,L|285:172,1,65,2|2,2:2|2:2,0:0:0:0:
210,102,190481,2,0,L|204:166,1,65,10|2,2:2|2:2,0:0:0:0:
116,246,190631,2,0,L|121:181,1,65,2|2,2:2|2:2,0:0:0:0:
5,23,190781,5,10,2:1:0:0:
37,25,190856,1,2,2:2:0:0:
69,27,190931,2,0,L|63:91,1,65,2|2,2:2|2:2,0:0:0:0:
56,175,191081,2,0,L|120:180,1,65,10|2,2:2|2:2,0:0:0:0:
128,97,191231,2,0,L|63:91,1,65,2|2,2:2|2:2,0:0:0:0:
116,264,191381,5,10,2:1:0:0:
148,267,191456,1,2,2:2:0:0:
180,270,191531,1,10,2:2:0:0:
213,275,191606,1,10,2:1:0:0:
244,275,191681,2,0,L|249:210,1,65,10|2,2:2|2:2,0:0:0:0:
110,328,191831,2,0,L|115:263,1,65,10|10,2:2|2:2,0:0:0:0:
392,35,191981,5,10,2:1:0:0:
376,34,192056,1,2,2:2:0:0:
360,32,192131,1,2,2:2:0:0:
343,32,192206,1,2,2:2:0:0:
326,29,192281,5,10,2:2:0:0:
324,62,192356,1,2,2:2:0:0:
320,94,192431,1,2,2:2:0:0:
318,126,192506,1,2,2:2:0:0:
316,158,192581,5,10,2:1:0:0:
346,164,192656,1,2,2:2:0:0:
378,166,192731,1,2,2:2:0:0:
410,170,192806,1,2,2:2:0:0:
442,174,192881,5,10,2:2:0:0:
440,190,192956,1,2,2:2:0:0:
440,207,193031,1,2,2:2:0:0:
438,223,193106,1,2,2:2:0:0:
437,239,193181,6,0,L|502:244,1,65,10|2,2:1|2:2,0:0:0:0:
351,369,193331,1,2,2:2:0:0:
353,337,193406,1,2,2:2:0:0:
355,305,193481,6,0,L|360:240,1,65,10|2,2:2|2:2,0:0:0:0:
466,318,193631,2,0,L|461:383,1,65,10|2,2:1|2:2,0:0:0:0:
465,55,193781,5,10,2:1:0:0:
467,36,193856,1,2,2:2:0:0:
468,21,193931,5,10,2:1:0:0:
404,13,194006,1,10,2:1:0:0:
340,9,194081,1,10,2:1:0:0:
276,5,194156,1,10,2:1:0:0:
219,0,194231,2,0,L|214:65,1,65,10|10,2:1|2:1,0:0:0:0:
38,333,194381,5,14,2:1:0:0:
36,301,194456,1,2,2:2:0:0:
33,269,194531,1,2,2:2:0:0:
31,236,194606,1,2,2:2:0:0:
28,204,194681,5,10,2:2:0:0:
61,202,194756,1,2,2:2:0:0:
93,199,194831,1,2,2:2:0:0:
126,197,194906,1,2,2:2:0:0:
158,194,194981,1,10,2:1:0:0:
156,162,195056,1,2,2:2:0:0:
153,130,195131,1,2,2:2:0:0:
151,97,195206,1,2,2:2:0:0:
148,65,195281,5,10,2:2:0:0:
181,63,195356,1,2,2:2:0:0:
213,60,195431,6,0,L|278:55,1,65,2|2,2:2|2:2,0:0:0:0:
295,133,195581,5,10,2:1:0:0:
298,165,195656,1,2,2:2:0:0:
300,198,195731,2,0,L|236:204,1,65,2|2,2:2|2:2,0:0:0:0:
278,55,195881,6,0,L|343:50,1,65,10|2,2:2|2:2,0:0:0:0:
416,18,196031,2,0,L|422:83,1,65,2|2,2:2|2:2,0:0:0:0:
505,150,196181,5,10,2:1:0:0:
472,152,196256,1,2,2:2:0:0:
440,155,196331,2,0,L|376:161,1,65,10|10,2:2|2:1,0:0:0:0:
326,360,196481,5,10,2:2:0:0:
342,359,196556,1,2,2:2:0:0:
358,357,196631,1,10,2:2:0:0:
375,357,196706,1,10,2:2:0:0:
391,355,196781,5,10,2:1:0:0:
389,323,196856,1,2,2:2:0:0:
386,291,196931,1,2,2:2:0:0:
384,258,197006,1,2,2:2:0:0:
381,226,197081,2,0,L|376:162,1,65,10|2,2:2|2:2,0:0:0:0:
109,297,197231,5,2,2:2:0:0:
141,295,197306,1,2,2:2:0:0:
173,292,197381,1,10,2:1:0:0:
206,290,197456,1,2,2:2:0:0:
238,287,197531,2,0,L|303:282,1,65,2|2,2:2|2:2,0:0:0:0:
227,82,197681,5,10,2:2:0:0:
228,98,197756,1,2,2:2:0:0:
230,114,197831,1,2,2:2:0:0:
230,131,197906,1,2,2:2:0:0:
232,147,197981,6,0,L|238:212,1,65,10|2,2:1|2:2,0:0:0:0:
376,162,198131,2,0,L|312:168,1,65,2|2,2:2|2:2,0:0:0:0:
94,72,198281,5,10,2:2:0:0:
127,70,198356,1,2,2:2:0:0:
159,67,198431,2,0,L|224:62,1,65,10|2,2:1|2:2,0:0:0:0:
303,17,198581,2,0,L|309:82,1,65,10|2,2:1|2:2,0:0:0:0:
243,277,198731,5,10,2:1:0:0:
241,244,198806,1,10,2:1:0:0:
238,212,198881,2,0,L|232:148,1,65,10|2,2:1|2:2,0:0:0:0:
376,162,199031,2,0,L|311:168,1,65,10|2,2:1|2:2,0:0:0:0:
18,19,199181,5,14,2:1:0:0:
16,52,199256,1,2,2:2:0:0:
13,84,199331,1,2,2:2:0:0:
11,117,199406,1,2,2:2:0:0:
8,149,199481,1,10,2:2:0:0:
41,150,199556,1,2,2:2:0:0:
73,153,199631,6,0,L|68:218,1,65,2|2,2:2|2:2,0:0:0:0:
142,264,199781,2,0,L|148:200,1,65,10|2,2:1|2:2,0:0:0:0:
232,147,199931,2,0,L|227:212,1,65,2|2,2:2|2:2,0:0:0:0:
302,282,200081,2,0,L|308:218,1,65,10|2,2:2|2:2,0:0:0:0:
396,138,200231,2,0,L|391:203,1,65,2|2,2:2|2:2,0:0:0:0:
507,361,200381,5,10,2:1:0:0:
475,359,200456,1,2,2:2:0:0:
443,357,200531,2,0,L|449:293,1,65,2|2,2:2|2:2,0:0:0:0:
456,209,200681,2,0,L|392:204,1,65,10|2,2:2|2:2,0:0:0:0:
384,287,200831,2,0,L|449:293,1,65,2|2,2:2|2:2,0:0:0:0:
396,120,200981,5,10,2:1:0:0:
364,117,201056,1,2,2:2:0:0:
332,114,201131,1,10,2:2:0:0:
299,109,201206,1,10,2:1:0:0:
268,109,201281,2,0,L|263:174,1,65,10|2,2:2|2:2,0:0:0:0:
402,56,201431,2,0,L|397:121,1,65,10|10,2:2|2:2,0:0:0:0:
214,374,201581,5,10,2:1:0:0:
197,372,201656,1,2,2:2:0:0:
180,370,201731,1,2,2:2:0:0:
164,367,201806,1,2,2:2:0:0:
147,367,201881,5,10,2:2:0:0:
150,334,201956,1,2,2:2:0:0:
152,301,202031,1,2,2:2:0:0:
155,270,202106,1,2,2:2:0:0:
158,239,202181,5,10,2:1:0:0:
142,237,202256,1,2,2:2:0:0:
125,236,202331,1,2,2:2:0:0:
109,233,202406,1,2,2:2:0:0:
91,233,202481,5,10,2:2:0:0:
95,200,202556,1,2,2:2:0:0:
97,168,202631,1,2,2:2:0:0:
100,136,202706,1,2,2:2:0:0:
102,97,202781,6,0,L|167:102,1,65,10|2,2:2|2:2,0:0:0:0:
249,5,202931,1,10,2:1:0:0:
247,37,203006,1,2,2:2:0:0:
245,69,203081,6,0,L|240:134,1,65,10|2,2:2|2:2,0:0:0:0:
20,109,203231,2,0,L|25:44,1,65,10|2,2:1|2:2,0:0:0:0:
316,113,203381,5,10,2:2:0:0:
348,115,203456,1,2,2:2:0:0:
378,121,203531,5,10,2:1:0:0:
370,185,203606,1,10,2:2:0:0:
366,249,203681,1,10,2:2:0:0:
362,313,203756,1,10,2:2:0:0:
357,370,203831,2,0,L|422:375,1,65,10|10,2:2|2:2,0:0:0:0:
465,222,203981,5,14,2:1:0:0:
450,149,204056,1,0,0:0:0:0:
378,121,204131,1,10,2:2:0:0:
315,138,204206,1,2,2:2:0:0:
283,195,204281,1,10,2:1:0:0:
226,213,204356,1,0,0:0:0:0:
177,187,204431,1,10,2:2:0:0:
164,147,204506,1,0,0:0:0:0:
185,104,204581,1,10,2:1:0:0:
228,96,204656,1,0,0:0:0:0:
256,58,204731,1,10,2:2:0:0:
251,15,204806,1,2,2:2:0:0:
209,0,204881,6,0,P|177:5|163:36,1,65,10|0,2:1|0:0,0:0:0:0:
0,27,205031,2,0,P|-6:58|17:80,1,65,10|0,2:2|0:0,0:0:0:0:
175,295,205181,5,10,2:1:0:0:
99,303,205256,1,0,0:0:0:0:
40,256,205331,1,10,2:2:0:0:
34,194,205406,1,2,2:2:0:0:
66,136,205481,1,10,2:1:0:0:
122,120,205556,1,0,0:0:0:0:
169,150,205631,1,10,2:2:0:0:
173,192,205706,1,0,0:0:0:0:
155,218,205781,1,10,2:1:0:0:
129,221,205856,1,0,0:0:0:0:
119,201,205931,5,10,2:2:0:0:
131,194,206006,2,0,L|223:217,1,65,10|10,2:2|2:1,0:0:0:0:
475,277,206156,1,8,2:2:0:0:
489,280,206231,2,0,P|490:314|467:340,1,65,10|0,2:2|0:0,0:0:0:0:
355,368,206381,5,10,2:1:0:0:
388,301,206456,1,0,0:0:0:0:
356,238,206531,1,10,2:2:0:0:
292,221,206606,1,2,2:2:0:0:
263,164,206681,1,10,2:1:0:0:
274,117,206756,1,0,0:0:0:0:
318,101,206831,1,10,2:2:0:0:
360,140,206906,1,0,0:0:0:0:
410,141,206981,1,10,2:1:0:0:
432,91,207056,1,0,0:0:0:0:
465,76,207131,1,10,2:2:0:0:
491,90,207206,1,2,2:2:0:0:
506,79,207281,6,0,P|513:44|494:15,1,65,10|0,2:1|0:0,0:0:0:0:
188,42,207431,2,0,L|113:48,1,65,10|0,2:2|0:0,0:0:0:0:
381,12,207581,5,10,2:1:0:0:
305,17,207656,1,0,0:0:0:0:
265,70,207731,1,10,2:2:0:0:
274,117,207806,1,2,2:2:0:0:
338,164,207881,5,10,2:1:0:0:
351,236,207956,1,8,2:2:0:0:
303,274,208031,1,2,2:2:0:0:
265,262,208106,1,0,0:0:0:0:
228,195,208181,5,10,2:2:0:0:
173,179,208256,1,0,0:0:0:0:
138,207,208331,1,2,2:2:0:0:
137,233,208406,1,8,2:2:0:0:
59,209,208481,5,10,2:1:0:0:
34,187,208556,1,0,0:0:0:0:
29,160,208631,2,0,P|24:128|37:99,1,65,10|8,2:2|2:2,0:0:0:0:
124,48,208781,5,14,2:1:0:0:
198,71,208856,1,0,0:0:0:0:
226,142,208931,1,10,2:2:0:0:
197,205,209006,1,2,2:2:0:0:
137,233,209081,1,10,2:1:0:0:
113,288,209156,1,0,0:0:0:0:
135,338,209231,1,10,2:2:0:0:
174,356,209306,1,0,0:0:0:0:
219,338,209381,1,10,2:1:0:0:
231,296,209456,1,0,0:0:0:0:
271,271,209531,1,10,2:2:0:0:
313,279,209606,1,2,2:2:0:0:
323,299,209681,6,0,L|309:362,1,65,10|0,2:1|0:0,0:0:0:0:
437,365,209831,2,0,L|500:379,1,65,10|0,2:2|0:0,0:0:0:0:
504,84,209981,5,10,2:1:0:0:
425,96,210056,1,0,0:0:0:0:
382,153,210131,1,10,2:2:0:0:
375,214,210206,1,2,2:2:0:0:
402,263,210281,1,10,2:1:0:0:
454,279,210356,1,0,0:0:0:0:
503,252,210431,1,10,2:2:0:0:
508,209,210506,1,0,0:0:0:0:
490,183,210581,1,10,2:1:0:0:
465,180,210656,1,0,0:0:0:0:
454,185,210731,5,10,2:2:0:0:
454,196,210806,2,0,L|389:181,1,65,2|10,2:2|2:1,0:0:0:0:
116,124,210956,1,8,2:1:0:0:
101,120,211031,2,0,P|77:98|78:67,1,65,10|0,2:2|0:0,0:0:0:0:
242,186,211181,5,14,2:1:0:0:
308,196,211256,1,0,0:0:0:0:
362,154,211331,1,10,2:2:0:0:
371,88,211406,1,2,2:2:0:0:
330,34,211481,1,10,2:1:0:0:
263,25,211556,1,10,2:1:0:0:
208,66,211631,1,10,2:2:0:0:
199,133,211706,1,2,2:2:0:0:
237,195,211781,5,14,2:1:0:0:
311,205,211856,1,0,0:0:0:0:
370,160,211931,1,10,2:2:0:0:
379,85,212006,1,2,2:2:0:0:
334,26,212081,1,10,2:1:0:0:
261,16,212156,1,10,2:1:0:0:
200,62,212231,1,10,2:2:0:0:
190,136,212306,1,2,2:2:0:0:
231,204,212381,5,14,2:1:0:0:
314,216,212456,1,0,0:0:0:0:
377,164,212531,1,10,2:2:0:0:
388,83,212606,1,2,2:2:0:0:
339,18,212681,1,10,2:1:0:0:
258,7,212756,1,10,2:1:0:0:
191,58,212831,1,10,2:2:0:0:
180,138,212906,1,2,2:2:0:0:
227,213,212981,5,10,2:2:0:0:
220,299,213056,1,8,2:2:0:0:
156,356,213131,1,10,2:2:0:0:
69,350,213206,1,8,2:2:0:0:
14,289,213281,1,10,2:3:0:0:
15,204,213356,1,8,2:3:0:0:
80,144,213431,2,0,P|103:166|104:198,1,65,6|4,2:3|2:3,0:0:0:0:
288,361,213581,5,14,2:1:0:0:
366,352,213656,1,0,0:0:0:0:
397,280,213731,1,10,2:2:0:0:
375,212,213806,1,2,2:2:0:0:
318,187,213881,1,10,2:1:0:0:
284,134,213956,1,0,0:0:0:0:
306,84,214031,1,10,2:2:0:0:
345,66,214106,1,0,0:0:0:0:
390,84,214181,1,10,2:1:0:0:
402,126,214256,1,0,0:0:0:0:
442,151,214331,1,10,2:2:0:0:
484,143,214406,1,2,2:2:0:0:
494,120,214481,6,0,P|495:88|467:65,1,65,10|0,2:1|0:0,0:0:0:0:
438,0,214631,2,0,P|410:14|399:43,1,65,10|0,2:2|0:0,0:0:0:0:
215,346,214781,5,10,2:1:0:0:
136,338,214856,1,0,0:0:0:0:
87,281,214931,1,10,2:2:0:0:
78,221,215006,1,2,2:2:0:0:
108,167,215081,1,10,2:1:0:0:
164,149,215156,1,0,0:0:0:0:
213,174,215231,1,10,2:2:0:0:
217,216,215306,1,0,0:0:0:0:
199,242,215381,1,10,2:1:0:0:
174,245,215456,1,0,0:0:0:0:
164,238,215531,5,10,2:2:0:0:
162,229,215606,2,0,L|192:157,1,65,10|10,2:2|2:1,0:0:0:0:
232,41,215756,1,8,2:2:0:0:
237,25,215831,2,0,P|263:41|262:72,1,65,10|0,2:2|0:0,0:0:0:0:
33,39,215981,5,10,2:1:0:0:
111,49,216056,1,0,0:0:0:0:
142,114,216131,1,10,2:2:0:0:
108,169,216206,1,2,2:2:0:0:
60,197,216281,1,10,2:1:0:0:
77,245,216356,1,0,0:0:0:0:
120,263,216431,1,10,2:2:0:0:
163,229,216506,1,0,0:0:0:0:
203,230,216581,1,10,2:1:0:0:
235,271,216656,1,0,0:0:0:0:
268,286,216731,1,10,2:2:0:0:
294,272,216806,1,2,2:2:0:0:
310,281,216881,6,0,L|388:298,1,65,10|0,2:1|0:0,0:0:0:0:
90,374,217031,2,0,P|63:356|58:324,1,65,10|0,2:2|0:0,0:0:0:0:
502,114,217181,5,10,2:1:0:0:
475,187,217256,1,0,0:0:0:0:
408,203,217331,1,10,2:2:0:0:
367,174,217406,1,2,2:2:0:0:
363,91,217481,5,10,2:1:0:0:
307,43,217556,1,8,2:2:0:0:
252,62,217631,1,2,2:2:0:0:
243,101,217706,1,0,0:0:0:0:
281,170,217781,5,10,2:2:0:0:
268,226,217856,1,0,0:0:0:0:
226,242,217931,1,2,2:2:0:0:
203,230,218006,1,8,2:2:0:0:
162,299,218081,5,10,2:1:0:0:
137,319,218156,1,0,0:0:0:0:
137,348,218231,2,0,L|113:287,1,65,10|8,2:2|2:2,0:0:0:0:
9,35,218381,5,14,2:1:0:0:
89,38,218456,1,0,0:0:0:0:
137,100,218531,1,10,2:2:0:0:
120,168,218606,1,2,2:2:0:0:
69,209,218681,1,10,2:1:0:0:
59,268,218756,1,0,0:0:0:0:
94,311,218831,1,10,2:2:0:0:
137,319,218906,1,0,0:0:0:0:
176,289,218981,1,10,2:1:0:0:
176,246,219056,1,0,0:0:0:0:
208,207,219131,1,10,2:2:0:0:
250,208,219206,1,2,2:2:0:0:
269,226,219281,6,0,P|275:266|256:290,1,65,10|0,2:1|0:0,0:0:0:0:
198,365,219431,2,0,L|275:382,1,65,10|0,2:2|0:0,0:0:0:0:
439,383,219581,5,10,2:1:0:0:
490,324,219656,1,0,0:0:0:0:
485,256,219731,1,10,2:2:0:0:
441,208,219806,1,10,2:1:0:0:
377,217,219881,1,2,2:2:0:0:
348,257,219956,1,8,2:2:0:0:
359,298,220031,1,10,2:1:0:0:
394,308,220106,1,0,0:0:0:0:
411,295,220181,6,0,B|426:263|426:263|417:234,1,65,2|0,2:2|0:0,0:0:0:0:
335,82,220331,2,0,L|340:148,1,65
349,384,220481,5,0,0:0:0:0:
349,384,220631,1,0,0:0:0:0:
504,4,220781,6,0,B|526:78|526:78|486:159,1,156,6|0,3:2|0:0,0:0:0:0:
250,36,221081,2,0,L|405:25,1,156,2|0,2:2|0:0,0:0:0:0:
406,25,221381,6,0,L|411:102,1,78,2|0,2:2|0:0,0:0:0:0:
417,31,221531,2,0,L|422:108,1,78,2|0,2:2|0:0,0:0:0:0:
245,143,221681,6,0,P|175:93|100:109,1,156,2|0,2:2|0:0,0:0:0:0:
110,104,221981,6,0,L|104:181,1,78,2|0,2:2|0:0,0:0:0:0:
98,109,222131,2,0,L|92:186,1,78,2|0,2:2|0:0,0:0:0:0:
0,33,222281,6,0,L|18:266,1,234,2|0,2:2|0:0,0:0:0:0:
170,365,222581,6,0,P|117:354|109:255,1,156
101,264,222881,6,0,L|103:288,2,24.3750000000001
180,243,223031,2,0,L|177:267,2,24.3750000000001
237,319,223181,6,0,P|301:325|341:174,1,234,6|0,3:2|0:0,0:0:0:0:
245,139,223481,6,0,L|254:216,1,78,2|0,2:2|0:0,0:0:0:0:
259,243,223631,2,0,L|268:165,1,78,2|0,2:2|0:0,0:0:0:0:
282,133,223781,2,0,L|272:210,1,78,2|0,2:2|0:0,0:0:0:0:
255,289,223931,2,0,L|245:211,1,78
250,105,224081,2,0,L|259:182,1,78,2|0,2:2|0:0,0:0:0:0:
274,312,224231,2,0,L|283:234,1,78,2|0,2:2|0:0,0:0:0:0:
281,76,224381,2,0,L|271:153,1,78,2|0,2:2|0:0,0:0:0:0:
252,338,224531,2,0,L|242:260,1,78
251,50,224681,2,0,L|260:127,1,78,2|0,2:2|0:0,0:0:0:0:
265,362,224831,2,0,L|274:284,1,78,2|0,2:2|0:0,0:0:0:0:
308,3,224981,5,2,3:2:0:0:
458,357,225281,6,0,P|473:336|456:352,1,78,2|0,2:2|0:0,0:0:0:0:
20,148,225581,6,0,B|-14:78|-14:78|8:4,1,156,6|0,3:2|0:0,0:0:0:0:
287,123,225881,2,0,L|132:112,1,156,2|0,2:2|0:0,0:0:0:0:
131,111,226181,6,0,L|126:34,1,78,2|0,2:2|0:0,0:0:0:0:
120,105,226331,2,0,L|115:28,1,78,2|0,2:2|0:0,0:0:0:0:
271,245,226481,6,0,P|345:233|380:167,1,156,2|0,2:2|0:0,0:0:0:0:
380,167,226781,6,0,L|385:90,1,78,2|0,2:2|0:0,0:0:0:0:
391,161,226931,2,0,L|396:84,1,78,2|0,2:2|0:0,0:0:0:0:
49,188,227081,6,0,P|167:217|188:317,1,233.999992858887,2|0,2:2|0:0,0:0:0:0:
114,309,227381,6,0,P|112:296|110:284,2,24.3750000000001,2|0|0,2:2|0:0|0:0,0:0:0:0:
259,336,227531,2,0,L|256:384,1,48.7500000000001
406,312,227681,2,0,P|406:305|407:299,12,12.1875,2|0|0|0|0|0|0|0|0|0|0|0|0,2:2|0:0|0:0|0:0|0:0|0:0|0:0|0:0|0:0|0:0|0:0|0:0|0:0,0:0:0:0:
509,241,227981,6,0,L|313:270,1,195,6|0,3:2|0:0,0:0:0:0:
316,269,228281,6,0,L|325:204,1,65,2|0,2:2|0:0,0:0:0:0:
305,266,228431,2,0,L|314:201,1,65,2|0,2:2|0:0,0:0:0:0:
294,263,228581,2,0,L|303:198,1,65,2|0,2:2|0:0,0:0:0:0:
283,260,228731,2,0,L|292:195,1,65
272,257,228881,2,0,L|281:192,1,65,2|0,2:2|0:0,0:0:0:0:
261,254,229031,2,0,L|270:189,1,65
188,95,229181,6,0,L|197:159,1,65,2|0,2:2|0:0,0:0:0:0:
131,276,229331,2,0,L|140:211,1,65,2|0,2:2|0:0,0:0:0:0:
0,222,229481,6,0,L|64:212,1,65,2|0,2:2|0:0,0:0:0:0:
257,340,229631,2,0,L|192:330,1,65
15,145,229781,5,6,2:3:0:0:
25,98,229856,1,4,2:3:0:0:
62,67,229931,1,4,2:3:0:0:
110,66,230006,1,4,2:3:0:0:
184,79,230081,6,0,P|197:48|199:11,1,65,10|8,2:3|2:3,0:0:0:0:
287,15,230231,2,0,P|282:95|331:153,1,146.25,8|0,2:3|0:0,0:0:0:0:
400,138,230381,5,14,3:2:0:0:
428,215,230531,5,8,2:2:0:0:
512,212,230682,5,10,2:2:0:0:
512,212,230988,5,10,2:2:0:0:
512,212,231297,5,10,2:2:0:0:
428,215,231457,5,8,2:2:0:0:
388,301,231617,5,6,3:2:0:0:
260,251,231780,5,8,2:2:0:0:
161,350,231943,5,10,2:2:0:0:
36,197,232111,5,8,2:2:0:0:
36,197,232451,5,8,2:2:0:0:
115,158,232622,5,10,2:2:0:0:
171,264,232794,5,8,2:2:0:0:
272,121,232965,6,0,L|263:185,1,65,14|8,3:2|2:2,0:0:0:0:
256,287,233307,6,0,L|249:189,1,97.5,10|0,2:2|0:0,0:0:0:0:
230,4,233664,5,10,2:2:0:0:
230,4,234043,5,10,2:2:0:0:
262,83,234233,5,8,2:2:0:0:
102,33,234423,6,0,L|133:39,1,32.5,6|0,3:2|0:0,0:0:0:0:
279,86,234613,5,8,2:2:0:0:
216,165,234802,5,10,2:2:0:0:
287,287,235004,5,8,2:2:0:0:
287,287,235404,5,8,2:2:0:0:
392,182,235601,6,0,L|327:191,1,65,10|8,2:2|2:2,0:0:0:0:
256,384,236009,5,14,3:2:0:0:
200,328,236224,5,8,2:2:0:0:
106,344,236440,5,10,2:2:0:0:
2,291,236656,5,8,2:2:0:0:
256,384,236872,5,14,3:2:0:0:
311,310,237097,5,8,2:2:0:0:
393,363,237323,5,10,2:2:0:0:
461,273,237548,5,8,2:2:0:0:
256,384,237774,5,14,3:2:0:0:
213,310,238008,5,8,2:2:0:0:
101,306,238242,5,10,2:2:0:0:
52,200,238485,5,8,2:2:0:0:
256,384,238729,5,14,3:2:0:0:
304,298,238981,5,8,2:2:0:0:
420,272,239233,5,10,2:2:0:0:
458,163,239493,5,8,2:2:0:0:
256,384,239754,5,14,3:2:0:0:
237,293,239885,5,8,2:2:0:0:
156,280,240015,5,8,2:2:0:0:
112,200,240146,5,8,2:2:0:0:
263,367,240276,5,14,3:2:0:0:
311,272,240413,5,8,2:2:0:0:
399,236,240551,5,8,2:2:0:0:
422,132,240688,5,8,2:2:0:0:
251,345,240826,5,14,3:2:0:0:
225,245,240968,5,8,2:2:0:0:
144,188,241111,5,8,2:2:0:0:
118,87,241254,5,8,2:2:0:0:
268,321,241397,5,14,3:2:0:0:
297,208,241542,5,8,2:2:0:0:
382,172,241688,5,8,2:2:0:0:
393,45,241833,5,8,2:2:0:0:
7,122,241979,5,14,3:2:0:0:
69,91,242054,1,8,2:2:0:0:
100,154,242130,1,8,2:2:0:0:
37,184,242206,1,8,2:2:0:0:
182,141,242282,5,14,3:2:0:0:
223,144,242357,1,8,2:2:0:0:
220,185,242433,1,8,2:2:0:0:
178,181,242509,1,8,2:2:0:0:
274,248,242585,5,14,3:2:0:0:
294,262,242660,1,8,2:2:0:0:
280,282,242736,1,8,2:2:0:0:
259,267,242812,1,8,2:2:0:0:
322,355,242888,5,14,3:2:0:0:
315,373,242963,1,8,2:2:0:0:
309,360,243039,1,8,2:2:0:0:
327,367,243115,1,8,2:2:0:0:
408,374,243191,5,0,3:3:0:0:
408,374,243485,5,2,2:2:0:0:
83,305,243632,1,2,2:2:0:0:
83,305,243779,5,8,2:2:0:0:
157,258,243932,5,10,2:3:0:0:
218,339,244085,5,6,2:3:0:0:
326,236,244238,5,6,2:3:0:0:
512,279,244391,6,0,B|436:260,1,78,0|0,3:3|0:0,0:0:0:0:
399,157,244691,2,0,L|395:175,6,32.5,2|0|0|0|0|0|0,2:2|0:0|0:0|0:0|0:0|0:0|0:0,0:0:0:0:
365,328,244991,6,0,B|323:316|323:316|269:73|269:73|223:61,1,341.250003254414,8|0,3:2|0:0,0:0:0:0:
199,40,245291,2,0,L|209:85,1,45.4999986114502,2|0,2:2|0:0,0:0:0:0:
283,382,245441,6,0,B|292:366|292:366|274:290,1,91,2|0,2:2|0:0,0:0:0:0:
255,158,245591,1,0,3:3:0:0:
255,158,245666,1,0,0:0:0:0:
255,158,245741,6,0,B|226:164|226:164|191:327|191:327|160:334,1,227.500002169609,2|2,2:2|2:2,0:0:0:0:
97,222,245966,5,0,0:0:0:0:
100,212,246041,2,0,B|171:196|171:196|186:205,1,91,2|0,2:2|0:0,0:0:0:0:
373,186,246191,6,0,B|358:241|358:241|64:306|64:306|51:356,1,409.499987503052,8|0,3:2|0:0,0:0:0:0:
44,359,246491,2,0,L|54:309,1,34.1249989585877,2|0,2:2|0:0,0:0:0:0:
37,362,246566,2,0,L|47:312,1,34.1249989585877
30,365,246641,2,0,L|48:275,1,91,2|0,2:2|0:0,0:0:0:0:
44,128,246791,6,0,B|50:152|50:152|179:181|179:181|185:203,1,182,2|0,3:2|0:0,0:0:0:0:
213,329,247016,5,2,2:2:0:0:
201,314,247091,2,0,B|171:178|171:178|189:145|189:145|208:239,1,273
159,380,247391,6,0,B|123:371|123:371|121:361,6,45.5,10|0|0|0|0|0|0,3:2|0:0|0:0|0:0|0:0|0:0|0:0,0:0:0:0:
26,109,247691,6,0,B|57:116|57:116|93:280|93:280|120:287,1,227.500002169609,2|2,2:2|2:2,0:0:0:0:
290,340,247916,1,0,0:0:0:0:
299,344,247991,2,0,L|290:299,1,45.4999986114502,0|0,3:3|0:0,0:0:0:0:
244,134,248141,6,0,B|229:56|229:56|217:53,1,91,2|0,2:2|0:0,0:0:0:0:
238,50,248291,2,0,L|230:5,6,45.5,2|0|0|0|0|0|0,2:2|0:0|0:0|0:0|0:0|0:0|0:0,0:0:0:0:
121,362,248591,6,0,B|160:351|160:351|206:142|206:142|242:133,1,292.50001115799,10|0,3:2|0:0,0:0:0:0:
287,239,248891,6,0,L|278:283,1,45.5
272,316,248966,2,0,L|227:307,1,45.5
195,301,249041,2,0,L|203:256,1,45.5,2|0,2:2|0:0,0:0:0:0:
210,224,249116,2,0,L|254:232,1,45.5
308,287,249191,6,0,L|487:319,1,182,0|0,3:3|0:0,0:0:0:0:
169,156,249491,6,0,B|151:115|151:115|155:160,1,90.9999972229005,2|0,2:2|0:0,0:0:0:0:
323,384,249791,6,0,B|372:370|372:370|437:76|437:76|493:62,1,409.499987503052,8|0,3:2|0:0,0:0:0:0:
402,82,250091,5,2,2:2:0:0:
402,82,250166,1,0,0:0:0:0:
402,82,250241,6,0,B|411:98|411:98|395:175,1,91,2|0,2:2|0:0,0:0:0:0:
377,313,250391,1,0,3:3:0:0:
377,313,250541,6,0,B|344:304|344:304|301:109|301:109|263:99,1,273,2|2,2:2|2:2,0:0:0:0:
285,263,250766,5,0,0:0:0:0:
278,267,250841,2,0,B|250:287|250:287|304:269,1,90.9999972229005,2|0,2:2|0:0,0:0:0:0:
507,288,250991,6,0,B|492:228|492:228|166:156|166:156|151:99,1,454.999986114502,8|0,3:2|0:0,0:0:0:0:
78,65,251441,2,0,B|168:84,1,91
455,76,251591,5,2,3:2:0:0:
455,76,251666,1,0,0:0:0:0:
455,76,251741,2,0,B|442:79|442:79|428:144|428:144|417:147,1,91,2|0,2:2|0:0,0:0:0:0:
427,237,251891,2,0,B|424:224|424:224|359:210|359:210|356:199,1,91,2|0,2:2|0:0,0:0:0:0:
266,206,252041,2,0,B|279:203|279:203|293:138|293:138|304:135,1,91,2|0,2:2|0:0,0:0:0:0:
395,18,252191,6,0,B|346:28|346:28|293:270|293:270|252:281,1,341.250003254414,8|0,3:2|0:0,0:0:0:0:
156,210,252491,6,0,B|146:207|146:207|132:142|132:142|118:139,1,91,2|0,2:2|0:0,0:0:0:0:
127,47,252641,2,0,B|124:60|124:60|59:74|59:74|56:85,1,91,2|0,2:2|0:0,0:0:0:0:
42,166,252791,6,0,B|66:185|66:185|315:132,1,273,0|0,3:3|0:0,0:0:0:0:
245,68,252941,1,2,2:2:0:0:
245,68,253016,1,0,0:0:0:0:
245,68,253091,6,0,B|323:51|323:51|331:57,1,91,2|0,2:2|0:0,0:0:0:0:
182,290,253241,2,0,B|174:296|174:296|95:279,1,91,2|0,2:2|0:0,0:0:0:0:
196,1,253391,5,8,3:2:0:0:
269,345,253541,1,2,2:2:0:0:
85,379,253691,1,4,2:3:0:0:
42,166,253841,1,4,2:3:0:0:
394,106,253991,1,0,3:3:0:0:
303,134,254141,5,0,0:0:0:0:
303,134,254216,1,0,0:0:0:0:
303,134,254291,2,0,L|293:178,6,45.5,2|0|0|0|0|0|0,2:2|0:0|0:0|0:0|0:0|0:0|0:0,0:0:0:0:
50,1,254591,6,0,B|105:15|105:15|170:308|170:308|219:321,1,409.499987503052,8|0,3:2|0:0,0:0:0:0:
303,340,254891,1,2,2:2:0:0:
303,340,254966,1,0,0:0:0:0:
303,340,255041,6,0,B|316:318|316:318|301:254,1,91,2|0,2:2|0:0,0:0:0:0:
309,66,255191,1,0,3:3:0:0:
309,66,255266,1,0,0:0:0:0:
309,66,255341,6,0,B|338:72|338:72|374:235|374:235|403:243,1,227.500002169609,2|2,2:2|2:2,0:0:0:0:
496,161,255566,1,0,0:0:0:0:
484,158,255641,2,0,B|424:144|424:144|401:172,1,91,2|0,2:2|0:0,0:0:0:0:
137,212,255791,6,0,B|151:268|151:268|445:333|445:333|458:383,1,409.499987503052,8|0,3:2|0:0,0:0:0:0:
462,371,256091,2,0,L|457:348,1,22.7499993057251,2|0,2:2|0:0,0:0:0:0:
470,364,256166,2,0,L|465:341,1,22.7499993057251
479,365,256241,2,0,L|459:276,1,91,2|0,2:2|0:0,0:0:0:0:
402,23,256391,6,0,B|340:39|340:39|268:365|268:365|285:349|285:349|330:138,1,637,2|0,3:2|0:0,0:0:0:0:
181,122,256991,6,0,B|169:141|169:141|194:258|194:258|228:202|228:202|185:8|185:8|167:23|167:23|187:112,1,520,8|0,3:2|0:0,0:0:0:0:
298,219,257441,6,0,L|209:198,1,91,2|0,2:2|0:0,0:0:0:0:
49,103,257591,6,0,B|86:112|86:112|129:308|129:308|162:316,1,273,0|0,3:3|0:0,0:0:0:0:
60,54,257891,6,0,L|80:142,1,91,2|0,2:2|0:0,0:0:0:0:
53,348,258041,2,0,B|65:344|65:344|79:280|79:280|91:276,1,91
245,314,258191,6,0,B|237:281|237:281|41:238|41:238|32:201,1,273,10|2,3:2|2:2,0:0:0:0:
194,241,258416,1,0,0:0:0:0:
203,239,258491,2,0,P|224:231|233:211,6,45.5
351,119,258791,6,0,B|363:141|363:141|311:383,1,273,2|0,3:2|0:0,0:0:0:0:
394,53,259091,6,0,B|406:75|406:75|354:317,1,273,2|0,3:2|0:0,0:0:0:0:
499,27,259391,6,0,B|437:42|437:42|365:369|365:369|310:382,1,455,8|0,3:2|0:0,0:0:0:0:
459,100,259841,6,0,B|467:113|467:113|451:186,1,91,2|0,2:2|0:0,0:0:0:0:
425,287,259991,1,0,3:3:0:0:
425,287,260066,1,0,0:0:0:0:
425,287,260141,6,0,B|393:278|393:278|356:111|356:111|328:105,1,233.999992858887
262,215,260441,6,0,B|337:203|337:203|349:211,1,91,2|0,2:2|0:0,0:0:0:0:
385,355,260591,6,0,B|329:341|329:341|258:14|258:14|196:0,1,455,8|0,3:2|0:0,0:0:0:0:
180,5,261041,6,0,L|197:94,1,91,2|0,2:2|0:0,0:0:0:0:
245,320,261191,5,2,3:2:0:0:
140,302,261291,1,2,2:2:0:0:
158,197,261391,1,2,2:2:0:0:
262,215,261491,1,2,2:2:0:0:
151,384,261591,5,0,0:0:0:0:
46,366,261691,1,0,0:0:0:0:
64,261,261791,2,0,L|67:241,12,19.4999994049072,10|0|0|0|0|0|0|0|0|0|0|0|0,3:2|0:0|0:0|0:0|0:0|0:0|0:0|0:0|0:0|0:0|0:0|0:0|0:0,0:0:0:0:
157,76,262391,5,2,3:2:0:0:
40,57,262491,1,2,2:2:0:0:
21,174,262591,1,2,2:2:0:0:
138,193,262691,2,0,L|157:196,4,19.4999994049072,2|0|0|0|0,2:2|0:0|0:0|0:0|0:0,0:0:0:0:
210,347,262991,5,10,3:2:0:0:
206,308,263066,1,8,2:3:0:0:
202,270,263141,1,0,0:0:0:0:
298,206,263291,5,6,2:3:0:0:
284,384,263441,1,6,2:3:0:0:
466,254,263591,6,0,P|391:261|359:328,1,156,2|0,3:2|0:0,0:0:0:0:
456,377,264191,6,0,B|442:336|442:336|54:258|54:258|38:214,1,485.333318522136,6|0,3:2|0:0,0:0:0:0:
0,119,264457,6,0,L|68:105,1,57.7777777777778,2|0,2:2|0:0,0:0:0:0:
128,78,264657,2,0,L|133:106,1,28.8888888888889,2|0,2:2|0:0,0:0:0:0:
463,365,264791,6,0,B|449:324|449:324|61:246|61:246|45:202,1,485.333318522136,6|0,3:2|0:0,0:0:0:0:
147,89,265057,6,0,L|215:75,1,57.7777777777778,2|0,2:2|0:0,0:0:0:0:
275,48,265257,2,0,L|280:76,1,28.8888888888889,2|0,2:2|0:0,0:0:0:0:
472,352,265391,6,0,B|458:311|458:311|70:233|70:233|54:189,1,485.333318522136,6|0,3:2|0:0,0:0:0:0:
296,55,265657,6,0,L|364:41,1,57.7777777777778,2|0,2:2|0:0,0:0:0:0:
424,14,265857,2,0,L|429:42,1,28.8888888888889,2|0,2:2|0:0,0:0:0:0:
511,11,265991,5,0,3:3:0:0:
511,11,266141,5,2,2:2:0:0:
511,11,266291,5,2,2:2:0:0:
511,11,266441,5,2,2:2:0:0:
201,356,266591,6,0,B|233:345|233:345|296:33|296:33|332:21,1,390,10|0,3:2|0:0,0:0:0:0:
334,258,267191,6,0,B|323:255|323:255|302:151|302:151|291:148,2,130,0|2|0,3:3|2:2|0:0,0:0:0:0:
334,258,267641,1,0,3:3:0:0:
361,100,267791,6,0,B|337:107|337:107|295:315|295:315|273:322,2,260,10|2|2,3:2|2:2|3:2,0:0:0:0:
362,349,268541,6,0,L|356:381,10,32.5
54,189,268991,6,0,B|67:148|67:148|455:70|455:70|471:26,1,485.333318522136,6|0,3:2|0:0,0:0:0:0:
467,179,269257,6,0,L|458:237,1,57.7777777777778,2|0,2:2|0:0,0:0:0:0:
460,315,269457,2,0,L|431:310,1,28.8888888888889,2|0,2:2|0:0,0:0:0:0:
47,177,269591,6,0,B|60:136|60:136|448:58|448:58|464:14,1,485.333318522136,6|0,3:2|0:0,0:0:0:0:
289,215,269857,6,0,L|280:273,1,57.7777777777778,2|0,2:2|0:0,0:0:0:0:
282,351,270057,2,0,L|253:346,1,28.8888888888889,2|0,2:2|0:0,0:0:0:0:
40,163,270191,6,0,B|53:122|53:122|441:44|441:44|457:0,1,485.333318522136,6|0,3:2|0:0,0:0:0:0:
109,242,270457,6,0,L|100:300,1,57.7777777777778,2|0,2:2|0:0,0:0:0:0:
102,378,270657,2,0,L|73:373,1,28.8888888888889,2|0,2:2|0:0,0:0:0:0:
0,0,270791,6,0,L|7:54,2,45.5,6|0|0,3:2|0:0|0:0,0:0:0:0:
95,12,271091,5,10,2:2:0:0:
95,12,271166,1,8,2:2:0:0:
95,12,271241,5,8,2:2:0:0:
115,18,271316,1,8,2:2:0:0:
131,29,271391,1,10,2:2:0:0:
136,50,271466,1,8,2:2:0:0:
140,71,271541,1,8,2:2:0:0:
144,93,271616,1,8,2:2:0:0:
149,114,271691,1,10,2:2:0:0:
153,135,271766,1,8,2:2:0:0:
157,156,271841,1,8,2:2:0:0:
161,178,271916,1,8,2:2:0:0:
166,199,271991,1,10,2:2:0:0:
170,220,272066,1,8,2:2:0:0:
174,241,272141,1,8,2:2:0:0:
179,263,272216,1,8,2:2:0:0:
183,284,272291,1,10,2:2:0:0:
187,305,272366,1,8,2:2:0:0:
191,326,272441,1,8,2:2:0:0:
205,340,272516,1,8,2:2:0:0:
225,346,272591,5,8,2:2:0:0:
242,131,272741,1,4,2:3:0:0:
71,177,272891,1,6,2:3:0:0:
110,322,273041,1,6,2:3:0:0:
488,216,273191,5,6,3:2:0:0:
256,192,273335,12,0,276803,0:0:0:0:
163,58,276896,5,2,3:2:0:0:
149,147,277074,1,0,3:3:0:0:
216,203,277253,1,2,3:2:0:0:
195,293,277421,1,0,3:3:0:0:
270,82,277590,5,2,3:2:0:0:
294,300,277750,1,0,3:3:0:0:
76,324,277910,1,2,3:2:0:0:
52,106,278068,1,0,3:3:0:0:
473,132,278227,5,2,3:2:0:0:
501,92,278299,1,0,3:3:0:0:
474,51,278371,1,0,3:3:0:0:
453,9,278443,1,0,3:3:0:0:
413,32,278515,1,2,3:2:0:0:
362,41,278587,1,0,3:3:0:0:
377,91,278659,1,0,3:3:0:0:
379,138,278731,1,0,3:3:0:0:
429,148,278803,1,10,2:3:0:0:
92,22,279110,5,6,2:3:0:0:
67,95,279186,1,6,2:3:0:0:
125,139,279262,1,6,2:3:0:0:
190,102,279338,1,6,2:3:0:0:
205,29,279414,6,0,P|332:52|336:164,1,260,6|2,3:2|2:2,0:0:0:0:
237,194,279639,1,0,0:0:0:0:
223,197,279714,2,0,P|173:160|191:102,1,130,10|0,3:2|0:0,0:0:0:0:
286,46,279864,6,0,P|261:153|238:322,1,260,2|0,2:2|3:3,0:0:0:0:
254,317,280089,1,0,0:0:0:0:
265,337,280164,6,0,P|320:308|318:242,1,130,2|0,2:2|0:0,0:0:0:0:
45,222,280314,2,0,P|107:241|168:263,1,130,8|0,3:2|0:0,0:0:0:0:
512,178,280464,6,0,P|449:196|388:218,1,130,2|0,2:2|0:0,0:0:0:0:
61,371,280614,2,0,P|20:204|191:190,1,390,0|0,3:3|0:0,0:0:0:0:
486,384,280914,6,0,P|347:332|237:304,1,260,8|0,3:2|0:0,0:0:0:0:
159,265,281139,5,0,0:0:0:0:
158,275,281214,2,0,P|164:307|165:339,2,65,2|0|0,3:2|0:0|0:0,0:0:0:0:
307,375,281364,2,0,P|312:310|320:246,1,130,2|0,2:2|0:0,0:0:0:0:
84,293,281514,5,10,3:2:0:0:
473,124,281664,2,0,P|411:136|381:191,1,130,2|0,2:2|0:0,0:0:0:0:
241,220,281814,6,0,P|135:196|150:60,1,260,2|0,3:2|0:0,0:0:0:0:
205,20,282039,5,0,0:0:0:0:
210,34,282114,2,0,P|241:41|273:42,2,65,10|0|2,3:2|0:0|2:2,0:0:0:0:
3,2,282264,2,0,P|26:61|32:129,1,130,2|0,2:2|0:0,0:0:0:0:
42,362,282414,5,0,3:3:0:0:
495,167,282564,1,2,2:2:0:0:
493,143,282639,1,0,0:0:0:0:
473,124,282714,2,0,P|411:136|381:191,1,130,8|0,3:2|0:0,0:0:0:0:
216,374,282864,6,0,P|302:359|286:205,1,260,2|0,2:2|3:3,0:0:0:0:
228,242,283089,1,0,0:0:0:0:
215,257,283164,2,0,P|162:226|169:165,1,130,2|2,2:2|2:2,0:0:0:0:
260,24,283314,6,0,P|252:102|247:156,1,130,10|0,3:2|0:0,0:0:0:0:
111,296,283464,1,2,2:2:0:0:
99,282,283539,1,2,2:2:0:0:
81,280,283614,6,0,P|74:215|50:17,1,260,2|2,3:2|2:2,0:0:0:0:
339,31,283839,5,2,2:2:0:0:
345,41,283914,2,0,P|343:79|336:110,2,65,10|0|0,3:2|0:0|0:0,0:0:0:0:
181,17,284064,2,0,P|174:48|173:81,2,65,2|0|0,2:2|0:0|0:0,0:0:0:0:
511,113,284214,6,0,P|438:124|389:296,1,260,2|2,3:2|2:2,0:0:0:0:
293,282,284439,1,0,0:0:0:0:
305,292,284514,2,0,P|297:352|238:368,1,130,10|2,3:2|2:2,0:0:0:0:
450,216,284664,6,0,P|478:202|512:193,2,65,2|0|0,2:2|0:0|0:0,0:0:0:0:
211,297,284814,2,0,P|122:285|9:244,1,195,0|0,3:3|0:0,0:0:0:0:
14,241,284964,1,2,2:2:0:0:
5,201,285039,1,2,2:2:0:0:
41,173,285114,2,0,P|57:122|66:32,1,130,10|0,3:2|0:0,0:0:0:0:
135,125,285264,6,0,P|184:157|175:230,1,130,2|0,2:2|0:0,0:0:0:0:
339,363,285414,2,0,P|466:331|450:210,1,260,2|0,3:2|0:0,0:0:0:0:
126,292,285639,1,0,0:0:0:0:
108,299,285714,2,0,P|77:309|47:321,2,65,10|0|2,3:2|0:0|2:2,0:0:0:0:
279,102,285864,6,0,P|263:229|255:382,1,260,2|0,2:2|3:3,0:0:0:0:
456,205,286089,5,0,0:0:0:0:
475,194,286164,2,0,P|410:185|347:170,1,130,2|0,2:2|0:0,0:0:0:0:
4,130,286314,5,10,3:2:0:0:
25,117,286389,1,0,0:0:0:0:
32,92,286464,2,0,P|152:117|177:237,1,260,2|0,2:2|3:3,0:0:0:0:
126,292,286689,1,0,0:0:0:0:
102,283,286764,2,0,P|58:238|76:179,1,130,2|2,2:2|2:2,0:0:0:0:
241,25,286914,6,0,P|253:79|261:169,1,130,10|0,3:2|0:0,0:0:0:0:
435,239,287064,2,0,P|478:93|347:169,1,390,2|0,2:2|0:0,0:0:0:0:
342,282,287364,6,0,P|335:313|331:346,2,65,2|0|2,2:2|0:0|2:2,0:0:0:0:
175,352,287514,6,0,P|238:339|261:280,1,130,10|0,3:2|0:0,0:0:0:0:
427,248,287664,2,0,P|415:312|407:377,1,130,2|0,2:2|0:0,0:0:0:0:
96,384,287814,6,0,P|87:319|42:121,2,260,6|0|8,3:2|0:0|2:2,0:0:0:0:
480,180,288264,6,0,P|495:182|512:185,4,32.5,2|0|0|0|0,2:2|0:0|0:0|0:0|0:0,0:0:0:0:
29,101,288414,6,0,P|150:119|181:238,1,260,2|0,2:2|0:0,0:0:0:0:
115,293,288639,5,0,0:0:0:0:
98,285,288714,2,0,P|92:248|81:214,2,65,10|0|0,2:2|0:0|0:0,0:0:0:0:
264,3,288864,2,0,P|256:86|254:139,1,130
295,365,289014,5,6,3:2:0:0:
369,382,289089,1,0,0:0:0:0:
438,348,289164,1,2,2:2:0:0:
470,277,289239,1,0,0:0:0:0:
443,206,289314,1,10,3:2:0:0:
376,170,289389,1,0,0:0:0:0:
297,186,289464,6,0,P|247:160|238:91,1,130,2|0,2:2|0:0,0:0:0:0:
390,36,289614,1,0,3:3:0:0:
410,41,289689,1,0,0:0:0:0:
424,32,289764,2,0,P|472:70|458:131,1,130,2|0,2:2|0:0,0:0:0:0:
24,47,289914,6,0,L|171:88,1,130,8|0,3:2|0:0,0:0:0:0:
301,284,290064,2,0,P|310:319|311:357,2,65,2|0|0,2:2|0:0|0:0,0:0:0:0:
376,170,290214,6,0,P|268:159|235:307,1,260,0|2,3:3|2:2,0:0:0:0:
242,381,290439,1,0,0:0:0:0:
238,365,290514,2,0,P|179:348|103:323,1,130,10|0,3:2|0:0,0:0:0:0:
55,187,290664,6,0,P|116:196|140:253,1,130,2|0,2:2|0:0,0:0:0:0:
475,333,290814,2,0,P|413:325|389:268,1,130,0|0,3:3|0:0,0:0:0:0:
264,125,290964,5,2,2:2:0:0:
45,383,291114,6,0,P|33:318|14:257,1,130,10|0,3:2|0:0,0:0:0:0:
475,95,291264,2,0,P|455:156|444:220,1,130,2|0,2:2|0:0,0:0:0:0:
183,97,291414,5,2,3:2:0:0:
193,88,291489,2,0,P|188:42|104:13,1,130
309,270,291639,5,2,2:2:0:0:
298,279,291714,2,0,P|302:324|386:353,1,130,8|0,3:2|0:0,0:0:0:0:
512,269,291864,5,2,2:2:0:0:
512,256,291939,2,0,P|447:262|384:276,1,130,0|0,0:0|3:3,0:0:0:0:
0,110,292089,5,2,2:2:0:0:
0,127,292164,2,0,P|63:141|127:147,1,130
433,81,292314,6,0,P|475:59|506:31,2,65,10|0|0,3:2|0:0|0:0,0:0:0:0:
80,383,292464,1,2,2:2:0:0:
67,376,292539,1,0,0:0:0:0:
49,379,292614,2,0,P|63:273|203:253,1,260,2|2,3:2|2:2,0:0:0:0:
328,262,292839,5,2,2:2:0:0:
340,250,292914,2,0,P|355:314|327:378,1,130,10|0,3:2|0:0,0:0:0:0:
171,352,293064,2,0,P|158:289|185:231,1,130,2|2,2:2|2:2,0:0:0:0:
493,293,293214,6,0,P|402:274|364:124,1,260,2|2,3:2|2:2,0:0:0:0:
453,108,293439,1,2,2:2:0:0:
466,103,293514,2,0,P|510:123|507:204,1,130,10|0,3:2|0:0,0:0:0:0:
255,351,293664,6,0,L|250:392,4,32.5,2|0|0|0|0,2:2|0:0|0:0|0:0|0:0,0:0:0:0:
289,1,293814,2,0,P|227:9|192:62,1,130,6|0,3:2|0:0,0:0:0:0:
27,105,293964,5,0,0:0:0:0:
31,87,294039,1,0,0:0:0:0:
36,70,294114,2,0,L|164:90,1,130,10|2,3:2|2:2,0:0:0:0:
459,355,294264,2,0,L|330:334,1,130,2|0,2:2|0:0,0:0:0:0:
148,384,294414,6,0,L|168:255,1,130,2|0,3:2|0:0,0:0:0:0:
375,30,294564,2,0,L|354:158,1,130,2|0,2:2|0:0,0:0:0:0:
11,195,294714,6,0,L|139:174,1,130,10|0,3:2|0:0,0:0:0:0:
495,228,294864,2,0,L|366:248,1,130,2|0,2:2|0:0,0:0:0:0:
49,302,295014,5,6,3:2:0:0:
64,316,295089,2,0,P|127:304|168:255,1,130
473,111,295239,5,2,2:2:0:0:
457,97,295314,2,0,P|394:109|353:158,1,130,8|0,3:2|0:0,0:0:0:0:
267,371,295464,5,2,2:2:0:0:
266,360,295539,1,0,0:0:0:0:
264,348,295614,2,0,P|265:220|278:88,1,260,2|0,3:2|0:0,0:0:0:0:
89,162,295839,5,2,2:2:0:0:
100,172,295914,2,0,P|96:204|91:236,2,65,8|0|0,3:2|0:0|0:0,0:0:0:0:
434,273,296064,2,0,P|429:240|425:208,2,65,2|0|0,2:2|0:0|0:0,0:0:0:0:
216,43,296214,5,6,3:2:0:0:
200,55,296289,1,0,0:0:0:0:
201,79,296364,2,0,P|131:77|106:10,1,130,2|2,2:2|2:2,0:0:0:0:
336,40,296514,6,0,P|392:65|391:126,1,130,10|0,2:2|0:0,0:0:0:0:
252,343,296664,2,0,P|252:279|248:214,1,130,2|0,2:2|0:0,0:0:0:0:
0,0,296814,6,0,L|126:27,1,130,2|0,3:2|0:0,0:0:0:0:
484,110,296964,2,0,P|407:101|352:254,1,260,0|8,0:0|2:2,0:0:0:0:
114,185,297189,5,0,0:0:0:0:
114,167,297264,2,0,L|240:195,1,130,2|0,2:2|0:0,0:0:0:0:
512,259,297414,1,6,3:2:0:0:
256,192,297489,12,0,299739,0:0:0:0:
25,77,299814,5,0,3:3:0:0:
14,91,299889,1,0,3:3:0:0:
13,112,299964,1,0,3:3:0:0:
31,130,300039,1,0,3:3:0:0:
67,134,300114,1,0,3:3:0:0:
92,115,300189,1,0,3:3:0:0:
107,70,300264,1,0,3:3:0:0:
135,47,300339,1,0,3:3:0:0:
179,50,300414,1,0,3:3:0:0:
204,89,300489,1,0,3:3:0:0:
179,139,300564,1,0,3:3:0:0:
144,168,300639,1,0,3:3:0:0:
130,227,300714,1,0,3:3:0:0:
154,289,300789,1,0,3:3:0:0:
220,314,300864,1,0,3:3:0:0:
283,281,300939,1,0,3:3:0:0:
305,210,301014,1,0,3:3:0:0:
278,141,301089,1,0,3:3:0:0:
299,74,301164,1,0,3:3:0:0:
365,75,301239,1,0,3:3:0:0:
396,123,301314,1,0,3:3:0:0:
388,174,301389,1,0,3:3:0:0:
428,205,301464,1,0,3:3:0:0:
470,184,301539,1,0,3:3:0:0:
487,112,301614,6,0,L|494:63,1,48.7500000000001,2|0,3:2|0:0,0:0:0:0:
478,86,301764,2,0,L|482:53,1,32.5
506,70,301914,6,0,L|510:37,1,32.5
139,164,302214,5,6,2:2:0:0:
