osu file format v14

[General]
AudioFilename: audio.mp3
AudioLeadIn: 0
PreviewTime: 84151
Countdown: 0
SampleSet: Normal
StackLeniency: 0.7
Mode: 1
LetterboxInBreaks: 0
WidescreenStoryboard: 1

[Editor]
Bookmarks: 2626,7426,12226,17026,21826,26626,31426,36226,41026,45826,55426,55726,65026,69826,74626,79426,84226,93826,94126,99226,99826,100426,101026,103426,108226,113026,122926,123226,123526,123826,124726,132226,139426
DistanceSpacing: 1
BeatDivisor: 16
GridSize: 32
TimelineZoom: 0.8999999

[Metadata]
Title:Symmetric
TitleUnicode:Symmetric
Artist:ISOMERZ (DJ Raisei + seatrus)
ArtistUnicode:ISOMERZ (DJ Raisei + seatrus)
Creator:sendol
Version:Kantan
Source:
Tags:ILOVEMARISA 200step frontier jcore j-core hardcore psystyle electronic instrumental fa featured artist
BeatmapID:3298605
BeatmapSetID:1612240

[Difficulty]
HPDrainRate:8
CircleSize:3
OverallDifficulty:3
ApproachRate:9
SliderMultiplier:1.4
SliderTickRate:1

[Events]
//Background and Video events
0,0,"symmetric.jpg",0,0
//Break Periods
2,65226,74026
//Storyboard Layer 0 (Background)
//Storyboard Layer 1 (Fail)
//Storyboard Layer 2 (Pass)
//Storyboard Layer 3 (Foreground)
//Storyboard Layer 4 (Overlay)
//Storyboard Sound Samples

[TimingPoints]
226,300,4,1,0,15,1,0
226,-111.111111111111,4,1,0,15,0,0
1107,-111.111111111111,4,1,0,18,0,0
1182,-111.111111111111,4,1,0,21,0,0
1257,-111.111111111111,4,1,0,24,0,0
1332,-111.111111111111,4,1,0,27,0,0
1407,-111.111111111111,4,1,0,30,0,0
1482,-111.111111111111,4,1,0,32,0,0
1557,-111.111111111111,4,1,0,33,0,0
1632,-111.111111111111,4,1,0,35,0,0
1707,-111.111111111111,4,1,0,37,0,0
1782,-111.111111111111,4,1,0,38,0,0
1857,-111.111111111111,4,1,0,40,0,0
1932,-111.111111111111,4,1,0,42,0,0
2007,-111.111111111111,4,1,0,43,0,0
2082,-111.111111111111,4,1,0,45,0,0
2157,-111.111111111111,4,1,0,47,0,0
2232,-111.111111111111,4,1,0,48,0,0
2307,-111.111111111111,4,1,0,50,0,0
2607,-111.111111111111,4,1,0,30,0,0
2626,300,4,1,0,30,1,0
2626,-111.111111111111,4,1,0,30,0,0
9807,-111.111111111111,4,1,0,40,0,0
10107,-111.111111111111,4,1,0,48,0,0
10407,-111.111111111111,4,1,0,55,0,0
10707,-111.111111111111,4,1,0,63,0,0
11007,-111.111111111111,4,1,0,70,0,0
11307,-111.111111111111,4,1,0,79,0,0
11607,-111.111111111111,4,1,0,87,0,0
12226,-111.111111111111,4,1,0,100,0,0
14176,-111.111111111111,4,1,0,100,0,0
14626,-111.111111111111,4,1,0,100,0,0
16726,-111.111111111111,4,1,0,100,0,0
17007,-111.111111111111,4,1,0,90,0,0
19407,-111.111111111111,4,1,0,90,0,0
19557,-111.111111111111,4,1,0,91,0,0
19707,-111.111111111111,4,1,0,93,0,0
20007,-111.111111111111,4,1,0,95,0,0
20157,-111.111111111111,4,1,0,97,0,0
20307,-111.111111111111,4,1,0,98,0,0
20598,-111.111111111111,4,1,0,100,0,0
21507,-111.111111111111,4,1,0,100,0,0
21807,-111.111111111111,4,1,0,100,0,0
22107,-111.111111111111,4,1,0,100,0,0
26626,-111.111111111111,4,1,0,100,0,0
31407,-111.111111111111,4,1,0,100,0,0
32082,-111.111111111111,4,1,0,80,0,0
33507,-111.111111111111,4,1,0,100,0,0
33807,-111.111111111111,4,1,0,100,0,0
34107,-111.111111111111,4,1,0,100,0,0
36207,-111.111111111111,4,1,0,100,0,0
36507,-111.111111111111,4,1,0,100,0,0
38607,-111.111111111111,4,1,0,100,0,0
39807,-111.111111111111,4,1,0,100,0,0
41007,-111.111111111111,4,1,0,100,0,0
41176,-111.111111111111,4,1,0,70,0,0
43182,-111.111111111111,4,1,0,100,0,0
43576,-111.111111111111,4,1,0,70,0,0
44607,-111.111111111111,4,1,0,90,0,0
45807,-111.111111111111,4,1,0,100,0,0
51057,-111.111111111111,4,1,0,100,0,0
54151,-111.111111111111,4,1,0,100,0,0
55426,-111.111111111111,4,1,0,100,0,0
55726,-111.111111111111,4,1,0,100,0,0
62382,-111.111111111111,4,1,0,100,0,0
62607,-111.111111111111,4,1,0,100,0,0
64126,-111.111111111111,4,1,0,100,0,0
65007,-111.111111111111,4,1,0,100,0,0
65176,-111.111111111111,4,1,0,60,0,0
73407,-111.111111111111,4,1,0,90,0,0
73707,-111.111111111111,4,1,0,70,0,0
73857,-111.111111111111,4,1,0,74,0,0
74007,-111.111111111111,4,1,0,78,0,0
74082,-111.111111111111,4,1,0,80,0,0
74157,-111.111111111111,4,1,0,82,0,0
74307,-111.111111111111,4,1,0,86,0,0
74625,-111.111111111111,4,1,0,100,0,0
76575,-111.111111111111,4,1,0,100,0,0
77007,-111.111111111111,4,1,0,100,0,0
78957,-111.111111111111,4,1,0,100,0,0
79032,-111.111111111111,4,1,0,100,0,0
79107,-111.111111111111,4,1,0,100,0,0
79257,-111.111111111111,4,1,0,100,0,0
79407,-111.111111111111,4,1,0,80,0,0
79557,-111.111111111111,4,1,0,82,0,0
80007,-111.111111111111,4,1,0,87,0,0
80157,-111.111111111111,4,1,0,88,0,0
80607,-111.111111111111,4,1,0,93,0,0
80757,-111.111111111111,4,1,0,95,0,0
81207,-111.111111111111,4,1,0,100,0,0
81807,-111.111111111111,4,1,0,100,0,0
83007,-111.111111111111,4,1,0,100,0,0
83926,-111.111111111111,4,1,0,100,0,0
84226,-111.111111111111,4,1,0,100,0,1
92607,-111.111111111111,4,1,0,100,0,1
93376,-111.111111111111,4,1,0,100,0,1
93826,-111.111111111111,4,1,0,100,0,0
94126,-111.111111111111,4,1,0,100,0,1
94276,-111.111111111111,4,1,0,100,0,1
98607,-111.111111111111,4,1,0,100,0,1
99207,-111.111111111111,4,1,0,100,0,1
99226,-111.111111111111,4,1,0,100,0,0
99807,-111.111111111111,4,1,0,100,0,0
99826,-111.111111111111,4,1,0,100,0,1
100426,-111.111111111111,4,1,0,100,0,0
100557,-111.111111111111,4,1,0,100,0,0
101007,-111.111111111111,4,1,0,100,0,0
101026,-111.111111111111,4,1,0,100,0,1
101082,-111.111111111111,4,1,0,100,0,1
101157,-111.111111111111,4,1,0,100,0,1
101307,-111.111111111111,4,1,0,100,0,1
101607,-111.111111111111,4,1,0,100,0,1
101682,-111.111111111111,4,1,0,100,0,1
101757,-111.111111111111,4,1,0,100,0,1
101907,-111.111111111111,4,1,0,100,0,1
102207,-111.111111111111,4,1,0,100,0,1
103407,-111.111111111111,4,1,0,100,0,1
103426,-111.111111111111,4,1,0,100,0,0
103857,-111.111111111111,4,1,0,98,0,0
104607,-111.111111111111,4,1,0,95,0,0
105057,-111.111111111111,4,1,0,93,0,0
105507,-111.111111111111,4,1,0,91,0,0
105807,-111.111111111111,4,1,0,90,0,0
106257,-111.111111111111,4,1,0,88,0,0
107007,-111.111111111111,4,1,0,85,0,0
107457,-111.111111111111,4,1,0,83,0,0
107757,-111.111111111111,4,1,0,81,0,0
107907,-111.111111111111,4,1,0,81,0,0
108217,-111.111111111111,4,1,0,90,0,0
109407,-111.111111111111,4,1,0,90,0,0
110607,-111.111111111111,4,1,0,100,0,0
111807,-111.111111111111,4,1,0,100,0,0
112707,-111.111111111111,4,1,0,100,0,0
113007,-111.111111111111,4,1,0,100,0,0
113307,-111.111111111111,4,1,0,100,0,0
117807,-111.111111111111,4,1,0,100,0,0
121107,-111.111111111111,4,1,0,100,0,0
122607,-111.111111111111,4,1,0,100,0,0
123207,-111.111111111111,4,1,0,100,0,0
123807,-111.111111111111,4,1,0,100,0,0
124707,-111.111111111111,4,1,0,100,0,0
125007,-111.111111111111,4,1,0,100,0,0
126207,-111.111111111111,4,1,0,100,0,0
127407,-111.111111111111,4,1,0,100,0,0
127707,-111.111111111111,4,1,0,100,0,0
129807,-111.111111111111,4,1,0,100,0,0
130032,-111.111111111111,4,1,0,100,0,0
130257,-111.111111111111,4,1,0,100,0,0
130407,-111.111111111111,4,1,0,100,0,0
130632,-111.111111111111,4,1,0,100,0,0
130857,-111.111111111111,4,1,0,100,0,0
131007,-111.111111111111,4,1,0,100,0,0
131607,-111.111111111111,4,1,0,100,0,0
132207,-111.111111111111,4,1,0,100,0,0

[Colours]
Combo1 : 221,108,159
Combo2 : 170,181,191
Combo3 : 255,26,26
Combo4 : 115,141,174
Combo5 : 241,86,86
Combo6 : 255,99,23
Combo7 : 250,58,125
Combo8 : 251,183,142

[HitObjects]
256,192,1126,12,0,2326,0:0:0:0:
96,200,2626,5,8,0:0:0:0:
96,200,7426,1,8,0:0:0:0:
204,225,11026,1,0,0:0:0:0:
204,225,11626,1,8,0:0:0:0:
280,208,12226,1,4,0:0:0:0:
234,225,12676,1,4,0:0:0:0:
227,216,13426,1,4,0:0:0:0:
227,216,13876,1,4,0:0:0:0:
227,216,14626,1,4,0:0:0:0:
227,216,15076,1,4,0:0:0:0:
227,216,15826,1,4,0:0:0:0:
227,216,16276,1,4,0:0:0:0:
265,185,16576,1,4,0:0:0:0:
299,212,17026,1,0,0:0:0:0:
299,212,17326,1,0,0:0:0:0:
299,212,17626,1,0,0:0:0:0:
299,212,18226,1,8,0:0:0:0:
299,212,18526,1,8,0:0:0:0:
299,212,18826,1,8,0:0:0:0:
299,212,19426,1,0,0:0:0:0:
199,249,19726,1,0,0:0:0:0:
299,212,20026,1,8,0:0:0:0:
199,249,20326,1,8,0:0:0:0:
199,249,20626,1,4,0:0:0:0:
199,249,21526,1,8,0:0:0:0:
266,230,21826,1,4,0:0:0:0:
253,229,22426,1,8,0:0:0:0:
253,229,23176,1,0,0:0:0:0:
253,229,23626,1,8,0:0:0:0:
253,229,24226,1,0,0:0:0:0:
253,229,24826,1,8,0:0:0:0:
253,229,25276,1,0,0:0:0:0:
253,229,26026,1,8,0:0:0:0:
259,219,26626,1,0,0:0:0:0:
259,219,27526,1,8,0:0:0:0:
172,217,27826,1,0,0:0:0:0:
259,219,28426,1,8,0:0:0:0:
265,210,29026,1,0,0:0:0:0:
265,210,29626,1,0,0:0:0:0:
277,210,30226,1,0,0:0:0:0:
277,210,31126,1,8,0:0:0:0:
277,210,31426,1,4,0:0:0:0:
277,210,32026,1,0,0:0:0:0:
277,209,33526,1,8,0:0:0:0:
277,209,33826,1,4,0:0:0:0:
277,209,34426,1,8,0:0:0:0:
277,209,34876,1,0,0:0:0:0:
277,209,35626,1,8,0:0:0:0:
213,181,36226,1,0,0:0:0:0:
213,181,36826,1,8,0:0:0:0:
213,181,37576,1,0,0:0:0:0:
213,181,38026,1,8,0:0:0:0:
263,199,38626,1,0,0:0:0:0:
263,186,38926,1,8,0:0:0:0:
263,186,39226,1,8,0:0:0:0:
216,225,39826,2,0,L|262:167,6,62.9999980773926
262,213,41026,1,4,0:0:0:0:
290,210,43201,1,12,0:0:0:0:
258,223,43426,1,4,0:0:0:0:
308,189,44626,1,8,0:0:0:0:
245,248,45526,1,12,0:0:0:0:
265,244,45826,1,4,0:0:0:0:
313,135,46426,1,8,0:0:0:0:
313,135,47026,1,8,0:0:0:0:
313,135,47326,1,8,0:0:0:0:
313,135,47626,1,8,0:0:0:0:
313,135,48226,1,8,0:0:0:0:
313,135,48826,1,8,0:0:0:0:
313,135,49426,1,8,0:0:0:0:
320,207,50926,1,12,0:0:0:0:
320,207,51526,1,8,0:0:0:0:
320,207,51826,1,8,0:0:0:0:
320,207,52426,1,8,0:0:0:0:
320,207,53026,1,8,0:0:0:0:
320,207,53626,1,8,0:0:0:0:
162,173,54226,1,0,0:0:0:0:
162,173,55126,1,8,0:0:0:0:
211,189,55726,1,12,0:0:0:0:
211,189,56026,1,0,0:0:0:0:
211,189,56626,1,0,0:0:0:0:
211,189,56926,1,0,0:0:0:0:
211,189,57226,1,0,0:0:0:0:
211,189,57826,1,0,0:0:0:0:
211,189,58426,1,0,0:0:0:0:
211,189,59026,1,0,0:0:0:0:
202,170,59626,1,0,0:0:0:0:
294,187,60526,1,12,0:0:0:0:
246,186,60826,1,0,0:0:0:0:
246,186,61426,1,0,0:0:0:0:
310,193,61726,1,12,0:0:0:0:
258,178,62626,1,0,0:0:0:0:
258,178,63826,1,0,0:0:0:0:
310,153,64726,1,8,0:0:0:0:
237,206,65026,1,4,0:0:0:0:
247,177,74626,5,4,0:0:0:0:
247,177,75076,1,4,0:0:0:0:
274,213,75826,1,4,0:0:0:0:
272,224,76276,1,4,0:0:0:0:
260,198,77026,1,4,0:0:0:0:
260,198,77476,1,4,0:0:0:0:
225,211,78226,1,4,0:0:0:0:
225,211,78676,1,4,0:0:0:0:
220,176,78976,1,4,0:0:0:0:
211,178,79426,1,0,0:0:0:0:
211,178,80026,1,0,0:0:0:0:
211,178,80626,1,0,0:0:0:0:
211,178,81826,1,0,0:0:0:0:
211,178,82126,1,0,0:0:0:0:
211,178,82426,1,8,0:0:0:0:
211,178,82726,1,8,0:0:0:0:
211,178,83026,1,0,0:0:0:0:
211,178,83926,1,12,0:0:0:0:
210,194,84226,5,0,0:0:0:0:
231,192,84526,1,8,0:0:0:0:
231,192,85126,1,0,0:0:0:0:
231,192,85426,1,0,0:0:0:0:
231,192,85726,1,8,0:0:0:0:
231,192,86326,1,8,0:0:0:0:
231,192,86626,1,0,0:0:0:0:
231,192,87226,1,0,0:0:0:0:
231,192,87826,1,8,0:0:0:0:
231,192,89026,1,8,0:0:0:0:
256,119,89626,1,8,0:0:0:0:
256,119,89926,1,0,0:0:0:0:
256,119,90226,1,8,0:0:0:0:
256,119,90826,1,8,0:0:0:0:
256,119,91126,1,8,0:0:0:0:
256,119,91426,1,0,0:0:0:0:
256,119,92026,1,0,0:0:0:0:
236,147,92626,1,12,0:0:0:0:
266,160,93076,1,12,0:0:0:0:
256,155,94126,1,12,0:0:0:0:
204,190,94726,1,0,0:0:0:0:
204,190,95026,1,0,0:0:0:0:
204,190,95326,1,8,0:0:0:0:
204,190,95926,1,8,0:0:0:0:
204,190,96226,1,0,0:0:0:0:
204,190,96826,1,0,0:0:0:0:
204,190,97426,1,8,0:0:0:0:
173,186,97726,1,8,0:0:0:0:
173,186,98026,1,0,0:0:0:0:
166,171,98626,1,0,0:0:0:0:
166,171,98926,1,0,0:0:0:0:
166,171,99826,1,8,0:0:0:0:
166,171,100126,1,8,0:0:0:0:
226,213,101026,1,8,0:0:0:0:
226,213,101326,1,0,0:0:0:0:
226,213,101626,1,8,0:0:0:0:
226,213,102226,1,0,0:0:0:0:
226,213,102676,1,0,0:0:0:0:
226,213,103126,1,8,0:0:0:0:
245,210,103426,1,4,0:0:0:0:
245,209,103876,1,4,0:0:0:0:
245,209,104626,1,4,0:0:0:0:
245,209,105076,1,4,0:0:0:0:
245,209,105826,1,4,0:0:0:0:
245,209,106276,1,4,0:0:0:0:
245,209,107026,1,4,0:0:0:0:
245,209,107476,1,4,0:0:0:0:
245,209,107776,1,4,0:0:0:0:
245,209,108226,1,0,0:0:0:0:
245,209,109126,1,8,0:0:0:0:
245,209,109426,1,0,0:0:0:0:
249,198,110026,1,0,0:0:0:0:
249,198,110626,1,8,0:0:0:0:
227,148,110926,1,0,0:0:0:0:
227,148,111226,1,8,0:0:0:0:
227,148,111526,1,8,0:0:0:0:
216,163,111826,1,4,0:0:0:0:
216,163,112726,1,8,0:0:0:0:
216,163,113026,1,4,0:0:0:0:
216,163,113626,1,8,0:0:0:0:
216,163,114226,1,0,0:0:0:0:
216,163,114526,1,0,0:0:0:0:
216,163,114826,1,8,0:0:0:0:
216,163,115426,1,0,0:0:0:0:
216,163,116026,1,8,0:0:0:0:
216,163,116326,1,8,0:0:0:0:
216,163,116626,1,0,0:0:0:0:
216,163,117526,1,8,0:0:0:0:
216,163,118126,1,0,0:0:0:0:
225,191,118426,1,0,0:0:0:0:
225,191,119026,1,0,0:0:0:0:
225,191,119326,1,8,0:0:0:0:
225,191,119626,1,0,0:0:0:0:
225,191,120226,1,0,0:0:0:0:
225,191,120826,1,0,0:0:0:0:
85,164,121426,1,0,0:0:0:0:
85,164,122326,1,8,0:0:0:0:
145,183,122626,1,4,0:0:0:0:
152,251,123226,1,4,0:0:0:0:
158,244,123826,1,0,0:0:0:0:
158,244,124726,1,8,0:0:0:0:
158,244,125026,1,0,0:0:0:0:
158,244,125626,1,0,0:0:0:0:
69,207,126226,1,8,0:0:0:0:
69,207,126826,1,8,0:0:0:0:
69,207,127126,1,8,0:0:0:0:
140,221,127426,1,4,0:0:0:0:
140,221,128026,1,8,0:0:0:0:
140,221,128326,1,8,0:0:0:0:
140,221,129226,1,8,0:0:0:0:
140,221,129826,1,8,0:0:0:0:
140,221,130426,1,8,0:0:0:0:
91,227,131026,2,0,L|121:170,6,62.9999980773926
136,219,132226,1,4,0:0:0:0:
