osu file format v14

[General]
AudioFilename: audio.mp3
AudioLeadIn: 0
PreviewTime: 84151
Countdown: 0
SampleSet: Soft
StackLeniency: 0.7
Mode: 0
LetterboxInBreaks: 0
WidescreenStoryboard: 1

[Editor]
Bookmarks: 2626,7426,12226,17026,21826,26626,31426,36226,41026,45826,55426,55726,65026,69826,74626,79426,84226,93826,94126,99226,99826,100426,101026,103426,108226,113026,122926,123226,123526,123826,124726,132226,139426
DistanceSpacing: 1
BeatDivisor: 4
GridSize: 32
TimelineZoom: 1.6

[Metadata]
Title:Symmetric
TitleUnicode:Symmetric
Artist:ISOMERZ (DJ Raisei + seatrus)
ArtistUnicode:ISOMERZ (DJ Raisei + seatrus)
Creator:Realazy
Version:Normal
Source:
Tags:Ayyri eiri- BOUYAAA captin1 toybot vikala Ishtiaq Sing Amateurre Dailycare 200step j-core hardcore psystyle electronic instrumental fa featured artist
BeatmapID:3248877
BeatmapSetID:1381824

[Difficulty]
HPDrainRate:4
CircleSize:3
OverallDifficulty:5
ApproachRate:6
SliderMultiplier:1.1
SliderTickRate:1

[Events]
//Background and Video events
0,0,"symmetric.jpg",0,0
//Break Periods
2,65226,73576
//Storyboard Layer 0 (Background)
//Storyboard Layer 1 (Fail)
//Storyboard Layer 2 (Pass)
//Storyboard Layer 3 (Foreground)
//Storyboard Layer 4 (Overlay)
//Storyboard Sound Samples

[TimingPoints]
2626,300,4,2,1,40,1,0
2626,-117.647058823529,4,2,1,40,0,0
7426,-117.647058823529,4,2,1,40,0,0
9826,-105.263157894737,4,2,1,50,0,0
10126,-105.263157894737,4,2,1,55,0,0
10426,-105.263157894737,4,2,1,60,0,0
10726,-105.263157894737,4,2,1,65,0,0
11026,-103.092783505155,4,2,11,70,0,0
12226,-100,4,2,1,90,0,0
15526,-100,4,2,11,90,0,0
15826,-100,4,2,1,90,0,0
20626,-111.111111111111,4,2,1,90,0,0
21451,-111.111111111111,4,2,1,5,0,0
21526,-111.111111111111,4,2,1,90,0,0
21751,-111.111111111111,4,2,1,5,0,0
21826,-100,4,2,1,90,0,0
26551,-100,4,2,1,5,0,0
26626,-100,4,2,1,90,0,0
30376,-100,4,2,1,5,0,0
30451,-100,4,2,1,90,0,0
30601,-100,4,2,1,5,0,0
30676,-100,4,2,1,90,0,0
30826,-100,4,2,1,5,0,0
30901,-100,4,2,1,90,0,0
31051,-100,4,2,1,5,0,0
31126,-100,4,2,1,90,0,0
31651,-100,4,2,1,5,0,0
31726,-100,4,2,1,90,0,0
32176,-100,4,2,11,90,0,0
33526,-100,4,2,1,90,0,0
33751,-100,4,2,1,5,0,0
33826,-100,4,2,1,90,0,0
36151,-100,4,2,1,5,0,0
36226,-100,4,2,1,90,0,0
38551,-100,4,2,1,5,0,0
38626,-100,4,2,2,90,0,0
39826,-100,4,2,1,90,0,0
41176,-100,4,2,11,80,0,0
43126,-100,4,2,1,80,0,0
43726,-100,4,2,11,80,0,0
45526,-100,4,2,1,90,0,0
45826,-100,4,2,3,100,0,1
53101,-100,4,2,3,5,0,1
53176,-100,4,2,3,100,0,1
53326,-100,4,2,3,5,0,1
53401,-100,4,2,3,100,0,1
53551,-100,4,2,3,5,0,1
53626,-100,4,2,3,100,0,1
53776,-100,4,2,3,5,0,1
53851,-100,4,2,3,100,0,1
54001,-100,4,2,3,5,0,1
54076,-100,4,2,3,100,0,1
54226,-100,4,2,3,90,0,1
55126,-100,4,2,1,90,0,1
55426,-100,4,2,1,90,0,0
55651,-100,4,2,1,5,0,0
55726,-100,4,2,3,100,0,1
59176,-100,4,2,3,5,0,1
59251,-100,4,2,3,100,0,1
59401,-100,4,2,3,5,0,1
59476,-100,4,2,3,100,0,1
62363,-100,4,2,3,5,0,1
62401,-100,4,2,3,100,0,1
62551,-100,4,2,3,5,0,1
62626,-100,4,2,3,100,0,1
62776,-100,4,2,3,5,0,1
62851,-100,4,2,3,100,0,1
63001,-100,4,2,3,5,0,1
63076,-100,4,2,3,100,0,1
63226,-100,4,2,3,5,0,1
63301,-100,4,2,3,100,0,1
63451,-100,4,2,3,5,0,1
63526,-100,4,2,3,100,0,1
63826,-100,4,2,3,80,0,1
64726,-100,4,2,3,80,0,1
65026,-100,4,2,1,90,0,0
73426,-100,4,2,11,90,0,0
74626,-100,4,2,1,90,0,0
77926,-100,4,2,11,90,0,0
78226,-100,4,2,1,90,0,0
84226,-90.9090909090909,4,2,4,100,0,1
93826,-90.9090909090909,4,2,4,100,0,0
94126,-90.9090909090909,4,2,4,100,0,1
98626,-90.9090909090909,4,2,2,90,0,1
99226,-90.9090909090909,4,2,2,100,0,0
99826,-90.9090909090909,4,2,2,90,0,1
100426,-90.9090909090909,4,2,2,100,0,0
101026,-90.9090909090909,4,2,4,100,0,1
102376,-90.9090909090909,4,2,4,5,0,1
102451,-90.9090909090909,4,2,4,100,0,1
102601,-90.9090909090909,4,2,4,5,0,1
102676,-90.9090909090909,4,2,4,100,0,1
102826,-90.9090909090909,4,2,4,5,0,1
102901,-90.9090909090909,4,2,4,100,0,1
103051,-90.9090909090909,4,2,4,5,0,1
103126,-90.9090909090909,4,2,4,100,0,1
103426,-100,4,2,1,90,0,0
107251,-100,4,2,1,5,0,0
107326,-100,4,2,1,90,0,0
107926,-100,4,2,11,90,0,0
108226,-100,4,2,1,90,0,0
112126,-111.111111111111,4,2,1,90,0,0
112951,-111.111111111111,4,2,1,5,0,0
113026,-100,4,2,4,100,0,1
113326,-100,4,2,4,90,0,1
113626,-100,4,2,4,100,0,1
117751,-100,4,2,4,5,0,1
117826,-100,4,2,4,100,0,1
121576,-100,4,2,4,5,0,1
121651,-100,4,2,4,100,0,1
121801,-100,4,2,4,5,0,1
121876,-100,4,2,4,100,0,1
122026,-100,4,2,4,5,0,1
122101,-100,4,2,4,100,0,1
122251,-100,4,2,4,5,0,1
122326,-100,4,2,4,100,0,1
122626,-100,4,2,1,90,0,1
122851,-100,4,2,1,5,0,1
122926,-100,4,2,1,90,0,0
123226,-100,4,2,1,90,0,1
123451,-100,4,2,1,5,0,1
123526,-100,4,2,1,90,0,0
123638,-100,4,2,1,5,0,0
123676,-100,4,2,1,90,0,0
123826,-100,4,2,1,90,0,1
123976,-100,4,2,1,5,0,1
124051,-100,4,2,1,90,0,1
124201,-100,4,2,1,5,0,1
124276,-100,4,2,1,85,0,1
124426,-100,4,2,1,5,0,1
124501,-100,4,2,1,80,0,1
124651,-100,4,2,1,5,0,1
124726,-100,4,2,1,100,0,0
125026,-100,4,2,3,100,0,1
127126,-100,4,2,1,100,0,1
129001,-100,4,2,1,5,0,1
129076,-100,4,2,1,100,0,1
129751,-100,4,2,1,5,0,1
129826,-100,4,2,1,100,0,1
129976,-100,4,2,1,5,0,1
130051,-100,4,2,1,100,0,1
130201,-100,4,2,1,5,0,1
130276,-100,4,2,1,100,0,1
130351,-100,4,2,1,5,0,1
130426,-100,4,2,1,100,0,1
130576,-100,4,2,1,5,0,1
130651,-100,4,2,1,100,0,1
130801,-100,4,2,1,5,0,1
130876,-100,4,2,1,100,0,1
132226,-100,4,2,1,100,0,0
132301,-100,4,2,1,100,0,0
137101,-100,4,2,1,100,0,0
137626,-100,4,2,1,100,0,0
138226,-100,4,2,1,100,0,0
138826,-100,4,2,1,100,0,0
139426,-100,4,2,1,5,0,0

[Colours]
Combo1 : 221,108,159
Combo2 : 170,181,191
Combo3 : 255,26,26
Combo4 : 115,141,174
Combo5 : 241,86,86
Combo6 : 255,99,23
Combo7 : 250,58,125
Combo8 : 251,183,142

[HitObjects]
102,365,2626,6,0,P|94:271|76:180,1,187.000003566742,2|0,0:0|0:0,0:0:0:0:
20,105,3526,1,2,0:0:0:0:
88,40,3826,2,0,B|192:64|150:96|254:120,1,187.000003566742,2|2,0:0|0:0,0:0:0:0:
412,20,5026,22,0,P|431:112|455:202,1,187.000003566742,2|0,0:0|0:0,0:0:0:0:
395,274,5926,1,2,0:0:0:0:
315,224,6226,2,0,P|229:218|209:302,1,187.000003566742,2|2,0:0|0:0,0:0:0:0:
387,358,7426,86,0,P|402:265|417:173,1,187.000003566742,2|0,0:0|0:0,0:0:0:0:
479,103,8326,1,2,0:0:0:0:
405,44,8626,2,0,P|312:60|220:76,2,187.000003566742,2|2|2,0:0|0:0|0:0,0:0:0:0:
481,115,10126,1,0,0:0:0:0:
478,219,10426,1,0,0:0:0:0:
400,289,10726,1,2,0:0:0:0:
300,251,11026,54,0,L|284:192,2,53.3500012617874,2|0|8,3:0|1:0|0:0,0:0:0:0:
226,328,11626,2,0,L|173:316,1,53.3500012617874,2|10,1:2|0:0,0:0:0:0:
128,344,11926,2,0,L|75:332,1,53.3500012617874,2|10,1:2|0:0,0:0:0:0:
25,355,12226,70,2,L|1:175,1,165,6|4,1:0|1:0,1:0:0:0:
268,263,13426,2,0,L|253:153,1,110,4|0,1:0|0:0,0:0:0:0:
243,99,13876,1,4,1:0:0:0:
92,32,14326,1,2,0:1:0:0:
22,117,14626,102,2,P|87:162|92:242,1,165,6|6,1:0|1:0,1:0:0:0:
217,349,15526,1,8,0:0:0:0:
315,301,15826,2,0,P|368:299|401:341,1,110,6|0,1:0|3:0,0:0:0:0:
441,379,16276,1,4,1:0:0:0:
500,286,16576,1,2,1:2:0:0:
380,172,17026,86,0,P|373:119|365:62,1,110,6|2,1:2|1:2,0:0:0:0:
266,13,17626,1,2,1:2:0:0:
196,97,17926,1,2,1:2:0:0:
95,53,18226,2,0,P|43:63|27:113,1,110,6|2,1:2|1:2,0:0:0:0:
109,187,18826,1,2,1:2:0:0:
39,272,19126,1,2,1:2:0:0:
256,192,19426,12,4,20626,1:2:0:0:
165,335,21526,53,8,0:0:0:0:
266,379,21826,102,2,B|330:364|330:364|352:322|352:322|456:299,1,220,4|10,1:0|1:0,1:0:0:0:
503,271,22576,1,2,0:0:0:0:
450,181,22876,1,2,0:3:0:0:
450,181,23026,2,0,L|341:201,1,110,2|2,0:3|0:1,0:0:0:0:
259,274,23626,2,2,B|239:254|239:254|156:270,1,110,10|0,1:0|0:0,1:0:0:0:
75,197,24226,117,0,1:0:0:0:
75,197,24376,2,0,L|21:186,2,55,2|2|2,0:1|0:1|0:1,0:0:0:0:
118,162,24826,2,0,P|101:81|88:0,2,165,10|2|2,1:3|1:3|0:0,0:0:0:0:
199,235,26026,1,8,1:0:0:0:
263,146,26326,2,2,L|276:92,1,55,0|0,0:0|0:0,1:0:0:0:
257,41,26626,6,0,L|365:23,1,110,6|0,1:2|1:0,0:0:0:0:
462,75,27226,1,0,1:0:0:0:
385,153,27526,1,2,1:3:0:0:
385,153,27676,1,2,0:0:0:0:
385,153,27826,1,2,1:2:0:0:
474,216,28126,1,2,1:2:0:0:
380,274,28426,2,0,L|327:259,1,55,0|2,1:0|0:3,0:0:0:0:
272,271,28726,2,0,L|257:323,1,55,0|2,1:0|0:3,0:0:0:0:
290,360,29026,38,0,L|397:384,1,110,4|0,1:2|1:0,0:0:0:0:
489,324,29626,2,0,L|473:215,1,110,4|2,1:2|1:2,0:0:0:0:
397,134,30226,53,4,1:0:0:0:
318,107,30451,1,4,1:0:0:0:
239,80,30676,2,0,P|232:40|231:0,2,82.5,4|4|8,1:0|1:0|0:0,0:0:0:0:
149,143,31426,21,2,1:0:0:0:
284,316,32026,1,4,1:0:0:0:
284,316,32176,2,0,P|347:298|361:205,1,165,2|2,0:0|0:3,0:0:0:0:
321,173,32776,2,0,L|266:163,2,55,2|2|0,0:3|1:3|0:0,0:0:0:0:
372,154,33226,1,0,1:0:0:0:
343,47,33526,1,8,0:0:0:0:
262,121,33826,86,2,B|170:108|211:82|107:67,1,165,6|2,1:0|0:0,1:0:0:0:
69,108,34426,2,0,P|32:101|-11:128,2,82.5,8|2|2,1:0|0:1|1:2,0:0:0:0:
92,158,35026,2,0,P|99:213|105:267,1,110,2|2,0:3|0:0,0:0:0:0:
117,376,35626,1,8,1:0:0:0:
225,357,35926,2,0,L|279:349,1,55,2|0,0:1|0:0,0:0:0:0:
322,315,36226,22,2,B|310:236|310:236|295:222|295:222|286:157,1,165,6|2,1:0|0:1,1:0:0:0:
280,103,36826,1,8,1:0:0:0:
361,29,37126,1,2,0:3:0:0:
456,83,37426,1,0,0:0:0:0:
456,83,37576,2,0,P|462:137|468:192,1,110,0|0,1:0|1:0,0:0:0:0:
501,236,38026,1,8,1:0:0:0:
501,236,38176,1,2,1:0:0:0:
348,293,38626,85,0,1:0:0:0:
348,293,38776,2,0,P|353:265|358:238,2,55,0|8|0,1:0|1:2|1:0,0:0:0:0:
385,332,39226,2,0,P|427:334|465:349,2,82.5,8|8|8,1:2|1:2|1:2,0:0:0:0:
256,192,39826,12,4,41026,1:0:0:0:
123,162,42226,54,0,L|176:175,2,55,0|0|8,1:0|1:0|1:2,0:0:0:0:
87,119,42676,2,0,L|33:105,2,55,0|0|8,1:0|1:0|1:2,0:0:0:0:
143,58,43201,2,0,P|182:44|234:37,1,82.5,2|2,1:0|1:0,0:0:0:0:
312,101,43726,2,0,L|320:155,2,55,8|0|0,0:0|1:0|1:0,0:0:0:0:
385,19,44326,1,8,0:0:0:0:
458,100,44626,38,0,L|475:208,2,110,2|10|0,1:3|1:3|1:0,0:0:0:0:
385,19,45526,1,8,1:2:0:0:
312,101,45826,5,4,1:0:0:0:
214,49,46126,1,10,1:0:0:0:
214,49,46276,1,0,0:0:0:0:
214,49,46426,2,0,P|162:31|107:32,2,110,2|10|0,1:0|1:0|1:0,0:0:0:0:
271,143,47326,1,10,1:0:0:0:
271,143,47476,1,0,0:0:0:0:
271,142,47626,2,0,P|232:180|224:234,1,110,2|10,1:0|1:2,0:0:0:0:
263,337,48226,1,0,1:0:0:0:
157,369,48526,53,10,1:0:0:0:
157,369,48676,1,0,0:0:0:0:
157,369,48826,2,0,L|47:354,2,110,2|10|2,1:0|1:0|1:3,0:0:0:0:
260,332,49726,1,10,1:2:0:0:
260,332,49876,1,2,0:0:0:0:
260,332,50026,1,2,1:2:0:0:
362,372,50326,1,10,1:2:0:0:
449,304,50626,1,0,1:0:0:0:
384,214,50926,53,10,1:0:0:0:
384,214,51076,1,0,0:0:0:0:
384,214,51226,2,0,P|385:159|402:107,2,110,2|10|2,1:0|1:0|1:0,0:0:0:0:
313,298,52126,1,10,1:0:0:0:
313,298,52276,1,0,0:0:0:0:
312,298,52426,2,0,P|259:285|205:273,1,110,0|10,1:0|1:0,0:0:0:0:
109,218,53026,53,2,1:0:0:0:
108,218,53176,2,0,P|93:256|87:296,2,82.5,0|0|0,1:0|1:0|1:0,0:0:0:0:
176,170,53851,2,0,P|191:131|197:91,1,82.5,0|0,1:0|1:0,0:0:0:0:
167,44,54226,2,0,P|93:78|11:89,2,165,2|0|8,1:3|1:0|1:0,0:0:0:0:
273,12,55426,69,0,1:0:0:0:
297,119,55726,102,0,P|350:131|404:141,1,110,14|2,1:0|1:0,0:0:0:0:
477,223,56326,2,0,P|481:250|486:277,2,55,10|2|0,1:0|0:1|1:0,0:0:0:0:
502,174,56776,1,2,0:1:0:0:
502,174,56926,1,10,1:0:0:0:
410,113,57226,2,0,P|414:85|419:58,2,55,0|2|10,1:0|0:1|1:2,0:0:0:0:
326,185,57826,53,2,1:2:0:0:
326,185,57976,1,0,1:0:0:0:
325,185,58126,2,0,P|339:238|351:291,1,110,10|2,1:0|1:0,0:0:0:0:
276,372,58726,1,10,1:0:0:0:
174,330,59026,2,0,P|135:316|95:305,2,82.5,2|0|0,1:0|1:0|1:0,0:0:0:0:
220,300,59626,1,0,1:0:0:0:
199,191,59926,1,0,1:0:0:0:
91,169,60226,54,0,B|55:126|55:126|79:77,1,110,0|10,0:0|1:3,0:0:0:0:
163,5,60826,1,2,1:3:0:0:
233,89,61126,1,10,1:2:0:0:
331,39,61426,37,0,1:0:0:0:
433,78,61726,2,0,P|444:132|450:187,1,110,12|0,1:0|1:0,0:0:0:0:
417,231,62176,1,2,0:1:0:0:
266,164,62626,5,2,1:0:0:0:
186,184,62851,1,2,1:0:0:0:
106,205,63076,2,0,L|92:123,2,82.5,2|2|0,1:0|1:0|1:0,0:0:0:0:
13,263,63826,54,0,P|148:265|261:341,1,275,2|2,0:0|0:3,0:0:0:0:
303,376,64726,2,0,P|357:359|361:300,1,110,10|4,0:0|1:0,0:0:0:0:
461,350,74626,54,2,B|425:320|425:320|447:204,1,165,6|4,1:0|1:0,1:0:0:0:
176,247,75826,2,0,B|197:139,1,110,4|0,1:0|0:0,0:0:0:0:
210,85,76276,1,4,1:0:0:0:
364,27,76726,1,2,0:1:0:0:
433,112,77026,86,2,L|409:277,1,165,6|6,1:0|1:0,1:0:0:0:
278,375,77926,1,8,0:0:0:0:
195,302,78226,2,2,L|85:314,1,110,6|0,1:0|1:0,1:0:0:0:
46,352,78676,1,2,1:0:0:0:
19,245,78976,1,2,1:2:0:0:
132,125,79426,38,0,L|143:71,1,55,4|0,1:0|1:0,0:0:0:0:
223,215,80026,2,0,L|211:268,1,55,4|0,1:0|1:0,0:0:0:0:
302,131,80626,2,0,L|313:77,1,55,4|0,1:0|1:0,0:0:0:0:
393,221,81226,2,0,L|381:274,1,55,4|0,1:0|1:0,0:0:0:0:
256,192,81826,12,2,83026,1:2:0:0:
216,19,83926,101,8,0:0:0:0:
98,73,84226,102,0,P|57:54|13:46,2,90.7500027694703,6|2|2,1:2|0:0|0:0,0:0:0:0:
174,175,84976,1,2,0:0:0:0:
174,175,85126,2,0,L|184:245,1,60.5000018463135,10|2,1:2|0:0,0:0:0:0:
147,285,85426,2,0,P|140:329|127:373,2,90.7500027694703,2|2|2,1:0|0:1|0:1,0:0:0:0:
272,303,86176,1,2,0:0:0:0:
272,303,86326,2,0,L|336:318,1,60.5000018463135,10|2,1:2|0:0,0:0:0:0:
378,278,86626,70,0,P|418:256|462:249,2,90.7500027694703,2|2|2,1:2|0:0|0:0,0:0:0:0:
349,224,87226,2,0,P|308:202|264:195,2,90.7500027694703,2|2|0,1:2|0:0|0:0,0:0:0:0:
389,178,87826,2,0,P|410:89|428:0,2,181.500005538941,2|2|10,1:2|0:0|1:2,0:0:0:0:
277,223,89026,38,0,P|233:208|189:198,2,90.7500027694703,2|2|2,1:2|0:0|0:0,0:0:0:0:
316,268,89626,1,2,1:2:0:0:
405,186,89926,1,10,1:2:0:0:
325,94,90226,2,0,P|281:79|237:69,2,90.7500027694703,2|2|2,1:0|0:1|0:1,0:0:0:0:
374,58,90826,1,2,1:2:0:0:
446,154,91126,1,10,1:2:0:0:
408,269,91426,70,0,P|319:279|236:316,1,181.500005538941,2|2,1:0|0:0,0:0:0:0:
184,349,92026,2,0,P|103:339|109:257,1,181.500005538941,2|2,1:0|0:0,0:0:0:0:
156,218,92626,1,2,1:0:0:0:
55,150,92926,1,10,1:0:0:0:
55,150,93076,2,2,P|42:90|30:31,1,121.000003692627,2|0,0:1|0:0,1:0:0:0:
83,2,93526,2,0,P|140:17|200:31,1,121.000003692627,0|0,1:0|1:0,0:0:0:0:
260,142,94126,37,10,1:2:0:0:
260,142,94276,2,0,P|315:119|375:110,1,121.000003692627,2|2,0:0|0:0,0:0:0:0:
434,96,94726,1,10,1:2:0:0:
485,205,95026,2,0,P|494:249|510:291,2,90.7500027694703,2|2|2,1:0|0:1|0:1,0:0:0:0:
377,256,95776,1,2,0:0:0:0:
377,255,95926,1,10,1:2:0:0:
280,181,96226,70,0,P|270:137|262:92,2,90.7500027694703,2|2|2,1:2|0:0|0:0,0:0:0:0:
233,220,96826,2,0,P|223:264|215:309,2,90.7500027694703,2|2|2,1:2|0:0|0:0,0:0:0:0:
189,177,97426,2,0,P|179:132|171:87,2,90.7500027694703,2|2|2,1:2|0:0|0:0,0:0:0:0:
142,215,98026,1,2,1:2:0:0:
31,165,98326,1,10,1:2:0:0:
34,44,98626,70,0,P|91:63|149:81,1,121.000003692627,2|0,1:0|1:0,0:0:0:0:
198,45,99076,1,0,1:0:0:0:
198,45,99226,1,8,1:2:0:0:
291,273,99826,85,2,1:0:0:0:
291,273,99976,2,0,L|349:256,2,60.5000018463135,0|0|0,1:0|1:0|1:0,0:0:0:0:
255,322,100426,1,8,1:2:0:0:
81,152,101026,70,0,P|94:93|103:34,1,121.000003692627,0|2,0:0|1:2,0:0:0:0:
222,56,101626,2,0,P|212:115|199:174,1,121.000003692627,0|2,1:0|1:2,0:0:0:0:
296,247,102226,85,4,1:0:0:0:
383,224,102451,1,4,1:0:0:0:
470,201,102676,2,0,L|487:109,2,90.7500027694703,4|4|0,1:0|1:0|1:0,0:0:0:0:
443,308,103426,86,2,L|282:344,1,165,6|4,1:0|1:0,1:0:0:0:
386,89,104626,2,0,L|278:113,1,110,4|0,1:0|0:0,0:0:0:0:
225,128,105076,1,4,1:0:0:0:
102,17,105526,1,0,0:0:0:0:
18,88,105826,54,0,P|49:165|54:247,1,165,4|4,1:0|1:0,0:0:0:0:
306,357,107026,2,0,P|294:303|287:248,1,110,4|0,1:0|1:0,0:0:0:0:
307,197,107476,1,4,1:0:0:0:
210,144,107776,1,0,1:0:0:0:
331,32,108226,22,0,P|384:43|438:54,2,110,0|0|0,1:0|1:0|1:0,0:0:0:0:
234,84,109126,1,4,1:0:0:0:
308,164,109426,2,0,P|361:175|415:186,2,110,0|0|0,1:0|1:0|1:0,0:0:0:0:
211,216,110326,1,2,0:0:0:0:
256,192,110626,12,4,111826,1:0:0:0:
372,281,112726,85,8,0:0:0:0:
281,342,113026,2,2,P|226:332|172:323,1,110,2|0,1:0|0:0,1:0:0:0:
116,229,113626,38,0,L|35:211,2,82.5,4|2|2,1:0|0:0|0:0,0:0:0:0:
158,194,114226,2,0,B|191:150|191:150|164:101,1,110,2|8,1:3|1:0,0:0:0:0:
250,33,114826,2,0,L|364:57,1,110,2|8,1:0|1:0,0:0:0:0:
436,140,115426,69,0,1:0:0:0:
436,140,115576,2,0,L|490:131,2,55,2|10|2,0:1|1:0|0:1,0:0:0:0:
399,180,116026,2,0,P|379:232|370:286,2,110,2|10|2,1:3|1:3|1:3,0:0:0:0:
320,102,116926,2,0,P|309:62|304:21,2,82.5,0|0|0,1:0|1:0|1:0,0:0:0:0:
289,147,117526,1,10,0:1:0:0:
151,55,117976,117,0,1:0:0:0:
151,55,118126,1,8,1:0:0:0:
62,119,118426,2,0,P|46:172|41:227,1,110,2|10,1:2|1:2,0:0:0:0:
141,272,119026,2,0,P|145:217|161:164,1,110,2|10,1:2|1:2,0:0:0:0:
246,94,119626,1,2,1:3:0:0:
324,170,119926,1,10,1:0:0:0:
256,257,120226,22,0,L|148:279,1,110,4|8,1:0|1:2,0:0:0:0:
208,371,120826,2,0,L|315:348,1,110,2|10,1:2|1:2,0:0:0:0:
392,270,121426,21,4,1:0:0:0:
407,188,121651,1,4,1:0:0:0:
423,107,121876,2,0,L|407:19,2,82.5,4|4|8,1:0|1:0|0:0,0:0:0:0:
486,196,122626,53,2,1:0:0:0:
280,274,123226,1,4,1:0:0:0:
457,379,123826,2,0,P|505:355|514:303,2,110,4|0|0,1:0|0:0|0:0,0:0:0:0:
372,310,124726,1,8,0:0:0:0:
434,219,125026,54,0,P|447:165|457:111,1,110,0|10,1:0|1:2,0:0:0:0:
360,59,125626,2,0,P|349:113|336:166,1,110,2|10,1:0|1:0,0:0:0:0:
259,244,126226,1,0,1:0:0:0:
259,244,126376,1,0,1:0:0:0:
259,244,126526,1,8,1:2:0:0:
181,166,126826,2,0,P|128:148|74:150,1,110,0|0,1:0|1:0,0:0:0:0:
25,51,127426,70,2,P|149:46|243:74,1,220,2|8,1:0|1:2,1:0:0:0:
339,25,128326,2,2,B|325:103|390:142|397:121|462:162|440:259,1,275,2|0,1:0|1:0,1:0:0:0:
463,310,129226,2,0,P|422:316|382:326,1,82.5,8|10,1:2|1:0,0:0:0:0:
287,226,129826,22,0,L|299:144,2,82.5,8|8|8,1:0|1:0|1:0,0:0:0:0:
250,267,130426,2,0,L|262:348,2,82.5,8|8|8,1:0|1:0|1:0,0:0:0:0:
205,234,131026,70,0,B|162:211|162:211|146:86|146:86|104:68,1,220,8|2,1:0|0:3,1:0:0:0:
64,29,131776,2,0,L|11:14,2,55,2|2|2,0:3|0:3|0:3,0:0:0:0:
117,15,132226,53,4,1:0:0:0:
256,192,132301,12,0,139426,0:0:0:0:
